osu file format v14

[General]
AudioFilename: audio.mp3
AudioLeadIn: 0
PreviewTime: 64195
Countdown: 0
SampleSet: Soft
StackLeniency: 0.7
Mode: 3
LetterboxInBreaks: 0
SpecialStyle: 0
WidescreenStoryboard: 0

[Editor]
DistanceSpacing: 0.8
BeatDivisor: 4
GridSize: 32
TimelineZoom: 1.4

[Metadata]
Title:One Way Street
TitleUnicode:One Way Street
Artist:siqlo
ArtistUnicode:siqlo
Creator:Dreamwalker
Version:Normal
Source:BMS
Tags:FAMoss BOFU2017 -LEGENDA EST A MYTH- Karekitsune Team White Canvas Emotional Dubstep Wobble Bass 150 Middle FRENZ2017 Video Game English
BeatmapID:1466020
BeatmapSetID:688453

[Difficulty]
HPDrainRate:6.5
CircleSize:4
OverallDifficulty:6.5
ApproachRate:5
SliderMultiplier:1.4
SliderTickRate:1

[Events]
//Background and Video events
0,0,"onewaystreetBG.jpg",0,0
//Break Periods
//Storyboard Layer 0 (Background)
//Storyboard Layer 1 (Fail)
//Storyboard Layer 2 (Pass)
//Storyboard Layer 3 (Foreground)
//Storyboard Sound Samples
Sample,24206,0,"Voice_00.wav",100
Sample,24606,0,"Voice_01.wav",100
Sample,24981,0,"Voice_02.wav",100
Sample,25181,0,"Voice_03.wav",100
Sample,25381,0,"Voice_04.wav",100
Sample,25481,0,"soft-hitclap.wav",0
Sample,25531,0,"soft-hitclap.wav",0
Sample,25581,0,"soft-hitclap.wav",0
Sample,25731,0,"soft-hitclap.wav",0
Sample,25831,0,"LR_Clap Reverb.wav",70
Sample,26231,0,"LR_Clap Reverb.wav",70
Sample,26931,0,"LR_Clap Reverb.wav",70
Sample,27431,0,"LR_Clap Reverb.wav",70
Sample,27831,0,"LR_Clap Reverb.wav",70
Sample,28531,0,"LR_Clap Reverb.wav",70
Sample,28731,0,"LR_Clap Reverb.wav",70
Sample,29031,0,"LR_Clap Reverb.wav",70
Sample,29431,0,"LR_Clap Reverb.wav",70
Sample,29831,0,"LR_Clap Reverb.wav",70
Sample,30131,0,"LR_Clap Reverb.wav",70
Sample,30431,0,"LR_Clap Reverb.wav",70
Sample,30631,0,"LR_Clap Reverb.wav",70
Sample,31031,0,"LR_Clap Reverb.wav",70
Sample,31431,0,"LR_Clap Reverb.wav",70
Sample,31631,0,"LR_Clap Reverb.wav",70
Sample,31831,0,"LR3_Snare FCSRL.wav",55
Sample,32231,0,"LR_Clap Reverb.wav",70
Sample,32631,0,"LR_Clap Reverb.wav",70
Sample,33031,0,"LR_Clap Reverb.wav",70
Sample,33831,0,"LR_Clap Reverb.wav",70
Sample,34231,0,"LR_Clap Reverb.wav",70
Sample,34631,0,"LR_Clap Reverb.wav",70
Sample,34731,0,"soft-hitclap.wav",0
Sample,34931,0,"soft-hitclap.wav",0
Sample,34931,0,"LR_Clap Reverb.wav",70
Sample,35431,0,"LR_Clap Reverb.wav",70
Sample,35531,0,"soft-hitclap.wav",0
Sample,35731,0,"soft-hitclap.wav",0
Sample,35831,0,"LR_Clap Reverb.wav",70
Sample,35931,0,"soft-hitclap.wav",0
Sample,36131,0,"soft-hitclap.wav",0
Sample,36231,0,"LR_Clap Reverb.wav",70
Sample,36331,0,"soft-hitclap.wav",0
Sample,36531,0,"soft-hitclap.wav",0
Sample,36531,0,"LR_Clap Reverb.wav",70
Sample,47131,0,"soft-hitwhistle.wav",0
Sample,62531,0,"soft-hitclap.wav",24
Sample,62731,0,"soft-hitclap.wav",29
Sample,62931,0,"soft-hitclap.wav",32
Sample,63131,0,"soft-hitclap.wav",36
Sample,63331,0,"soft-hitclap.wav",40
Sample,64231,0,"Piano_Chord_082.wav",100
Sample,64231,0,"Piano_Chord_058.wav",100
Sample,64231,0,"Piano_Chord_139.wav",100
Sample,65831,0,"Piano_Chord_099.wav",100
Sample,65831,0,"Piano_Chord_165.wav",100
Sample,67297,0,"Piano_Chord_145.wav",100
Sample,67364,0,"Piano_Chord_145.wav",100
Sample,67431,0,"Piano_Chord_026.wav",100
Sample,67431,0,"Piano_Chord_124.wav",100
Sample,69031,0,"Piano_Chord_074.wav",100
Sample,69031,0,"Piano_Chord_112.wav",100
Sample,69597,0,"Piano_Chord_163.wav",100
Sample,70031,0,"Piano_Chord_087.wav",100
Sample,70031,0,"Piano_Chord_126.wav",100
Sample,70631,0,"Piano_Chord_058.wav",100
Sample,70631,0,"Piano_Chord_159.wav",100
Sample,72231,0,"Piano_Chord_164.wav",100
Sample,72231,0,"Piano_Chord_126.wav",100
Sample,72931,0,"Piano_Chord_166.wav",100
Sample,73031,0,"Piano_Chord_028.wav",100
Sample,73031,0,"Piano_Chord_172.wav",100
Sample,73831,0,"Piano_Chord_066.wav",100
Sample,73831,0,"Piano_Chord_138.wav",100
Sample,75481,0,"Piano_Chord_048.wav",100
Sample,75531,0,"Piano_Chord_083.wav",100
Sample,75564,0,"Piano_Chord_113.wav",100
Sample,76431,0,"Piano_Chord_012.wav",100
Sample,76431,0,"Piano_Chord_087.wav",100
Sample,77031,0,"Piano_Chord_081.wav",100
Sample,77031,0,"Piano_Chord_146.wav",100
Sample,78631,0,"Piano_Chord_044.wav",100
Sample,78631,0,"Piano_Chord_098.wav",100
Sample,79431,0,"Piano_Chord_114.wav",100
Sample,80231,0,"Piano_Chord_055.wav",100
Sample,80231,0,"Piano_Chord_079.wav",100
Sample,81831,0,"Piano_Chord_047.wav",100
Sample,81831,0,"Piano_Chord_111.wav",100
Sample,82831,0,"Piano_Chord_127.wav",100
Sample,82831,0,"Piano_Chord_061.wav",100
Sample,82831,0,"Piano_Chord_086.wav",100
Sample,83431,0,"Piano_Chord_057.wav",100
Sample,83431,0,"Piano_Chord_080.wav",100
Sample,85031,0,"Piano_Chord_125.wav",100
Sample,85031,0,"Piano_Chord_004.wav",100
Sample,85831,0,"LR_Clap Reverb.wav",70
Sample,85831,0,"Piano_Chord_027.wav",100
Sample,85831,0,"Piano_Chord_147.wav",100
Sample,85931,0,"soft-hitclap.wav",18
Sample,86131,0,"soft-hitclap.wav",20
Sample,86231,0,"LR_Clap Reverb.wav",70
Sample,86331,0,"soft-hitclap.wav",22
Sample,86531,0,"soft-hitclap.wav",24
Sample,86631,0,"LR_Clap Reverb.wav",70
Sample,86631,0,"Piano_Chord_137.wav",100
Sample,86631,0,"Piano_Chord_019.wav",100
Sample,86731,0,"soft-hitclap.wav",26
Sample,86931,0,"soft-hitclap.wav",28
Sample,87031,0,"LR_Clap Reverb.wav",70
Sample,87131,0,"soft-hitclap.wav",30
Sample,87331,0,"soft-hitclap.wav",32
Sample,87431,0,"LR_Clap Reverb.wav",70
Sample,87531,0,"soft-hitclap.wav",34
Sample,87731,0,"soft-hitclap.wav",36
Sample,87831,0,"LR_Clap Reverb.wav",70
Sample,87931,0,"soft-hitclap.wav",38
Sample,88131,0,"soft-hitclap.wav",40
Sample,108231,0,"soft-hitwhistle.wav",0
Sample,121031,0,"soft-hitwhistle.wav",0
Sample,128231,0,"Piano_Chord_043.wav",100
Sample,128231,0,"Piano_Chord_017.wav",100
Sample,129831,0,"Piano_Chord_013.wav",100
Sample,131431,0,"Piano_Chord_132.wav",100
Sample,133031,0,"Piano_Chord_134.wav",100
Sample,134031,0,"Piano_Chord_142.wav",100
Sample,134631,0,"Piano_Chord_152.wav",100
Sample,136231,0,"Piano_Chord_014.wav",100
Sample,137031,0,"Piano_Chord_156.wav",100
Sample,137831,0,"Piano_Chord_133.wav",100
Sample,139431,0,"Piano_Chord_153.wav",100
Sample,141031,0,"Piano_Chord_063.wav",100
Sample,141031,0,"Piano_Chord_091.wav",100

[TimingPoints]
231,400,4,2,2,50,1,0
13031,-100,4,2,1,50,0,0
39431,-100,4,2,1,50,0,1
49031,-100,4,2,1,50,0,0
65031,-100,4,2,1,20,0,0
77031,-100,4,2,1,30,0,0
85831,-100,4,2,1,40,0,0
86631,-100,4,2,1,43,0,0
87431,-100,4,2,1,46,0,0
88231,-100,4,2,1,50,0,0
102631,-100,4,2,1,50,0,1
128231,-100,4,2,1,50,0,0
128331,-100,4,2,3,50,0,0

[HitObjects]
192,192,231,5,0,0:0:0:0:
448,192,431,1,0,0:0:0:0:
192,192,631,1,0,0:0:0:0:
448,192,831,1,0,0:0:0:0:
192,192,1031,1,0,0:0:0:0:
448,192,1231,1,0,0:0:0:0:
192,192,1431,1,0,0:0:0:0:
448,192,1631,1,0,0:0:0:0:
64,192,1831,1,0,0:0:0:0:
320,192,2031,1,0,0:0:0:0:
64,192,2231,1,0,0:0:0:0:
320,192,2431,1,0,0:0:0:0:
64,192,2631,1,0,0:0:0:0:
320,192,2831,1,0,0:0:0:0:
64,192,3031,1,0,0:0:0:0:
320,192,3231,1,0,0:0:0:0:
64,192,3431,1,0,0:0:0:0:
448,192,3631,1,0,0:0:0:0:
64,192,3831,1,0,0:0:0:0:
448,192,4031,1,0,0:0:0:0:
64,192,4231,1,0,0:0:0:0:
448,192,4431,1,0,0:0:0:0:
64,192,4631,1,0,0:0:0:0:
448,192,4831,1,0,0:0:0:0:
192,192,5031,1,0,0:0:0:0:
320,192,5231,1,0,0:0:0:0:
192,192,5431,1,0,0:0:0:0:
320,192,5631,1,0,0:0:0:0:
64,192,5831,1,0,0:0:0:0:
448,192,6031,1,0,0:0:0:0:
64,192,6231,128,0,6631:0:0:0:0:
320,192,6431,1,0,0:0:0:0:
192,192,6631,1,0,0:0:0:0:
448,192,6831,1,0,0:0:0:0:
192,192,7031,1,0,0:0:0:0:
448,192,7231,1,0,0:0:0:0:
192,192,7431,1,0,0:0:0:0:
448,192,7631,1,0,0:0:0:0:
192,192,7831,1,0,0:0:0:0:
448,192,8031,1,0,0:0:0:0:
320,192,8231,1,0,0:0:0:0:
64,192,8431,1,0,0:0:0:0:
320,192,8631,1,0,0:0:0:0:
64,192,8831,1,0,0:0:0:0:
320,192,9031,1,0,0:0:0:0:
64,192,9231,1,0,0:0:0:0:
320,192,9431,1,0,0:0:0:0:
64,192,9631,1,0,0:0:0:0:
192,192,9831,1,0,0:0:0:0:
448,192,10031,1,0,0:0:0:0:
192,192,10231,1,0,0:0:0:0:
448,192,10431,1,0,0:0:0:0:
192,192,10631,1,0,0:0:0:0:
448,192,10831,1,0,0:0:0:0:
192,192,11031,1,0,0:0:0:0:
448,192,11231,1,0,0:0:0:0:
320,192,11431,1,0,0:0:0:0:
64,192,11631,1,0,0:0:0:0:
320,192,11831,1,0,0:0:0:0:
64,192,12031,1,0,0:0:0:0:
320,192,12231,1,0,0:0:0:0:
64,192,12431,1,0,0:0:0:0:
320,192,12631,1,0,0:0:0:0:
448,192,12831,1,0,0:0:0:0:
64,192,13031,128,2,13231:0:0:0:0:
192,192,13031,1,4,0:0:0:0:
320,192,13231,128,0,13431:0:0:0:0:
448,192,13431,128,0,13631:0:0:0:0:
320,192,13631,128,0,13831:0:0:0:0:
192,192,13831,128,0,14031:0:0:0:0:
64,192,14031,128,0,14231:0:0:0:0:
320,192,14231,128,0,14431:0:0:0:0:
192,192,14431,128,0,15031:0:0:0:0:
448,192,14631,1,8,0:0:0:0:
448,192,15031,128,0,15231:0:0:0:0:
192,192,15231,128,0,15431:0:0:0:0:
320,192,15431,128,0,15631:0:0:0:0:
64,192,15631,128,0,15831:0:0:0:0:
192,192,15831,128,0,16031:0:0:0:0:
448,192,16031,128,0,16231:0:0:0:0:
64,192,16231,128,2,16631:0:0:0:0:
192,192,16231,1,0,0:0:0:0:
448,192,16631,128,0,17031:0:0:0:0:
192,192,17031,128,0,17431:0:0:0:0:
320,192,17431,128,0,17631:0:0:0:0:
192,192,17631,128,0,18031:0:0:0:0:
448,192,17831,1,8,0:0:0:0:
64,192,18031,128,0,18231:0:0:0:0:
320,192,18231,128,0,18431:0:0:0:0:
192,192,18431,128,0,18631:0:0:0:0:
448,192,18631,128,0,18831:0:0:0:0:
320,192,18831,128,0,19031:0:0:0:0:
64,192,19031,128,0,19231:0:0:0:0:
192,192,19231,128,0,19631:0:0:0:0:
448,192,19431,1,2,0:0:0:0:
448,192,19831,128,0,20031:0:0:0:0:
192,192,20031,128,0,20231:0:0:0:0:
64,192,20231,128,0,20431:0:0:0:0:
320,192,20431,128,0,20631:0:0:0:0:
448,192,20631,128,0,20831:0:0:0:0:
64,192,20831,128,0,21231:0:0:0:0:
320,192,21031,1,8,0:0:0:0:
192,192,21231,128,0,21431:0:0:0:0:
320,192,21431,128,0,21631:0:0:0:0:
64,192,21631,128,0,21831:0:0:0:0:
448,192,21831,128,0,22231:0:0:0:0:
320,192,22231,128,0,22631:0:0:0:0:
64,192,22631,1,2,0:0:0:0:
192,192,22631,128,0,23031:0:0:0:0:
64,192,23031,128,0,23431:0:0:0:0:
320,192,23431,128,0,23631:0:0:0:0:
448,192,23631,128,0,23831:0:0:0:0:
64,192,23831,128,0,24031:0:0:0:0:
192,192,24031,128,0,24231:0:0:0:0:
320,192,24231,1,8,0:0:0:0:
448,192,24231,128,0,24631:0:0:0:0:
64,192,24631,128,2,25031:0:0:0:0:
320,192,25031,1,2,0:0:0:0:
192,192,25231,1,2,0:0:0:0:
448,192,25431,128,8,25631:0:0:0:0:
64,192,25631,128,8,25831:0:0:0:0:
320,192,25831,1,8,0:0:0:0:
320,192,26231,1,8,0:0:0:0:
64,192,26631,128,8,27031:0:0:0:0:
192,192,26631,1,0,0:0:0:70:LR_Clap Reverb.wav
320,192,27031,128,8,27231:0:0:0:0:
448,192,27031,1,0,0:0:0:0:
192,192,27231,128,0,27431:0:0:0:70:LR_Clap Reverb.wav
448,192,27431,1,8,0:0:0:0:
448,192,27831,1,8,0:0:0:0:
64,192,28231,1,8,0:0:0:0:
320,192,28231,128,0,28631:0:0:0:70:LR_Clap Reverb.wav
64,192,28631,128,8,28831:0:0:0:0:
448,192,28831,128,8,29031:0:0:0:0:
192,192,29031,1,8,0:0:0:0:
192,192,29431,1,8,0:0:0:0:
448,192,29831,1,8,0:0:0:0:
448,192,30231,128,8,30431:0:0:0:0:
192,192,30631,1,8,0:0:0:0:
64,192,31031,1,8,0:0:0:0:
192,192,31231,1,8,0:0:0:0:
448,192,31431,1,8,0:0:0:0:
320,192,31531,1,8,0:0:0:0:
64,192,31731,1,8,0:0:0:0:
192,192,31831,1,8,0:0:0:0:
192,192,32231,1,12,0:0:0:0:
448,192,32431,1,8,0:0:0:0:
192,192,32631,1,8,0:0:0:0:
448,192,32831,1,8,0:0:0:0:
192,192,33031,1,8,0:0:0:0:
64,192,33231,128,6,33431:0:0:0:0:
448,192,33431,128,0,33631:0:0:0:0:
320,192,33631,128,0,33831:0:0:0:0:
64,192,33831,1,12,0:0:0:0:
320,192,34031,1,8,0:0:0:0:
64,192,34231,1,8,0:0:0:0:
320,192,34431,1,8,0:0:0:0:
64,192,34631,128,8,34831:0:0:0:0:
320,192,34831,128,8,35031:0:0:0:0:
448,192,35031,128,6,35431:0:0:0:0:
64,192,35431,128,12,35631:0:0:0:0:
448,192,35631,128,8,35831:0:0:0:0:
64,192,35831,128,8,36031:0:0:0:0:
448,192,36031,128,8,36231:0:0:0:0:
64,192,36231,128,8,36431:0:0:0:0:
448,192,36431,128,8,36631:0:0:0:0:
192,192,36631,1,6,0:0:0:0:
192,192,36831,128,0,37031:0:0:0:0:
448,192,37031,1,0,0:0:0:0:
64,192,37231,1,0,0:0:0:0:
192,192,37431,1,0,0:0:0:0:
320,192,37631,1,0,0:0:0:0:
448,192,37831,128,0,38631:0:0:0:0:
64,192,38631,1,0,0:0:0:100:Wobble1.wav
320,192,39031,1,0,0:0:0:70:LR_Clap Reverb.wav
64,192,39231,1,2,0:0:0:0:
320,192,39431,128,8,39631:0:0:0:0:
192,192,39631,128,0,39831:0:0:0:0:
448,192,39831,128,0,40031:0:0:0:0:
192,192,40031,128,0,40231:0:0:0:0:
448,192,40231,1,6,0:0:0:0:
320,192,40331,1,0,0:0:0:0:
64,192,40531,1,0,0:0:0:0:
192,192,40631,1,0,0:0:0:0:
448,192,40831,128,0,41031:0:0:0:0:
64,192,41031,1,8,0:0:0:0:
192,192,41131,1,0,0:0:0:0:
448,192,41331,1,0,0:0:0:0:
320,192,41431,1,0,0:0:0:0:
64,192,41631,128,0,41831:0:0:0:0:
448,192,41831,1,2,0:0:0:0:
320,192,42031,128,2,42231:0:0:0:0:
192,192,42231,1,0,0:0:0:0:
320,192,42431,128,0,42631:0:0:0:0:
64,192,42631,128,8,42831:0:0:0:0:
192,192,42831,128,0,43031:0:0:0:0:
448,192,43031,128,0,43431:0:0:0:0:
64,192,43431,1,6,0:0:0:0:
192,192,43631,128,0,43831:0:0:0:0:
448,192,43831,128,0,44031:0:0:0:0:
64,192,44031,128,2,44231:0:0:0:0:
320,192,44231,128,8,44431:0:0:0:0:
64,192,44431,128,0,44631:0:0:0:0:
448,192,44631,128,0,44831:0:0:0:0:
320,192,44831,1,2,0:0:0:0:
64,192,45031,128,2,45431:0:0:0:0:
192,192,45031,1,0,0:0:0:0:
448,192,45431,128,0,45631:0:0:0:0:
192,192,45631,1,0,0:0:0:0:
64,192,45831,128,8,46031:0:0:0:0:
320,192,45831,1,0,0:0:0:0:
192,192,46031,128,0,46231:0:0:0:0:
448,192,46231,1,0,0:0:0:0:
192,192,46431,128,0,46631:0:0:0:0:
64,192,46631,1,2,0:0:0:0:
448,192,46631,128,0,46831:0:0:0:0:
320,192,46831,128,0,47031:0:0:0:0:
192,192,47031,1,0,0:0:0:0:
64,192,47231,128,0,47431:0:0:0:0:
448,192,47431,1,8,0:0:0:0:
320,192,47531,1,2,0:0:0:0:
64,192,47731,1,8,0:0:0:0:
192,192,47931,1,2,0:0:0:0:
320,192,48031,1,8,0:0:0:0:
448,192,48231,128,2,48431:0:0:0:0:
192,192,48431,128,0,48631:0:0:0:0:
320,192,48631,128,0,48831:0:0:0:0:
64,192,48831,128,0,49031:0:0:0:0:
448,192,49031,1,0,0:0:0:100:Wobble2.wav
64,192,49831,1,4,0:0:0:0:
320,192,49831,128,0,50231:0:0:0:55:LR3_Snare FCSRL.wav
448,192,50231,128,0,50631:0:0:0:0:
64,192,50631,1,6,0:0:0:0:
192,192,50831,1,0,0:0:0:0:
320,192,51031,1,8,0:0:0:0:
448,192,51231,1,8,0:0:0:0:
64,192,51431,1,2,0:0:0:0:
192,192,51431,1,4,0:0:0:0:
64,192,51831,128,0,52231:0:0:0:70:LR_Clap Reverb.wav
192,192,51831,128,0,52231:0:0:0:0:
320,192,52231,1,2,0:0:0:0:
448,192,52231,1,4,0:0:0:0:
320,192,52631,128,0,53031:0:0:0:70:LR_Clap Reverb.wav
448,192,52631,128,0,53031:0:0:0:0:
64,192,53031,1,2,0:0:0:0:
192,192,53031,1,4,0:0:0:0:
320,192,53431,1,0,0:0:0:70:LR_Clap Reverb.wav
448,192,53631,1,0,0:0:0:0:
64,192,53831,128,2,54631:0:0:0:0:
192,192,53831,1,4,0:0:0:0:
448,192,54031,1,0,0:0:0:0:
320,192,54231,1,8,0:0:0:0:
320,192,54631,1,4,0:0:0:0:
448,192,54631,1,2,0:0:0:0:
64,192,55031,128,0,55431:0:0:0:70:LR_Clap Reverb.wav
320,192,55031,128,0,55431:0:0:0:0:
192,192,55431,1,2,0:0:0:0:
448,192,55431,1,4,0:0:0:0:
192,192,55831,128,0,56231:0:0:0:70:LR_Clap Reverb.wav
448,192,55831,128,0,56231:0:0:0:0:
64,192,56231,1,0,0:0:0:100:Kick_HardStyle_000.wav
320,192,56231,1,0,0:0:0:0:
64,192,56631,1,8,0:0:0:0:
192,192,56831,1,0,0:0:0:100:Kick_HardStyle_001.wav
448,192,56831,1,0,0:0:0:0:
448,192,57231,1,8,0:0:0:0:
64,192,57431,1,0,0:0:0:100:Kick_HardStyle_000.wav
320,192,57431,1,0,0:0:0:0:
64,192,57831,1,2,0:0:0:0:
448,192,57831,1,4,0:0:0:20:
192,192,58031,1,0,0:0:0:0:
448,192,58231,1,0,0:0:0:0:
192,192,58431,1,0,0:0:0:0:
448,192,58631,1,0,0:0:0:0:
192,192,58831,1,0,0:0:0:0:
448,192,59031,1,0,0:0:0:0:
192,192,59231,1,0,0:0:0:0:
64,192,59431,1,0,0:0:0:0:
320,192,59631,1,0,0:0:0:0:
64,192,59831,1,0,0:0:0:0:
320,192,60031,1,0,0:0:0:0:
64,192,60231,128,0,61031:0:0:0:0:
448,192,60231,1,0,0:0:0:0:
192,192,61031,1,0,0:0:0:0:
448,192,61231,1,0,0:0:0:0:
192,192,61431,1,0,0:0:0:0:
448,192,61631,1,0,0:0:0:0:
192,192,61831,1,0,0:0:0:0:
448,192,62031,1,0,0:0:0:0:
192,192,62231,1,0,0:0:0:0:
64,192,62431,128,8,62631:0:0:0:23:
448,192,62631,128,8,62831:0:0:0:26:
192,192,62831,128,8,63031:0:0:0:30:
320,192,63031,128,8,63231:0:0:0:34:
64,192,63231,128,8,63431:0:0:0:38:
192,192,63431,1,6,0:0:0:0:
320,192,63631,128,0,64231:0:0:0:0:
448,192,63631,128,0,64231:0:0:0:0:
64,192,64231,1,6,0:0:0:0:
448,192,65031,1,0,0:0:0:100:Piano_Chord_171.wav
320,192,65231,1,0,0:0:0:100:Piano_Chord_167.wav
192,192,65431,1,0,0:0:0:100:Piano_Chord_158.wav
64,192,65631,1,0,0:0:0:100:Piano_Chord_161.wav
448,192,65831,1,0,0:0:0:100:Piano_Chord_046.wav
64,192,66031,1,0,0:0:0:100:Piano_Chord_141.wav
320,192,66431,1,0,0:0:0:100:Piano_Chord_157.wav
64,192,66831,1,0,0:0:0:100:Piano_Chord_143.wav
192,192,67231,1,0,0:0:0:100:Piano_Chord_136.wav
320,192,67331,1,0,0:0:0:100:Piano_Chord_151.wav
64,192,67431,1,0,0:0:0:100:Piano_Chord_058.wav
320,192,67631,1,0,0:0:0:100:Piano_Chord_128.wav
192,192,67831,1,0,0:0:0:100:Piano_Chord_118.wav
448,192,68031,1,0,0:0:0:100:Piano_Chord_174.wav
320,192,68231,1,0,0:0:0:100:Piano_Chord_173.wav
64,192,68431,1,0,0:0:0:100:Piano_Chord_160.wav
64,192,68831,1,0,0:0:0:100:Piano_Chord_141.wav
320,192,69031,1,0,0:0:0:100:Piano_Chord_022.wav
192,192,69431,1,0,0:0:0:100:Piano_Chord_130.wav
448,192,69631,1,0,0:0:0:100:Piano_Chord_164.wav
448,192,70031,1,0,0:0:0:100:Piano_Chord_016.wav
320,192,70231,1,0,0:0:0:100:Piano_Chord_170.wav
64,192,70631,1,0,0:0:0:100:Piano_Chord_026.wav
64,192,71231,1,0,0:0:0:100:Piano_Chord_145.wav
448,192,71331,1,0,0:0:0:100:Piano_Chord_162.wav
320,192,71431,1,0,0:0:0:100:Piano_Chord_169.wav
64,192,72031,1,0,0:0:0:100:Piano_Chord_145.wav
192,192,72131,1,0,0:0:0:100:Piano_Chord_162.wav
448,192,72231,1,0,0:0:0:100:Piano_Chord_005.wav
192,192,72831,1,0,0:0:0:100:Piano_Chord_145.wav
448,192,73031,1,0,0:0:0:100:Piano_Chord_085.wav
320,192,73431,1,0,0:0:0:100:Piano_Chord_165.wav
64,192,73831,1,0,0:0:0:100:Piano_Chord_020.wav
192,192,74031,1,0,0:0:0:100:Piano_Chord_154.wav
192,192,74431,1,0,0:0:0:100:Piano_Chord_154.wav
192,192,75031,1,0,0:0:0:100:Piano_Chord_103.wav
320,192,75131,1,0,0:0:0:0:
64,192,75431,1,0,0:0:0:100:Piano_Chord_010.wav
192,192,75831,1,0,0:0:0:0:
448,192,76031,1,0,0:0:0:100:Piano_Chord_128.wav
192,192,76464,1,0,0:0:0:100:Piano_Chord_150.wav
320,192,76631,1,0,0:0:0:100:Piano_Chord_154.wav
64,192,77031,1,0,0:0:0:70:LR_Clap Reverb.wav
448,192,77031,128,0,78631:0:0:0:100:Piano_Chord_057.wav
64,192,77431,1,0,0:0:0:70:LR_Clap Reverb.wav
64,192,77831,1,0,0:0:0:70:LR_Clap Reverb.wav
64,192,78231,1,0,0:0:0:70:LR_Clap Reverb.wav
192,192,78631,128,0,80231:0:0:0:70:LR_Clap Reverb.wav
320,192,78631,1,0,0:0:0:100:Piano_Chord_070.wav
320,192,79031,1,0,0:0:0:70:LR_Clap Reverb.wav
320,192,79431,1,0,0:0:0:70:LR_Clap Reverb.wav
320,192,79831,1,0,0:0:0:70:LR_Clap Reverb.wav
64,192,80231,128,0,81831:0:0:0:70:LR_Clap Reverb.wav
448,192,80231,1,0,0:0:0:100:Piano_Chord_122.wav
448,192,80631,1,0,0:0:0:70:LR_Clap Reverb.wav
448,192,81031,1,0,0:0:0:70:LR_Clap Reverb.wav
448,192,81431,1,0,0:0:0:70:LR_Clap Reverb.wav
192,192,81831,1,0,0:0:0:70:LR_Clap Reverb.wav
320,192,81831,128,0,83431:0:0:0:100:Piano_Chord_073.wav
192,192,82231,1,0,0:0:0:70:LR_Clap Reverb.wav
192,192,82631,1,0,0:0:0:70:LR_Clap Reverb.wav
192,192,83031,1,0,0:0:0:70:LR_Clap Reverb.wav
64,192,83431,1,0,0:0:0:70:LR_Clap Reverb.wav
448,192,83431,128,0,85031:0:0:0:100:Piano_Chord_137.wav
64,192,83831,1,0,0:0:0:70:LR_Clap Reverb.wav
64,192,84231,1,0,0:0:0:70:LR_Clap Reverb.wav
64,192,84631,1,0,0:0:0:70:LR_Clap Reverb.wav
320,192,85031,1,0,0:0:0:70:LR_Clap Reverb.wav
64,192,85231,1,0,0:0:0:0:
320,192,85431,1,0,0:0:0:70:LR_Clap Reverb.wav
64,192,85631,1,0,0:0:0:0:
320,192,85831,1,8,0:0:0:17:
64,192,86031,1,8,0:0:0:19:
320,192,86231,1,8,0:0:0:21:
64,192,86431,1,8,0:0:0:23:
192,192,86631,1,8,0:0:0:25:
448,192,86831,1,8,0:0:0:27:
192,192,87031,1,8,0:0:0:29:
448,192,87231,1,8,0:0:0:31:
192,192,87431,1,8,0:0:0:33:
448,192,87631,1,8,0:0:0:35:
192,192,87831,1,8,0:0:0:37:
448,192,88031,1,8,0:0:0:39:
64,192,88231,1,6,0:0:0:0:
320,192,88231,1,0,0:0:0:55:LR3_Snare FCSRL.wav
64,192,89231,128,2,89431:0:0:0:0:
192,192,89431,1,0,0:0:0:70:LR_Clap Reverb.wav
448,192,89631,1,0,0:0:0:70:tom01.wav
320,192,89731,1,0,0:0:0:70:tom02.wav
64,192,89831,1,6,0:0:0:0:
192,192,89831,1,0,0:0:0:100:Lead_01.wav
64,192,90131,1,6,0:0:0:0:
192,192,90131,1,0,0:0:0:100:Lead_01.wav
64,192,90431,1,6,0:0:0:0:
192,192,90431,1,0,0:0:0:100:Lead_02.wav
320,192,91031,1,6,0:0:0:0:
448,192,91031,1,0,0:0:0:100:Lead_03.wav
320,192,91331,1,6,0:0:0:0:
448,192,91331,1,0,0:0:0:100:Lead_03.wav
320,192,91631,1,6,0:0:0:0:
448,192,91631,1,0,0:0:0:100:Lead_04.wav
64,192,91831,128,0,92031:0:0:0:0:
320,192,92031,1,0,0:0:0:0:
192,192,92231,1,8,0:0:0:0:
448,192,92231,128,0,92631:0:0:0:0:
64,192,92631,128,6,93031:0:0:0:0:
320,192,93031,1,2,0:0:0:0:
448,192,93231,1,0,0:0:0:0:
192,192,93431,1,0,0:0:0:0:
320,192,93631,1,2,0:0:0:0:
64,192,93831,128,8,94231:0:0:0:0:
448,192,94231,128,0,94631:0:0:0:0:
64,192,94631,1,2,0:0:0:0:
320,192,94831,1,0,0:0:0:0:
192,192,95031,1,0,0:0:0:0:
448,192,95231,1,2,0:0:0:0:
64,192,95431,128,8,95631:0:0:0:0:
192,192,95631,1,0,0:0:0:0:
448,192,95831,128,0,96031:0:0:0:0:
320,192,96031,1,0,0:0:0:0:
64,192,96231,1,2,0:0:0:0:
192,192,96231,1,0,0:0:0:0:
64,192,96631,1,2,0:0:0:0:
192,192,96631,1,0,0:0:0:0:
320,192,97031,128,8,97231:0:0:0:0:
448,192,97031,1,0,0:0:0:0:
192,192,97231,128,0,97631:0:0:0:0:
448,192,97631,128,0,97831:0:0:0:0:
64,192,97831,1,2,0:0:0:0:
192,192,98031,128,0,98431:0:0:0:0:
320,192,98431,128,0,98631:0:0:0:0:
64,192,98631,128,8,98831:0:0:0:0:
192,192,98631,1,0,0:0:0:0:
448,192,98831,128,0,99031:0:0:0:0:
192,192,99031,1,0,0:0:0:0:
192,192,99231,1,0,0:0:0:0:
64,192,99431,1,2,0:0:0:0:
448,192,99431,1,0,0:0:0:0:
64,192,99831,1,2,0:0:0:0:
448,192,99831,1,0,0:0:0:0:
448,192,100231,1,0,0:0:0:0:
64,192,101031,128,0,101231:0:0:0:70:LR_Clap Reverb.wav
192,192,101231,128,0,101431:0:0:0:0:
320,192,101431,128,0,101631:0:0:0:70:LR_Clap Reverb.wav
192,192,101631,128,0,101831:0:0:0:0:
448,192,101831,128,8,102031:0:0:0:55:LR3_Snare FCSRL.wav
320,192,102031,128,0,102231:0:0:0:70:LR_Clap Reverb.wav
192,192,102231,128,0,102431:0:0:0:70:LR_Clap Reverb.wav
64,192,102431,128,0,102631:0:0:0:70:LR_Clap Reverb.wav
320,192,102631,1,2,0:0:0:0:
448,192,102631,1,4,0:0:0:0:
192,192,102831,128,0,103031:0:0:0:0:
320,192,103031,1,8,0:0:0:0:
448,192,103031,128,0,103231:0:0:0:0:
64,192,103231,1,0,0:0:0:0:
192,192,103431,128,2,103631:0:0:0:0:
320,192,103631,128,0,103831:0:0:0:0:
64,192,103831,1,8,0:0:0:0:
448,192,103831,128,0,104231:0:0:0:0:
64,192,104231,1,2,0:0:0:0:
320,192,104431,128,0,104631:0:0:0:0:
64,192,104631,128,8,104831:0:0:0:0:
448,192,104631,1,0,0:0:0:0:
192,192,104831,128,0,105031:0:0:0:0:
448,192,105031,128,2,105231:0:0:0:0:
320,192,105231,128,0,105431:0:0:0:0:
192,192,105431,1,8,0:0:0:0:
64,192,105631,1,0,0:0:0:0:
320,192,105831,1,2,0:0:0:0:
448,192,106031,128,0,106231:0:0:0:0:
64,192,106231,1,8,0:0:0:0:
192,192,106231,128,0,106431:0:0:0:0:
320,192,106431,128,0,106631:0:0:0:0:
64,192,106631,128,2,106831:0:0:0:0:
448,192,106831,128,0,107031:0:0:0:0:
192,192,107031,128,8,107231:0:0:0:0:
320,192,107031,1,0,0:0:0:0:
448,192,107231,128,0,107431:0:0:0:0:
64,192,107431,1,2,0:0:0:0:
320,192,107631,128,0,107831:0:0:0:0:
64,192,107831,1,8,0:0:0:0:
192,192,107931,128,0,108131:0:0:0:0:
448,192,108131,1,0,0:0:0:0:
64,192,108331,128,0,108531:0:0:0:0:
192,192,108531,1,0,0:0:0:0:
320,192,108631,1,8,0:0:0:0:
448,192,108631,128,0,108831:0:0:0:0:
192,192,108831,1,0,0:0:0:0:
448,192,109031,1,2,0:0:0:0:
192,192,109231,128,0,109431:0:0:0:0:
64,192,109431,128,8,109631:0:0:0:0:
448,192,109431,1,0,0:0:0:0:
192,192,109631,128,0,109831:0:0:0:0:
448,192,109831,128,2,110031:0:0:0:0:
192,192,110231,128,8,110431:0:0:0:0:
448,192,110231,1,0,0:0:0:0:
64,192,110431,128,0,110631:0:0:0:0:
320,192,110631,1,2,0:0:0:0:
192,192,110831,128,0,111031:0:0:0:0:
448,192,111031,1,8,0:0:0:0:
320,192,111231,128,0,111431:0:0:0:0:
64,192,111431,128,2,111631:0:0:0:0:
448,192,111631,128,0,111831:0:0:0:0:
64,192,111831,1,8,0:0:0:0:
192,192,111831,128,0,112031:0:0:0:0:
320,192,112031,128,0,112231:0:0:0:0:
64,192,112231,1,2,0:0:0:0:
448,192,112431,128,0,112631:0:0:0:0:
64,192,112631,128,8,112831:0:0:0:0:
320,192,112631,1,0,0:0:0:0:
192,192,112831,128,0,113031:0:0:0:0:
448,192,113031,128,2,113231:0:0:0:0:
64,192,113231,128,0,113431:0:0:0:0:
320,192,113431,1,8,0:0:0:0:
448,192,113431,128,0,113631:0:0:0:0:
64,192,113631,128,0,113831:0:0:0:0:
448,192,113831,1,2,0:0:0:0:
192,192,114031,128,0,114231:0:0:0:0:
64,192,114231,128,8,114831:0:0:0:0:
448,192,114231,1,0,0:0:0:0:
320,192,114631,1,2,0:0:0:0:
320,192,114831,128,8,115431:0:0:0:0:
448,192,114831,128,0,115431:0:0:0:0:
64,192,115431,1,2,0:0:0:0:
320,192,115631,128,0,115831:0:0:0:0:
64,192,115831,128,8,116031:0:0:0:0:
192,192,115831,1,0,0:0:0:0:
448,192,116031,1,0,0:0:0:0:
320,192,116231,128,2,116431:0:0:0:0:
192,192,116431,128,0,116631:0:0:0:0:
64,192,116631,128,8,117031:0:0:0:0:
448,192,116631,1,0,0:0:0:0:
448,192,117031,1,2,0:0:0:0:
192,192,117231,128,0,117431:0:0:0:0:
64,192,117431,1,8,0:0:0:0:
448,192,117431,128,0,117631:0:0:0:0:
320,192,117631,128,0,117831:0:0:0:0:
64,192,117831,128,2,118031:0:0:0:0:
192,192,118031,128,0,118231:0:0:0:0:
448,192,118231,1,8,0:0:0:0:
320,192,118431,1,0,0:0:0:0:
192,192,118631,1,2,0:0:0:0:
64,192,118831,128,0,119031:0:0:0:0:
320,192,119031,128,8,119231:0:0:0:0:
448,192,119031,1,0,0:0:0:0:
192,192,119231,128,0,119431:0:0:0:0:
448,192,119431,128,2,119631:0:0:0:0:
64,192,119631,128,0,119831:0:0:0:0:
192,192,119831,1,8,0:0:0:0:
320,192,119831,128,0,120031:0:0:0:0:
64,192,120031,128,0,120231:0:0:0:0:
448,192,120231,1,2,0:0:0:0:
192,192,120431,128,0,120631:0:0:0:0:
448,192,120631,1,8,0:0:0:0:
320,192,120731,128,0,120931:0:0:0:0:
64,192,120931,1,0,0:0:0:0:
448,192,121131,128,0,121331:0:0:0:0:
320,192,121331,1,0,0:0:0:0:
64,192,121431,128,8,121631:0:0:0:0:
192,192,121431,1,0,0:0:0:0:
320,192,121631,1,0,0:0:0:0:
64,192,121831,1,2,0:0:0:0:
320,192,122031,128,0,122231:0:0:0:0:
64,192,122231,128,8,122431:0:0:0:0:
448,192,122231,1,0,0:0:0:0:
192,192,122431,128,0,122631:0:0:0:0:
448,192,122631,128,2,122831:0:0:0:0:
64,192,123031,1,8,0:0:0:0:
320,192,123031,128,0,123231:0:0:0:0:
448,192,123231,128,0,123431:0:0:0:0:
192,192,123431,1,2,0:0:0:0:
320,192,123631,128,0,123831:0:0:0:0:
64,192,123831,1,8,0:0:0:0:
192,192,124031,128,0,124231:0:0:0:0:
448,192,124231,128,2,124431:0:0:0:0:
64,192,124431,128,0,124631:0:0:0:0:
320,192,124631,128,8,124831:0:0:0:0:
448,192,124631,1,0,0:0:0:0:
192,192,124831,128,0,125031:0:0:0:0:
448,192,125031,1,2,0:0:0:0:
64,192,125231,128,0,125431:0:0:0:0:
192,192,125431,1,8,0:0:0:0:
448,192,125431,128,0,125631:0:0:0:0:
320,192,125631,128,0,125831:0:0:0:0:
64,192,125831,128,2,126031:0:0:0:0:
448,192,126031,128,0,126231:0:0:0:0:
64,192,126231,128,8,126431:0:0:0:0:
192,192,126231,1,0,0:0:0:0:
448,192,126431,128,0,126631:0:0:0:0:
64,192,126631,1,2,0:0:0:0:
320,192,126831,128,0,127031:0:0:0:0:
64,192,127031,1,8,0:0:0:0:
448,192,127031,128,0,127631:0:0:0:0:
192,192,127431,1,2,0:0:0:0:
64,192,127631,128,8,128231:0:0:0:0:
192,192,127631,128,0,128231:0:0:0:0:
448,192,128231,1,6,0:0:0:0:
192,192,128431,1,0,0:0:0:0:
448,192,128631,1,0,0:0:0:0:
192,192,128831,1,0,0:0:0:0:
448,192,129031,1,0,0:0:0:0:
192,192,129231,1,0,0:0:0:0:
448,192,129431,1,0,0:0:0:0:
192,192,129631,1,0,0:0:0:0:
64,192,129831,1,0,0:0:0:100:Piano_Chord_152.wav
320,192,130031,1,0,0:0:0:0:
64,192,130231,1,0,0:0:0:0:
320,192,130431,1,0,0:0:0:0:
192,192,130631,1,0,0:0:0:100:Piano_Chord_135.wav
320,192,130831,1,0,0:0:0:0:
64,192,131031,1,0,0:0:0:0:
320,192,131231,1,0,0:0:0:0:
448,192,131431,1,0,0:0:0:100:Piano_Chord_007.wav
64,192,131631,1,0,0:0:0:0:
448,192,131831,1,0,0:0:0:0:
64,192,132031,1,0,0:0:0:0:
448,192,132231,1,0,0:0:0:0:
64,192,132431,1,0,0:0:0:0:
448,192,132631,1,0,0:0:0:0:
64,192,132831,1,0,0:0:0:0:
320,192,133031,1,0,0:0:0:100:Piano_Chord_018.wav
192,192,133231,1,0,0:0:0:0:
320,192,133431,1,0,0:0:0:0:
192,192,133631,1,0,0:0:0:0:
320,192,133831,1,0,0:0:0:0:
64,192,134031,1,0,0:0:0:100:Piano_Chord_023.wav
320,192,134231,1,0,0:0:0:0:
192,192,134431,1,0,0:0:0:0:
448,192,134631,1,0,0:0:0:100:Piano_Chord_017.wav
64,192,134831,1,0,0:0:0:0:
320,192,135031,1,0,0:0:0:0:
64,192,135231,1,0,0:0:0:0:
320,192,135431,1,0,0:0:0:0:
64,192,135631,1,0,0:0:0:0:
320,192,135831,1,0,0:0:0:0:
64,192,136031,1,0,0:0:0:0:
192,192,136231,1,0,0:0:0:100:Piano_Chord_147.wav
320,192,136431,1,0,0:0:0:0:
192,192,136631,1,0,0:0:0:0:
320,192,136831,1,0,0:0:0:0:
64,192,137031,1,0,0:0:0:100:Piano_Chord_003.wav
448,192,137231,1,0,0:0:0:0:
64,192,137431,1,0,0:0:0:0:
448,192,137631,1,0,0:0:0:0:
320,192,137831,1,0,0:0:0:100:Piano_Chord_029.wav
192,192,138031,1,0,0:0:0:0:
320,192,138231,1,0,0:0:0:0:
192,192,138431,1,0,0:0:0:0:
320,192,138631,1,0,0:0:0:0:
192,192,138831,1,0,0:0:0:0:
320,192,139031,1,0,0:0:0:0:
192,192,139231,1,0,0:0:0:0:
448,192,139431,1,0,0:0:0:100:Piano_Chord_008.wav
64,192,139631,1,0,0:0:0:0:
448,192,139831,1,0,0:0:0:0:
64,192,140031,1,0,0:0:0:0:
448,192,140231,1,0,0:0:0:0:
64,192,140431,1,0,0:0:0:0:
448,192,140631,1,0,0:0:0:0:
320,192,140831,1,0,0:0:0:0:
64,192,141031,1,0,0:0:0:100:Piano_Chord_000.wav
192,192,141031,1,0,0:0:0:100:Piano_Chord_042.wav
