osu file format v14

[General]
AudioFilename: audio.mp3
AudioLeadIn: 0
PreviewTime: 64195
Countdown: 0
SampleSet: Soft
StackLeniency: 0.7
Mode: 3
LetterboxInBreaks: 0
SpecialStyle: 0
WidescreenStoryboard: 0

[Editor]
DistanceSpacing: 0.8
BeatDivisor: 4
GridSize: 32
TimelineZoom: 1.5

[Metadata]
Title:One Way Street
TitleUnicode:One Way Street
Artist:siqlo
ArtistUnicode:siqlo
Creator:Dreamwalker
Version:Hyper
Source:BMS
Tags:FAMoss BOFU2017 -LEGENDA EST A MYTH- Karekitsune Team White Canvas Emotional Dubstep Wobble Bass 150 Middle FRENZ2017 Video Game English
BeatmapID:1867901
BeatmapSetID:688453

[Difficulty]
HPDrainRate:8
CircleSize:4
OverallDifficulty:8
ApproachRate:5
SliderMultiplier:1.4
SliderTickRate:1

[Events]
//Background and Video events
0,0,"onewaystreetBG.jpg",0,0
//Break Periods
//Storyboard Layer 0 (Background)
//Storyboard Layer 1 (Fail)
//Storyboard Layer 2 (Pass)
//Storyboard Layer 3 (Foreground)
//Storyboard Sound Samples
Sample,24206,0,"Voice_00.wav",100
Sample,24606,0,"Voice_01.wav",100
Sample,24981,0,"Voice_02.wav",100
Sample,25181,0,"Voice_03.wav",100
Sample,25381,0,"Voice_04.wav",100
Sample,31631,0,"LR_Clap Reverb.wav",70
Sample,34931,0,"LR_Clap Reverb.wav",70
Sample,36531,0,"LR_Clap Reverb.wav",70
Sample,64231,0,"Piano_Chord_058.wav",100
Sample,64231,0,"Piano_Chord_139.wav",100
Sample,65831,0,"Piano_Chord_165.wav",100
Sample,67364,0,"Piano_Chord_145.wav",100
Sample,67431,0,"Piano_Chord_026.wav",100
Sample,67431,0,"Piano_Chord_124.wav",100
Sample,69031,0,"Piano_Chord_112.wav",100
Sample,70031,0,"Piano_Chord_126.wav",100
Sample,70631,0,"Piano_Chord_159.wav",100
Sample,72231,0,"Piano_Chord_126.wav",100
Sample,72931,0,"Piano_Chord_166.wav",100
Sample,73031,0,"Piano_Chord_028.wav",100
Sample,73031,0,"Piano_Chord_172.wav",100
Sample,73831,0,"Piano_Chord_138.wav",100
Sample,75481,0,"Piano_Chord_048.wav",100
Sample,75531,0,"Piano_Chord_083.wav",100
Sample,75564,0,"Piano_Chord_113.wav",100
Sample,76431,0,"Piano_Chord_087.wav",100
Sample,77031,0,"Piano_Chord_081.wav",100
Sample,77031,0,"Piano_Chord_146.wav",100
Sample,78631,0,"Piano_Chord_044.wav",100
Sample,78631,0,"Piano_Chord_098.wav",100
Sample,79431,0,"Piano_Chord_114.wav",100
Sample,80231,0,"Piano_Chord_055.wav",100
Sample,80231,0,"Piano_Chord_079.wav",100
Sample,81831,0,"Piano_Chord_047.wav",100
Sample,81831,0,"Piano_Chord_111.wav",100
Sample,82831,0,"Piano_Chord_086.wav",100
Sample,83431,0,"Piano_Chord_057.wav",100
Sample,83431,0,"Piano_Chord_080.wav",100
Sample,85031,0,"Piano_Chord_004.wav",100
Sample,85831,0,"Piano_Chord_027.wav",100
Sample,85831,0,"Piano_Chord_147.wav",100
Sample,86631,0,"Piano_Chord_137.wav",100
Sample,86631,0,"Piano_Chord_019.wav",100
Sample,128231,0,"Piano_Chord_017.wav",100
Sample,141031,0,"Piano_Chord_063.wav",100
Sample,141031,0,"Piano_Chord_091.wav",100

[TimingPoints]
231,400,4,2,2,50,1,0
231,-111.111111111111,4,2,2,50,0,0
13031,-100,4,2,1,50,0,0
31831,-10,4,2,1,50,0,0
31856,-50,4,2,1,50,0,0
31881,-142.857142857143,4,2,1,50,0,0
32231,-100,4,2,1,50,0,0
35031,-30.3030303030303,4,2,1,50,0,0
35064,-1000,4,2,1,50,0,0
35097,-43.4782608695652,4,2,1,50,0,0
35131,-1000,4,2,1,50,0,0
35164,-58.8235294117647,4,2,1,50,0,0
35197,-1000,4,2,1,50,0,0
35230,-71.4285714285714,4,2,1,50,0,0
35264,-1000,4,2,1,50,0,0
35297,-83.3333333333333,4,2,1,50,0,0
35330,-1000,4,2,1,50,0,0
35363,-90.9090909090908,4,2,1,50,0,0
35397,-1000,4,2,1,50,0,0
35431,-100,4,2,1,50,0,0
37831,-10,4,2,1,50,0,0
37856,-1000,4,2,1,50,0,0
37881,-27.7777777777778,4,2,1,50,0,0
37889,-1000,4,2,1,50,0,0
37931,-28.5714285714286,4,2,1,50,0,0
37939,-1000,4,2,1,50,0,0
37981,-29.4117647058824,4,2,1,50,0,0
37989,-1000,4,2,1,50,0,0
38031,-30.3030303030305,4,2,1,50,0,0
38039,-1000,4,2,1,50,0,0
38081,-31.25,4,2,1,50,0,0
38089,-1000,4,2,1,50,0,0
38131,-32.258064516129,4,2,1,50,0,0
38139,-1000,4,2,1,50,0,0
38181,-33.3333333333333,4,2,1,50,0,0
38189,-1000,4,2,1,50,0,0
38231,-34.4827586206897,4,2,1,50,0,0
38239,-1000,4,2,1,50,0,0
38281,-35.7142857142857,4,2,1,50,0,0
38289,-1000,4,2,1,50,0,0
38331,-37.037037037037,4,2,1,50,0,0
38339,-1000,4,2,1,50,0,0
38381,-38.4615384615385,4,2,1,50,0,0
38389,-1000,4,2,1,50,0,0
38431,-38.4615384615385,4,2,1,50,0,0
38439,-1000,4,2,1,50,0,0
38481,-38.4615384615385,4,2,1,50,0,0
38489,-1000,4,2,1,50,0,0
38531,-38.4615384615385,4,2,1,50,0,0
38539,-1000,4,2,1,50,0,0
38581,-38.4615384615385,4,2,1,50,0,0
38589,-1000,4,2,1,50,0,0
38631,-10,4,2,1,50,0,0
38656,-117.647058823529,4,2,1,50,0,0
39431,-100,4,2,1,50,0,1
49031,-10,4,2,1,50,0,0
49056,-166.666666666667,4,2,1,50,0,0
49831,-100,4,2,1,50,0,0
50631,-111.111111111111,4,2,1,50,0,0
51431,-10,4,2,1,50,0,0
51456,-40,4,2,1,50,0,0
51481,-125,4,2,1,50,0,0
51831,-100,4,2,1,50,0,0
52231,-10,4,2,1,50,0,0
52256,-40,4,2,1,50,0,0
52281,-125,4,2,1,50,0,0
52631,-100,4,2,1,50,0,0
53031,-10,4,2,1,50,0,0
53056,-40,4,2,1,50,0,0
53081,-142.857142857143,4,2,1,50,0,0
53431,-100,4,2,1,50,0,0
54631,-10,4,2,1,50,0,0
54656,-40,4,2,1,50,0,0
54681,-125,4,2,1,50,0,0
55031,-100,4,2,1,50,0,0
55431,-10,4,2,1,50,0,0
55456,-40,4,2,1,50,0,0
55481,-125,4,2,1,50,0,0
55831,-100,4,2,1,50,0,0
56231,-10,4,2,1,50,0,0
56256,-41.6666666666667,4,2,1,50,0,0
56281,-111.111111111111,4,2,1,50,0,0
56331,-133.333333333333,4,2,1,50,0,0
56381,-153.846153846154,4,2,1,50,0,0
56431,-166.666666666667,4,2,1,50,0,0
56531,-133.333333333333,4,2,1,50,0,0
56581,-83.3333333333333,4,2,1,50,0,0
56631,-43.4782608695652,4,2,1,50,0,0
56656,-76.9230769230769,4,2,1,50,0,0
56681,-111.111111111111,4,2,1,50,0,0
56706,-142.857142857143,4,2,1,50,0,0
56831,-10,4,2,1,50,0,0
56856,-41.6666666666667,4,2,1,50,0,0
56881,-111.111111111111,4,2,1,50,0,0
56931,-133.333333333333,4,2,1,50,0,0
56981,-153.846153846154,4,2,1,50,0,0
57031,-166.666666666667,4,2,1,50,0,0
57131,-133.333333333333,4,2,1,50,0,0
57181,-83.3333333333333,4,2,1,50,0,0
57231,-43.4782608695652,4,2,1,50,0,0
57256,-76.9230769230769,4,2,1,50,0,0
57281,-111.111111111111,4,2,1,50,0,0
57306,-142.857142857143,4,2,1,50,0,0
57431,-10,4,2,1,50,0,0
57456,-41.6666666666667,4,2,1,50,0,0
57481,-111.111111111111,4,2,1,50,0,0
57531,-133.333333333333,4,2,1,50,0,0
57581,-153.846153846154,4,2,1,50,0,0
57631,-166.666666666667,4,2,1,50,0,0
57731,-133.333333333333,4,2,1,50,0,0
57781,-83.3333333333333,4,2,1,50,0,0
57831,-117.647058823529,4,2,1,50,0,0
60231,-114.942528735632,4,2,1,50,0,0
60431,-111.111111111111,4,2,1,50,0,0
60631,-107.52688172043,4,2,1,50,0,0
60831,-104.166666666667,4,2,1,50,0,0
61031,-100,4,2,1,50,0,0
63631,-95.2380952380952,4,2,1,50,0,0
63731,-86.9565217391304,4,2,1,50,0,0
64231,-117.647058823529,4,2,1,50,0,0
65031,-117.647058823529,4,2,1,20,0,0
77031,-100,4,2,1,30,0,0
85831,-100,4,2,1,40,0,0
86631,-100,4,2,1,43,0,0
87431,-100,4,2,1,46,0,0
88231,-166.666666666667,4,2,1,50,0,0
89431,-62.5,4,2,1,50,0,0
89481,-125,4,2,1,50,0,0
89631,-100,4,2,1,50,0,0
90431,-10,4,2,1,50,0,0
90456,-142.857142857143,4,2,1,50,0,0
90881,-125,4,2,1,50,0,0
90931,-105.263157894737,4,2,1,50,0,0
90981,-90.9090909090909,4,2,1,50,0,0
91031,-100,4,2,1,50,0,0
92231,-10,4,2,1,50,0,0
92256,-142.857142857143,4,2,1,50,0,0
92431,-125,4,2,1,50,0,0
92481,-105.263157894737,4,2,1,50,0,0
92531,-90.9090909090909,4,2,1,50,0,0
92581,-76.9230769230769,4,2,1,50,0,0
92631,-100,4,2,1,50,0,0
96231,-40,4,2,1,50,0,0
96264,-83.3333333333333,4,2,1,50,0,0
96331,-142.857142857143,4,2,1,50,0,0
96531,-100,4,2,1,50,0,0
96631,-40,4,2,1,50,0,0
96664,-83.3333333333333,4,2,1,50,0,0
96731,-142.857142857143,4,2,1,50,0,0
96931,-100,4,2,1,50,0,0
99431,-25,4,2,1,50,0,0
99464,-66.6666666666667,4,2,1,50,0,0
99531,-125,4,2,1,50,0,0
99831,-25,4,2,1,50,0,0
99864,-66.6666666666667,4,2,1,50,0,0
99931,-125,4,2,1,50,0,0
100231,-166.666666666667,4,2,1,50,0,0
101031,-105.263157894737,4,2,1,50,0,0
102631,-100,4,2,1,50,0,1
103031,-20.8333333333333,4,2,1,50,0,1
103044,-1000,4,2,1,50,0,1
103098,-30.3030303030303,4,2,1,50,0,1
103111,-1000,4,2,1,50,0,1
103165,-41.6666666666667,4,2,1,50,0,1
103178,-1000,4,2,1,50,0,1
103231,-100,4,2,1,50,0,1
114231,-45.4545454545455,4,2,1,50,0,1
114256,-166.666666666667,4,2,1,50,0,1
114331,-45.4545454545455,4,2,1,50,0,1
114356,-166.666666666667,4,2,1,50,0,1
114431,-45.4545454545455,4,2,1,50,0,1
114456,-166.666666666667,4,2,1,50,0,1
114531,-45.4545454545455,4,2,1,50,0,1
114556,-166.666666666667,4,2,1,50,0,1
114631,-45.4545454545455,4,2,1,50,0,1
114656,-166.666666666667,4,2,1,50,0,1
114731,-45.4545454545455,4,2,1,50,0,1
114756,-166.666666666667,4,2,1,50,0,1
114831,-10,4,2,1,50,0,1
114842,-1000,4,2,1,50,0,1
114897,-27.7777777777778,4,2,1,50,0,1
114908,-1000,4,2,1,50,0,1
114964,-27.7777777777778,4,2,1,50,0,1
114975,-1000,4,2,1,50,0,1
115030,-27.7777777777778,4,2,1,50,0,1
115041,-1000,4,2,1,50,0,1
115097,-27.7777777777778,4,2,1,50,0,1
115108,-1000,4,2,1,50,0,1
115163,-27.7777777777778,4,2,1,50,0,1
115174,-1000,4,2,1,50,0,1
115231,-27.7777777777778,4,2,1,50,0,1
115242,-1000,4,2,1,50,0,1
115297,-27.7777777777778,4,2,1,50,0,1
115308,-1000,4,2,1,50,0,1
115364,-27.7777777777778,4,2,1,50,0,1
115375,-1000,4,2,1,50,0,1
115431,-100,4,2,1,50,0,1
115831,-20.8333333333333,4,2,1,50,0,1
115844,-1000,4,2,1,50,0,1
115898,-30.3030303030303,4,2,1,50,0,1
115911,-1000,4,2,1,50,0,1
115965,-41.6666666666667,4,2,1,50,0,1
115978,-1000,4,2,1,50,0,1
116031,-100,4,2,1,50,0,1
127031,-45.4545454545455,4,2,1,50,0,1
127056,-166.666666666667,4,2,1,50,0,1
127131,-45.4545454545455,4,2,1,50,0,1
127156,-166.666666666667,4,2,1,50,0,1
127231,-45.4545454545455,4,2,1,50,0,1
127256,-166.666666666667,4,2,1,50,0,1
127331,-45.4545454545455,4,2,1,50,0,1
127356,-166.666666666667,4,2,1,50,0,1
127431,-45.4545454545455,4,2,1,50,0,1
127456,-166.666666666667,4,2,1,50,0,1
127531,-45.4545454545455,4,2,1,50,0,1
127556,-166.666666666667,4,2,1,50,0,1
127631,-10,4,2,1,50,0,1
127642,-1000,4,2,1,50,0,1
127697,-27.7777777777778,4,2,1,50,0,1
127708,-1000,4,2,1,50,0,1
127764,-27.7777777777778,4,2,1,50,0,1
127775,-1000,4,2,1,50,0,1
127830,-27.7777777777778,4,2,1,50,0,1
127841,-1000,4,2,1,50,0,1
127897,-27.7777777777778,4,2,1,50,0,1
127908,-1000,4,2,1,50,0,1
127963,-27.7777777777778,4,2,1,50,0,1
127974,-1000,4,2,1,50,0,1
128031,-27.7777777777778,4,2,1,50,0,1
128042,-1000,4,2,1,50,0,1
128097,-27.7777777777778,4,2,1,50,0,1
128108,-1000,4,2,1,50,0,1
128164,-27.7777777777778,4,2,1,50,0,1
128175,-1000,4,2,1,50,0,1
128231,-117.647058823529,4,2,1,50,0,0
128331,-117.647058823529,4,2,3,50,0,0

[HitObjects]
64,192,231,5,0,0:0:0:0:
64,192,431,1,0,0:0:0:0:
448,192,631,1,0,0:0:0:0:
448,192,831,1,0,0:0:0:0:
64,192,1031,1,0,0:0:0:0:
64,192,1231,1,0,0:0:0:0:
448,192,1431,1,0,0:0:0:0:
448,192,1631,1,0,0:0:0:0:
192,192,1831,1,0,0:0:0:0:
192,192,2031,1,0,0:0:0:0:
320,192,2231,1,0,0:0:0:0:
320,192,2431,1,0,0:0:0:0:
192,192,2631,1,0,0:0:0:0:
192,192,2831,1,0,0:0:0:0:
320,192,3031,1,0,0:0:0:0:
320,192,3231,1,0,0:0:0:0:
64,192,3431,1,0,0:0:0:0:
64,192,3631,1,0,0:0:0:0:
320,192,3831,1,0,0:0:0:0:
320,192,4031,1,0,0:0:0:0:
64,192,4231,1,0,0:0:0:0:
64,192,4431,1,0,0:0:0:0:
320,192,4631,1,0,0:0:0:0:
320,192,4831,1,0,0:0:0:0:
192,192,5031,1,0,0:0:0:0:
192,192,5231,1,0,0:0:0:0:
448,192,5431,1,0,0:0:0:0:
448,192,5631,1,0,0:0:0:0:
192,192,5831,1,0,0:0:0:0:
192,192,6031,1,0,0:0:0:0:
64,192,6231,128,0,6631:0:0:0:0:
320,192,6431,1,0,0:0:0:0:
192,192,6631,1,0,0:0:0:0:
192,192,6831,1,0,0:0:0:0:
448,192,7031,1,0,0:0:0:0:
448,192,7231,1,0,0:0:0:0:
192,192,7431,1,0,0:0:0:0:
192,192,7631,1,0,0:0:0:0:
448,192,7831,1,0,0:0:0:0:
448,192,8031,1,0,0:0:0:0:
320,192,8231,1,0,0:0:0:0:
320,192,8431,1,0,0:0:0:0:
64,192,8631,1,0,0:0:0:0:
64,192,8831,1,0,0:0:0:0:
320,192,9031,1,0,0:0:0:0:
320,192,9231,1,0,0:0:0:0:
64,192,9431,1,0,0:0:0:0:
64,192,9631,1,0,0:0:0:0:
64,192,9831,1,0,0:0:0:0:
64,192,10031,1,0,0:0:0:0:
448,192,10231,1,0,0:0:0:0:
448,192,10431,1,0,0:0:0:0:
192,192,10631,1,0,0:0:0:0:
192,192,10831,1,0,0:0:0:0:
448,192,11031,1,0,0:0:0:0:
448,192,11231,1,0,0:0:0:0:
320,192,11431,1,0,0:0:0:0:
64,192,11631,1,0,0:0:0:0:
320,192,11831,1,0,0:0:0:0:
320,192,12031,1,0,0:0:0:0:
64,192,12231,1,0,0:0:0:0:
64,192,12431,1,0,0:0:0:0:
320,192,12631,1,0,0:0:0:0:
320,192,12831,1,0,0:0:0:0:
192,192,13031,128,2,13131:0:0:0:0:
448,192,13031,1,4,0:0:0:0:
64,192,13131,128,0,13231:0:0:0:0:
192,192,13231,128,0,13331:0:0:0:0:
320,192,13331,128,0,13431:0:0:0:0:
448,192,13431,128,0,13831:0:0:0:0:
192,192,13631,128,0,13831:0:0:0:0:
64,192,13831,128,0,14231:0:0:0:0:
320,192,14031,128,0,14231:0:0:0:0:
448,192,14231,128,0,14431:0:0:0:0:
192,192,14431,128,0,15031:0:0:0:0:
320,192,14631,1,8,0:0:0:0:
448,192,14631,1,0,0:0:0:0:
448,192,15031,128,0,15431:0:0:0:0:
192,192,15231,128,0,15431:0:0:0:0:
320,192,15431,128,0,15831:0:0:0:0:
64,192,15631,128,0,15831:0:0:0:0:
192,192,15831,128,0,16231:0:0:0:0:
448,192,16031,128,0,16231:0:0:0:0:
64,192,16231,128,2,17031:0:0:0:0:
320,192,16231,1,0,0:0:0:0:
192,192,16631,128,0,17031:0:0:0:0:
448,192,17031,128,0,17431:0:0:0:0:
320,192,17431,128,0,17831:0:0:0:0:
448,192,17631,128,0,17831:0:0:0:0:
64,192,17831,1,8,0:0:0:0:
192,192,17831,1,0,0:0:0:0:
64,192,18031,128,0,18131:0:0:0:0:
192,192,18131,128,0,18231:0:0:0:0:
448,192,18231,128,0,18331:0:0:0:0:
192,192,18331,128,0,18431:0:0:0:0:
320,192,18431,128,0,18531:0:0:0:0:
64,192,18531,128,0,18631:0:0:0:0:
448,192,18631,128,0,18831:0:0:0:0:
320,192,18831,128,0,19231:0:0:0:0:
64,192,19031,128,0,19231:0:0:0:0:
192,192,19231,128,0,19631:0:0:0:0:
320,192,19431,1,2,0:0:0:0:
448,192,19431,1,0,0:0:0:0:
448,192,19831,128,0,19931:0:0:0:0:
320,192,19931,128,0,20031:0:0:0:0:
192,192,20031,128,0,20431:0:0:0:0:
448,192,20231,128,0,20431:0:0:0:0:
320,192,20431,128,0,20831:0:0:0:0:
64,192,20631,128,0,20831:0:0:0:0:
192,192,20831,128,0,21231:0:0:0:0:
320,192,21031,1,8,0:0:0:0:
448,192,21031,1,0,0:0:0:0:
64,192,21231,128,0,21331:0:0:0:0:
320,192,21331,128,0,21431:0:0:0:0:
448,192,21431,128,0,21531:0:0:0:0:
64,192,21531,128,0,21631:0:0:0:0:
192,192,21631,128,0,21731:0:0:0:0:
320,192,21731,128,0,21831:0:0:0:0:
448,192,21831,128,0,22231:0:0:0:0:
320,192,22231,128,0,22631:0:0:0:0:
64,192,22631,1,2,0:0:0:0:
192,192,22631,128,0,23031:0:0:0:0:
448,192,22631,1,0,0:0:0:0:
64,192,23031,128,0,23431:0:0:0:0:
320,192,23431,128,0,23631:0:0:0:0:
448,192,23631,128,0,23831:0:0:0:0:
64,192,23831,128,0,24031:0:0:0:0:
192,192,24031,128,0,24231:0:0:0:0:
64,192,24231,1,8,0:0:0:0:
448,192,24231,128,0,24331:0:0:0:0:
320,192,24331,128,0,24431:0:0:0:0:
192,192,24431,128,0,24531:0:0:0:0:
64,192,24531,128,0,24631:0:0:0:0:
192,192,24631,1,2,0:0:0:0:
448,192,24631,128,0,24731:0:0:0:0:
320,192,24731,128,0,24831:0:0:0:0:
192,192,24831,128,0,24931:0:0:0:0:
64,192,24931,128,0,25031:0:0:0:0:
320,192,25031,1,2,0:0:0:0:
448,192,25031,1,0,0:0:0:0:
320,192,25231,1,2,0:0:0:0:
448,192,25231,1,0,0:0:0:0:
448,192,25431,1,8,0:0:0:0:
320,192,25481,1,8,0:0:0:0:
64,192,25531,1,8,0:0:0:0:
192,192,25581,1,8,0:0:0:0:
320,192,25631,1,8,0:0:0:0:
448,192,25631,1,0,0:0:0:0:
320,192,25731,1,8,0:0:0:0:
448,192,25731,1,0,0:0:0:0:
64,192,25831,1,8,0:0:0:0:
192,192,25831,1,0,0:0:0:70:LR_Clap Reverb.wav
448,192,26031,1,0,0:0:0:0:
64,192,26231,1,8,0:0:0:0:
192,192,26231,1,0,0:0:0:70:LR_Clap Reverb.wav
448,192,26431,1,0,0:0:0:0:
64,192,26631,1,8,0:0:0:0:
192,192,26631,1,0,0:0:0:70:LR_Clap Reverb.wav
320,192,26831,1,0,0:0:0:0:
64,192,26931,1,0,0:0:0:70:LR_Clap Reverb.wav
192,192,26931,1,0,0:0:0:0:
320,192,27031,1,8,0:0:0:0:
448,192,27031,1,0,0:0:0:0:
192,192,27231,1,0,0:0:0:70:LR_Clap Reverb.wav
320,192,27431,1,8,0:0:0:0:
448,192,27431,1,0,0:0:0:70:LR_Clap Reverb.wav
64,192,27631,1,0,0:0:0:0:
320,192,27831,1,8,0:0:0:0:
448,192,27831,1,0,0:0:0:70:LR_Clap Reverb.wav
64,192,28031,1,0,0:0:0:0:
320,192,28231,1,8,0:0:0:0:
448,192,28231,1,0,0:0:0:70:LR_Clap Reverb.wav
64,192,28431,1,0,0:0:0:0:
320,192,28431,1,0,0:0:0:0:
448,192,28531,1,0,0:0:0:70:LR_Clap Reverb.wav
192,192,28631,1,8,0:0:0:0:
320,192,28631,1,0,0:0:0:0:
320,192,28731,1,0,0:0:0:70:LR_Clap Reverb.wav
64,192,28831,1,8,0:0:0:0:
192,192,28831,1,0,0:0:0:0:
64,192,29031,1,8,0:0:0:0:
192,192,29031,1,0,0:0:0:70:LR_Clap Reverb.wav
448,192,29231,1,0,0:0:0:0:
64,192,29431,1,8,0:0:0:0:
192,192,29431,1,0,0:0:0:70:LR_Clap Reverb.wav
448,192,29631,1,0,0:0:0:0:
64,192,29831,1,8,0:0:0:0:
192,192,29831,1,0,0:0:0:70:LR_Clap Reverb.wav
320,192,30031,1,0,0:0:0:0:
64,192,30131,1,0,0:0:0:70:LR_Clap Reverb.wav
192,192,30131,1,0,0:0:0:0:
320,192,30231,1,8,0:0:0:0:
448,192,30231,1,0,0:0:0:0:
192,192,30431,1,0,0:0:0:70:LR_Clap Reverb.wav
320,192,30631,1,8,0:0:0:0:
448,192,30631,1,0,0:0:0:70:LR_Clap Reverb.wav
64,192,30831,1,0,0:0:0:0:
320,192,31031,1,8,0:0:0:0:
448,192,31031,1,0,0:0:0:70:LR_Clap Reverb.wav
320,192,31231,1,8,0:0:0:0:
448,192,31231,1,0,0:0:0:0:
320,192,31431,1,8,0:0:0:0:
448,192,31431,1,0,0:0:0:70:LR_Clap Reverb.wav
64,192,31531,1,8,0:0:0:0:
192,192,31531,1,0,0:0:0:0:
64,192,31731,1,8,0:0:0:0:
192,192,31731,1,0,0:0:0:0:
64,192,31831,1,8,0:0:0:0:
320,192,31831,1,0,0:0:0:55:LR3_Snare FCSRL.wav
448,192,31831,1,0,0:0:0:0:
64,192,32231,1,12,0:0:0:0:
192,192,32231,1,0,0:0:0:70:LR_Clap Reverb.wav
64,192,32431,1,8,0:0:0:0:
192,192,32431,1,0,0:0:0:0:
64,192,32631,1,8,0:0:0:0:
192,192,32631,1,0,0:0:0:70:LR_Clap Reverb.wav
64,192,32831,1,8,0:0:0:0:
192,192,32831,1,0,0:0:0:0:
64,192,33031,1,8,0:0:0:0:
192,192,33031,1,0,0:0:0:70:LR_Clap Reverb.wav
64,192,33231,1,2,0:0:0:0:
320,192,33231,1,4,0:0:0:0:
320,192,33331,1,0,0:0:0:0:
192,192,33431,1,0,0:0:0:0:
448,192,33431,1,0,0:0:0:0:
64,192,33531,1,0,0:0:0:0:
64,192,33631,1,0,0:0:0:0:
320,192,33631,1,0,0:0:0:0:
192,192,33731,1,0,0:0:0:0:
320,192,33831,1,12,0:0:0:0:
448,192,33831,1,0,0:0:0:70:LR_Clap Reverb.wav
320,192,34031,1,8,0:0:0:0:
448,192,34031,1,0,0:0:0:0:
320,192,34231,1,8,0:0:0:0:
448,192,34231,1,0,0:0:0:70:LR_Clap Reverb.wav
320,192,34431,1,8,0:0:0:0:
448,192,34431,1,0,0:0:0:0:
64,192,34631,1,8,0:0:0:0:
320,192,34631,1,0,0:0:0:70:LR_Clap Reverb.wav
320,192,34731,1,8,0:0:0:0:
192,192,34831,1,8,0:0:0:0:
448,192,34831,1,0,0:0:0:0:
192,192,34931,1,8,0:0:0:0:
64,192,35031,1,4,0:0:0:0:
320,192,35031,1,2,0:0:0:0:
448,192,35031,128,0,35431:0:0:0:0:
64,192,35431,1,12,0:0:0:0:
320,192,35431,1,0,0:0:0:70:LR_Clap Reverb.wav
192,192,35531,1,8,0:0:0:0:
448,192,35631,1,8,0:0:0:0:
192,192,35731,1,8,0:0:0:0:
320,192,35831,1,8,0:0:0:0:
448,192,35831,1,0,0:0:0:70:LR_Clap Reverb.wav
64,192,35931,1,8,0:0:0:0:
320,192,36031,1,8,0:0:0:0:
64,192,36131,1,8,0:0:0:0:
320,192,36231,1,8,0:0:0:0:
448,192,36231,1,0,0:0:0:70:LR_Clap Reverb.wav
192,192,36331,1,8,0:0:0:0:
448,192,36431,1,8,0:0:0:0:
192,192,36531,1,8,0:0:0:0:
64,192,36631,1,4,0:0:0:0:
320,192,36631,1,2,0:0:0:0:
64,192,36831,128,0,37031:0:0:0:0:
320,192,36831,128,0,37031:0:0:0:0:
448,192,37031,1,0,0:0:0:0:
64,192,37231,1,0,0:0:0:0:
320,192,37231,1,0,0:0:0:0:
64,192,37431,1,0,0:0:0:0:
448,192,37431,1,0,0:0:0:0:
192,192,37631,1,0,0:0:0:0:
448,192,37631,1,0,0:0:0:0:
320,192,37831,128,0,38631:0:0:0:0:
448,192,37831,128,0,38631:0:0:0:0:
64,192,38631,1,0,0:0:0:100:Wobble1.wav
192,192,38631,1,0,0:0:0:0:
64,192,39031,1,0,0:0:0:70:LR_Clap Reverb.wav
448,192,39031,1,0,0:0:0:0:
320,192,39231,1,2,0:0:0:0:
448,192,39231,1,0,0:0:0:0:
64,192,39431,128,8,39631:0:0:0:0:
448,192,39431,1,0,0:0:0:0:
192,192,39531,128,0,39631:0:0:0:0:
448,192,39631,128,0,39831:0:0:0:0:
192,192,39731,128,0,39831:0:0:0:0:
64,192,39831,128,0,40031:0:0:0:0:
320,192,39931,128,0,40031:0:0:0:0:
448,192,40031,128,0,40231:0:0:0:0:
320,192,40131,128,0,40231:0:0:0:0:
64,192,40231,1,2,0:0:0:0:
192,192,40231,1,4,0:0:0:0:
320,192,40331,128,0,40431:0:0:0:0:
448,192,40331,128,0,40431:0:0:0:0:
320,192,40531,1,0,0:0:0:0:
448,192,40531,1,0,0:0:0:0:
64,192,40631,128,0,40731:0:0:0:0:
192,192,40631,128,0,40731:0:0:0:0:
64,192,40831,128,0,41031:0:0:0:0:
448,192,40831,1,0,0:0:0:0:
320,192,41031,1,8,0:0:0:0:
448,192,41031,1,0,0:0:0:0:
64,192,41131,128,0,41231:0:0:0:0:
192,192,41131,128,0,41231:0:0:0:0:
64,192,41331,1,0,0:0:0:0:
192,192,41331,1,0,0:0:0:0:
320,192,41431,128,0,41531:0:0:0:0:
448,192,41431,128,0,41531:0:0:0:0:
64,192,41631,1,0,0:0:0:0:
448,192,41631,128,0,41831:0:0:0:0:
64,192,41831,1,2,0:0:0:0:
192,192,41831,1,0,0:0:0:0:
192,192,42031,1,2,0:0:0:0:
448,192,42031,1,0,0:0:0:0:
448,192,42131,1,0,0:0:0:0:
64,192,42231,1,0,0:0:0:0:
320,192,42231,1,0,0:0:0:0:
320,192,42431,128,0,42631:0:0:0:0:
64,192,42631,128,8,43031:0:0:0:0:
448,192,42631,1,0,0:0:0:0:
192,192,42831,1,0,0:0:0:0:
448,192,42931,1,0,0:0:0:0:
192,192,43031,1,0,0:0:0:0:
448,192,43131,1,0,0:0:0:0:
320,192,43231,1,0,0:0:0:0:
448,192,43331,1,0,0:0:0:0:
64,192,43431,128,2,43531:0:0:0:0:
192,192,43431,128,4,43531:0:0:0:0:
320,192,43431,1,0,0:0:0:0:
64,192,43631,128,0,43831:0:0:0:0:
192,192,43631,128,0,43831:0:0:0:0:
448,192,43831,1,0,0:0:0:0:
320,192,43881,1,0,0:0:0:0:
192,192,43931,1,0,0:0:0:0:
64,192,43981,1,0,0:0:0:0:
320,192,44031,1,2,0:0:0:0:
448,192,44031,1,0,0:0:0:0:
64,192,44131,1,0,0:0:0:0:
192,192,44231,1,8,0:0:0:0:
448,192,44231,1,0,0:0:0:0:
448,192,44331,1,0,0:0:0:0:
192,192,44431,1,0,0:0:0:0:
64,192,44531,1,0,0:0:0:0:
448,192,44531,1,0,0:0:0:0:
192,192,44631,128,0,44831:0:0:0:0:
320,192,44631,128,0,44831:0:0:0:0:
64,192,44831,1,2,0:0:0:0:
448,192,44831,1,0,0:0:0:0:
64,192,45031,128,2,45431:0:0:0:0:
192,192,45031,1,0,0:0:0:0:
320,192,45431,1,0,0:0:0:0:
448,192,45431,1,0,0:0:0:0:
192,192,45531,1,0,0:0:0:0:
64,192,45631,1,0,0:0:0:0:
448,192,45631,1,0,0:0:0:0:
64,192,45831,1,8,0:0:0:0:
320,192,45831,1,0,0:0:0:0:
320,192,45931,1,0,0:0:0:0:
192,192,46031,1,0,0:0:0:0:
320,192,46131,1,0,0:0:0:0:
64,192,46231,1,0,0:0:0:0:
448,192,46231,1,0,0:0:0:0:
320,192,46431,1,0,0:0:0:0:
192,192,46531,1,0,0:0:0:0:
64,192,46631,1,2,0:0:0:0:
448,192,46631,1,0,0:0:0:0:
320,192,46731,1,0,0:0:0:0:
64,192,46831,1,0,0:0:0:0:
320,192,46931,1,0,0:0:0:0:
448,192,47031,1,0,0:0:0:0:
64,192,47131,1,2,0:0:0:0:
192,192,47131,1,0,0:0:0:0:
448,192,47231,1,0,0:0:0:0:
192,192,47331,1,0,0:0:0:0:
64,192,47431,1,8,0:0:0:0:
320,192,47431,1,0,0:0:0:0:
448,192,47431,1,0,0:0:0:0:
192,192,47531,1,2,0:0:0:0:
448,192,47531,1,0,0:0:0:0:
64,192,47731,1,8,0:0:0:0:
192,192,47731,1,0,0:0:0:0:
448,192,47731,1,0,0:0:0:0:
64,192,47931,1,2,0:0:0:0:
192,192,47931,1,0,0:0:0:0:
320,192,47931,1,0,0:0:0:0:
64,192,48031,1,8,0:0:0:0:
448,192,48031,1,0,0:0:0:0:
64,192,48231,1,2,0:0:0:0:
448,192,48231,1,0,0:0:0:0:
320,192,48331,1,0,0:0:0:0:
192,192,48431,1,0,0:0:0:0:
64,192,48531,1,0,0:0:0:0:
320,192,48631,128,0,48831:0:0:0:0:
448,192,48631,128,0,48831:0:0:0:0:
64,192,48831,128,0,48931:0:0:0:0:
192,192,48831,128,0,48931:0:0:0:0:
64,192,49031,1,0,0:0:0:100:Wobble2.wav
448,192,49031,1,0,0:0:0:0:
64,192,49831,1,4,0:0:0:0:
320,192,49831,128,0,50231:0:0:0:55:LR3_Snare FCSRL.wav
448,192,49831,1,0,0:0:0:0:
64,192,50131,128,0,50231:0:0:0:0:
192,192,50231,128,0,50431:0:0:0:0:
448,192,50231,128,0,50631:0:0:0:0:
320,192,50431,128,0,50631:0:0:0:0:
64,192,50631,1,2,0:0:0:0:
192,192,50631,1,4,0:0:0:0:
192,192,50831,1,0,0:0:0:0:
448,192,50831,1,0,0:0:0:0:
320,192,51031,1,8,0:0:0:0:
448,192,51031,1,0,0:0:0:0:
192,192,51231,1,8,0:0:0:0:
320,192,51231,1,0,0:0:0:0:
64,192,51431,1,2,0:0:0:0:
192,192,51431,1,4,0:0:0:0:
448,192,51431,1,0,0:0:0:0:
448,192,51831,1,0,0:0:0:70:LR_Clap Reverb.wav
320,192,51881,1,0,0:0:0:0:
192,192,51931,1,0,0:0:0:0:
64,192,51981,1,0,0:0:0:0:
448,192,52031,1,0,0:0:0:0:
320,192,52081,1,0,0:0:0:0:
192,192,52131,1,0,0:0:0:0:
64,192,52181,1,0,0:0:0:0:
320,192,52231,1,2,0:0:0:0:
448,192,52231,1,4,0:0:0:0:
64,192,52631,1,0,0:0:0:70:LR_Clap Reverb.wav
192,192,52681,1,0,0:0:0:0:
320,192,52731,1,0,0:0:0:0:
448,192,52781,1,0,0:0:0:0:
64,192,52831,1,0,0:0:0:0:
192,192,52881,1,0,0:0:0:0:
320,192,52931,1,0,0:0:0:0:
448,192,52981,1,0,0:0:0:0:
64,192,53031,1,2,0:0:0:0:
192,192,53031,1,4,0:0:0:0:
320,192,53431,128,0,53531:0:0:0:70:LR_Clap Reverb.wav
448,192,53431,128,0,53531:0:0:0:0:
320,192,53631,1,0,0:0:0:0:
448,192,53631,1,0,0:0:0:0:
64,192,53831,128,2,54631:0:0:0:0:
192,192,53831,1,4,0:0:0:0:
320,192,54031,1,0,0:0:0:0:
320,192,54231,1,8,0:0:0:0:
448,192,54231,1,0,0:0:0:0:
320,192,54631,1,4,0:0:0:0:
448,192,54631,1,2,0:0:0:0:
320,192,55031,1,0,0:0:0:70:LR_Clap Reverb.wav
192,192,55081,1,0,0:0:0:0:
64,192,55131,1,0,0:0:0:0:
448,192,55181,1,0,0:0:0:0:
320,192,55231,1,0,0:0:0:0:
192,192,55281,1,0,0:0:0:0:
448,192,55331,1,0,0:0:0:0:
320,192,55381,1,0,0:0:0:0:
64,192,55431,1,2,0:0:0:0:
192,192,55431,1,4,0:0:0:0:
192,192,55831,1,0,0:0:0:70:LR_Clap Reverb.wav
320,192,55881,1,0,0:0:0:0:
448,192,55931,1,0,0:0:0:0:
64,192,55981,1,0,0:0:0:0:
192,192,56031,1,0,0:0:0:0:
320,192,56081,1,0,0:0:0:0:
64,192,56131,1,0,0:0:0:0:
192,192,56181,1,0,0:0:0:0:
320,192,56231,1,0,0:0:0:100:Kick_HardStyle_000.wav
448,192,56231,1,0,0:0:0:0:
64,192,56631,1,8,0:0:0:0:
192,192,56631,1,0,0:0:0:0:
64,192,56831,1,0,0:0:0:100:Kick_HardStyle_001.wav
192,192,56831,1,0,0:0:0:0:
448,192,56831,1,0,0:0:0:0:
320,192,57231,1,8,0:0:0:0:
448,192,57231,1,0,0:0:0:0:
64,192,57431,1,0,0:0:0:100:Kick_HardStyle_000.wav
320,192,57431,1,0,0:0:0:0:
448,192,57431,1,0,0:0:0:0:
64,192,57831,1,2,0:0:0:0:
320,192,57831,1,4,0:0:0:20:
448,192,57831,1,0,0:0:0:0:
320,192,58031,1,0,0:0:0:0:
320,192,58231,1,0,0:0:0:0:
320,192,58431,1,0,0:0:0:0:
320,192,58631,1,0,0:0:0:0:
320,192,58831,1,0,0:0:0:0:
320,192,59031,1,0,0:0:0:0:
320,192,59231,1,0,0:0:0:0:
192,192,59431,1,0,0:0:0:0:
448,192,59431,1,0,0:0:0:0:
192,192,59631,1,0,0:0:0:0:
192,192,59831,1,0,0:0:0:0:
192,192,60031,1,0,0:0:0:0:
64,192,60231,128,0,61031:0:0:0:0:
448,192,60231,128,0,61031:0:0:0:0:
192,192,60431,1,0,0:0:0:0:
320,192,60531,1,0,0:0:0:0:
192,192,60631,1,0,0:0:0:0:
320,192,60731,1,0,0:0:0:0:
192,192,60831,1,0,0:0:0:0:
320,192,60931,1,0,0:0:0:0:
192,192,61031,1,0,0:0:0:0:
192,192,61231,1,0,0:0:0:0:
192,192,61431,1,0,0:0:0:0:
192,192,61631,1,0,0:0:0:0:
192,192,61831,1,0,0:0:0:0:
192,192,62031,1,0,0:0:0:0:
192,192,62231,1,0,0:0:0:0:
64,192,62431,1,8,0:0:0:23:
448,192,62431,1,0,0:0:0:0:
64,192,62531,1,8,0:0:0:24:
192,192,62631,1,8,0:0:0:26:
448,192,62631,1,0,0:0:0:0:
320,192,62731,1,8,0:0:0:29:
64,192,62831,1,8,0:0:0:30:
448,192,62831,1,0,0:0:0:0:
448,192,62931,1,8,0:0:0:32:
64,192,63031,1,8,0:0:0:34:
192,192,63031,1,0,0:0:0:0:
320,192,63131,1,8,0:0:0:36:
64,192,63231,1,8,0:0:0:38:
448,192,63231,1,0,0:0:0:0:
192,192,63331,1,8,0:0:0:40:
192,192,63431,1,2,0:0:0:0:
448,192,63431,1,4,0:0:0:0:
192,192,63631,128,0,64231:0:0:0:0:
448,192,63731,128,0,64231:0:0:0:0:
64,192,64231,1,6,0:0:0:0:
320,192,64231,1,0,0:0:0:100:Piano_Chord_082.wav
448,192,65031,1,0,0:0:0:100:Piano_Chord_171.wav
64,192,65231,1,0,0:0:0:100:Piano_Chord_167.wav
320,192,65431,1,0,0:0:0:100:Piano_Chord_158.wav
192,192,65631,1,0,0:0:0:100:Piano_Chord_161.wav
320,192,65831,1,0,0:0:0:100:Piano_Chord_046.wav
448,192,65831,1,0,0:0:0:100:Piano_Chord_099.wav
64,192,66031,1,0,0:0:0:100:Piano_Chord_141.wav
320,192,66431,1,0,0:0:0:100:Piano_Chord_157.wav
64,192,66831,1,0,0:0:0:100:Piano_Chord_143.wav
448,192,67231,1,0,0:0:0:100:Piano_Chord_136.wav
192,192,67297,1,0,0:0:0:100:Piano_Chord_145.wav
64,192,67331,1,0,0:0:0:100:Piano_Chord_151.wav
448,192,67431,1,0,0:0:0:100:Piano_Chord_058.wav
64,192,67631,1,0,0:0:0:100:Piano_Chord_128.wav
192,192,67831,1,0,0:0:0:100:Piano_Chord_118.wav
448,192,68031,1,0,0:0:0:100:Piano_Chord_174.wav
64,192,68231,1,0,0:0:0:100:Piano_Chord_173.wav
320,192,68431,1,0,0:0:0:100:Piano_Chord_160.wav
320,192,68831,1,0,0:0:0:100:Piano_Chord_141.wav
192,192,69031,1,0,0:0:0:100:Piano_Chord_022.wav
448,192,69031,1,0,0:0:0:100:Piano_Chord_074.wav
448,192,69431,1,0,0:0:0:100:Piano_Chord_130.wav
64,192,69597,1,0,0:0:0:100:Piano_Chord_163.wav
192,192,69631,1,0,0:0:0:100:Piano_Chord_164.wav
192,192,70031,1,0,0:0:0:100:Piano_Chord_016.wav
448,192,70031,1,0,0:0:0:100:Piano_Chord_087.wav
320,192,70231,1,0,0:0:0:100:Piano_Chord_170.wav
64,192,70631,1,0,0:0:0:100:Piano_Chord_026.wav
320,192,70631,1,0,0:0:0:100:Piano_Chord_058.wav
64,192,71231,1,0,0:0:0:100:Piano_Chord_145.wav
448,192,71331,1,0,0:0:0:100:Piano_Chord_162.wav
192,192,71431,1,0,0:0:0:100:Piano_Chord_169.wav
448,192,72031,1,0,0:0:0:100:Piano_Chord_145.wav
64,192,72131,1,0,0:0:0:100:Piano_Chord_162.wav
192,192,72231,1,0,0:0:0:100:Piano_Chord_005.wav
320,192,72231,1,0,0:0:0:100:Piano_Chord_164.wav
64,192,72831,1,0,0:0:0:100:Piano_Chord_145.wav
320,192,73031,1,0,0:0:0:100:Piano_Chord_085.wav
448,192,73431,1,0,0:0:0:100:Piano_Chord_165.wav
64,192,73831,1,0,0:0:0:100:Piano_Chord_020.wav
192,192,73831,1,0,0:0:0:100:Piano_Chord_066.wav
320,192,74031,1,0,0:0:0:100:Piano_Chord_154.wav
320,192,74431,1,0,0:0:0:100:Piano_Chord_154.wav
192,192,75031,1,0,0:0:0:100:Piano_Chord_103.wav
320,192,75131,1,0,0:0:0:0:
64,192,75431,1,0,0:0:0:100:Piano_Chord_010.wav
192,192,75831,1,0,0:0:0:0:
448,192,76031,1,0,0:0:0:100:Piano_Chord_128.wav
64,192,76431,1,0,0:0:0:100:Piano_Chord_012.wav
192,192,76464,1,0,0:0:0:100:Piano_Chord_150.wav
320,192,76631,1,0,0:0:0:100:Piano_Chord_154.wav
64,192,77031,1,0,0:0:0:70:LR_Clap Reverb.wav
448,192,77031,1,0,0:0:0:100:Piano_Chord_057.wav
320,192,77131,1,0,0:0:0:0:
64,192,77231,1,0,0:0:0:0:
320,192,77331,1,0,0:0:0:0:
448,192,77431,1,0,0:0:0:70:LR_Clap Reverb.wav
64,192,77531,1,0,0:0:0:0:
320,192,77631,1,0,0:0:0:0:
64,192,77731,1,0,0:0:0:0:
448,192,77831,1,0,0:0:0:70:LR_Clap Reverb.wav
192,192,77931,1,0,0:0:0:0:
448,192,78031,1,0,0:0:0:0:
192,192,78131,1,0,0:0:0:0:
64,192,78231,1,0,0:0:0:70:LR_Clap Reverb.wav
448,192,78331,1,0,0:0:0:0:
192,192,78431,1,0,0:0:0:0:
448,192,78531,1,0,0:0:0:0:
64,192,78631,1,0,0:0:0:70:LR_Clap Reverb.wav
320,192,78631,1,0,0:0:0:100:Piano_Chord_070.wav
192,192,78731,1,0,0:0:0:0:
448,192,78831,1,0,0:0:0:0:
192,192,78931,1,0,0:0:0:0:
448,192,79031,1,0,0:0:0:70:LR_Clap Reverb.wav
320,192,79131,1,0,0:0:0:0:
64,192,79231,1,0,0:0:0:0:
320,192,79331,1,0,0:0:0:0:
64,192,79431,1,0,0:0:0:70:LR_Clap Reverb.wav
192,192,79531,1,0,0:0:0:0:
320,192,79631,1,0,0:0:0:0:
64,192,79731,1,0,0:0:0:0:
448,192,79831,1,0,0:0:0:70:LR_Clap Reverb.wav
320,192,79931,1,0,0:0:0:0:
192,192,80031,1,0,0:0:0:0:
448,192,80131,1,0,0:0:0:0:
64,192,80231,1,0,0:0:0:70:LR_Clap Reverb.wav
320,192,80231,1,0,0:0:0:100:Piano_Chord_122.wav
192,192,80331,1,0,0:0:0:0:
320,192,80431,1,0,0:0:0:0:
64,192,80531,1,0,0:0:0:0:
192,192,80631,1,0,0:0:0:70:LR_Clap Reverb.wav
320,192,80731,1,0,0:0:0:0:
192,192,80831,1,0,0:0:0:0:
448,192,80931,1,0,0:0:0:0:
64,192,81031,1,0,0:0:0:70:LR_Clap Reverb.wav
320,192,81031,1,0,0:0:0:0:
192,192,81131,1,0,0:0:0:0:
320,192,81231,1,0,0:0:0:0:
64,192,81331,1,0,0:0:0:0:
192,192,81431,1,0,0:0:0:70:LR_Clap Reverb.wav
320,192,81531,1,0,0:0:0:0:
192,192,81631,1,0,0:0:0:0:
448,192,81731,1,0,0:0:0:0:
64,192,81831,1,0,0:0:0:70:LR_Clap Reverb.wav
192,192,81831,1,0,0:0:0:100:Piano_Chord_073.wav
320,192,81931,1,0,0:0:0:0:
64,192,82031,1,0,0:0:0:0:
448,192,82131,1,0,0:0:0:0:
64,192,82231,1,0,0:0:0:70:LR_Clap Reverb.wav
320,192,82331,1,0,0:0:0:0:
64,192,82431,1,0,0:0:0:0:
448,192,82531,1,0,0:0:0:0:
64,192,82631,1,0,0:0:0:70:LR_Clap Reverb.wav
320,192,82731,1,0,0:0:0:0:
64,192,82831,1,0,0:0:0:100:Piano_Chord_127.wav
448,192,82831,1,0,0:0:0:100:Piano_Chord_061.wav
192,192,82931,1,0,0:0:0:0:
448,192,83031,1,0,0:0:0:70:LR_Clap Reverb.wav
64,192,83131,1,0,0:0:0:0:
448,192,83231,1,0,0:0:0:0:
192,192,83331,1,0,0:0:0:0:
64,192,83431,1,0,0:0:0:70:LR_Clap Reverb.wav
448,192,83431,1,0,0:0:0:100:Piano_Chord_137.wav
192,192,83531,1,0,0:0:0:0:
64,192,83631,1,0,0:0:0:0:
448,192,83731,1,0,0:0:0:0:
64,192,83831,1,0,0:0:0:70:LR_Clap Reverb.wav
320,192,83931,1,0,0:0:0:0:
64,192,84031,1,0,0:0:0:0:
448,192,84131,1,0,0:0:0:0:
64,192,84231,1,0,0:0:0:70:LR_Clap Reverb.wav
192,192,84331,1,0,0:0:0:0:
64,192,84431,1,0,0:0:0:0:
448,192,84531,1,0,0:0:0:0:
64,192,84631,1,0,0:0:0:70:LR_Clap Reverb.wav
320,192,84731,1,0,0:0:0:0:
64,192,84831,1,0,0:0:0:0:
448,192,84931,1,0,0:0:0:0:
64,192,85031,1,0,0:0:0:70:LR_Clap Reverb.wav
320,192,85031,1,0,0:0:0:100:Piano_Chord_125.wav
448,192,85131,1,0,0:0:0:0:
320,192,85231,1,0,0:0:0:0:
64,192,85331,1,0,0:0:0:0:
320,192,85431,1,0,0:0:0:70:LR_Clap Reverb.wav
192,192,85531,1,0,0:0:0:0:
320,192,85631,1,0,0:0:0:0:
64,192,85731,1,0,0:0:0:0:
320,192,85831,1,8,0:0:0:17:
448,192,85831,1,0,0:0:0:70:LR_Clap Reverb.wav
192,192,85931,1,8,0:0:0:18:
448,192,86031,1,8,0:0:0:19:
192,192,86131,1,8,0:0:0:20:
64,192,86231,1,8,0:0:0:21:
448,192,86231,1,0,0:0:0:70:LR_Clap Reverb.wav
320,192,86331,1,8,0:0:0:22:
64,192,86431,1,8,0:0:0:23:
448,192,86431,1,0,0:0:0:0:
320,192,86531,1,8,0:0:0:24:
64,192,86631,1,8,0:0:0:25:
192,192,86631,1,0,0:0:0:70:LR_Clap Reverb.wav
320,192,86731,1,8,0:0:0:26:
64,192,86831,1,8,0:0:0:27:
448,192,86831,1,0,0:0:0:0:
320,192,86931,1,8,0:0:0:28:
64,192,87031,1,8,0:0:0:29:
448,192,87031,1,0,0:0:0:70:LR_Clap Reverb.wav
192,192,87131,1,8,0:0:0:30:
320,192,87231,1,8,0:0:0:31:
448,192,87231,1,0,0:0:0:0:
192,192,87331,1,8,0:0:0:32:
320,192,87431,1,8,0:0:0:33:
448,192,87431,1,0,0:0:0:70:LR_Clap Reverb.wav
192,192,87531,1,8,0:0:0:34:
320,192,87631,1,8,0:0:0:35:
448,192,87631,1,0,0:0:0:0:
192,192,87731,1,8,0:0:0:36:
320,192,87831,1,8,0:0:0:37:
448,192,87831,1,0,0:0:0:70:LR_Clap Reverb.wav
192,192,87931,1,8,0:0:0:38:
320,192,88031,1,8,0:0:0:39:
448,192,88031,1,0,0:0:0:0:
192,192,88131,1,8,0:0:0:40:
64,192,88231,1,2,0:0:0:0:
320,192,88231,1,4,0:0:0:0:
448,192,88231,1,0,0:0:0:55:LR3_Snare FCSRL.wav
192,192,89231,128,2,89431:0:0:0:0:
448,192,89231,128,0,89431:0:0:0:0:
64,192,89431,1,0,0:0:0:70:LR_Clap Reverb.wav
320,192,89431,1,0,0:0:0:0:
192,192,89631,1,0,0:0:0:70:tom01.wav
192,192,89731,1,0,0:0:0:70:tom02.wav
64,192,89831,128,6,90031:0:0:0:0:
320,192,89831,128,0,90031:0:0:0:100:Lead_01.wav
64,192,90131,128,6,90331:0:0:0:0:
320,192,90131,128,0,90331:0:0:0:100:Lead_01.wav
64,192,90431,1,6,0:0:0:0:
320,192,90431,1,0,0:0:0:100:Lead_02.wav
192,192,91031,128,6,91231:0:0:0:0:
448,192,91031,128,0,91231:0:0:0:100:Lead_03.wav
192,192,91331,128,6,91531:0:0:0:0:
448,192,91331,128,0,91531:0:0:0:100:Lead_03.wav
192,192,91631,1,6,0:0:0:0:
448,192,91631,1,0,0:0:0:100:Lead_04.wav
64,192,91831,1,0,0:0:0:0:
192,192,91831,1,0,0:0:0:0:
320,192,91931,1,0,0:0:0:0:
448,192,91931,1,0,0:0:0:0:
64,192,92031,128,0,92131:0:0:0:0:
192,192,92031,128,0,92131:0:0:0:0:
64,192,92231,1,8,0:0:0:0:
192,192,92231,1,0,0:0:0:0:
448,192,92231,128,0,92631:0:0:0:0:
64,192,92631,128,2,93031:0:0:0:0:
192,192,92631,128,4,93031:0:0:0:0:
320,192,93031,1,2,0:0:0:0:
448,192,93031,1,0,0:0:0:0:
448,192,93231,1,0,0:0:0:0:
448,192,93431,1,0,0:0:0:0:
64,192,93631,1,2,0:0:0:0:
192,192,93631,1,0,0:0:0:0:
64,192,93831,1,8,0:0:0:0:
448,192,93831,1,0,0:0:0:0:
448,192,93931,1,0,0:0:0:0:
192,192,94031,1,0,0:0:0:0:
320,192,94131,1,0,0:0:0:0:
64,192,94231,1,0,0:0:0:0:
64,192,94331,1,0,0:0:0:0:
320,192,94431,1,0,0:0:0:0:
192,192,94531,1,0,0:0:0:0:
64,192,94631,1,2,0:0:0:0:
448,192,94631,1,0,0:0:0:0:
320,192,94831,1,0,0:0:0:0:
64,192,95031,1,0,0:0:0:0:
320,192,95031,1,0,0:0:0:0:
64,192,95231,1,2,0:0:0:0:
192,192,95231,1,0,0:0:0:0:
64,192,95431,128,8,95631:0:0:0:0:
192,192,95431,128,0,95631:0:0:0:0:
448,192,95431,1,0,0:0:0:0:
320,192,95631,128,0,95697:0:0:0:0:
448,192,95631,128,0,95697:0:0:0:0:
64,192,95831,128,0,96031:0:0:0:0:
448,192,95831,128,0,96031:0:0:0:0:
192,192,96031,128,0,96097:0:0:0:0:
320,192,96031,128,0,96097:0:0:0:0:
64,192,96231,128,2,96531:0:0:0:0:
192,192,96231,128,0,96531:0:0:0:0:
448,192,96231,1,0,0:0:0:0:
64,192,96631,128,2,96931:0:0:0:0:
192,192,96631,128,0,96931:0:0:0:0:
448,192,96631,1,0,0:0:0:0:
64,192,97031,1,8,0:0:0:0:
448,192,97031,1,0,0:0:0:0:
320,192,97097,1,0,0:0:0:0:
192,192,97164,1,0,0:0:0:0:
448,192,97231,1,0,0:0:0:0:
192,192,97297,1,0,0:0:0:0:
64,192,97364,1,0,0:0:0:0:
320,192,97431,1,0,0:0:0:0:
448,192,97497,1,0,0:0:0:0:
192,192,97564,1,0,0:0:0:0:
448,192,97631,1,0,0:0:0:0:
320,192,97697,1,0,0:0:0:0:
192,192,97764,1,0,0:0:0:0:
64,192,97831,1,2,0:0:0:0:
448,192,97831,1,0,0:0:0:0:
64,192,98031,1,0,0:0:0:0:
64,192,98231,1,0,0:0:0:0:
64,192,98431,1,0,0:0:0:0:
320,192,98481,1,0,0:0:0:0:
192,192,98531,1,0,0:0:0:0:
64,192,98581,1,0,0:0:0:0:
320,192,98631,1,8,0:0:0:0:
448,192,98631,1,0,0:0:0:0:
64,192,98731,1,0,0:0:0:0:
192,192,98731,1,0,0:0:0:0:
320,192,98831,1,0,0:0:0:0:
448,192,98831,1,0,0:0:0:0:
64,192,98931,1,0,0:0:0:0:
192,192,98931,1,0,0:0:0:0:
320,192,99031,128,0,99131:0:0:0:0:
448,192,99031,128,0,99131:0:0:0:0:
320,192,99231,128,0,99331:0:0:0:0:
448,192,99231,128,0,99331:0:0:0:0:
64,192,99431,128,2,99731:0:0:0:0:
192,192,99431,128,0,99731:0:0:0:0:
320,192,99431,1,0,0:0:0:0:
64,192,99831,128,2,100131:0:0:0:0:
192,192,99831,128,0,100131:0:0:0:0:
320,192,99831,1,0,0:0:0:0:
64,192,100231,1,0,0:0:0:0:
448,192,100231,1,0,0:0:0:0:
64,192,101031,1,0,0:0:0:70:LR_Clap Reverb.wav
448,192,101031,128,0,101131:0:0:0:0:
192,192,101131,128,0,101231:0:0:0:0:
448,192,101231,128,0,101331:0:0:0:0:
192,192,101331,128,0,101431:0:0:0:0:
448,192,101431,128,0,101531:0:0:0:70:LR_Clap Reverb.wav
320,192,101531,128,0,101631:0:0:0:0:
448,192,101631,128,0,101731:0:0:0:0:
320,192,101731,128,0,101831:0:0:0:0:
448,192,101831,1,8,0:0:0:55:LR3_Snare FCSRL.wav
64,192,101831,128,0,101931:0:0:0:0:
320,192,101931,128,0,102031:0:0:0:0:
64,192,102031,128,0,102131:0:0:0:70:LR_Clap Reverb.wav
320,192,102131,128,0,102231:0:0:0:0:
64,192,102231,128,0,102331:0:0:0:70:LR_Clap Reverb.wav
192,192,102331,128,0,102431:0:0:0:0:
64,192,102431,128,0,102531:0:0:0:70:LR_Clap Reverb.wav
192,192,102531,128,0,102631:0:0:0:0:
64,192,102631,1,2,0:0:0:0:
448,192,102631,1,4,0:0:0:0:
192,192,102831,1,0,0:0:0:0:
448,192,102831,1,0,0:0:0:0:
192,192,102931,1,0,0:0:0:0:
64,192,103031,1,8,0:0:0:0:
320,192,103031,128,0,103231:0:0:0:0:
448,192,103031,128,0,103231:0:0:0:0:
192,192,103231,1,0,0:0:0:0:
64,192,103431,1,2,0:0:0:0:
448,192,103431,1,0,0:0:0:0:
192,192,103564,1,0,0:0:0:0:
320,192,103597,1,0,0:0:0:0:
448,192,103631,1,0,0:0:0:0:
192,192,103731,1,0,0:0:0:0:
64,192,103831,1,8,0:0:0:0:
448,192,103831,1,0,0:0:0:0:
64,192,103931,1,0,0:0:0:0:
320,192,104031,1,0,0:0:0:0:
320,192,104131,1,0,0:0:0:0:
64,192,104231,1,2,0:0:0:0:
192,192,104231,1,0,0:0:0:0:
448,192,104231,1,0,0:0:0:0:
64,192,104431,1,0,0:0:0:0:
448,192,104431,1,0,0:0:0:0:
448,192,104531,1,0,0:0:0:0:
64,192,104631,1,8,0:0:0:0:
320,192,104631,1,0,0:0:0:0:
192,192,104731,1,0,0:0:0:0:
320,192,104831,1,0,0:0:0:0:
192,192,104931,1,0,0:0:0:0:
64,192,105031,128,2,105231:0:0:0:0:
320,192,105031,1,0,0:0:0:0:
448,192,105031,128,0,105231:0:0:0:0:
192,192,105231,1,0,0:0:0:0:
192,192,105331,1,0,0:0:0:0:
64,192,105431,128,8,105631:0:0:0:0:
320,192,105431,1,0,0:0:0:0:
448,192,105431,1,0,0:0:0:0:
192,192,105631,1,0,0:0:0:0:
64,192,105831,1,2,0:0:0:0:
192,192,105831,1,0,0:0:0:0:
448,192,105831,1,0,0:0:0:0:
320,192,106031,1,0,0:0:0:0:
448,192,106031,1,0,0:0:0:0:
192,192,106131,1,0,0:0:0:0:
64,192,106231,1,8,0:0:0:0:
320,192,106231,1,0,0:0:0:0:
448,192,106281,1,0,0:0:0:0:
192,192,106331,1,0,0:0:0:0:
64,192,106381,1,0,0:0:0:0:
320,192,106431,1,0,0:0:0:0:
320,192,106531,1,0,0:0:0:0:
64,192,106631,128,2,106731:0:0:0:0:
192,192,106631,128,0,106731:0:0:0:0:
448,192,106631,1,0,0:0:0:0:
64,192,106831,128,0,106931:0:0:0:0:
192,192,106831,128,0,106931:0:0:0:0:
64,192,107031,1,8,0:0:0:0:
448,192,107031,1,0,0:0:0:0:
192,192,107097,1,0,0:0:0:0:
320,192,107164,1,0,0:0:0:0:
64,192,107231,1,0,0:0:0:0:
448,192,107231,128,0,107431:0:0:0:0:
64,192,107431,1,2,0:0:0:0:
192,192,107431,1,0,0:0:0:0:
64,192,107631,1,0,0:0:0:0:
448,192,107631,1,0,0:0:0:0:
192,192,107731,1,0,0:0:0:0:
192,192,107831,1,8,0:0:0:0:
448,192,107831,1,0,0:0:0:0:
64,192,107931,128,0,108031:0:0:0:0:
320,192,107931,128,0,108031:0:0:0:0:
192,192,108131,1,0,0:0:0:0:
64,192,108231,1,2,0:0:0:0:
448,192,108231,1,0,0:0:0:0:
320,192,108331,128,0,108431:0:0:0:0:
192,192,108431,1,0,0:0:0:0:
448,192,108431,1,0,0:0:0:0:
64,192,108531,1,0,0:0:0:0:
192,192,108631,1,8,0:0:0:0:
320,192,108631,128,0,108831:0:0:0:0:
448,192,108631,128,0,108831:0:0:0:0:
64,192,108831,128,0,108931:0:0:0:0:
192,192,108831,128,0,108931:0:0:0:0:
64,192,109031,1,2,0:0:0:0:
192,192,109031,1,0,0:0:0:0:
448,192,109031,1,0,0:0:0:0:
320,192,109231,1,0,0:0:0:0:
320,192,109331,1,0,0:0:0:0:
64,192,109431,128,8,109631:0:0:0:0:
448,192,109431,1,0,0:0:0:0:
320,192,109631,1,0,0:0:0:0:
448,192,109631,1,0,0:0:0:0:
64,192,109731,1,0,0:0:0:0:
192,192,109731,1,0,0:0:0:0:
320,192,109831,128,2,110031:0:0:0:0:
448,192,109831,128,0,110031:0:0:0:0:
64,192,110231,1,8,0:0:0:0:
448,192,110231,1,0,0:0:0:0:
192,192,110281,1,0,0:0:0:0:
448,192,110331,1,0,0:0:0:0:
320,192,110381,1,0,0:0:0:0:
64,192,110431,128,0,110631:0:0:0:0:
192,192,110431,1,0,0:0:0:0:
320,192,110631,1,2,0:0:0:0:
448,192,110631,1,0,0:0:0:0:
320,192,110831,1,0,0:0:0:0:
64,192,110931,1,0,0:0:0:0:
320,192,110931,1,0,0:0:0:0:
192,192,111031,1,8,0:0:0:0:
448,192,111031,1,0,0:0:0:0:
448,192,111231,1,0,0:0:0:0:
320,192,111281,1,0,0:0:0:0:
192,192,111331,1,0,0:0:0:0:
64,192,111381,1,0,0:0:0:0:
320,192,111431,1,2,0:0:0:0:
448,192,111431,1,0,0:0:0:0:
64,192,111531,1,0,0:0:0:0:
192,192,111531,1,0,0:0:0:0:
192,192,111631,1,0,0:0:0:0:
448,192,111731,1,0,0:0:0:0:
64,192,111831,1,8,0:0:0:0:
320,192,111831,1,0,0:0:0:0:
192,192,111931,1,0,0:0:0:0:
320,192,112031,1,0,0:0:0:0:
192,192,112131,1,0,0:0:0:0:
64,192,112231,1,2,0:0:0:0:
448,192,112231,1,0,0:0:0:0:
64,192,112431,1,0,0:0:0:0:
192,192,112481,1,0,0:0:0:0:
320,192,112531,1,0,0:0:0:0:
192,192,112631,1,8,0:0:0:0:
320,192,112631,1,0,0:0:0:0:
64,192,112731,1,0,0:0:0:0:
192,192,112831,128,0,113031:0:0:0:0:
320,192,113031,1,2,0:0:0:0:
448,192,113031,1,0,0:0:0:0:
64,192,113131,1,0,0:0:0:0:
320,192,113231,1,0,0:0:0:0:
320,192,113331,1,0,0:0:0:0:
64,192,113431,1,8,0:0:0:0:
192,192,113431,1,0,0:0:0:0:
448,192,113531,1,0,0:0:0:0:
192,192,113631,1,0,0:0:0:0:
192,192,113731,1,0,0:0:0:0:
320,192,113831,1,2,0:0:0:0:
448,192,113831,1,0,0:0:0:0:
192,192,114031,1,0,0:0:0:0:
192,192,114131,1,0,0:0:0:0:
64,192,114231,1,8,0:0:0:0:
448,192,114231,1,0,0:0:0:0:
448,192,114331,1,0,0:0:0:0:
192,192,114431,1,0,0:0:0:0:
320,192,114531,1,0,0:0:0:0:
64,192,114631,1,2,0:0:0:0:
448,192,114631,1,0,0:0:0:0:
64,192,114731,1,0,0:0:0:0:
192,192,114831,1,8,0:0:0:0:
320,192,114831,128,0,115431:0:0:0:0:
448,192,114831,128,0,115431:0:0:0:0:
64,192,115431,1,2,0:0:0:0:
192,192,115431,1,0,0:0:0:0:
64,192,115631,1,0,0:0:0:0:
320,192,115631,1,0,0:0:0:0:
320,192,115731,1,0,0:0:0:0:
64,192,115831,128,8,116031:0:0:0:0:
192,192,115831,128,0,116031:0:0:0:0:
448,192,115831,1,0,0:0:0:0:
320,192,116031,1,0,0:0:0:0:
64,192,116231,1,2,0:0:0:0:
448,192,116231,1,0,0:0:0:0:
320,192,116364,1,0,0:0:0:0:
192,192,116397,1,0,0:0:0:0:
64,192,116431,1,0,0:0:0:0:
320,192,116531,1,0,0:0:0:0:
64,192,116631,1,8,0:0:0:0:
448,192,116631,1,0,0:0:0:0:
448,192,116731,1,0,0:0:0:0:
192,192,116831,1,0,0:0:0:0:
192,192,116931,1,0,0:0:0:0:
64,192,117031,1,2,0:0:0:0:
320,192,117031,1,0,0:0:0:0:
448,192,117031,1,0,0:0:0:0:
64,192,117231,1,0,0:0:0:0:
448,192,117231,1,0,0:0:0:0:
64,192,117331,1,0,0:0:0:0:
192,192,117431,1,8,0:0:0:0:
448,192,117431,1,0,0:0:0:0:
320,192,117531,1,0,0:0:0:0:
192,192,117631,1,0,0:0:0:0:
320,192,117731,1,0,0:0:0:0:
64,192,117831,128,2,118031:0:0:0:0:
192,192,117831,128,0,118031:0:0:0:0:
448,192,117831,1,0,0:0:0:0:
320,192,118031,128,0,118231:0:0:0:0:
448,192,118031,128,0,118231:0:0:0:0:
64,192,118231,1,8,0:0:0:0:
320,192,118431,1,0,0:0:0:0:
64,192,118631,1,2,0:0:0:0:
320,192,118631,1,0,0:0:0:0:
448,192,118631,1,0,0:0:0:0:
64,192,118831,1,0,0:0:0:0:
192,192,118831,1,0,0:0:0:0:
320,192,118931,1,0,0:0:0:0:
192,192,119031,1,8,0:0:0:0:
448,192,119031,1,0,0:0:0:0:
64,192,119081,1,0,0:0:0:0:
320,192,119131,1,0,0:0:0:0:
448,192,119181,1,0,0:0:0:0:
192,192,119231,1,0,0:0:0:0:
192,192,119331,1,0,0:0:0:0:
64,192,119431,1,2,0:0:0:0:
320,192,119431,128,0,119531:0:0:0:0:
448,192,119431,128,0,119531:0:0:0:0:
320,192,119631,128,0,119731:0:0:0:0:
448,192,119631,128,0,119731:0:0:0:0:
64,192,119831,1,8,0:0:0:0:
448,192,119831,1,0,0:0:0:0:
192,192,119897,1,0,0:0:0:0:
320,192,119964,1,0,0:0:0:0:
448,192,120031,1,0,0:0:0:0:
64,192,120031,128,0,120231:0:0:0:0:
320,192,120231,1,2,0:0:0:0:
448,192,120231,1,0,0:0:0:0:
64,192,120431,1,0,0:0:0:0:
448,192,120431,1,0,0:0:0:0:
320,192,120531,1,0,0:0:0:0:
64,192,120631,1,8,0:0:0:0:
320,192,120631,1,0,0:0:0:0:
192,192,120731,128,0,120831:0:0:0:0:
448,192,120731,128,0,120831:0:0:0:0:
320,192,120931,1,0,0:0:0:0:
64,192,121031,1,2,0:0:0:0:
448,192,121031,1,0,0:0:0:0:
192,192,121131,128,0,121231:0:0:0:0:
64,192,121231,1,0,0:0:0:0:
320,192,121231,1,0,0:0:0:0:
448,192,121331,1,0,0:0:0:0:
64,192,121431,128,8,121631:0:0:0:0:
192,192,121431,128,0,121631:0:0:0:0:
320,192,121431,1,0,0:0:0:0:
320,192,121631,128,0,121731:0:0:0:0:
448,192,121631,128,0,121731:0:0:0:0:
64,192,121831,1,2,0:0:0:0:
320,192,121831,1,0,0:0:0:0:
448,192,121831,1,0,0:0:0:0:
192,192,122031,1,0,0:0:0:0:
192,192,122131,1,0,0:0:0:0:
64,192,122231,1,8,0:0:0:0:
448,192,122231,128,0,122431:0:0:0:0:
64,192,122431,1,0,0:0:0:0:
192,192,122431,1,0,0:0:0:0:
320,192,122531,1,0,0:0:0:0:
448,192,122531,1,0,0:0:0:0:
64,192,122631,128,2,122831:0:0:0:0:
192,192,122631,128,0,122831:0:0:0:0:
64,192,123031,1,8,0:0:0:0:
448,192,123031,1,0,0:0:0:0:
320,192,123081,1,0,0:0:0:0:
64,192,123131,1,0,0:0:0:0:
192,192,123181,1,0,0:0:0:0:
320,192,123231,1,0,0:0:0:0:
448,192,123231,128,0,123431:0:0:0:0:
64,192,123431,1,2,0:0:0:0:
192,192,123431,1,0,0:0:0:0:
192,192,123631,1,0,0:0:0:0:
192,192,123731,1,0,0:0:0:0:
448,192,123731,1,0,0:0:0:0:
64,192,123831,1,8,0:0:0:0:
320,192,123831,1,0,0:0:0:0:
64,192,124031,1,0,0:0:0:0:
192,192,124081,1,0,0:0:0:0:
320,192,124131,1,0,0:0:0:0:
448,192,124181,1,0,0:0:0:0:
64,192,124231,1,2,0:0:0:0:
192,192,124231,1,0,0:0:0:0:
320,192,124331,1,0,0:0:0:0:
448,192,124331,1,0,0:0:0:0:
320,192,124431,1,0,0:0:0:0:
64,192,124531,1,0,0:0:0:0:
192,192,124631,1,8,0:0:0:0:
448,192,124631,1,0,0:0:0:0:
320,192,124731,1,0,0:0:0:0:
192,192,124831,1,0,0:0:0:0:
320,192,124931,1,0,0:0:0:0:
64,192,125031,1,2,0:0:0:0:
448,192,125031,1,0,0:0:0:0:
448,192,125231,1,0,0:0:0:0:
320,192,125281,1,0,0:0:0:0:
192,192,125331,1,0,0:0:0:0:
192,192,125431,1,8,0:0:0:0:
320,192,125431,1,0,0:0:0:0:
448,192,125531,1,0,0:0:0:0:
320,192,125631,128,0,125831:0:0:0:0:
64,192,125831,1,2,0:0:0:0:
448,192,125831,1,0,0:0:0:0:
64,192,125931,1,0,0:0:0:0:
320,192,126031,1,0,0:0:0:0:
64,192,126131,1,0,0:0:0:0:
192,192,126231,1,8,0:0:0:0:
448,192,126231,1,0,0:0:0:0:
448,192,126331,1,0,0:0:0:0:
192,192,126431,1,0,0:0:0:0:
448,192,126531,1,0,0:0:0:0:
64,192,126631,1,2,0:0:0:0:
320,192,126631,1,0,0:0:0:0:
320,192,126831,1,0,0:0:0:0:
192,192,126931,1,0,0:0:0:0:
64,192,127031,1,8,0:0:0:0:
448,192,127031,1,0,0:0:0:0:
64,192,127131,1,0,0:0:0:0:
320,192,127231,1,0,0:0:0:0:
192,192,127331,1,0,0:0:0:0:
64,192,127431,1,2,0:0:0:0:
448,192,127431,1,0,0:0:0:0:
448,192,127531,1,0,0:0:0:0:
64,192,127631,128,8,128231:0:0:0:0:
192,192,127631,128,0,128231:0:0:0:0:
320,192,127631,1,0,0:0:0:0:
320,192,128231,1,6,0:0:0:0:
448,192,128231,1,0,0:0:0:100:Piano_Chord_043.wav
320,192,128431,1,0,0:0:0:0:
448,192,128631,1,0,0:0:0:0:
448,192,128831,1,0,0:0:0:0:
192,192,129031,1,0,0:0:0:0:
192,192,129231,1,0,0:0:0:0:
448,192,129431,1,0,0:0:0:0:
448,192,129631,1,0,0:0:0:0:
64,192,129831,1,0,0:0:0:100:Piano_Chord_152.wav
448,192,129831,1,0,0:0:0:100:Piano_Chord_013.wav
64,192,130031,1,0,0:0:0:0:
64,192,130231,1,0,0:0:0:0:
320,192,130431,1,0,0:0:0:0:
64,192,130631,1,0,0:0:0:100:Piano_Chord_135.wav
320,192,130631,1,0,0:0:0:0:
320,192,130831,1,0,0:0:0:0:
64,192,131031,1,0,0:0:0:0:
64,192,131231,1,0,0:0:0:0:
192,192,131431,1,0,0:0:0:100:Piano_Chord_007.wav
448,192,131431,1,0,0:0:0:100:Piano_Chord_132.wav
192,192,131631,1,0,0:0:0:0:
448,192,131831,1,0,0:0:0:0:
448,192,132031,1,0,0:0:0:0:
192,192,132231,1,0,0:0:0:0:
192,192,132431,1,0,0:0:0:0:
448,192,132631,1,0,0:0:0:0:
448,192,132831,1,0,0:0:0:0:
192,192,133031,1,0,0:0:0:100:Piano_Chord_018.wav
448,192,133031,1,0,0:0:0:100:Piano_Chord_134.wav
192,192,133231,1,0,0:0:0:0:
192,192,133431,1,0,0:0:0:0:
64,192,133631,1,0,0:0:0:0:
320,192,133831,1,0,0:0:0:0:
64,192,134031,1,0,0:0:0:100:Piano_Chord_023.wav
320,192,134031,1,0,0:0:0:100:Piano_Chord_142.wav
64,192,134231,1,0,0:0:0:0:
320,192,134431,1,0,0:0:0:0:
64,192,134631,1,0,0:0:0:100:Piano_Chord_017.wav
320,192,134631,1,0,0:0:0:100:Piano_Chord_152.wav
64,192,134831,1,0,0:0:0:0:
192,192,135031,1,0,0:0:0:0:
192,192,135231,1,0,0:0:0:0:
448,192,135431,1,0,0:0:0:0:
448,192,135631,1,0,0:0:0:0:
192,192,135831,1,0,0:0:0:0:
192,192,136031,1,0,0:0:0:0:
64,192,136231,1,0,0:0:0:100:Piano_Chord_147.wav
192,192,136231,1,0,0:0:0:100:Piano_Chord_014.wav
64,192,136431,1,0,0:0:0:0:
448,192,136631,1,0,0:0:0:0:
448,192,136831,1,0,0:0:0:0:
64,192,137031,1,0,0:0:0:100:Piano_Chord_003.wav
320,192,137031,1,0,0:0:0:100:Piano_Chord_156.wav
320,192,137231,1,0,0:0:0:0:
192,192,137431,1,0,0:0:0:0:
192,192,137631,1,0,0:0:0:0:
64,192,137831,1,0,0:0:0:100:Piano_Chord_029.wav
320,192,137831,1,0,0:0:0:100:Piano_Chord_133.wav
64,192,138031,1,0,0:0:0:0:
320,192,138231,1,0,0:0:0:0:
320,192,138431,1,0,0:0:0:0:
448,192,138631,1,0,0:0:0:0:
448,192,138831,1,0,0:0:0:0:
64,192,139031,1,0,0:0:0:0:
64,192,139231,1,0,0:0:0:0:
64,192,139431,128,0,139831:0:0:0:100:Piano_Chord_008.wav
320,192,139431,1,0,0:0:0:100:Piano_Chord_153.wav
192,192,139631,1,0,0:0:0:0:
192,192,139831,128,0,140231:0:0:0:0:
448,192,139831,1,0,0:0:0:0:
320,192,140031,1,0,0:0:0:0:
64,192,140231,1,0,0:0:0:0:
320,192,140231,128,0,140431:0:0:0:0:
448,192,140431,1,0,0:0:0:0:
192,192,140631,1,0,0:0:0:0:
448,192,140631,128,0,140831:0:0:0:0:
64,192,140831,1,0,0:0:0:0:
320,192,140831,128,0,141081:0:0:0:0:
64,192,141031,128,0,141081:0:0:0:100:Piano_Chord_000.wav
192,192,141031,128,0,141081:0:0:0:100:Piano_Chord_042.wav
