osu file format v14

[General]
AudioFilename: audio.mp3
AudioLeadIn: 0
PreviewTime: 93212
Countdown: 0
SampleSet: Soft
StackLeniency: 0.7
Mode: 2
LetterboxInBreaks: 0
WidescreenStoryboard: 1

[Editor]
DistanceSpacing: 0.8
BeatDivisor: 4
GridSize: 16
TimelineZoom: 2.6

[Metadata]
Title:Midnight, Sunrise Sign
TitleUnicode:Midnight, Sunrise Sign
Artist:siqlo
ArtistUnicode:siqlo
Creator:Rocma
Version:Salad
Source:
Tags:Electronic Instrumental bofu 2015 bms of fighters hardcore dubstep wobble bass emotional emotions saikuro
BeatmapID:2546411
BeatmapSetID:1224186

[Difficulty]
HPDrainRate:3
CircleSize:2.8
OverallDifficulty:6.8
ApproachRate:6.8
SliderMultiplier:1.6
SliderTickRate:1

[Events]
//Background and Video events
0,0,"BG.jpg",0,0
//Break Periods
//Storyboard Layer 0 (Background)
//Storyboard Layer 1 (Fail)
//Storyboard Layer 2 (Pass)
//Storyboard Layer 3 (Foreground)
//Storyboard Layer 4 (Overlay)
//Storyboard Sound Samples

[TimingPoints]
2948,352.941176470588,4,2,2,50,1,0
14242,-100,4,2,2,70,0,0
25536,-100,4,2,3,80,0,1
25624,-100,4,2,3,70,0,0
29153,-100,4,2,3,5,0,0
29242,-100,4,2,3,70,0,0
31183,-100,4,2,3,80,0,1
31271,-100,4,2,3,70,0,0
36830,-100,4,2,3,50,0,0
37183,-100,4,2,2,80,0,1
42477,-100,4,2,2,50,0,0
42830,-100,4,2,2,80,0,1
47418,-100,4,2,2,50,0,0
80595,-100,4,2,3,70,0,0
82006,-100,4,2,2,60,0,0
87653,-100,4,2,2,50,0,0
92065,-100,4,2,3,80,0,0
92771,-100,4,2,3,70,0,0
93300,-100,4,2,3,75,0,1
103183,-100,4,2,3,60,0,0
104595,-100,4,2,3,75,0,1
116065,-100,4,2,3,55,0,0
116595,-100,4,2,3,45,0,0
117300,-100,4,2,3,35,0,0
118006,-100,4,2,3,25,0,0
118712,-100,4,2,3,15,0,0

[Colours]
Combo1 : 181,85,251
Combo2 : 0,179,255

[HitObjects]
272,272,2948,5,2,0:0:0:0:
368,272,3124,2,0,L|384:160,1,80,2|0,0:0|0:0,0:0:0:0:
224,80,3653,1,0,0:0:0:0:
144,80,3830,2,0,P|89:126|160:176,1,160,2|0,0:0|0:0,0:0:0:0:
272,320,4536,6,0,L|352:320,2,80,2|0|2,0:0|0:0|0:0,0:0:0:0:
192,288,5065,2,0,P|112:240|208:160,1,240,0|2,0:0|0:0,0:0:0:0:
352,160,5771,6,0,L|432:160,1,80,2|2,0:0|0:0,0:0:0:0:
304,176,6300,1,2,0:0:0:0:
240,192,6477,1,0,0:0:0:0:
176,208,6653,2,0,P|124:260|178:309,1,160,2|0,0:0|0:0,0:0:0:0:
336,304,7359,6,0,L|448:304,2,80,2|0|0,0:0|0:0|0:0,0:0:0:0:
240,272,7889,2,0,P|176:240|256:128,1,240,2|0,0:0|0:0,0:0:0:0:
336,128,8595,6,0,L|432:128,2,80,2|2|0,0:0|0:0|0:0,0:0:0:0:
160,128,9300,2,0,P|176:192|272:240,1,160,0|0,0:0|0:0,0:0:0:0:
352,240,9830,1,0,0:0:0:0:
256,304,10183,6,0,L|240:224,1,80,2|2,0:0|0:0,0:0:0:0:
320,208,10536,1,2,0:0:0:0:
400,192,10712,2,0,P|448:160|384:96,1,160,2|2,0:0|0:0,0:0:0:0:
320,96,11242,1,0,0:0:0:0:
160,80,11418,6,0,L|80:80,1,80,2|2,0:0|0:0,0:0:0:0:
64,128,11771,2,0,L|144:128,1,80,0|2,0:0|0:0,0:0:0:0:
224,128,12124,1,0,0:0:0:0:
144,128,12300,1,2,0:0:0:0:
96,192,12477,1,0,0:0:0:0:
144,256,12653,1,0,0:0:0:0:
320,208,12830,6,0,L|512:208,1,160,4|0,0:0|0:0,0:0:0:0:
400,208,13359,1,0,0:0:0:0:
320,208,13536,2,0,B|480:208,1,160,2|0,0:0|0:0,0:0:0:0:
160,80,14242,6,0,P|96:96|64:192,1,160,4|4,0:0|0:0,0:0:0:0:
224,176,14947,2,0,P|288:192|320:288,1,160,4|4,0:0|0:0,0:0:0:0:
160,336,15653,6,0,P|80:272|176:192,1,240,4|0,0:0|0:0,0:0:0:0:
384,192,16712,2,0,L|464:192,1,80,4|4,0:0|0:0,0:0:0:0:
304,192,17065,6,0,L|128:192,1,160,4|4,0:0|0:0,0:0:0:0:
224,128,17595,2,0,L|400:128,1,160,0|0,0:0|0:0,0:0:0:0:
304,128,18124,1,4,0:0:0:0:
464,208,18477,6,0,P|448:256|320:288,1,160,4|4,0:0|0:0,0:0:0:0:
176,240,19183,2,0,P|192:288|320:320,1,160,4|4,0:0|0:0,0:0:0:0:
368,336,19712,1,4,0:0:0:0:
208,336,19889,6,0,L|48:336,3,160,4|4|4|4,0:0|0:0|0:0|0:0,0:0:0:0:
208,240,21300,6,0,L|368:240,1,160,4|4,0:0|0:0,0:0:0:0:
288,240,21830,1,0,0:0:0:0:
144,192,22183,2,0,L|128:112,1,80,0|4,0:0|0:0,0:0:0:0:
416,112,22712,6,0,P|465:144|400:208,1,160,4|4,0:0|0:0,0:0:0:0:
336,224,23242,1,4,0:0:0:0:
256,224,23418,1,4,0:0:0:0:
336,224,23595,1,0,0:0:0:0:
416,224,23771,1,4,0:0:0:0:
112,224,24124,6,0,P|63:271|134:321,1,160,8|4,0:0|0:0,0:0:0:0:
192,320,24653,2,0,L|304:320,2,80,8|0|4,0:0|0:0|0:0,0:0:0:0:
112,320,25183,1,8,0:0:0:0:
416,288,25536,6,0,P|464:240|416:176,1,160,4|0,0:3|0:0,0:0:0:0:
256,160,26065,1,8,0:0:0:0:
176,224,26242,2,0,P|128:176|176:112,1,160,4|8,0:0|0:0,0:0:0:0:
336,112,26947,6,0,L|432:112,2,80,2|8|4,0:0|0:0|0:0,0:0:0:0:
176,112,27653,2,0,L|80:112,2,80,2|8|4,0:0|0:0|0:0,0:0:0:0:
480,176,28359,6,0,P|480:224|384:288,1,160,4|2,0:0|0:0,0:0:0:0:
320,288,28889,1,0,0:0:0:0:
160,288,29065,1,8,0:0:0:0:
112,96,29771,6,0,L|16:96,1,80,2|4,0:0|0:0,0:0:0:0:
32,176,30124,2,0,L|112:176,1,80,4|8,0:0|0:0,0:0:0:0:
192,176,30477,2,0,L|288:176,1,80,2|4,0:0|0:0,0:0:0:0:
272,256,30830,2,0,L|176:256,1,80,8|8,0:0|0:0,0:0:0:0:
352,288,31183,6,0,P|401:226|320:192,1,160,4|0,0:3|0:0,0:0:0:0:
272,176,31712,1,0,0:0:0:0:
112,176,31889,2,0,L|16:176,1,80,4|4,0:0|0:0,0:0:0:0:
32,176,32242,2,0,L|112:176,1,80,4|4,0:0|0:0,0:0:0:0:
272,176,32595,6,0,L|448:176,1,160,8|8,0:0|0:0,0:0:0:0:
128,272,33300,2,0,P|80:240|144:96,1,240,2|0,0:0|0:0,0:0:0:0:
224,96,34006,6,0,L|224:192,1,80,4|0,0:0|0:0,0:0:0:0:
128,160,34359,2,0,L|128:256,1,80,0|0,0:0|0:0,0:0:0:0:
288,272,34712,2,0,L|448:272,1,160,8|0,0:0|0:0,0:0:0:0:
288,240,35418,6,0,P|236:182|288:144,1,160,8|8,0:0|0:0,0:0:0:0:
448,96,36124,2,0,L|352:96,1,80,2|0,0:0|0:0,0:0:0:0:
288,96,36477,2,0,L|208:96,1,80,2|0,0:0|0:0,0:0:0:0:
304,144,36830,6,0,L|304:336,1,160,0|4,0:0|0:0,0:0:0:0:
224,304,37359,1,0,0:0:0:0:
384,144,37536,6,0,P|433:204|371:254,1,160,8|8,0:0|0:0,0:0:0:0:
224,240,38242,2,0,L|112:240,2,80,4|4|4,0:0|0:0|0:0,0:0:0:0:
384,240,38947,1,4,0:0:0:0:
224,224,39124,1,2,0:0:0:0:
192,144,39300,2,0,L|208:48,1,80,2|2,0:0|0:0,0:0:0:0:
304,64,39653,6,0,P|356:108|304:160,1,160,0|4,0:0|0:0,0:0:0:0:
144,176,40359,2,0,L|64:176,2,80,4|0|4,0:0|0:0|0:0,0:0:0:0:
304,160,41065,6,0,L|320:272,1,80,2|2,0:0|0:0,0:0:0:0:
224,256,41418,1,4,0:0:0:0:
384,320,41771,2,0,L|464:320,1,80,4|4,0:0|0:0,0:0:0:0:
464,256,42124,2,0,L|384:256,1,80,0|4,0:0|0:0,0:0:0:0:
224,256,42477,6,0,P|176:224|244:159,1,160,0|4,0:0|0:0,0:0:0:0:
368,160,43183,2,0,L|448:160,1,80,8|0,0:0|0:0,0:0:0:0:
288,160,43536,2,0,L|208:160,1,80,8|0,0:0|0:0,0:0:0:0:
304,128,43889,2,0,L|384:128,2,80,4|4|4,0:0|0:0|0:0,0:0:0:0:
144,128,44595,5,4,0:0:0:0:
304,160,44771,2,0,L|400:160,2,80,2|2|2,0:0|0:0|0:0,0:0:0:0:
208,160,45300,6,0,P|153:209|208:240,1,160,0|4,0:0|0:0,0:0:0:0:
368,224,46006,2,0,L|448:224,1,80,4|0,0:0|0:0,0:0:0:0:
368,224,46359,2,0,L|288:224,1,80,4|0,0:0|0:0,0:0:0:0:
192,224,46712,6,0,P|144:192|208:128,1,160,2|4,0:0|0:0,0:0:0:0:
368,224,47418,2,0,P|416:192|352:128,1,160,8|8,0:0|0:0,0:0:0:0:
48,144,48124,6,0,L|48:304,1,160,2|0,0:0|0:0,0:0:0:0:
192,304,48830,1,0,0:0:0:0:
256,272,49006,2,0,L|256:96,1,160,0|0,0:0|0:0,0:0:0:0:
320,304,49536,6,0,P|384:272|304:80,1,320,0|0,0:0|0:0,0:0:0:0:
256,80,50418,1,0,0:0:0:0:
192,80,50595,1,0,0:0:0:0:
256,80,50771,1,0,0:0:0:0:
320,80,50947,6,0,L|320:256,1,160,0|0,0:0|0:0,0:0:0:0:
192,80,51653,2,0,L|192:256,1,160,0|0,0:0|0:0,0:0:0:0:
256,240,52183,1,0,0:0:0:0:
320,240,52359,5,0,0:0:0:0:
160,240,52712,2,0,L|32:112,2,160,0|0|0,0:0|0:0|0:0,0:0:0:0:
320,240,53771,5,2,0:0:0:0:
160,224,53947,2,0,L|160:48,1,160
320,224,54653,2,0,L|320:128,1,80,0|0,0:0|0:0,0:0:0:0:
400,128,55006,1,0,0:0:0:0:
480,112,55183,5,2,0:0:0:0:
320,80,55359,2,0,L|320:272,1,160,0|0,0:0|0:0,0:0:0:0:
160,256,56065,2,0,L|160:160,1,80,0|0,0:0|0:0,0:0:0:0:
320,160,56418,1,0,0:0:0:0:
160,144,56771,6,0,L|80:144,2,80,0|0|0,0:0|0:0|0:0,0:0:0:0:
320,144,57477,2,0,L|400:144,1,80,0|0,0:0|0:0,0:0:0:0:
224,256,58006,6,0,B|64:256|64:256|384:256,1,480,2|0,0:0|0:0,0:0:0:0:
64,208,59418,6,0,P|16:176|80:112,1,160,2|2,0:0|0:0,0:0:0:0:
144,96,59947,1,0,0:0:0:0:
224,80,60124,2,0,L|48:80,1,160,2|2,0:0|0:0,0:0:0:0:
368,192,60830,6,0,P|416:160|352:96,1,160,2|2,0:0|0:0,0:0:0:0:
288,96,61359,1,0,0:0:0:0:
256,160,61536,1,2,0:0:0:0:
288,224,61712,1,0,0:0:0:0:
368,240,61889,1,2,0:0:0:0:
192,272,62242,6,0,L|32:272,1,160,2|2,0:0|0:0,0:0:0:0:
176,208,62947,2,0,L|336:208,1,160,2|2,0:0|0:0,0:0:0:0:
512,272,63653,6,0,L|352:272,1,160,2|2,0:0|0:0,0:0:0:0:
192,288,64359,2,0,L|32:288,1,160,2|2,0:0|0:0,0:0:0:0:
336,176,65065,6,0,P|384:144|320:80,1,160,2|2,0:0|0:0,0:0:0:0:
176,64,65771,2,0,L|336:64,1,160,2|2,0:0|0:0,0:0:0:0:
176,176,66477,6,0,P|128:144|192:80,1,160,2|2,0:0|0:0,0:0:0:0:
336,64,67183,2,0,L|176:64,1,160,2|2,0:0|0:0,0:0:0:0:
480,144,67889,5,2,0:0:0:0:
352,144,68153,2,0,L|304:144,1,40,0|8,0:0|0:0,0:0:0:0:
432,112,68506,2,0,L|448:48,1,40,0|8,0:0|0:0,0:0:0:0:
320,32,68859,2,0,L|272:32,1,40,0|8,0:0|0:0,0:0:0:0:
48,80,69212,6,0,L|112:80,1,40,0|12,0:0|0:0,0:0:0:0:
256,112,69653,1,12,0:0:0:0:
96,144,70006,2,0,P|64:176|112:272,1,160,12|4,0:0|0:0,0:0:0:0:
192,272,70536,1,0,0:0:0:0:
352,352,70712,6,0,P|416:304|496:64,1,320,4|0,0:0|0:0,0:0:0:0:
336,80,71771,1,8,0:0:0:0:
160,352,72124,6,0,P|96:304|16:64,1,320,4|0,0:0|0:0,0:0:0:0:
176,80,73183,1,8,0:0:0:0:
336,96,73536,6,0,P|320:192|128:288,1,320,4|0,0:0|0:0,0:0:0:0:
304,272,74595,1,8,0:0:0:0:
144,288,74947,2,0,L|128:128,1,160,8|8,0:0|0:0,0:0:0:0:
288,64,75653,2,0,L|480:64,1,160,0|8,0:0|0:0,0:0:0:0:
144,48,76359,6,0,P|64:80|32:144,1,160,4|8,0:0|0:0,0:0:0:0:
192,144,77065,2,0,P|240:176|176:240,1,160,0|8,0:0|0:0,0:0:0:0:
32,142,77771,2,0,P|70:74|144:48,1,160,4|8,0:0|0:0,0:0:0:0:
304,64,78477,2,0,P|352:96|288:160,1,160,0|8,0:0|0:0,0:0:0:0:
144,176,79183,6,0,L|48:176,2,80,4|4|8,0:0|0:0|0:0,0:0:0:0:
304,176,79889,2,0,L|480:176,1,160,4|8,0:0|0:0,0:0:0:0:
160,224,80595,6,0,L|64:224,1,80,4|0,0:3|0:0,0:0:0:0:
176,208,80947,2,0,L|272:208,1,80,4|0,0:3|0:0,0:0:0:0:
416,176,81300,2,0,L|496:176,1,80,4|0,0:3|0:0,0:0:0:0:
416,176,81653,2,0,L|304:176,1,80,2|0,0:0|0:0,0:0:0:0:
112,160,82006,6,0,B|112:240|112:240|224:240,1,160,4|8,0:0|0:0,0:0:0:0:
288,240,82536,2,0,B|288:320|288:320|176:320,1,160,4|8,0:0|0:0,0:0:0:0:
112,304,83065,2,0,L|192:304,1,80,4|8,0:0|0:0,0:0:0:0:
352,304,83418,6,0,P|416:272|432:192,2,120,8|4|0,0:0|0:0|0:0,0:0:0:0:
256,304,84124,2,0,L|96:304,1,160,4|8,0:0|0:0,0:0:0:0:
256,240,84830,6,0,B|336:240|336:240|336:160,1,160,4|8,0:0|0:0,0:0:0:0:
240,160,85359,2,0,B|160:160|160:160|160:80,1,160,4|8,0:0|0:0,0:0:0:0:
256,80,85889,2,0,L|256:160,1,80,4|8,0:0|0:0,0:0:0:0:
96,192,86242,6,0,P|128:272|224:288,1,160,4|4,0:0|0:0,0:0:0:0:
352,304,86947,2,0,P|423:274|449:201,1,160,8|8,0:0|0:0,0:0:0:0:
144,224,87653,6,0,P|98:152|158:132,1,160,4|0,0:0|0:0,0:0:0:0:
288,144,88359,2,0,L|416:144,2,120,8|4|8,0:0|0:0|0:0,0:0:0:0:
208,144,89065,6,0,L|48:144,1,160,4|0,0:0|0:0,0:0:0:0:
208,208,89771,2,0,L|352:208,2,120,8|4|8,0:0|0:0|0:0,0:0:0:0:
128,208,90477,6,0,L|128:112,1,80,4|4,0:0|0:0,0:0:0:0:
208,128,90830,1,8,0:0:0:0:
384,208,91183,2,0,L|464:208,1,80,4|0,0:0|0:0,0:0:0:0:
464,208,91536,2,0,L|384:208,1,80,0|8,0:0|0:0,0:0:0:0:
96,160,92065,6,0,L|272:160,1,160,4|4,0:3|0:3,0:0:0:0:
352,192,92595,2,0,L|352:272,1,80,8|0,0:0|0:0,0:0:0:0:
448,256,92947,2,0,L|448:352,1,80,8|8,0:0|0:0,0:0:0:0:
272,336,93300,6,0,L|80:336,1,160,4|4,0:0|0:0,0:0:0:0:
272,272,94006,2,0,L|368:272,2,80,4|0|4,0:0|0:0|0:0,0:0:0:0:
112,336,94712,6,0,L|272:336,1,160,4|4,0:0|0:0,0:0:0:0:
352,336,95242,1,8,0:0:0:0:
192,336,95418,2,0,L|32:336,1,160,4|8,0:0|0:0,0:0:0:0:
336,288,96124,6,0,L|496:288,1,160,4|4,0:0|0:0,0:0:0:0:
336,208,96830,1,4,0:0:0:0:
416,208,97006,1,0,0:0:0:0:
496,208,97182,1,4,0:0:0:0:
192,224,97536,6,0,L|32:224,1,160,4|4,0:0|0:0,0:0:0:0:
192,128,98242,1,4,0:0:0:0:
272,128,98418,1,0,0:0:0:0:
352,128,98594,1,4,0:0:0:0:
192,336,98947,6,0,P|144:320|192:256,1,160,4|4,0:0|0:0,0:0:0:0:
352,336,99653,2,0,L|448:336,1,80,4|0,0:0|0:0,0:0:0:0:
272,320,100006,1,4,0:1:0:0:
112,304,100359,6,0,P|60:263|118:205,1,160,8|4,0:0|0:0,0:0:0:0:
272,176,101065,1,4,0:0:0:0:
192,176,101241,1,0,0:0:0:0:
112,176,101417,1,8,0:0:0:0:
272,288,101771,6,0,L|448:288,1,160,4|4,0:0|0:0,0:0:0:0:
352,288,102300,1,8,0:0:0:0:
192,288,102477,2,0,L|16:288,1,160,4|4,0:0|0:0,0:0:0:0:
192,272,103006,6,0,L|352:272,1,160,4|2,0:1|0:0,0:0:0:0:
192,160,103712,2,0,L|32:160,1,160,2|0,0:0|0:0,0:0:0:0:
112,160,104242,1,4,0:0:0:0:
416,160,104595,6,0,P|467:206|400:256,1,160,4|4,0:0|0:0,0:0:0:0:
256,304,105300,1,4,0:0:0:0:
336,304,105476,1,0,0:0:0:0:
416,304,105652,1,4,0:0:0:0:
256,240,106006,6,0,L|96:240,1,160,4|4,0:0|0:0,0:0:0:0:
176,240,106536,1,8,0:0:0:0:
336,240,106712,2,0,P|384:192|316:135,1,160,4|8,0:0|0:0,0:0:0:0:
32,128,107418,6,0,L|208:128,1,160,4|4,0:0|0:0,0:0:0:0:
352,176,108124,1,4,0:0:0:0:
272,176,108300,1,0,0:0:0:0:
192,176,108476,1,4,0:0:0:0:
352,256,108653,6,0,P|432:240|464:144,1,160,4|8,0:1|0:0,0:0:0:0:
384,144,109183,1,2,0:0:0:0:
208,112,109536,2,0,L|48:112,1,160,2|4,0:0|0:0,0:0:0:0:
208,112,110065,1,4,0:0:0:0:
288,112,110242,6,0,P|336:128|384:224,1,160,4|4,0:0|0:0,0:0:0:0:
208,224,110947,1,4,0:0:0:0:
138,258,111123,1,0,0:0:0:0:
111,332,111299,1,8,0:0:0:0:
272,352,111477,1,8,0:0:0:0:
352,336,111653,6,0,P|400:288|336:240,1,160,4|4,0:0|0:0,0:0:0:0:
272,224,112183,1,8,0:0:0:0:
352,192,112359,2,0,L|448:192,1,80,4|0,0:0|0:0,0:0:0:0:
432,112,112712,2,0,L|336:112,1,80,4|0,0:0|0:0,0:0:0:0:
176,112,113065,6,0,L|0:112,1,160,4|4,0:0|0:0,0:0:0:0:
192,112,113595,1,8,0:0:0:0:
272,176,113771,2,0,L|448:176,1,160,4|4,0:0|0:0,0:0:0:0:
256,176,114300,1,4,0:1:0:0:
176,240,114477,6,0,L|336:240,1,160,8|0,0:0|0:0,0:0:0:0:
496,240,115183,2,0,L|336:240,1,160,8|8,0:0|0:0,0:0:0:0:
256,240,115712,1,0,0:0:0:0:
80,240,115889,5,4,0:3:0:0:
256,192,116242,12,0,118712,0:0:0:0:
