osu file format v14

[General]
AudioFilename: audio.mp3
AudioLeadIn: 0
PreviewTime: 93212
Countdown: 0
SampleSet: Soft
StackLeniency: 0.7
Mode: 2
LetterboxInBreaks: 0
WidescreenStoryboard: 1

[Editor]
DistanceSpacing: 0.8
BeatDivisor: 4
GridSize: 16
TimelineZoom: 2.6

[Metadata]
Title:Midnight, Sunrise Sign
TitleUnicode:Midnight, Sunrise Sign
Artist:siqlo
ArtistUnicode:siqlo
Creator:Rocma
Version:Rain
Source:
Tags:Electronic Instrumental bofu 2015 bms of fighters hardcore dubstep wobble bass emotional emotions saikuro
BeatmapID:2546286
BeatmapSetID:1224186

[Difficulty]
HPDrainRate:5
CircleSize:3.7
OverallDifficulty:8.6
ApproachRate:8.6
SliderMultiplier:1.92
SliderTickRate:2

[Events]
//Background and Video events
0,0,"BG.jpg",0,0
//Break Periods
//Storyboard Layer 0 (Background)
//Storyboard Layer 1 (Fail)
//Storyboard Layer 2 (Pass)
//Storyboard Layer 3 (Foreground)
//Storyboard Layer 4 (Overlay)
//Storyboard Sound Samples

[TimingPoints]
2948,352.941176470588,4,2,2,50,1,0
14242,-100,4,2,2,70,0,0
25536,-100,4,2,3,80,0,1
25624,-100,4,2,3,70,0,0
29153,-100,4,2,3,5,0,0
29242,-100,4,2,3,70,0,0
31183,-100,4,2,3,80,0,1
31271,-100,4,2,3,70,0,0
36830,-100,4,2,3,50,0,0
37183,-100,4,2,2,80,0,1
42477,-100,4,2,2,50,0,0
42830,-100,4,2,2,80,0,1
47418,-100,4,2,2,50,0,0
80595,-100,4,2,3,70,0,0
82006,-100,4,2,2,60,0,0
87653,-100,4,2,2,50,0,0
92065,-100,4,2,3,80,0,0
92771,-100,4,2,3,70,0,0
93300,-100,4,2,3,75,0,1
103183,-100,4,2,3,60,0,0
104595,-100,4,2,3,75,0,1
116065,-100,4,2,3,55,0,0
116595,-100,4,2,3,45,0,0
117300,-100,4,2,3,35,0,0
118006,-100,4,2,3,25,0,0
118712,-100,4,2,3,15,0,0

[Colours]
Combo1 : 181,85,251
Combo2 : 0,179,255

[HitObjects]
128,272,2948,5,2,0:0:0:0:
368,272,3124,2,0,L|384:160,1,96.0000036621096,2|0,0:0|0:0,0:0:0:0:
288,144,3477,1,2,0:0:0:0:
384,112,3653,1,0,0:0:0:0:
256,80,3830,2,0,P|201:126|272:208,1,192.000007324219,2|0,0:0|0:0,0:0:0:0:
256,320,4536,6,0,L|128:320,1,96.0000036621096,2|0,0:0|0:0,0:0:0:0:
256,256,4889,1,2,0:0:0:0:
336,224,5065,1,0,0:0:0:0:
368,144,5242,1,2,0:0:0:0:
336,64,5418,1,0,0:0:0:0:
256,32,5595,1,2,0:0:0:0:
112,48,5771,6,0,L|-16:48,1,96.0000036621096,2|2,0:0|0:0,0:0:0:0:
16,128,6300,1,2,0:0:0:0:
144,160,6477,1,0,0:0:0:0:
64,208,6653,2,0,P|80:272|208:320,1,192.000007324219,2|0,0:0|0:0,0:0:0:0:
192,224,7359,6,0,L|80:224,2,96.0000036621096,2|0|0,0:0|0:0|0:0,0:0:0:0:
288,208,7889,2,0,L|304:112,1,96.0000036621096,2|0,0:0|0:0,0:0:0:0:
208,128,8242,2,0,L|192:32,1,96.0000036621096,2|0,0:0|0:0,0:0:0:0:
288,32,8595,5,2,0:0:0:0:
368,48,8771,1,2,0:0:0:0:
288,32,8947,1,0,0:0:0:0:
416,64,9123,1,2,0:0:0:0:
320,48,9300,1,0,0:0:0:0:
176,160,9477,2,0,P|192:224|304:288,1,192.000007324219,2|0,0:0|0:0,0:0:0:0:
384,320,10006,5,0,0:0:0:0:
444,258,10182,1,2,0:0:0:0:
382,198,10358,1,2,0:0:0:0:
329,200,10477,2,0,L|384:192,1,32,0|2,0:0|0:0,0:0:0:0:
496,176,10712,2,0,L|480:64,1,96.0000036621095,2|0,0:0|0:0,0:0:0:0:
384,64,11065,1,2,0:0:0:0:
288,48,11242,1,0,0:0:0:0:
144,144,11418,6,0,L|256:144,1,96.0000036621095,2|2,0:0|0:0,0:0:0:0:
336,176,11771,2,0,L|224:176,1,96.0000036621095,0|2,0:0|0:0,0:0:0:0:
384,224,12124,1,0,0:0:0:0:
240,256,12300,2,0,L|176:160,2,96.0000036621095,2|0|0,0:0|0:0|0:0,0:0:0:0:
480,256,12830,6,0,L|288:256,1,192.000007324219,4|0,0:0|0:0,0:0:0:0:
384,256,13359,1,0,0:0:0:0:
256,256,13536,6,0,P|208:224|256:176,1,144,2|0,0:0|0:0,0:0:0:0:
336,160,13889,2,0,P|384:128|336:80,1,144,0|0,0:0|0:0,0:0:0:0:
144,80,14242,5,4,0:0:0:0:
32,112,14418,2,0,L|32:160,1,48,0|0,0:0|0:0,0:0:0:0:
80,176,14595,1,4,0:0:0:0:
176,192,14771,1,0,0:0:0:0:
32,240,14947,1,4,0:0:0:0:
128,256,15124,1,0,0:0:0:0:
272,256,15300,1,4,0:0:0:0:
176,272,15477,2,0,L|176:224,1,48,0|0,0:0|0:0,0:0:0:0:
368,80,15653,5,4,0:0:0:0:
480,112,15829,2,0,L|480:160,1,48,0|0,0:0|0:0,0:0:0:0:
432,176,16006,1,4,0:0:0:0:
336,192,16182,1,0,0:0:0:0:
480,240,16358,1,4,0:0:0:0:
384,256,16535,1,0,0:0:0:0:
240,256,16711,1,4,0:0:0:0:
336,272,16888,2,0,L|288:272,1,48,4|0,0:0|0:0,0:0:0:0:
128,272,17065,5,4,0:0:0:0:
16,224,17242,1,0,0:0:0:0:
64,224,17330,1,0,0:0:0:0:
112,224,17418,1,4,0:0:0:0:
208,192,17595,1,0,0:0:0:0:
352,160,17771,1,4,0:0:0:0:
256,128,17947,1,0,0:0:0:0:
112,224,18124,1,4,0:0:0:0:
208,192,18301,1,0,0:0:0:0:
256,192,18389,1,0,0:0:0:0:
416,288,18477,5,4,0:0:0:0:
320,272,18654,1,0,0:0:0:0:
272,256,18742,1,0,0:0:0:0:
320,240,18830,1,4,0:0:0:0:
416,224,19007,1,0,0:0:0:0:
272,192,19183,1,4,0:0:0:0:
176,176,19359,1,0,0:0:0:0:
320,160,19536,1,4,0:0:0:0:
416,144,19712,2,0,L|352:144,1,48,4|0,0:0|0:0,0:0:0:0:
208,144,19889,6,0,L|112:144,3,96,4|8|4|0,0:0|0:0|0:0|0:0,0:0:0:0:
256,96,20595,2,0,L|352:96,3,96,4|0|4|0,0:0|0:0|0:0|0:0,0:0:0:0:
80,160,21300,6,0,L|64:256,1,96,4|8,0:0|0:0,0:0:0:0:
160,272,21653,1,4,0:0:0:0:
288,208,21830,2,0,L|304:304,1,96,0|4,0:0|0:0,0:0:0:0:
208,320,22183,1,0,0:0:0:0:
352,336,22359,2,0,L|464:336,1,96,4|0,0:0|0:0,0:0:0:0:
208,336,22712,5,4,0:0:0:0:
144,320,22800,2,0,L|128:256,2,48,0|0|0,0:0|0:0|0:0,0:0:0:0:
304,336,23065,1,4,0:0:0:0:
368,320,23153,2,0,L|384:256,2,48,0|4|0,0:0|0:0|0:0,0:0:0:0:
144,240,23418,5,4,0:0:0:0:
80,224,23506,2,0,L|61:166,2,48,0|0|0,0:0|0:0|0:0,0:0:0:0:
368,240,23771,1,4,0:0:0:0:
432,224,23859,2,0,L|451:166,2,48,0|4|0,0:0|0:0|0:0,0:0:0:0:
144,256,24124,5,8,0:0:0:0:
80,224,24212,2,0,B|32:224|32:224|96:224,1,96,0|0,0:0|0:0,0:0:0:0:
144,176,24477,5,4,0:0:0:0:
256,160,24653,1,8,0:0:0:0:
144,144,24830,2,0,L|128:16,1,96,0|4,0:0|0:0,0:0:0:0:
384,48,25183,2,0,L|400:176,1,96,8|0,0:0|0:0,0:0:0:0:
144,320,25536,6,0,P|85:246|144:192,1,192,4|0,0:3|0:0,0:0:0:0:
288,192,26065,1,8,0:0:0:0:
144,128,26242,2,0,L|48:128,1,96,4|4,0:0|0:0,0:0:0:0:
160,64,26595,2,0,L|320:64,1,144,8|0,0:0|0:0,0:0:0:0:
96,160,26947,6,0,L|96:272,1,96,2|8,0:0|0:0,0:0:0:0:
224,192,27300,2,0,L|256:192,1,24,4|0,0:0|0:0,0:0:0:0:
224,192,27477,2,0,L|256:192,1,24,8|0,0:0|0:0,0:0:0:0:
96,160,27653,2,0,L|96:272,1,96,2|8,0:0|0:0,0:0:0:0:
224,192,28006,2,0,L|256:192,1,24,4|0,0:0|0:0,0:0:0:0:
224,192,28183,2,0,L|256:192,1,24,8|0,0:0|0:0,0:0:0:0:
464,208,28359,6,0,L|256:208,1,192,4|2,0:0|0:0,0:0:0:0:
368,208,28889,1,0,0:0:0:0:
128,208,29065,5,8,0:0:0:0:
128,112,29771,6,0,L|224:112,1,96,2|4,0:0|0:0,0:0:0:0:
96,176,30124,2,0,L|80:288,1,96,4|8,0:0|0:0,0:0:0:0:
240,192,30477,2,0,L|336:192,1,96,2|4,0:0|0:0,0:0:0:0:
208,256,30830,2,0,L|192:368,1,96,8|8,0:0|0:0,0:0:0:0:
448,144,31183,6,0,L|240:144,1,192,4|0,0:3|0:0,0:0:0:0:
128,144,31712,1,0,0:0:0:0:
384,192,31889,2,0,L|400:288,1,96,4|4,0:0|0:0,0:0:0:0:
288,320,32242,2,0,L|384:320,1,96,4|4,0:0|0:0,0:0:0:0:
112,208,32595,6,0,L|0:208,1,96,8|0,0:0|0:0,0:0:0:0:
144,128,32947,2,0,L|32:128,1,96,8|0,0:0|0:0,0:0:0:0:
320,96,33300,2,0,P|400:112|496:288,1,288,2|0,0:0|0:0,0:0:0:0:
240,336,34006,5,4,0:0:0:0:
194,329,34094,1,0,0:0:0:0:
172,288,34182,1,0,0:0:0:0:
192,247,34270,1,0,0:0:0:0:
240,224,34359,1,0,0:0:0:0:
285,217,34447,1,0,0:0:0:0:
307,176,34535,1,0,0:0:0:0:
287,135,34623,1,0,0:0:0:0:
224,112,34712,6,0,P|128:144|48:304,1,288,8|4,0:0|0:0,0:0:0:0:
304,304,35418,6,0,L|400:304,1,96,8|0,0:0|0:0,0:0:0:0:
272,224,35771,2,0,L|368:224,1,96,8|0,0:0|0:0,0:0:0:0:
256,160,36124,2,0,L|240:48,1,96,2|0,0:0|0:0,0:0:0:0:
368,128,36477,2,0,L|384:16,1,96,2|0,0:0|0:0,0:0:0:0:
144,64,36830,6,0,L|144:208,1,144,0|0,0:0|0:0,0:0:0:0:
304,192,37183,2,0,L|304:288,1,96,4|0,0:0|0:0,0:0:0:0:
16,272,37536,2,0,L|112:272,1,96,8|0,0:0|0:0,0:0:0:0:
224,272,37889,2,0,L|112:272,1,96,8|0,0:0|0:0,0:0:0:0:
400,80,38242,5,4,0:0:0:0:
448,112,38330,1,4,0:0:0:0:
464,160,38418,1,4,0:0:0:0:
448,192,38506,1,4,0:0:0:0:
400,224,38595,2,0,L|288:224,1,96,4|4,0:0|0:0,0:0:0:0:
32,224,38947,5,4,0:0:0:0:
304,224,39124,2,0,L|320:128,1,96,2|2,0:0|0:0,0:0:0:0:
208,96,39477,1,2,0:0:0:0:
352,80,39653,5,0,0:0:0:0:
396,92,39741,1,0,0:0:0:0:
410,136,39829,1,0,0:0:0:0:
382,172,39917,1,0,0:0:0:0:
224,192,40006,6,0,L|112:192,1,96,4|0,0:0|0:0,0:0:0:0:
256,176,40359,2,0,L|368:176,1,96,4|0,0:0|0:0,0:0:0:0:
224,112,40712,2,0,L|112:112,1,96,4|0,0:0|0:0,0:0:0:0:
384,128,41065,6,0,L|400:256,1,96,2|2,0:0|0:0,0:0:0:0:
256,224,41418,2,0,L|240:352,1,96,4|0,0:0|0:0,0:0:0:0:
384,320,41771,1,4,0:0:0:0:
414,284,41859,1,4,0:0:0:0:
405,239,41947,1,4,0:0:0:0:
364,217,42035,1,4,0:0:0:0:
288,208,42124,1,0,0:0:0:0:
247,186,42212,1,4,0:0:0:0:
238,140,42300,1,4,0:0:0:0:
268,105,42388,1,4,0:0:0:0:
416,96,42477,6,0,P|454:168|393:196,1,144,0|0,0:0|0:0,0:0:0:0:
240,272,42830,2,0,L|112:272,1,96,4|0,0:0|0:0,0:0:0:0:
448,240,43183,6,0,L|464:128,1,96,8|0,0:0|0:0,0:0:0:0:
320,112,43536,2,0,L|432:112,1,96,8|0,0:0|0:0,0:0:0:0:
160,96,43889,1,4,0:0:0:0:
112,128,43977,1,4,0:0:0:0:
96,160,44065,1,4,0:0:0:0:
112,192,44153,1,4,0:0:0:0:
160,208,44242,6,0,L|256:208,1,96,4|4,0:0|0:0,0:0:0:0:
16,256,44595,1,4,0:0:0:0:
256,256,44771,2,0,L|384:256,2,96,2|2|2,0:0|0:0|0:0,0:0:0:0:
368,240,45300,5,0,0:0:0:0:
384,208,45388,1,0,0:0:0:0:
368,176,45476,1,0,0:0:0:0:
320,176,45564,1,0,0:0:0:0:
144,160,45653,2,0,L|32:160,1,96,4|0,0:0|0:0,0:0:0:0:
192,112,46006,2,0,L|304:112,1,96,4|0,0:0|0:0,0:0:0:0:
144,80,46359,2,0,L|80:80,2,48,4|0|0,0:0|0:0|0:0,0:0:0:0:
208,80,46624,1,0,0:0:0:0:
384,112,46712,6,0,L|288:112,1,96,2|2,0:0|0:0,0:0:0:0:
144,144,47065,2,0,L|144:192,1,48,4|4,0:0|0:0,0:0:0:0:
208,208,47242,2,0,L|208:272,1,48,4|0,0:0|0:0,0:0:0:0:
144,288,47418,2,0,L|240:288,1,96,8|0,0:0|0:0,0:0:0:0:
336,288,47771,2,0,L|432:288,1,96,8|0,0:0|0:0,0:0:0:0:
144,336,48124,5,2,0:0:0:0:
64,288,48300,1,0,0:0:0:0:
32,192,48477,1,0,0:0:0:0:
64,288,48653,1,0,0:0:0:0:
144,336,48830,5,0,0:0:0:0:
64,288,49006,1,0,0:0:0:0:
32,192,49183,1,0,0:0:0:0:
64,288,49359,1,0,0:0:0:0:
144,336,49536,5,0,0:0:0:0:
224,288,49712,1,0,0:0:0:0:
256,192,49889,1,0,0:0:0:0:
224,288,50065,1,0,0:0:0:0:
144,336,50242,5,0,0:0:0:0:
224,288,50418,1,0,0:0:0:0:
256,192,50595,1,0,0:0:0:0:
224,288,50771,1,0,0:0:0:0:
144,176,50947,5,0,0:0:0:0:
224,128,51124,1,0,0:0:0:0:
368,176,51300,1,0,0:0:0:0:
288,128,51477,1,0,0:0:0:0:
144,176,51653,5,0,0:0:0:0:
256,128,51830,1,0,0:0:0:0:
368,176,52006,1,0,0:0:0:0:
256,128,52183,1,0,0:0:0:0:
192,128,52271,1,0,0:0:0:0:
256,128,52359,5,0,0:0:0:0:
336,176,52536,1,0,0:0:0:0:
256,128,52712,1,0,0:0:0:0:
176,176,52889,1,0,0:0:0:0:
336,128,53065,5,0,0:0:0:0:
416,176,53242,1,0,0:0:0:0:
336,128,53418,1,0,0:0:0:0:
192,176,53595,1,0,0:0:0:0:
32,320,53771,5,2,0:0:0:0:
176,288,53947,1,0,0:0:0:0:
160,192,54124,1,0,0:0:0:0:
80,144,54300,1,0,0:0:0:0:
64,256,54477,1,0,0:0:0:0:
144,304,54653,1,0,0:0:0:0:
240,272,54830,1,0,0:0:0:0:
160,224,55006,1,0,0:0:0:0:
416,272,55183,5,2,0:0:0:0:
304,240,55359,1,0,0:0:0:0:
288,144,55536,1,0,0:0:0:0:
384,96,55712,1,0,0:0:0:0:
416,272,55889,1,0,0:0:0:0:
304,288,56065,1,0,0:0:0:0:
320,208,56242,1,0,0:0:0:0:
480,192,56418,1,0,0:0:0:0:
208,176,56595,5,2,0:0:0:0:
96,160,56771,1,0,0:0:0:0:
48,240,56947,1,0,0:0:0:0:
96,320,57124,1,0,0:0:0:0:
208,288,57300,1,0,0:0:0:0:
96,240,57477,1,0,0:0:0:0:
48,144,57653,1,0,0:0:0:0:
96,48,57830,1,0,0:0:0:0:
240,48,58006,6,0,L|336:48,1,96,2|0,0:0|0:0,0:0:0:0:
432,128,58359,2,0,L|320:128,1,96,0|0,0:0|0:0,0:0:0:0:
240,224,58712,2,0,L|144:224,1,96,2|0,0:0|0:0,0:0:0:0:
288,288,59065,2,0,L|400:288,1,96,0|0,0:0|0:0,0:0:0:0:
112,320,59418,6,0,L|96:192,1,96,2|0,0:0|0:0,0:0:0:0:
208,192,59771,1,2,0:0:0:0:
80,144,59947,2,0,L|16:144,2,48,0|0|2,0:0|0:0|0:0,0:0:0:0:
208,80,60300,1,0,0:0:0:0:
64,64,60477,1,2,0:0:0:0:
48,160,60653,1,0,0:0:0:0:
288,112,60830,5,2,0:0:0:0:
384,144,61006,1,0,0:0:0:0:
416,224,61183,1,2,0:0:0:0:
288,240,61359,1,0,0:0:0:0:
416,224,61536,1,2,0:0:0:0:
384,144,61712,1,0,0:0:0:0:
288,112,61889,1,2,0:0:0:0:
416,112,62065,1,0,0:0:0:0:
160,224,62242,6,0,L|64:224,1,96,2|0,0:0|0:0,0:0:0:0:
160,144,62595,2,0,L|256:144,1,96,2|0,0:0|0:0,0:0:0:0:
368,144,62947,1,2,0:0:0:0:
416,224,63123,1,0,0:0:0:0:
368,304,63299,1,2,0:0:0:0:
256,336,63476,1,0,0:0:0:0:
384,320,63653,6,0,L|400:208,1,96,2|0,0:0|0:0,0:0:0:0:
256,256,64006,2,0,L|240:144,1,96,2|0,0:0|0:0,0:0:0:0:
384,96,64359,1,2,0:0:0:0:
224,64,64536,2,0,L|144:64,2,48,0|0|2,0:0|0:0|0:0,0:0:0:0:
336,48,64889,1,0,0:0:0:0:
32,320,65065,6,0,L|16:192,1,96,2|0,0:0|0:0,0:0:0:0:
144,176,65418,1,2,0:0:0:0:
272,176,65595,1,0,0:0:0:0:
144,176,65771,2,0,L|160:288,1,96,2|0,0:0|0:0,0:0:0:0:
288,288,66124,1,2,0:0:0:0:
160,288,66301,1,0,0:0:0:0:
432,288,66477,6,0,L|448:192,1,96,2|0,0:0|0:0,0:0:0:0:
320,176,66830,1,2,0:0:0:0:
272,160,66947,1,0,0:0:0:0:
320,160,67006,1,0,0:0:0:0:
448,144,67183,2,0,L|336:144,1,96,2|0,0:0|0:0,0:0:0:0:
256,160,67536,2,0,L|368:160,1,96,2|0,0:0|0:0,0:0:0:0:
80,192,67889,6,0,L|80:64,1,96,2|4,0:0|0:0,0:0:0:0:
128,80,68153,2,0,L|192:80,1,48,0|8,0:0|0:0,0:0:0:0:
288,80,68506,2,0,L|352:80,1,48,0|8,0:0|0:0,0:0:0:0:
224,128,68859,2,0,L|160:128,1,48,0|8,0:0|0:0,0:0:0:0:
336,128,69212,1,0,0:0:0:0:
496,128,69300,5,12,0:0:0:0:
400,224,69565,1,0,0:0:0:0:
352,224,69653,1,12,0:0:0:0:
192,208,69918,1,0,0:0:0:0:
240,208,70006,1,12,0:0:0:0:
344,177,70271,1,0,0:0:0:0:
400,176,70359,1,4,0:0:0:0:
426,137,70447,1,0,0:0:0:0:
414,92,70535,1,0,0:0:0:0:
373,70,70623,1,0,0:0:0:0:
224,64,70712,6,0,L|16:64,3,192,4|8|0|8,0:0|0:0|0:0|0:0,0:0:0:0:
256,112,72124,2,0,L|256:320,1,192,4|8,0:0|0:0,0:0:0:0:
64,144,72830,2,0,L|64:368,1,192,0|8,0:0|0:0,0:0:0:0:
288,64,73536,6,0,L|496:64,3,192,4|8|0|8,0:0|0:0|0:0|0:0,0:0:0:0:
256,112,74948,2,0,L|256:320,1,192,8|8,0:0|0:0,0:0:0:0:
64,160,75654,2,0,L|64:384,1,192,0|8,0:0|0:0,0:0:0:0:
208,336,76271,1,2,0:0:0:0:
288,336,76359,6,0,L|480:336,3,192,4|8|0|8,0:0|0:0|0:0|0:0,0:0:0:0:
256,272,77771,2,0,L|256:64,1,192,4|8,0:0|0:0,0:0:0:0:
480,288,78477,2,0,L|480:80,1,192,0|8,0:0|0:0,0:0:0:0:
304,48,79183,6,0,L|416:48,1,96.0000036621095,4|4,0:0|0:0,0:0:0:0:
448,80,79447,1,0,0:0:0:0:
464,128,79536,1,8,0:0:0:0:
448,176,79624,1,0,0:0:0:0:
256,240,79889,6,0,L|144:240,1,96.0000036621095,4|4,0:0|0:0,0:0:0:0:
208,208,80153,1,0,0:0:0:0:
224,176,80242,1,8,0:0:0:0:
208,144,80330,1,0,0:0:0:0:
160,144,80418,2,0,L|112:144,1,48,8|8,0:0|0:0,0:0:0:0:
368,128,80595,6,0,L|384:224,1,96,4|0,0:3|0:0,0:0:0:0:
144,128,80947,2,0,L|128:224,1,96,4|0,0:3|0:0,0:0:0:0:
384,288,81300,2,0,L|272:288,1,96,4|0,0:3|0:0,0:0:0:0:
416,224,81653,2,0,L|432:112,1,96,2|0,0:0|0:0,0:0:0:0:
128,224,82006,6,0,L|16:224,2,96,4|0|8,0:0|0:0|0:0,0:0:0:0:
256,224,82536,2,0,L|368:224,2,96,4|0|8,0:0|0:0|0:0,0:0:0:0:
128,224,83065,2,0,L|16:224,1,96,4|8,0:0|0:0,0:0:0:0:
336,224,83418,6,0,L|352:96,1,96,8|0,0:0|0:0,0:0:0:0:
272,128,83683,1,4,0:0:0:0:
176,128,83771,2,0,L|160:0,1,96,8|0,0:0|0:0,0:0:0:0:
272,32,84124,2,0,L|288:112,1,48,4|0,0:0|0:0,0:0:0:0:
215,96,84300,1,4,0:0:0:0:
96,112,84477,2,0,L|80:240,1,96,8|0,0:0|0:0,0:0:0:0:
384,224,84830,6,0,L|496:224,2,96,4|0|8,0:0|0:0|0:0,0:0:0:0:
256,224,85359,2,0,L|144:224,2,96,4|0|8,0:0|0:0|0:0,0:0:0:0:
384,224,85889,2,0,L|480:224,1,96,4|8,0:0|0:0,0:0:0:0:
208,304,86242,6,0,L|192:192,1,96,4|0,0:0|0:0,0:0:0:0:
336,224,86595,2,0,L|336:128,1,96,4|0,0:0|0:0,0:0:0:0:
480,176,86947,2,0,L|496:64,1,96,8|0,0:0|0:0,0:0:0:0:
352,64,87300,1,8,0:0:0:0:
496,64,87477,2,0,L|432:64,1,48,8|0,0:0|0:0,0:0:0:0:
256,176,87653,6,0,L|144:176,1,96,4|8,0:0|0:0,0:0:0:0:
304,176,88006,1,0,0:0:0:0:
352,176,88094,1,0,0:0:0:0:
400,176,88182,1,8,0:0:0:0:
256,176,88359,2,0,L|112:176,2,144,8|4|8,0:0|0:0|0:0,0:0:0:0:
400,176,89065,6,0,L|478:90,1,96,4|8,0:0|0:0,0:0:0:0:
400,96,89418,1,0,0:0:0:0:
368,96,89506,1,0,0:0:0:0:
336,96,89594,1,8,0:0:0:0:
400,176,89771,2,0,L|272:48,2,144,8|4|8,0:0|0:0|0:0,0:0:0:0:
112,80,90477,5,4,0:0:0:0:
80,128,90565,1,0,0:0:0:0:
112,176,90653,1,4,0:0:0:0:
176,192,90741,1,0,0:0:0:0:
336,192,90830,1,8,0:0:0:0:
400,176,90918,1,0,0:0:0:0:
432,128,91006,1,4,0:0:0:0:
400,80,91094,1,4,0:0:0:0:
176,64,91183,6,0,L|128:64,2,48,4|0|0,0:0|0:0|0:0,0:0:0:0:
336,64,91447,2,0,L|400:64,2,48,8|0|0,0:0|0:0|0:0,0:0:0:0:
160,128,91712,2,0,L|96:128,1,48,8|8,0:0|0:0,0:0:0:0:
496,192,92065,6,0,L|400:192,1,96,4|0,0:3|0:0,0:0:0:0:
144,224,92418,2,0,L|256:224,1,96,4|8,0:3|0:0,0:0:0:0:
288,208,92683,1,0,0:0:0:0:
310,168,92771,1,0,0:0:0:0:
288,128,92859,1,0,0:0:0:0:
192,112,92947,2,0,L|128:112,1,48,8|0,0:0|0:0,0:0:0:0:
336,80,93124,2,0,L|384:80,1,48,8|0,0:0|0:0,0:0:0:0:
160,176,93300,6,0,L|16:176,2,144,4|4|8,0:0|0:0|0:0,0:0:0:0:
400,176,94006,2,0,L|464:176,1,48,4|8,0:0|0:0,0:0:0:0:
272,144,94359,2,0,L|160:144,1,96,4|0,0:0|0:0,0:0:0:0:
432,272,94712,6,0,L|448:112,1,144,4|4,0:0|0:0,0:0:0:0:
240,96,95242,1,8,0:0:0:0:
368,96,95418,2,0,L|384:176,1,48,4|8,0:0|0:0,0:0:0:0:
48,48,95771,2,0,L|16:176,1,96,8|8,0:0|0:0,0:0:0:0:
272,256,96124,6,0,L|432:256,2,144,4|4|8,0:0|0:0|0:0,0:0:0:0:
128,224,96830,2,0,L|144:160,1,48,4|8,0:0|0:0,0:0:0:0:
496,192,97183,2,0,L|368:192,1,96,4|8,0:0|0:0,0:0:0:0:
144,208,97536,6,0,L|304:208,2,144,4|4|8,0:0|0:0|0:0,0:0:0:0:
384,112,98242,2,0,L|336:112,1,48,4|8,0:0|0:0,0:0:0:0:
176,160,98595,2,0,L|48:160,1,96,4|0,0:0|0:0,0:0:0:0:
352,176,98947,6,0,L|384:16,1,144,4|4,0:0|0:0,0:0:0:0:
224,32,99300,2,0,L|96:32,1,96,0|8,0:0|0:0,0:0:0:0:
272,80,99653,1,4,0:0:0:0:
320,80,99741,1,8,0:0:0:0:
368,80,99829,1,0,0:0:0:0:
112,128,100006,2,0,L|0:128,1,96,4|4,0:1|0:0,0:0:0:0:
288,128,100359,6,0,L|432:128,1,144,8|8,0:0|0:0,0:0:0:0:
256,96,100712,2,0,L|160:96,1,96,0|4,0:0|0:0,0:0:0:0:
288,48,101065,2,0,L|352:48,2,48,4|8|0,0:0|0:0|0:0,0:0:0:0:
160,48,101418,2,0,L|48:48,1,96,8|0,0:0|0:0,0:0:0:0:
352,256,101771,6,0,L|496:256,1,144,4|4,0:0|0:0,0:0:0:0:
256,256,102124,2,0,L|160:256,1,96,0|8,0:0|0:0,0:0:0:0:
304,224,102477,2,0,L|320:160,1,48,4|8,0:0|0:0,0:0:0:0:
160,176,102830,1,4,0:0:0:0:
416,128,103006,1,4,0:1:0:0:
160,80,103183,6,0,L|0:80,2,144,8|0|2,0:0|0:0|0:0,0:0:0:0:
304,144,103889,2,0,L|368:144,1,48,4|8,0:0|0:0,0:0:0:0:
496,208,104242,2,0,L|384:208,1,96,4|0,0:0|0:0,0:0:0:0:
160,336,104595,6,0,P|112:304|176:256,1,144,4|4,0:0|0:0,0:0:0:0:
368,256,105124,1,8,0:0:0:0:
128,224,105300,2,0,L|112:144,1,48,4|8,0:0|0:0,0:0:0:0:
288,144,105653,2,0,L|176:144,1,96,4|0,0:0|0:0,0:0:0:0:
464,160,106006,6,0,P|432:240|352:240,1,144,4|4,0:0|0:0,0:0:0:0:
208,256,106536,1,8,0:0:0:0:
334,251,106712,2,0,L|398:251,1,48,4|8,0:0|0:0,0:0:0:0:
32,256,107065,2,0,L|16:128,1,96,8|8,0:0|0:0,0:0:0:0:
272,144,107418,6,0,L|448:144,2,144,4|4|8,0:0|0:0|0:0,0:0:0:0:
128,192,108124,2,0,L|144:256,1,48,4|8,0:0|0:0,0:0:0:0:
304,256,108477,1,4,0:0:0:0:
32,288,108653,6,0,P|64:192|176:176,1,192,4|8,0:1|0:0,0:0:0:0:
192,176,109095,1,0,0:0:0:0:
144,176,109183,1,2,0:0:0:0:
96,192,109271,1,0,0:0:0:0:
80,240,109359,1,0,0:0:0:0:
96,288,109447,1,0,0:0:0:0:
304,288,109536,6,0,L|368:288,1,48,2|0,0:0|0:0,0:0:0:0:
176,304,109712,2,0,L|112:304,1,48,2|0,0:0|0:0,0:0:0:0:
304,288,109889,2,0,L|432:288,1,96,4|4,0:0|0:0,0:0:0:0:
128,240,110242,6,0,P|80:208|144:160,1,144,4|4,0:0|0:0,0:0:0:0:
304,160,110595,2,0,L|208:160,1,96,0|8,0:0|0:0,0:0:0:0:
336,112,110947,2,0,L|400:112,2,48,4|8|0,0:0|0:0|0:0,0:0:0:0:
48,112,111300,2,0,L|144:112,1,96,8|8,0:0|0:0,0:0:0:0:
400,192,111653,6,0,L|224:192,1,144,4|4,0:0|0:0,0:0:0:0:
64,176,112006,2,0,L|192:176,1,96,0|8,0:0|0:0,0:0:0:0:
288,128,112359,1,4,0:0:0:0:
240,128,112447,1,8,0:0:0:0:
192,128,112535,1,0,0:0:0:0:
320,176,112712,2,0,L|432:176,1,96,4|0,0:0|0:0,0:0:0:0:
160,288,113065,6,0,P|100:268|80:176,1,144,4|4,0:0|0:0,0:0:0:0:
288,288,113418,2,0,L|400:288,1,96,0|8,0:0|0:0,0:0:0:0:
256,240,113771,2,0,L|192:240,2,48,4|8|0,0:0|0:0|0:0,0:0:0:0:
384,208,114124,1,4,0:0:0:0:
128,208,114300,1,4,0:1:0:0:
384,208,114477,6,0,P|464:160|480:96,1,144,8|8,0:0|0:0,0:0:0:0:
272,224,114830,2,0,L|256:96,1,96,0|4,0:0|0:0,0:0:0:0:
400,96,115183,2,0,L|448:96,1,48,8|4,0:0|0:0,0:0:0:0:
256,192,115359,2,0,L|192:192,1,48,0|0,0:0|0:0,0:0:0:0:
448,224,115536,2,0,L|464:352,1,96,8|8,0:0|0:0,0:0:0:0:
112,320,115889,5,4,0:3:0:0:
256,192,116065,12,0,118712,0:0:0:0:
