osu file format v14

[General]
AudioFilename: audio.mp3
AudioLeadIn: 0
PreviewTime: 93212
Countdown: 0
SampleSet: Soft
StackLeniency: 0.7
Mode: 2
LetterboxInBreaks: 0
WidescreenStoryboard: 1

[Editor]
DistanceSpacing: 0.8
BeatDivisor: 4
GridSize: 16
TimelineZoom: 2.6

[Metadata]
Title:Midnight, Sunrise Sign
TitleUnicode:Midnight, Sunrise Sign
Artist:siqlo
ArtistUnicode:siqlo
Creator:Rocma
Version:Platter
Source:
Tags:Electronic Instrumental bofu 2015 bms of fighters hardcore dubstep wobble bass emotional emotions saikuro
BeatmapID:2546356
BeatmapSetID:1224186

[Difficulty]
HPDrainRate:4
CircleSize:3.3
OverallDifficulty:7.8
ApproachRate:7.8
SliderMultiplier:1.6
SliderTickRate:1

[Events]
//Background and Video events
0,0,"BG.jpg",0,0
//Break Periods
//Storyboard Layer 0 (Background)
//Storyboard Layer 1 (Fail)
//Storyboard Layer 2 (Pass)
//Storyboard Layer 3 (Foreground)
//Storyboard Layer 4 (Overlay)
//Storyboard Sound Samples

[TimingPoints]
2948,352.941176470588,4,2,2,50,1,0
14242,-100,4,2,2,70,0,0
25536,-100,4,2,3,80,0,1
25624,-100,4,2,3,70,0,0
29153,-100,4,2,3,5,0,0
29242,-100,4,2,3,70,0,0
31183,-100,4,2,3,80,0,1
31271,-100,4,2,3,70,0,0
36830,-100,4,2,3,50,0,0
37183,-100,4,2,2,80,0,1
42477,-100,4,2,2,50,0,0
42830,-100,4,2,2,80,0,1
47418,-100,4,2,2,50,0,0
80595,-100,4,2,3,70,0,0
82006,-100,4,2,2,60,0,0
87653,-100,4,2,2,50,0,0
92065,-100,4,2,3,80,0,0
92771,-100,4,2,3,70,0,0
93300,-100,4,2,3,75,0,1
103183,-100,4,2,3,60,0,0
104595,-100,4,2,3,75,0,1
116065,-100,4,2,3,55,0,0
116595,-100,4,2,3,45,0,0
117300,-100,4,2,3,35,0,0
118006,-100,4,2,3,25,0,0
118712,-100,4,2,3,15,0,0

[Colours]
Combo1 : 181,85,251
Combo2 : 0,179,255

[HitObjects]
192,272,2948,5,2,0:0:0:0:
368,272,3124,2,0,L|384:160,1,80,2|0,0:0|0:0,0:0:0:0:
288,144,3477,1,2,0:0:0:0:
384,112,3653,1,0,0:0:0:0:
288,80,3830,2,0,P|233:126|304:176,1,160,2|0,0:0|0:0,0:0:0:0:
272,320,4536,6,0,L|160:320,1,80,2|0,0:0|0:0,0:0:0:0:
272,256,4889,1,2,0:0:0:0:
352,224,5065,1,0,0:0:0:0:
384,144,5242,1,2,0:0:0:0:
352,64,5418,1,0,0:0:0:0:
272,32,5595,1,2,0:0:0:0:
96,48,5771,6,0,L|-16:48,1,80,2|2,0:0|0:0,0:0:0:0:
16,128,6300,1,2,0:0:0:0:
96,144,6477,1,0,0:0:0:0:
176,160,6653,2,0,P|228:212|174:261,1,160,2|0,0:0|0:0,0:0:0:0:
176,224,7359,6,0,L|64:224,2,80,2|0|0,0:0|0:0|0:0,0:0:0:0:
272,208,7889,2,0,L|288:112,1,80,2|0,0:0|0:0,0:0:0:0:
192,128,8242,2,0,L|176:32,1,80,2|0,0:0|0:0,0:0:0:0:
352,48,8595,5,2,0:0:0:0:
432,96,8771,1,2,0:0:0:0:
464,176,8947,1,0,0:0:0:0:
432,96,9124,1,2,0:0:0:0:
352,48,9300,1,0,0:0:0:0:
272,96,9477,2,0,P|288:160|384:208,1,160,2|0,0:0|0:0,0:0:0:0:
368,320,10183,6,0,L|288:320,1,80,2|2,0:0|0:0,0:0:0:0:
464,320,10536,1,2,0:0:0:0:
384,272,10712,1,2,0:0:0:0:
352,192,10889,1,0,0:0:0:0:
384,112,11065,1,2,0:0:0:0:
464,80,11242,1,0,0:0:0:0:
288,80,11418,6,0,L|208:80,1,80,2|2,0:0|0:0,0:0:0:0:
288,80,11771,2,0,L|368:80,1,80,0|2,0:0|0:0,0:0:0:0:
192,144,12124,1,0,0:0:0:0:
96,144,12300,2,0,L|32:48,2,80,2|0|0,0:0|0:0|0:0,0:0:0:0:
272,160,12830,6,0,L|464:160,1,160,4|0,0:0|0:0,0:0:0:0:
352,160,13359,1,0,0:0:0:0:
192,160,13536,2,0,B|352:160|352:160|352:80,1,240,2|0,0:0|0:0,0:0:0:0:
96,96,14242,6,0,L|16:96,1,80,4|0,0:0|0:0,0:0:0:0:
96,96,14595,2,0,L|176:96,1,80,4|0,0:0|0:0,0:0:0:0:
256,96,14947,2,0,L|160:96,1,80,4|0,0:0|0:0,0:0:0:0:
256,96,15300,2,0,L|336:96,1,80,4|0,0:0|0:0,0:0:0:0:
160,160,15653,6,0,L|160:256,1,80,4|0,0:0|0:0,0:0:0:0:
256,256,16006,1,4,0:0:0:0:
352,160,16183,2,0,L|352:256,1,80,0|4,0:0|0:0,0:0:0:0:
256,256,16536,1,0,0:0:0:0:
80,272,16712,2,0,L|80:192,1,80,4|4,0:0|0:0,0:0:0:0:
320,176,17065,6,0,L|400:176,2,80,4|0|4,0:0|0:0|0:0,0:0:0:0:
224,176,17595,2,0,L|144:176,2,80,0|4|0,0:0|0:0|0:0,0:0:0:0:
320,176,18124,2,0,L|400:176,1,80,4|0,0:0|0:0,0:0:0:0:
160,288,18477,6,0,L|80:288,2,80,4|0|4,0:0|0:0|0:0,0:0:0:0:
256,288,19006,2,0,L|176:288,2,80,0|4|0,0:0|0:0|0:0,0:0:0:0:
352,288,19536,2,0,L|432:288,1,80,4|4,0:0|0:0,0:0:0:0:
176,288,19889,5,4,0:0:0:0:
96,288,20065,1,8,0:0:0:0:
64,208,20242,1,4,0:0:0:0:
96,128,20418,1,0,0:0:0:0:
192,192,20595,5,4,0:0:0:0:
272,192,20771,1,0,0:0:0:0:
304,112,20948,1,4,0:0:0:0:
272,32,21124,1,0,0:0:0:0:
80,160,21300,6,0,L|64:256,1,80,4|8,0:0|0:0,0:0:0:0:
144,272,21653,1,4,0:0:0:0:
320,208,21830,2,0,L|336:304,1,80,0|4,0:0|0:0,0:0:0:0:
256,320,22183,1,0,0:0:0:0:
352,336,22359,2,0,L|464:336,1,80,4|0,0:0|0:0,0:0:0:0:
176,224,22712,5,4,0:0:0:0:
136,224,22800,1,0,0:0:0:0:
96,224,22888,1,0,0:0:0:0:
136,224,22977,1,0,0:0:0:0:
176,224,23065,1,4,0:0:0:0:
272,224,23242,1,4,0:0:0:0:
96,176,23418,5,4,0:0:0:0:
64,176,23506,1,0,0:0:0:0:
32,176,23594,1,0,0:0:0:0:
64,176,23683,1,0,0:0:0:0:
96,176,23771,1,4,0:0:0:0:
272,160,23947,1,4,0:0:0:0:
96,224,24124,6,0,P|47:271|118:321,1,160,8|4,0:0|0:0,0:0:0:0:
352,336,24653,2,0,L|464:336,2,80,8|0|4,0:0|0:0|0:0,0:0:0:0:
256,336,25183,2,0,L|144:336,1,80,8|0,0:0|0:0,0:0:0:0:
432,288,25536,6,0,P|480:240|432:176,1,160,4|0,0:3|0:0,0:0:0:0:
256,160,26065,1,8,0:0:0:0:
352,160,26242,2,0,L|368:240,1,80,4|4,0:0|0:0,0:0:0:0:
112,304,26595,6,0,P|60:252|112:208,1,160,8|2,0:0|0:0,0:0:0:0:
208,208,27124,2,0,L|288:208,2,80,8|4|8,0:0|0:0|0:0,0:0:0:0:
112,208,27653,2,0,L|16:208,1,80,2|8,0:0|0:0,0:0:0:0:
128,160,28006,2,0,L|224:160,1,80,4|8,0:0|0:0,0:0:0:0:
384,160,28359,6,0,P|448:176|480:272,1,160,4|2,0:0|0:0,0:0:0:0:
384,256,28889,1,0,0:0:0:0:
128,256,29065,1,8,0:0:0:0:
128,112,29771,6,0,L|224:112,1,80,2|4,0:0|0:0,0:0:0:0:
208,192,30124,2,0,L|128:192,1,80,4|8,0:0|0:0,0:0:0:0:
304,224,30477,2,0,L|400:224,1,80,2|4,0:0|0:0,0:0:0:0:
304,272,30830,2,0,L|208:272,1,80,8|8,0:0|0:0,0:0:0:0:
480,208,31183,6,0,P|464:144|352:112,1,160,4|0,0:3|0:0,0:0:0:0:
288,112,31712,1,0,0:0:0:0:
112,160,31889,2,0,L|16:160,3,80,4|4|4|4,0:0|0:0|0:0|0:0,0:0:0:0:
288,192,32595,6,0,L|464:192,1,160,8|8,0:0|0:0,0:0:0:0:
128,272,33300,2,0,P|80:240|144:96,1,240,2|0,0:0|0:0,0:0:0:0:
304,96,34006,6,0,L|304:192,1,80,4|0,0:0|0:0,0:0:0:0:
208,176,34359,2,0,L|208:272,1,80,0|0,0:0|0:0,0:0:0:0:
384,272,34712,2,0,L|464:272,1,80,8|0,0:0|0:0,0:0:0:0:
464,192,35065,2,0,L|368:192,1,80,0|4,0:0|0:0,0:0:0:0:
128,192,35418,6,0,P|76:134|128:96,1,160,8|8,0:0|0:0,0:0:0:0:
256,80,36124,2,0,L|352:80,1,80,2|0,0:0|0:0,0:0:0:0:
256,80,36477,2,0,L|176:80,1,80,2|0,0:0|0:0,0:0:0:0:
256,80,36830,6,0,L|256:272,1,160,0|4,0:0|0:0,0:0:0:0:
176,240,37359,1,0,0:0:0:0:
352,256,37536,2,0,L|448:256,1,80,8|0,0:0|0:0,0:0:0:0:
256,208,37889,2,0,L|160:208,1,80,8|0,0:0|0:0,0:0:0:0:
256,80,38242,5,4,0:0:0:0:
304,96,38330,1,4,0:0:0:0:
320,144,38418,1,4,0:0:0:0:
304,192,38506,1,4,0:0:0:0:
256,224,38595,2,0,L|336:224,1,80,4|4,0:0|0:0,0:0:0:0:
336,224,38947,1,4,0:0:0:0:
96,224,39124,2,0,L|16:224,2,80,2|2|2,0:0|0:0|0:0,0:0:0:0:
272,224,39653,5,0,0:0:0:0:
320,240,39741,1,0,0:0:0:0:
336,288,39829,1,0,0:0:0:0:
320,336,39917,1,0,0:0:0:0:
272,352,40006,6,0,L|160:352,1,80,4|0,0:0|0:0,0:0:0:0:
288,304,40359,2,0,L|400:304,1,80,4|0,0:0|0:0,0:0:0:0:
192,208,40712,2,0,L|96:208,1,80,4|0,0:0|0:0,0:0:0:0:
368,128,41065,6,0,L|384:240,1,80,2|2,0:0|0:0,0:0:0:0:
288,208,41418,2,0,L|272:320,1,80,4|0,0:0|0:0,0:0:0:0:
384,320,41771,1,4,0:0:0:0:
344,320,41859,1,4,0:0:0:0:
304,320,41947,1,4,0:0:0:0:
208,320,42124,2,0,L|168:320,2,40,0|4|4,0:0|0:0|0:0,0:0:0:0:
384,256,42477,6,0,L|224:256,1,160,0|4,0:0|0:0,0:0:0:0:
224,208,43006,1,0,0:0:0:0:
400,208,43183,6,0,L|288:208,1,80,8|0,0:0|0:0,0:0:0:0:
144,224,43536,2,0,L|256:224,1,80,8|0,0:0|0:0,0:0:0:0:
320,224,43889,1,4,0:0:0:0:
356,209,43977,1,4,0:0:0:0:
370,173,44065,1,4,0:0:0:0:
355,138,44153,1,4,0:0:0:0:
320,128,44242,2,0,L|224:128,1,80,4|4,0:0|0:0,0:0:0:0:
160,128,44595,5,4,0:0:0:0:
400,208,44771,2,0,L|480:208,2,80,2|2|2,0:0|0:0|0:0,0:0:0:0:
320,224,45300,5,0,0:0:0:0:
279,206,45388,1,0,0:0:0:0:
279,161,45476,1,0,0:0:0:0:
320,143,45564,1,0,0:0:0:0:
384,144,45653,2,0,L|496:144,1,80,4|0,0:0|0:0,0:0:0:0:
288,112,46006,2,0,L|176:112,1,80,4|0,0:0|0:0,0:0:0:0:
304,64,46359,2,0,L|416:64,1,80,4|0,0:0|0:0,0:0:0:0:
96,96,46712,6,0,L|-16:96,1,80,2|2,0:0|0:0,0:0:0:0:
16,96,47065,2,0,L|96:96,1,80,4|4,0:0|0:0,0:0:0:0:
272,304,47418,2,0,L|368:304,1,80,8|0,0:0|0:0,0:0:0:0:
432,288,47771,2,0,L|352:288,1,80,8|0,0:0|0:0,0:0:0:0:
48,288,48124,6,0,L|32:192,1,80,2|0,0:0|0:0,0:0:0:0:
176,208,48653,2,0,L|352:208,2,160
352,288,49536,5,0,0:0:0:0:
464,240,49888,1,0,0:0:0:0:
448,160,50065,1,0,0:0:0:0:
387,91,50241,1,0,0:0:0:0:
305,64,50418,1,0,0:0:0:0:
216,66,50595,1,0,0:0:0:0:
272,112,50771,1,0,0:0:0:0:
448,80,50947,6,0,L|464:160,2,80
368,80,51477,1,0,0:0:0:0:
288,80,51653,2,0,L|272:160,2,80,0|0|0,0:0|0:0|0:0,0:0:0:0:
368,80,52183,2,0,L|432:80,1,40,0|0,0:0|0:0,0:0:0:0:
368,80,52359,6,0,L|256:80,1,80
416,176,52889,1,0,0:0:0:0:
240,192,53065,2,0,L|128:192,2,80
336,192,53595,1,0,0:0:0:0:
160,272,53771,6,0,L|144:160,1,80,2|0,0:0|0:0,0:0:0:0:
240,192,54124,2,0,L|256:80,1,80,0|0,0:0|0:0,0:0:0:0:
160,96,54477,1,0,0:0:0:0:
92,133,54653,1,0,0:0:0:0:
78,209,54829,1,0,0:0:0:0:
129,267,55006,1,0,0:0:0:0:
304,288,55183,6,0,L|320:176,1,80,2|0,0:0|0:0,0:0:0:0:
224,208,55536,2,0,L|208:96,1,80,0|0,0:0|0:0,0:0:0:0:
304,112,55889,1,0,0:0:0:0:
372,149,56065,1,0,0:0:0:0:
386,225,56241,1,0,0:0:0:0:
224,272,56418,1,0,0:0:0:0:
384,304,56595,6,0,L|480:304,3,80,2|0|0|0,0:0|0:0|0:0|0:0,0:0:0:0:
368,256,57300,1,0,0:0:0:0:
272,256,57477,2,0,L|176:256,2,80,0|0|0,0:0|0:0|0:0,0:0:0:0:
368,208,58006,6,0,L|272:208,1,80,2|0,0:0|0:0,0:0:0:0:
192,160,58359,2,0,L|304:160,1,80,0|0,0:0|0:0,0:0:0:0:
448,288,58712,2,0,L|352:288,1,80,2|0,0:0|0:0,0:0:0:0:
288,288,59065,2,0,L|400:288,1,80,0|0,0:0|0:0,0:0:0:0:
128,288,59418,6,0,L|48:288,1,80,2|0,0:0|0:0,0:0:0:0:
128,224,59771,1,2,0:0:0:0:
304,192,59947,2,0,L|320:128,2,40,0|0|2,0:0|0:0|0:0,0:0:0:0:
224,208,60300,1,0,0:0:0:0:
144,208,60477,1,2,0:0:0:0:
112,128,60653,1,0,0:0:0:0:
288,112,60830,5,2,0:0:0:0:
384,144,61006,1,0,0:0:0:0:
416,224,61183,1,2,0:0:0:0:
336,240,61359,1,0,0:0:0:0:
416,224,61536,1,2,0:0:0:0:
384,144,61712,1,0,0:0:0:0:
288,112,61889,1,2,0:0:0:0:
368,112,62065,1,0,0:0:0:0:
192,224,62242,6,0,L|96:224,2,80,2|0|2,0:0|0:0|0:0,0:0:0:0:
368,224,62771,1,0,0:0:0:0:
464,96,62947,1,2,0:0:0:0:
496,176,63123,1,0,0:0:0:0:
464,256,63299,1,2,0:0:0:0:
368,224,63476,1,0,0:0:0:0:
272,208,63653,6,0,L|256:128,1,80,2|0,0:0|0:0,0:0:0:0:
352,144,64006,2,0,L|368:64,1,80,2|0,0:0|0:0,0:0:0:0:
272,64,64359,2,0,L|176:64,1,80,2|0,0:0|0:0,0:0:0:0:
288,112,64712,2,0,L|368:112,1,80,2|0,0:0|0:0,0:0:0:0:
112,192,65065,6,0,L|32:192,2,80,2|0|2,0:0|0:0|0:0,0:0:0:0:
288,192,65595,1,0,0:0:0:0:
112,192,65771,2,0,L|128:304,1,80,2|0,0:0|0:0,0:0:0:0:
208,288,66124,1,2,0:0:0:0:
288,304,66301,1,0,0:0:0:0:
464,272,66477,6,0,L|352:272,1,80,2|0,0:0|0:0,0:0:0:0:
288,256,66830,1,2,0:0:0:0:
288,240,67006,1,0,0:0:0:0:
384,224,67183,2,0,L|272:224,1,80,2|0,0:0|0:0,0:0:0:0:
208,192,67536,2,0,L|320:192,1,80,2|0,0:0|0:0,0:0:0:0:
32,176,67889,6,0,L|32:64,1,80,2|4,0:0|0:0,0:0:0:0:
64,96,68153,2,0,L|128:96,1,40,0|8,0:0|0:0,0:0:0:0:
208,96,68506,2,0,L|272:96,1,40,0|8,0:0|0:0,0:0:0:0:
104,96,68859,2,0,L|40:96,1,40,0|8,0:0|0:0,0:0:0:0:
224,96,69212,1,0,0:0:0:0:
336,96,69300,5,12,0:0:0:0:
416,224,69565,1,0,0:0:0:0:
368,224,69653,1,12,0:0:0:0:
256,208,69918,1,0,0:0:0:0:
304,208,70006,1,12,0:0:0:0:
400,80,70271,1,0,0:0:0:0:
448,96,70359,1,4,0:0:0:0:
464,144,70447,1,0,0:0:0:0:
448,192,70535,1,0,0:0:0:0:
176,64,70712,6,0,L|0:64,3,160,4|8|0|8,0:0|0:0|0:0|0:0,0:0:0:0:
176,160,72124,2,0,L|176:336,1,160,4|8,0:0|0:0,0:0:0:0:
16,176,72830,2,0,L|16:352,1,160,0|8,0:0|0:0,0:0:0:0:
336,64,73536,6,0,L|512:64,3,160,4|8|0|8,0:0|0:0|0:0|0:0,0:0:0:0:
336,160,74948,2,0,L|336:336,1,160,8|8,0:0|0:0,0:0:0:0:
176,192,75654,2,0,L|176:368,1,160,0|8,0:0|0:0,0:0:0:0:
496,336,76359,6,0,L|320:336,3,160,4|8|0|8,0:0|0:0|0:0|0:0,0:0:0:0:
480,128,77771,2,0,L|480:288,1,160,4|8,0:0|0:0,0:0:0:0:
320,144,78477,2,0,L|320:304,1,160,0|8,0:0|0:0,0:0:0:0:
16,80,79183,6,0,L|16:176,1,80,4|4,0:0|0:0,0:0:0:0:
33,220,79447,1,0,0:0:0:0:
79,259,79536,1,8,0:0:0:0:
139,277,79624,1,0,0:0:0:0:
256,240,79889,6,0,L|144:240,1,80,4|4,0:0|0:0,0:0:0:0:
128,224,80153,1,0,0:0:0:0:
112,176,80242,1,8,0:0:0:0:
128,128,80330,1,0,0:0:0:0:
176,112,80418,1,8,0:0:0:0:
432,128,80595,6,0,L|448:224,1,80,4|0,0:3|0:0,0:0:0:0:
272,176,80947,2,0,L|256:272,1,80,4|0,0:3|0:0,0:0:0:0:
448,304,81300,1,4,0:3:0:0:
461,227,81476,1,0,0:0:0:0:
416,164,81652,1,2,0:0:0:0:
339,152,81829,1,0,0:0:0:0:
96,224,82006,6,0,L|-16:224,2,80,4|0|8,0:0|0:0|0:0,0:0:0:0:
192,224,82536,2,0,L|304:224,2,80,4|0|8,0:0|0:0|0:0,0:0:0:0:
96,224,83065,2,0,L|-16:224,1,80,4|8,0:0|0:0,0:0:0:0:
192,208,83418,6,0,L|320:208,1,120,8|4,0:0|0:0,0:0:0:0:
304,208,83771,1,8,0:0:0:0:
208,208,83947,1,0,0:0:0:0:
304,176,84124,2,0,L|304:80,1,80,4|4,0:0|0:0,0:0:0:0:
208,96,84477,2,0,L|96:96,1,80,8|0,0:0|0:0,0:0:0:0:
384,224,84830,6,0,L|496:224,2,80,4|0|8,0:0|0:0|0:0,0:0:0:0:
288,224,85359,2,0,L|176:224,2,80,4|0|8,0:0|0:0|0:0,0:0:0:0:
384,224,85889,2,0,L|480:224,1,80,4|8,0:0|0:0,0:0:0:0:
288,320,86242,6,0,L|272:208,1,80,4|0,0:0|0:0,0:0:0:0:
384,240,86595,2,0,L|384:144,1,80,4|0,0:0|0:0,0:0:0:0:
480,176,86947,2,0,L|496:64,1,80,8|0,0:0|0:0,0:0:0:0:
320,64,87300,2,0,L|400:64,1,80,8|8,0:0|0:0,0:0:0:0:
144,240,87653,6,0,L|32:240,1,80,4|8,0:0|0:0,0:0:0:0:
160,176,88006,2,0,L|48:176,1,80,0|8,0:0|0:0,0:0:0:0:
176,112,88359,2,0,L|320:112,2,120,8|4|8,0:0|0:0|0:0,0:0:0:0:
352,224,89065,6,0,L|464:224,1,80,4|8,0:0|0:0,0:0:0:0:
336,176,89418,2,0,L|224:176,1,80,0|8,0:0|0:0,0:0:0:0:
352,128,89771,2,0,L|496:128,2,120,8|4|8,0:0|0:0|0:0,0:0:0:0:
96,128,90477,6,0,L|32:128,2,40,4|0|4,0:0|0:0|0:0,0:0:0:0:
192,128,90830,2,0,L|272:128,1,80,8|4,0:0|0:0,0:0:0:0:
96,192,91183,2,0,P|32:208|16:256,2,120,4|8|8,0:0|0:0|0:0,0:0:0:0:
416,192,92065,6,0,L|496:192,1,80,4|0,0:3|0:0,0:0:0:0:
240,240,92418,2,0,L|160:240,1,80,4|8,0:3|0:0,0:0:0:0:
112,224,92683,1,0,0:0:0:0:
96,176,92771,1,0,0:0:0:0:
112,128,92859,1,0,0:0:0:0:
160,112,92947,1,8,0:0:0:0:
256,112,93124,1,8,0:0:0:0:
496,256,93300,6,0,L|368:256,2,120,4|4|8,0:0|0:0|0:0,0:0:0:0:
352,288,94095,2,0,L|224:288,1,120,8|4,0:0|0:0,0:0:0:0:
304,288,94536,1,0,0:0:0:0:
128,288,94712,6,0,L|0:288,2,120,4|4|8,0:0|0:0|0:0,0:0:0:0:
272,240,95506,2,0,L|128:240,1,120,8|8,0:0|0:0,0:0:0:0:
64,240,95947,1,8,0:0:0:0:
320,224,96124,6,0,L|464:224,2,120,4|4|8,0:0|0:0|0:0,0:0:0:0:
176,192,96918,2,0,L|320:192,1,120,8|4,0:0|0:0,0:0:0:0:
384,192,97359,1,8,0:0:0:0:
128,192,97536,6,0,L|0:192,2,120,4|4|8,0:0|0:0|0:0,0:0:0:0:
224,192,98242,2,0,L|288:192,1,40,4|8,0:0|0:0,0:0:0:0:
128,160,98595,2,0,L|32:160,1,80,4|0,0:0|0:0,0:0:0:0:
304,112,98947,6,0,L|432:112,2,120,4|4|8,0:0|0:0|0:0,0:0:0:0:
160,112,99742,1,8,0:0:0:0:
416,144,100006,2,0,L|432:256,1,80,4|4,0:1|0:0,0:0:0:0:
176,256,100359,6,0,L|32:256,2,120,8|8|4,0:0|0:0|0:0,0:0:0:0:
320,256,101153,2,0,L|464:256,1,120,8|8,0:0|0:0,0:0:0:0:
352,224,101595,1,0,0:0:0:0:
96,224,101771,6,0,L|80:80,1,120,4|4,0:0|0:0,0:0:0:0:
320,160,102300,2,0,L|336:16,1,120,8|8,0:0|0:0,0:0:0:0:
192,48,102830,1,4,0:0:0:0:
448,64,103006,6,0,L|464:160,1,80,4|8,0:1|0:0,0:0:0:0:
288,176,103359,2,0,L|272:272,1,80,2|0,0:0|0:0,0:0:0:0:
448,288,103712,1,2,0:0:0:0:
352,272,103889,1,4,0:0:0:0:
315,257,103977,1,8,0:0:0:0:
300,221,104065,1,0,0:0:0:0:
316,186,104153,1,0,0:0:0:0:
353,172,104241,1,4,0:0:0:0:
448,160,104418,1,0,0:0:0:0:
192,160,104595,6,0,L|48:160,2,120,4|4|8,0:0|0:0|0:0,0:0:0:0:
288,160,105300,2,0,L|336:160,1,40,4|8,0:0|0:0,0:0:0:0:
192,112,105653,2,0,L|96:112,1,80,4|0,0:0|0:0,0:0:0:0:
288,160,106006,6,0,L|432:160,2,120,4|4|8,0:0|0:0|0:0,0:0:0:0:
192,160,106711,2,0,L|144:160,1,40,4|8,0:0|0:0,0:0:0:0:
288,112,107065,2,0,L|384:112,1,80,8|8,0:0|0:0,0:0:0:0:
112,112,107418,6,0,P|48:128|48:208,1,120,4|4,0:0|0:0,0:0:0:0:
176,208,107947,1,8,0:0:0:0:
272,224,108124,2,0,L|288:272,1,40,4|8,0:0|0:0,0:0:0:0:
160,304,108477,1,4,0:0:0:0:
400,304,108653,6,0,P|448:256|384:192,1,160,4|8,0:1|0:0,0:0:0:0:
320,192,109183,2,0,L|240:192,1,80,2|0,0:0|0:0,0:0:0:0:
320,144,109536,2,0,L|400:144,1,80,2|2,0:0|0:0,0:0:0:0:
224,128,109889,2,0,L|128:128,1,80,4|4,0:0|0:0,0:0:0:0:
400,304,110242,6,0,P|429:240|384:224,1,120,4|4,0:0|0:0,0:0:0:0:
256,208,110771,1,8,0:0:0:0:
352,176,110947,2,0,L|368:128,1,40,4|8,0:0|0:0,0:0:0:0:
128,112,111300,2,0,L|32:112,1,80,8|8,0:0|0:0,0:0:0:0:
304,144,111653,6,0,L|448:144,2,120,4|4|8,0:0|0:0|0:0,0:0:0:0:
208,160,112359,2,0,L|256:160,1,40,4|8,0:0|0:0,0:0:0:0:
384,192,112712,2,0,L|304:192,1,80,4|0,0:0|0:0,0:0:0:0:
48,240,113065,6,0,L|32:96,1,120,4|4,0:0|0:0,0:0:0:0:
272,96,113595,1,8,0:0:0:0:
176,96,113771,2,0,L|160:144,1,40,4|8,0:0|0:0,0:0:0:0:
256,176,114036,2,0,L|304:176,1,40,0|4,0:0|0:0,0:0:0:0:
384,160,114300,1,4,0:1:0:0:
144,128,114477,6,0,L|0:128,2,120,8|8|4,0:0|0:0|0:0,0:0:0:0:
240,128,115183,2,0,L|304:128,1,40,8|4,0:0|0:0,0:0:0:0:
160,192,115536,2,0,L|48:192,1,80,8|8,0:0|0:0,0:0:0:0:
336,192,115889,5,4,0:3:0:0:
256,192,116065,12,0,118712,0:0:0:0:
