osu file format v14

[General]
AudioFilename: audio.mp3
AudioLeadIn: 0
PreviewTime: 93212
Countdown: 0
SampleSet: Soft
StackLeniency: 0.7
Mode: 2
LetterboxInBreaks: 0
WidescreenStoryboard: 1

[Editor]
DistanceSpacing: 0.8
BeatDivisor: 8
GridSize: 16
TimelineZoom: 4.999998

[Metadata]
Title:Midnight, Sunrise Sign
TitleUnicode:Midnight, Sunrise Sign
Artist:siqlo
ArtistUnicode:siqlo
Creator:Rocma
Version:Overdose
Source:
Tags:Electronic Instrumental bofu 2015 bms of fighters hardcore dubstep wobble bass emotional emotions saikuro
BeatmapID:2546241
BeatmapSetID:1224186

[Difficulty]
HPDrainRate:6
CircleSize:4
OverallDifficulty:9.2
ApproachRate:9.2
SliderMultiplier:1.92
SliderTickRate:2

[Events]
//Background and Video events
0,0,"BG.jpg",0,0
//Break Periods
//Storyboard Layer 0 (Background)
//Storyboard Layer 1 (Fail)
//Storyboard Layer 2 (Pass)
//Storyboard Layer 3 (Foreground)
//Storyboard Layer 4 (Overlay)
//Storyboard Sound Samples

[TimingPoints]
2948,352.941176470588,4,2,2,50,1,0
14242,-100,4,2,2,70,0,0
25536,-100,4,2,3,80,0,1
25624,-100,4,2,3,70,0,0
29153,-100,4,2,3,5,0,0
29242,-100,4,2,3,70,0,0
31183,-100,4,2,3,80,0,1
31271,-100,4,2,3,70,0,0
36830,-100,4,2,3,50,0,0
37183,-100,4,2,2,80,0,1
42477,-100,4,2,2,50,0,0
42830,-100,4,2,2,80,0,1
47418,-100,4,2,2,50,0,0
80595,-100,4,2,3,70,0,0
82006,-100,4,2,2,60,0,0
87653,-100,4,2,2,50,0,0
92065,-100,4,2,3,80,0,0
92771,-100,4,2,3,70,0,0
93300,-100,4,2,3,75,0,1
103183,-100,4,2,3,60,0,0
104595,-100,4,2,3,75,0,1
116065,-100,4,2,3,55,0,0
116595,-100,4,2,3,45,0,0
117300,-100,4,2,3,35,0,0
118006,-100,4,2,3,25,0,0
118712,-100,4,2,3,15,0,0

[Colours]
Combo1 : 181,85,251
Combo2 : 0,179,255

[HitObjects]
128,272,2948,5,2,0:0:0:0:
368,272,3124,2,0,L|384:160,1,96.0000036621096,2|0,0:0|0:0,0:0:0:0:
256,160,3477,1,2,0:0:0:0:
384,112,3653,1,0,0:0:0:0:
256,80,3830,2,0,P|201:126|272:208,1,192.000007324219,2|0,0:0|0:0,0:0:0:0:
272,320,4536,6,0,L|144:320,1,96.0000036621096,2|0,0:0|0:0,0:0:0:0:
304,256,4889,1,2,0:0:0:0:
176,240,5065,1,0,0:0:0:0:
128,144,5242,1,2,0:0:0:0:
176,48,5418,1,0,0:0:0:0:
272,32,5595,1,2,0:0:0:0:
112,48,5771,6,0,L|-16:48,1,96.0000036621096,2|2,0:0|0:0,0:0:0:0:
16,128,6300,1,2,0:0:0:0:
144,160,6477,1,0,0:0:0:0:
48,208,6653,2,0,P|64:272|192:320,1,192.000007324219,2|0,0:0|0:0,0:0:0:0:
176,224,7359,6,0,L|64:224,2,96.0000036621096,2|0|0,0:0|0:0|0:0,0:0:0:0:
288,208,7889,2,0,L|304:112,1,96.0000036621096,2|0,0:0|0:0,0:0:0:0:
192,128,8242,2,0,L|176:32,1,96.0000036621096,2|0,0:0|0:0,0:0:0:0:
288,32,8595,5,2,0:0:0:0:
416,64,8771,1,2,0:0:0:0:
288,32,8947,1,0,0:0:0:0:
416,64,9123,1,2,0:0:0:0:
272,96,9300,1,0,0:0:0:0:
176,160,9477,2,0,P|192:224|304:288,1,192.000007324219,2|0,0:0|0:0,0:0:0:0:
444,321,10006,6,0,L|334:321,1,96,0|2,0:0|0:0,0:0:0:0:
330,262,10359,1,2,0:0:0:0:
437,247,10477,1,0,0:0:0:0:
439,226,10536,1,2,0:0:0:0:
272,192,10712,2,0,L|256:80,1,96.0000036621095,2|0,0:0|0:0,0:0:0:0:
384,64,11065,1,2,0:0:0:0:
240,48,11242,1,0,0:0:0:0:
80,144,11418,6,0,L|192:144,1,96.0000036621095,2|2,0:0|0:0,0:0:0:0:
304,176,11771,2,0,L|192:176,1,96.0000036621095,0|2,0:0|0:0,0:0:0:0:
352,224,12124,1,0,0:0:0:0:
208,256,12300,2,0,L|96:256,2,96,2|0|0,0:0|0:0|0:0,0:0:0:0:
480,256,12830,6,0,L|288:256,1,192.000007324219,4|0,0:0|0:0,0:0:0:0:
416,256,13359,1,0,0:0:0:0:
176,272,13536,5,2,0:0:0:0:
153,264,13580,1,0,0:0:0:0:
136,247,13624,1,0,0:0:0:0:
130,224,13668,1,0,0:0:0:0:
135,201,13712,1,0,0:0:0:0:
150,183,13756,1,0,0:0:0:0:
172,174,13800,1,0,0:0:0:0:
256,176,13889,5,0,0:0:0:0:
278,168,13933,1,0,0:0:0:0:
295,151,13977,1,0,0:0:0:0:
301,128,14021,1,0,0:0:0:0:
296,105,14065,1,0,0:0:0:0:
281,87,14109,1,0,0:0:0:0:
259,78,14153,1,0,0:0:0:0:
112,80,14242,6,0,L|16:80,1,96,4|0,0:0|0:0,0:0:0:0:
64,80,14506,1,0,0:0:0:0:
144,80,14595,2,0,L|240:80,1,96,4|0,0:0|0:0,0:0:0:0:
112,128,14947,2,0,L|0:128,1,96,4|0,0:0|0:0,0:0:0:0:
144,128,15300,2,0,L|240:128,1,96,4|0,0:0|0:0,0:0:0:0:
192,128,15565,1,0,0:0:0:0:
16,224,15653,6,0,L|128:224,1,96,4|0,0:0|0:0,0:0:0:0:
160,224,15918,1,0,0:0:0:0:
240,224,16006,2,0,L|128:224,1,96,4|0,0:0|0:0,0:0:0:0:
272,224,16359,2,0,L|384:224,1,96,4|0,0:0|0:0,0:0:0:0:
240,224,16712,2,0,L|128:224,1,96,4|4,0:0|0:0,0:0:0:0:
192,224,16977,1,0,0:0:0:0:
400,80,17065,6,0,L|496:80,1,96,4|0,0:0|0:0,0:0:0:0:
448,80,17329,1,0,0:0:0:0:
368,80,17418,1,4,0:0:0:0:
496,80,17595,1,0,0:0:0:0:
368,128,17770,2,0,L|256:128,1,96,4|0,0:0|0:0,0:0:0:0:
400,160,18123,2,0,L|496:160,1,96,4|0,0:0|0:0,0:0:0:0:
448,160,18388,1,0,0:0:0:0:
368,208,18476,6,0,L|256:208,1,96,4|0,0:0|0:0,0:0:0:0:
320,208,18741,1,0,0:0:0:0:
384,208,18830,1,4,0:0:0:0:
320,160,18962,2,0,L|320:128,1,24,2|0,0:0|0:0,0:0:0:0:
416,96,19182,2,0,L|304:96,1,96,4|0,0:0|0:0,0:0:0:0:
208,160,19535,2,0,L|320:160,1,96,4|4,0:0|0:0,0:0:0:0:
256,160,19800,1,0,0:0:0:0:
48,272,19889,6,0,L|32:144,1,96,4|8,0:0|0:0,0:0:0:0:
96,160,20153,1,0,0:0:0:0:
176,160,20242,2,0,L|192:32,1,96,4|0,0:0|0:0,0:0:0:0:
320,160,20595,2,0,L|336:32,1,96,4|0,0:0|0:0,0:0:0:0:
464,160,20947,2,0,L|480:32,1,96,4|0,0:0|0:0,0:0:0:0:
176,48,21300,6,0,L|64:48,1,96,4|8,0:0|0:0,0:0:0:0:
128,48,21565,1,0,0:0:0:0:
208,80,21653,2,0,L|320:80,1,96,4|0,0:0|0:0,0:0:0:0:
176,128,22006,1,4,0:0:0:0:
304,176,22183,2,0,L|176:176,2,96,0|4|0,0:0|0:0|0:0,0:0:0:0:
64,272,22712,6,0,L|-16:272,1,48.0000018310548,4|0,0:0|0:0,0:0:0:0:
192,240,22889,2,0,L|192:192,1,48.0000018310548,0|0,0:0|0:0,0:0:0:0:
112,208,23065,2,0,L|112:160,1,48.0000018310548,4|0,0:0|0:0,0:0:0:0:
288,160,23242,2,0,L|288:96,1,48.0000018310548,4|0,0:0|0:0,0:0:0:0:
96,112,23418,6,0,L|144:112,1,48.0000018310548,4|0,0:0|0:0,0:0:0:0:
320,112,23595,2,0,L|320:176,1,48.0000018310548,0|0,0:0|0:0,0:0:0:0:
144,208,23771,2,0,L|96:208,1,48.0000018310548,4|0,0:0|0:0,0:0:0:0:
368,208,23947,2,0,L|416:208,1,48.0000018310548,4|0,0:0|0:0,0:0:0:0:
144,256,24124,5,8,0:0:0:0:
80,256,24212,1,0,0:0:0:0:
51,249,24256,1,0,0:0:0:0:
39,223,24300,1,0,0:0:0:0:
51,198,24345,1,0,0:0:0:0:
80,192,24389,1,0,0:0:0:0:
144,176,24477,5,4,0:0:0:0:
400,160,24653,1,8,0:0:0:0:
288,144,24830,2,0,L|160:144,1,96,0|4,0:0|0:0,0:0:0:0:
432,48,25183,2,0,L|448:176,1,96,8|0,0:0|0:0,0:0:0:0:
208,288,25536,6,0,L|0:288,1,192,4|0,0:3|0:0,0:0:0:0:
112,288,26065,1,8,0:0:0:0:
272,240,26242,2,0,L|352:240,1,48,4|4,0:0|0:0,0:0:0:0:
160,192,26418,2,0,L|96:192,1,48,4|4,0:0|0:0,0:0:0:0:
336,192,26595,2,0,P|384:160|336:112,1,144,8|0,0:0|0:0,0:0:0:0:
160,112,26947,6,0,L|48:112,1,96,2|8,0:0|0:0,0:0:0:0:
192,160,27300,2,0,L|208:192,1,24,4|0,0:0|0:0,0:0:0:0:
64,176,27477,2,0,L|48:208,1,24,8|0,0:0|0:0,0:0:0:0:
160,112,27653,6,0,L|48:112,1,96,2|8,0:0|0:0,0:0:0:0:
192,160,28006,2,0,L|208:192,1,24,4|0,0:0|0:0,0:0:0:0:
64,176,28183,2,0,L|48:208,1,24,8|0,0:0|0:0,0:0:0:0:
336,208,28359,2,0,L|352:288,1,48,4|4,0:0|0:0,0:0:0:0:
192,256,28536,2,0,L|176:336,1,48,4|4,0:0|0:0,0:0:0:0:
400,320,28712,1,2,0:0:0:0:
429,308,28756,1,0,0:0:0:0:
450,284,28800,1,0,0:0:0:0:
457,253,28844,1,0,0:0:0:0:
449,222,28888,1,0,0:0:0:0:
428,198,28932,1,0,0:0:0:0:
399,187,28976,1,0,0:0:0:0:
192,192,29065,5,8,0:0:0:0:
192,112,29771,6,0,L|288:112,1,96,2|4,0:0|0:0,0:0:0:0:
48,160,30124,2,0,L|16:160,1,24,4|0,0:0|0:0,0:0:0:0:
256,160,30300,2,0,L|288:160,1,24,8|0,0:0|0:0,0:0:0:0:
80,224,30477,5,2,0:0:0:0:
192,192,30653,2,0,L|208:160,1,24,4|0,0:0|0:0,0:0:0:0:
80,160,30830,2,0,L|64:128,1,24,8|0,0:0|0:0,0:0:0:0:
192,192,31006,2,0,L|208:160,1,24,8|0,0:0|0:0,0:0:0:0:
448,144,31183,6,0,L|240:144,1,192,4|0,0:3|0:0,0:0:0:0:
128,144,31712,1,0,0:0:0:0:
416,176,31889,2,0,L|464:176,2,48,4|0|4,0:0|0:0|0:0,0:0:0:0:
336,160,32153,1,0,0:0:0:0:
416,176,32242,2,0,L|464:176,2,48,4|0|4,0:0|0:0|0:0,0:0:0:0:
336,160,32506,1,0,0:0:0:0:
96,256,32595,6,0,L|96:144,1,96,8|0,0:0|0:0,0:0:0:0:
256,144,32859,1,0,0:0:0:0:
416,256,32947,2,0,L|416:144,1,96,8|0,0:0|0:0,0:0:0:0:
256,144,33211,1,0,0:0:0:0:
96,256,33300,2,0,P|48:199|192:128,1,288,2|0,0:0|0:0,0:0:0:0:
464,240,34006,5,0,0:0:0:0:
368,240,34183,1,0,0:0:0:0:
352,208,34241,1,0,0:0:0:0:
368,176,34300,1,0,0:0:0:0:
432,160,34359,2,0,L|473:155,2,36
385,130,34536,1,0,0:0:0:0:
353,114,34580,1,0,0:0:0:0:
321,98,34624,1,0,0:0:0:0:
144,144,34712,5,8,0:0:0:0:
120,150,34756,1,0,0:0:0:0:
100,162,34800,1,0,0:0:0:0:
82,178,34844,1,0,0:0:0:0:
69,198,34888,1,0,0:0:0:0:
61,221,34932,1,0,0:0:0:0:
58,245,34976,1,0,0:0:0:0:
61,268,35020,1,0,0:0:0:0:
69,291,35064,1,0,0:0:0:0:
82,311,35109,1,0,0:0:0:0:
100,327,35153,1,0,0:0:0:0:
121,339,35197,1,0,0:0:0:0:
144,345,35241,1,4,0:0:0:0:
416,256,35418,6,0,L|416:144,1,96,8|0,0:0|0:0,0:0:0:0:
256,144,35682,1,0,0:0:0:0:
96,256,35770,2,0,L|96:144,1,96,8|0,0:0|0:0,0:0:0:0:
256,144,36036,1,0,0:0:0:0:
416,144,36124,2,0,L|304:144,3,96,2|0|2|0,0:0|0:0|0:0|0:0,0:0:0:0:
16,144,36830,6,0,L|16:288,1,144,0|0,0:0|0:0,0:0:0:0:
192,272,37183,2,0,L|256:272,1,48,4|0,0:0|0:0,0:0:0:0:
64,224,37359,2,0,L|0:224,1,48,0|0,0:0|0:0,0:0:0:0:
192,176,37536,2,0,L|304:176,1,96,8|0,0:0|0:0,0:0:0:0:
240,176,37800,1,0,0:0:0:0:
400,176,37889,2,0,L|512:176,1,96,8|0,0:0|0:0,0:0:0:0:
448,176,38153,1,0,0:0:0:0:
240,112,38242,6,0,L|240:64,1,48,4|4,0:0|0:0,0:0:0:0:
320,64,38418,2,0,L|320:112,1,48,4|4,0:0|0:0,0:0:0:0:
128,160,38595,2,0,L|224:160,1,96,4|4,0:0|0:0,0:0:0:0:
320,160,38947,1,4,0:0:0:0:
16,192,39124,2,0,L|64:192,1,48,2|0,0:0|0:0,0:0:0:0:
288,192,39300,2,0,L|240:192,1,48,2|0,0:0|0:0,0:0:0:0:
16,192,39477,2,0,L|64:192,1,48,2|0,0:0|0:0,0:0:0:0:
240,144,39653,6,0,L|288:144,1,48,0|0,0:0|0:0,0:0:0:0:
240,144,39830,2,0,L|176:144,1,48,0|0,0:0|0:0,0:0:0:0:
368,256,40006,5,4,0:0:0:0:
379,235,40050,1,0,0:0:0:0:
387,212,40094,1,0,0:0:0:0:
389,188,40138,1,0,0:0:0:0:
387,164,40182,1,0,0:0:0:0:
381,141,40226,1,0,0:0:0:0:
370,120,40270,1,0,0:0:0:0:
208,176,40359,5,4,0:0:0:0:
184,173,40403,1,0,0:0:0:0:
166,158,40447,1,0,0:0:0:0:
159,136,40491,1,0,0:0:0:0:
166,113,40535,1,0,0:0:0:0:
184,98,40579,1,0,0:0:0:0:
207,95,40623,1,0,0:0:0:0:
368,336,40712,5,4,0:0:0:0:
418,329,40756,1,0,0:0:0:0:
451,299,40800,1,0,0:0:0:0:
464,253,40844,1,0,0:0:0:0:
451,208,40888,1,0,0:0:0:0:
419,177,40932,1,0,0:0:0:0:
368,171,40976,1,0,0:0:0:0:
176,240,41065,5,2,0:0:0:0:
304,208,41242,1,2,0:0:0:0:
144,160,41418,1,4,0:0:0:0:
102,142,41506,1,0,0:0:0:0:
102,97,41594,1,0,0:0:0:0:
143,79,41682,1,0,0:0:0:0:
320,80,41771,6,0,L|384:80,1,48,4|4,0:0|0:0,0:0:0:0:
192,80,41947,2,0,L|128:80,1,48,4|4,0:0|0:0,0:0:0:0:
320,80,42124,2,0,L|384:80,1,48,0|4,0:0|0:0,0:0:0:0:
192,80,42300,2,0,L|128:80,1,48,4|4,0:0|0:0,0:0:0:0:
384,256,42477,2,0,P|432:208|384:176,1,144,0|0,0:0|0:0,0:0:0:0:
208,192,42830,6,0,L|160:192,1,48,4|0,0:0|0:0,0:0:0:0:
336,160,43006,2,0,L|400:160,1,48,0|0,0:0|0:0,0:0:0:0:
208,128,43183,2,0,L|96:128,1,96,8|0,0:0|0:0,0:0:0:0:
160,128,43447,1,0,0:0:0:0:
384,128,43536,2,0,L|496:128,1,96,8|0,0:0|0:0,0:0:0:0:
432,128,43800,1,0,0:0:0:0:
256,128,43889,2,0,L|256:192,1,48,4|4,0:0|0:0,0:0:0:0:
320,128,44065,2,0,L|320:176,1,48,4|4,0:0|0:0,0:0:0:0:
144,224,44242,6,0,L|48:224,2,96,4|4|4,0:0|0:0|0:0,0:0:0:0:
416,176,44771,2,0,L|368:176,1,48,2|0,0:0|0:0,0:0:0:0:
176,176,44947,2,0,L|224:176,1,48,2|0,0:0|0:0,0:0:0:0:
416,176,45124,2,0,L|368:176,1,48,2|0,0:0|0:0,0:0:0:0:
176,128,45300,2,0,L|176:64,1,48,0|0,0:0|0:0,0:0:0:0:
256,80,45477,2,0,L|256:128,1,48,0|0,0:0|0:0,0:0:0:0:
96,192,45653,5,4,0:0:0:0:
72,195,45697,1,0,0:0:0:0:
54,210,45741,1,0,0:0:0:0:
48,233,45785,1,0,0:0:0:0:
55,256,45829,1,0,0:0:0:0:
74,270,45873,1,0,0:0:0:0:
97,273,45917,1,0,0:0:0:0:
256,224,46006,5,4,0:0:0:0:
279,227,46050,1,0,0:0:0:0:
297,242,46094,1,0,0:0:0:0:
303,265,46138,1,0,0:0:0:0:
296,288,46182,1,0,0:0:0:0:
277,302,46226,1,0,0:0:0:0:
254,305,46270,1,0,0:0:0:0:
96,336,46359,6,0,L|96:304,1,32,4|0,0:0|0:0,0:0:0:0:
240,288,46477,2,0,L|272:288,1,32,0|0,0:0|0:0,0:0:0:0:
416,336,46595,2,0,L|416:304,1,32,0|0,0:0|0:0,0:0:0:0:
224,256,46712,6,0,L|192:256,2,24,2|0|0,0:0|0:0|0:0,0:0:0:0:
288,256,46889,2,0,L|320:256,2,24,2|0|0,0:0|0:0|0:0,0:0:0:0:
128,176,47065,1,4,0:0:0:0:
86,158,47153,1,4,0:0:0:0:
86,113,47241,1,4,0:0:0:0:
127,95,47329,1,4,0:0:0:0:
304,160,47418,6,0,L|432:160,1,96,8|0,0:0|0:0,0:0:0:0:
288,112,47771,2,0,L|400:112,1,96,8|0,0:0|0:0,0:0:0:0:
144,336,48124,5,2,0:0:0:0:
64,288,48300,1,0,0:0:0:0:
32,192,48477,1,0,0:0:0:0:
64,288,48653,1,0,0:0:0:0:
144,336,48830,5,0,0:0:0:0:
64,288,49006,1,0,0:0:0:0:
32,192,49183,1,0,0:0:0:0:
64,288,49359,1,0,0:0:0:0:
144,336,49536,5,0,0:0:0:0:
224,288,49712,1,0,0:0:0:0:
256,192,49889,1,0,0:0:0:0:
224,288,50065,1,0,0:0:0:0:
144,336,50242,5,0,0:0:0:0:
224,288,50418,1,0,0:0:0:0:
256,192,50595,1,0,0:0:0:0:
224,288,50771,1,0,0:0:0:0:
144,176,50947,5,0,0:0:0:0:
256,128,51124,1,0,0:0:0:0:
368,176,51300,1,0,0:0:0:0:
256,128,51477,1,0,0:0:0:0:
144,176,51653,5,0,0:0:0:0:
256,128,51830,1,0,0:0:0:0:
368,176,52006,1,0,0:0:0:0:
256,128,52183,1,0,0:0:0:0:
192,128,52271,1,0,0:0:0:0:
256,128,52359,5,0,0:0:0:0:
368,176,52536,1,0,0:0:0:0:
256,128,52712,1,0,0:0:0:0:
144,176,52889,1,0,0:0:0:0:
304,128,53065,5,0,0:0:0:0:
416,176,53242,1,0,0:0:0:0:
304,128,53418,1,0,0:0:0:0:
192,176,53595,1,0,0:0:0:0:
32,320,53771,5,2,0:0:0:0:
144,288,53947,1,0,0:0:0:0:
160,192,54124,1,0,0:0:0:0:
272,160,54300,1,0,0:0:0:0:
288,336,54477,1,0,0:0:0:0:
176,304,54653,1,0,0:0:0:0:
320,256,54830,1,0,0:0:0:0:
160,224,55006,1,0,0:0:0:0:
480,320,55183,5,2,0:0:0:0:
368,288,55359,1,0,0:0:0:0:
352,192,55536,1,0,0:0:0:0:
240,160,55712,1,0,0:0:0:0:
224,336,55889,1,0,0:0:0:0:
336,304,56065,1,0,0:0:0:0:
192,256,56242,1,0,0:0:0:0:
448,224,56418,1,0,0:0:0:0:
208,176,56595,5,2,0:0:0:0:
80,128,56771,1,0,0:0:0:0:
176,128,56947,1,0,0:0:0:0:
48,96,57124,1,0,0:0:0:0:
144,96,57300,1,0,0:0:0:0:
16,64,57477,1,0,0:0:0:0:
144,64,57653,1,0,0:0:0:0:
16,64,57830,1,0,0:0:0:0:
144,64,58006,6,0,L|240:64,1,96,2|0,0:0|0:0,0:0:0:0:
256,144,58359,2,0,L|368:144,1,96,0|0,0:0|0:0,0:0:0:0:
240,224,58712,2,0,L|144:224,1,96,2|0,0:0|0:0,0:0:0:0:
288,288,59065,2,0,L|400:288,1,96,0|0,0:0|0:0,0:0:0:0:
112,320,59418,6,0,L|96:192,1,96,2|0,0:0|0:0,0:0:0:0:
208,192,59771,1,2,0:0:0:0:
80,144,59947,2,0,L|16:144,2,48,0|0|2,0:0|0:0|0:0,0:0:0:0:
208,80,60300,1,0,0:0:0:0:
64,64,60477,1,2,0:0:0:0:
192,16,60653,1,0,0:0:0:0:
448,80,60830,5,2,0:0:0:0:
304,112,61006,1,0,0:0:0:0:
400,128,61183,1,2,0:0:0:0:
256,160,61359,1,0,0:0:0:0:
352,176,61536,1,2,0:0:0:0:
256,208,61712,1,0,0:0:0:0:
400,224,61889,1,2,0:0:0:0:
256,240,62065,1,0,0:0:0:0:
16,304,62242,6,0,L|32:192,1,96,2|0,0:0|0:0,0:0:0:0:
128,176,62595,1,2,0:0:0:0:
208,160,62712,2,0,L|256:160,1,32
368,144,62947,1,2,0:0:0:0:
416,224,63123,1,0,0:0:0:0:
368,304,63299,1,2,0:0:0:0:
256,336,63476,1,0,0:0:0:0:
384,320,63653,6,0,L|400:208,1,96,2|0,0:0|0:0,0:0:0:0:
256,256,64006,2,0,L|240:144,1,96,2|0,0:0|0:0,0:0:0:0:
384,96,64359,1,2,0:0:0:0:
224,64,64536,2,0,L|144:64,2,48,0|0|2,0:0|0:0|0:0,0:0:0:0:
336,48,64889,1,0,0:0:0:0:
32,320,65065,6,0,L|16:192,1,96,2|0,0:0|0:0,0:0:0:0:
144,176,65418,1,2,0:0:0:0:
272,176,65595,1,0,0:0:0:0:
144,176,65771,2,0,L|160:288,1,96,2|0,0:0|0:0,0:0:0:0:
288,288,66124,1,2,0:0:0:0:
160,288,66301,1,0,0:0:0:0:
304,240,66477,6,0,L|416:240,1,96,2|0,0:0|0:0,0:0:0:0:
288,192,66830,1,2,0:0:0:0:
240,176,66947,1,0,0:0:0:0:
288,176,67006,1,0,0:0:0:0:
400,144,67183,2,0,L|288:144,1,96,2|0,0:0|0:0,0:0:0:0:
192,128,67536,2,0,L|304:128,1,96,2|0,0:0|0:0,0:0:0:0:
48,320,67889,6,0,L|48:208,1,96,2|4,0:0|0:0,0:0:0:0:
128,208,68153,2,0,L|192:208,1,48,0|8,0:0|0:0,0:0:0:0:
288,192,68418,1,0,0:0:0:0:
208,192,68506,2,0,L|160:192,1,48,0|8,0:0|0:0,0:0:0:0:
304,128,68771,1,0,0:0:0:0:
368,128,68859,2,0,L|416:128,1,48,0|8,0:0|0:0,0:0:0:0:
288,32,69124,1,0,0:0:0:0:
240,32,69212,1,0,0:0:0:0:
448,128,69300,5,12,0:0:0:0:
304,224,69565,1,0,0:0:0:0:
240,224,69653,1,12,0:0:0:0:
400,192,69918,1,0,0:0:0:0:
464,192,70006,1,12,0:0:0:0:
320,112,70271,1,0,0:0:0:0:
400,176,70359,1,4,0:0:0:0:
426,137,70447,1,0,0:0:0:0:
414,92,70535,1,0,0:0:0:0:
373,70,70623,1,0,0:0:0:0:
160,288,70712,6,0,L|144:128,1,144.000005493164,4|0,0:0|0:0,0:0:0:0:
224,144,71065,2,0,L|368:144,1,144.000005493164,8|0,0:0|0:0,0:0:0:0:
288,256,71418,2,0,L|272:96,1,144.000005493164,0|0,0:0|0:0,0:0:0:0:
352,112,71771,2,0,L|496:112,1,144.000005493164,8|0,0:0|0:0,0:0:0:0:
432,144,72124,6,0,L|416:304,1,144,4|0,0:0|0:0,0:0:0:0:
336,304,72477,2,0,L|192:304,1,144,8|0,0:0|0:0,0:0:0:0:
112,96,72830,2,0,L|128:256,1,144,0|0,0:0|0:0,0:0:0:0:
208,256,73183,2,0,L|352:256,1,144,8|0,0:0|0:0,0:0:0:0:
272,256,73536,6,0,L|256:112,1,144.000005493164,4|0,0:0|0:0,0:0:0:0:
336,80,73889,2,0,L|192:80,1,144.000005493164,8|0,0:0|0:0,0:0:0:0:
272,240,74242,2,0,L|288:96,1,144.000005493164,0|0,0:0|0:0,0:0:0:0:
208,64,74595,2,0,L|352:64,1,144.000005493164,8|0,0:0|0:0,0:0:0:0:
272,144,74947,6,0,L|112:144,1,144.000005493164,8|0,0:0|0:0,0:0:0:0:
208,192,75300,2,0,L|224:32,1,144.000005493164,8|0,0:0|0:0,0:0:0:0:
144,48,75653,2,0,L|304:48,1,144.000005493164,0|0,0:0|0:0,0:0:0:0:
208,192,76006,2,0,P|162:148|208:96,1,144.000005493164,8|2,0:0|0:0,0:0:0:0:
288,96,76359,6,0,L|128:96,1,144.000005493164,4|0,0:0|0:0,0:0:0:0:
64,96,76712,2,0,L|48:256,1,144.000005493164,8|0,0:0|0:0,0:0:0:0:
128,256,77065,2,0,L|288:256,1,144.000005493164,0|0,0:0|0:0,0:0:0:0:
352,256,77418,2,0,L|192:256,1,144.000005493164,8|0,0:0|0:0,0:0:0:0:
288,208,77771,6,0,L|448:208,1,144.000005493164,4|0,0:0|0:0,0:0:0:0:
352,192,78124,2,0,L|336:32,1,144.000005493164,8|0,0:0|0:0,0:0:0:0:
256,48,78477,2,0,L|96:48,1,144.000005493164,0|0,0:0|0:0,0:0:0:0:
192,192,78830,2,0,L|208:32,1,144.000005493164,8|0,0:0|0:0,0:0:0:0:
304,48,79183,6,0,L|416:48,1,96.0000036621095,4|4,0:0|0:0,0:0:0:0:
448,80,79447,1,0,0:0:0:0:
464,128,79536,1,8,0:0:0:0:
448,176,79624,2,0,L|320:176,1,96.0000036621095,0|8,0:0|0:0,0:0:0:0:
160,208,79889,6,0,L|48:208,1,96.0000036621095,4|4,0:0|0:0,0:0:0:0:
112,176,80153,1,0,0:0:0:0:
128,144,80242,1,8,0:0:0:0:
112,112,80330,1,0,0:0:0:0:
64,112,80418,2,0,L|16:112,1,48,8|8,0:0|0:0,0:0:0:0:
176,160,80595,6,0,L|288:160,1,96,4|0,0:3|0:0,0:0:0:0:
16,224,80947,2,0,L|112:224,1,96,4|0,0:3|0:0,0:0:0:0:
352,160,81300,2,0,L|256:160,1,96,4|0,0:3|0:0,0:0:0:0:
496,224,81653,2,0,L|384:224,1,96,2|0,0:0|0:0,0:0:0:0:
128,224,82006,6,0,L|16:224,2,96,4|0|8,0:0|0:0|0:0,0:0:0:0:
256,224,82536,2,0,L|368:224,2,96,4|0|8,0:0|0:0|0:0,0:0:0:0:
128,224,83065,2,0,L|16:224,1,96,4|8,0:0|0:0,0:0:0:0:
336,224,83418,6,0,L|352:96,1,96,8|0,0:0|0:0,0:0:0:0:
272,128,83683,1,4,0:0:0:0:
176,128,83771,2,0,L|160:0,1,96,8|0,0:0|0:0,0:0:0:0:
272,32,84124,2,0,L|288:112,1,48,4|0,0:0|0:0,0:0:0:0:
215,96,84300,1,4,0:0:0:0:
96,112,84477,2,0,L|80:240,1,96,8|0,0:0|0:0,0:0:0:0:
384,224,84830,6,0,L|496:224,2,96,4|0|8,0:0|0:0|0:0,0:0:0:0:
256,224,85360,2,0,L|144:224,2,96,4|0|8,0:0|0:0|0:0,0:0:0:0:
384,224,85889,2,0,L|480:224,1,96,4|8,0:0|0:0,0:0:0:0:
208,304,86242,6,0,L|192:192,1,96,4|0,0:0|0:0,0:0:0:0:
336,224,86595,2,0,L|336:128,1,96,4|0,0:0|0:0,0:0:0:0:
480,176,86947,2,0,L|496:64,1,96,8|0,0:0|0:0,0:0:0:0:
256,64,87300,1,8,0:0:0:0:
496,64,87477,2,0,L|432:64,1,48,8|0,0:0|0:0,0:0:0:0:
256,176,87653,6,0,L|144:176,1,96,4|8,0:0|0:0,0:0:0:0:
256,176,88006,1,0,0:0:0:0:
304,176,88094,1,0,0:0:0:0:
352,176,88182,1,8,0:0:0:0:
256,176,88359,2,0,L|144:176,1,96,8|0,0:0|0:0,0:0:0:0:
224,128,88624,2,0,L|224:32,1,96,4|0,0:0|0:0,0:0:0:0:
160,48,88889,2,0,L|208:48,1,48,8|0,0:0|0:0,0:0:0:0:
384,176,89065,6,0,L|496:176,1,96,4|8,0:0|0:0,0:0:0:0:
384,176,89418,1,0,0:0:0:0:
336,176,89506,1,0,0:0:0:0:
288,176,89594,1,8,0:0:0:0:
384,176,89771,2,0,L|496:176,1,96,8|0,0:0|0:0,0:0:0:0:
416,128,90036,2,0,L|416:32,1,96,4|0,0:0|0:0,0:0:0:0:
480,48,90301,2,0,L|432:48,1,48,8|8,0:0|0:0,0:0:0:0:
256,48,90477,6,0,L|192:48,1,48,4|0,0:0|0:0,0:0:0:0:
256,48,90653,2,0,L|320:48,1,48,4|0,0:0|0:0,0:0:0:0:
144,96,90830,1,8,0:0:0:0:
98,97,90918,1,0,0:0:0:0:
80,139,91006,1,4,0:0:0:0:
109,174,91094,1,4,0:0:0:0:
256,208,91183,6,0,L|320:208,2,48,4|0|0,0:0|0:0|0:0,0:0:0:0:
80,208,91447,2,0,L|32:208,2,48,8|0|0,0:0|0:0|0:0,0:0:0:0:
256,208,91712,2,0,L|304:208,1,48,8|8,0:0|0:0,0:0:0:0:
128,160,92065,2,0,L|16:160,1,96,4|0,0:3|0:0,0:0:0:0:
304,160,92418,2,0,L|416:160,1,96,4|8,0:3|0:0,0:0:0:0:
448,144,92683,1,0,0:0:0:0:
480,96,92771,1,0,0:0:0:0:
448,48,92859,1,0,0:0:0:0:
224,64,92947,2,0,L|160:64,1,48,8|0,0:0|0:0,0:0:0:0:
400,32,93124,2,0,L|448:32,1,48,8|0,0:0|0:0,0:0:0:0:
160,240,93300,6,0,L|144:112,1,96,4|0,0:0|0:0,0:0:0:0:
240,176,93565,2,0,L|256:48,1,96,4|0,0:0|0:0,0:0:0:0:
80,64,93830,2,0,L|16:64,1,48,8|0,0:0|0:0,0:0:0:0:
208,96,94006,1,4,0:0:0:0:
288,96,94095,2,0,L|304:208,1,96,8|0,0:0|0:0,0:0:0:0:
112,176,94359,2,0,L|96:288,1,96,4|0,0:0|0:0,0:0:0:0:
352,240,94712,6,0,L|368:112,1,96,4|0,0:0|0:0,0:0:0:0:
272,176,94977,2,0,L|256:48,1,96,4|0,0:0|0:0,0:0:0:0:
432,64,95242,2,0,L|496:64,1,48,8|0,0:0|0:0,0:0:0:0:
304,96,95418,1,4,0:0:0:0:
224,96,95507,2,0,L|208:208,1,96,8|0,0:0|0:0,0:0:0:0:
400,176,95771,1,8,0:0:0:0:
160,240,95947,1,8,0:0:0:0:
400,288,96124,6,0,L|496:288,1,96,4|0,0:0|0:0,0:0:0:0:
320,240,96389,2,0,L|224:240,1,96,4|0,0:0|0:0,0:0:0:0:
400,192,96653,2,0,L|416:128,1,48,8|0,0:0|0:0,0:0:0:0:
256,128,96830,1,4,0:0:0:0:
240,48,96918,2,0,L|352:48,1,96,8|0,0:0|0:0,0:0:0:0:
496,48,97183,2,0,L|400:48,1,96,4|8,0:0|0:0,0:0:0:0:
112,288,97536,6,0,L|16:288,1,96,4|0,0:0|0:0,0:0:0:0:
192,240,97801,2,0,L|288:240,1,96,4|0,0:0|0:0,0:0:0:0:
112,192,98065,2,0,L|48:192,1,48,8|0,0:0|0:0,0:0:0:0:
240,128,98242,1,4,0:0:0:0:
304,128,98330,2,0,L|320:240,1,96,8|0,0:0|0:0,0:0:0:0:
160,208,98595,2,0,L|144:320,1,96,4|0,0:0|0:0,0:0:0:0:
400,320,98947,6,0,L|384:192,1,96,4|0,0:0|0:0,0:0:0:0:
304,224,99212,2,0,L|288:96,1,96,4|0,0:0|0:0,0:0:0:0:
448,128,99477,2,0,L|512:128,1,48,8|0,0:0|0:0,0:0:0:0:
336,112,99653,1,4,0:0:0:0:
256,96,99742,2,0,L|240:224,1,96,8|0,0:0|0:0,0:0:0:0:
416,224,100006,1,4,0:1:0:0:
160,272,100183,1,4,0:0:0:0:
432,320,100359,6,0,L|320:320,1,96,8|0,0:0|0:0,0:0:0:0:
176,320,100624,2,0,L|64:320,1,96,8|0,0:0|0:0,0:0:0:0:
256,256,100889,2,0,L|272:208,1,48,4|0,0:0|0:0,0:0:0:0:
96,112,101065,1,4,0:0:0:0:
80,32,101153,2,0,L|208:32,1,96,8|0,0:0|0:0,0:0:0:0:
352,64,101418,2,0,L|368:192,1,96,8|0,0:0|0:0,0:0:0:0:
80,320,101771,6,0,L|192:320,1,96,4|0,0:0|0:0,0:0:0:0:
336,320,102036,2,0,L|448:320,1,96,4|0,0:0|0:0,0:0:0:0:
224,256,102301,2,0,L|176:256,1,48,8|0,0:0|0:0,0:0:0:0:
336,192,102477,1,4,0:0:0:0:
496,144,102565,2,0,L|368:144,1,96,8|0,0:0|0:0,0:0:0:0:
208,144,102830,5,4,0:0:0:0:
480,112,103006,2,0,L|368:112,1,96,4|8,0:1|0:0,0:0:0:0:
96,176,103359,1,2,0:0:0:0:
112,112,103447,2,0,L|224:112,1,96,0|0,0:0|0:0,0:0:0:0:
32,224,103712,2,0,L|16:304,1,48,2|0,0:0|0:0,0:0:0:0:
224,336,103889,5,4,0:0:0:0:
264,313,103977,1,8,0:0:0:0:
267,267,104065,1,0,0:0:0:0:
231,238,104153,1,0,0:0:0:0:
160,208,104242,2,0,L|288:208,1,96,4|0,0:0|0:0,0:0:0:0:
496,176,104595,6,0,L|400:176,1,96,4|0,0:0|0:0,0:0:0:0:
320,144,104859,2,0,L|448:144,1,96,4|0,0:0|0:0,0:0:0:0:
240,96,105124,2,0,L|192:96,1,48,8|0,0:0|0:0,0:0:0:0:
368,80,105300,1,4,0:0:0:0:
432,80,105389,2,0,L|448:192,1,96,8|0,0:0|0:0,0:0:0:0:
288,224,105653,2,0,L|384:224,1,96,4|0,0:0|0:0,0:0:0:0:
112,192,106006,6,0,L|16:192,1,96,4|0,0:0|0:0,0:0:0:0:
80,144,106271,2,0,L|192:144,1,96,4|0,0:0|0:0,0:0:0:0:
352,112,106536,2,0,L|304:112,1,48,8|0,0:0|0:0,0:0:0:0:
144,128,106712,5,4,0:0:0:0:
208,128,106800,2,0,L|224:240,1,96,8|0,0:0|0:0,0:0:0:0:
64,240,107065,1,8,0:0:0:0:
320,256,107242,1,8,0:0:0:0:
64,176,107418,6,0,L|176:176,1,96,4|0,0:0|0:0,0:0:0:0:
320,144,107683,2,0,L|224:144,1,96,4|0,0:0|0:0,0:0:0:0:
64,96,107947,2,0,L|128:96,1,48,8|0,0:0|0:0,0:0:0:0:
288,96,108124,5,4,0:0:0:0:
224,96,108212,2,0,L|208:224,1,96,8|0,0:0|0:0,0:0:0:0:
368,208,108477,1,4,0:0:0:0:
128,320,108653,6,0,P|64:288|144:224,1,192,4|8,0:1|0:0,0:0:0:0:
192,208,109095,1,0,0:0:0:0:
224,160,109183,1,2,0:0:0:0:
192,96,109271,1,0,0:0:0:0:
128,80,109359,2,0,L|64:80,1,48,0|0,0:0|0:0,0:0:0:0:
256,96,109536,1,2,0:0:0:0:
320,96,109624,1,0,0:0:0:0:
352,129,109712,1,2,0:0:0:0:
318,161,109800,1,0,0:0:0:0:
128,224,109889,1,4,0:0:0:0:
384,224,110065,1,4,0:0:0:0:
128,304,110242,6,0,L|112:208,1,96,4|0,0:0|0:0,0:0:0:0:
192,192,110506,2,0,L|304:192,1,96,4|0,0:0|0:0,0:0:0:0:
128,128,110771,2,0,L|80:128,1,48,8|0,0:0|0:0,0:0:0:0:
240,96,110947,1,4,0:0:0:0:
304,64,111036,2,0,L|192:64,1,96,8|0,0:0|0:0,0:0:0:0:
16,128,111300,1,8,0:0:0:0:
256,160,111477,1,8,0:0:0:0:
496,208,111653,6,0,L|480:112,1,96,4|0,0:0|0:0,0:0:0:0:
400,112,111918,2,0,L|304:112,1,96,4|0,0:0|0:0,0:0:0:0:
480,64,112183,2,0,L|496:128,1,48,8|0,0:0|0:0,0:0:0:0:
320,128,112359,1,4,0:0:0:0:
304,208,112447,2,0,L|416:208,1,96,8|0,0:0|0:0,0:0:0:0:
208,208,112712,2,0,L|96:208,1,96,4|0,0:0|0:0,0:0:0:0:
384,320,113065,6,0,L|400:208,1,96,4|0,0:0|0:0,0:0:0:0:
208,256,113330,2,0,L|192:128,1,96,4|0,0:0|0:0,0:0:0:0:
400,160,113595,2,0,L|448:160,1,48,8|0,0:0|0:0,0:0:0:0:
256,160,113771,1,4,0:0:0:0:
192,160,113859,2,0,L|176:32,1,96,8|0,0:0|0:0,0:0:0:0:
352,80,114124,2,0,L|416:80,1,48,4|0,0:0|0:0,0:0:0:0:
160,80,114300,2,0,L|96:80,1,48,4|0,0:1|0:0,0:0:0:0:
352,144,114477,6,0,L|448:144,1,96,8|0,0:0|0:0,0:0:0:0:
208,240,114742,2,0,L|112:240,1,96,8|0,0:0|0:0,0:0:0:0:
352,144,115006,2,0,L|416:144,1,48,4|4,0:0|0:0,0:0:0:0:
208,144,115183,1,8,0:0:0:0:
160,144,115271,2,0,L|256:144,1,96,4|0,0:0|0:0,0:0:0:0:
64,304,115536,2,0,L|48:208,1,96,8|8,0:0|0:0,0:0:0:0:
448,192,115889,5,4,0:3:0:0:
256,192,116065,12,0,118712,0:0:0:0:
