osu file format v14

[General]
AudioFilename: audio.mp3
AudioLeadIn: 0
PreviewTime: 93212
Countdown: 0
SampleSet: Soft
StackLeniency: 0.7
Mode: 2
LetterboxInBreaks: 0
WidescreenStoryboard: 1

[Editor]
DistanceSpacing: 0.8
BeatDivisor: 4
GridSize: 16
TimelineZoom: 2.6

[Metadata]
Title:Midnight, Sunrise Sign
TitleUnicode:Midnight, Sunrise Sign
Artist:siqlo
ArtistUnicode:siqlo
Creator:Rocma
Version:Cup
Source:
Tags:Electronic Instrumental bofu 2015 bms of fighters hardcore dubstep wobble bass emotional emotions saikuro
BeatmapID:2546431
BeatmapSetID:1224186

[Difficulty]
HPDrainRate:2
CircleSize:2.2
OverallDifficulty:5.6
ApproachRate:5.6
SliderMultiplier:1.28
SliderTickRate:1

[Events]
//Background and Video events
0,0,"BG.jpg",0,0
//Break Periods
//Storyboard Layer 0 (Background)
//Storyboard Layer 1 (Fail)
//Storyboard Layer 2 (Pass)
//Storyboard Layer 3 (Foreground)
//Storyboard Layer 4 (Overlay)
//Storyboard Sound Samples

[TimingPoints]
2948,352.941176470588,4,2,2,50,1,0
14242,-100,4,2,2,70,0,0
25536,-100,4,2,3,80,0,1
25624,-100,4,2,3,70,0,0
29153,-100,4,2,3,5,0,0
29242,-100,4,2,3,70,0,0
31183,-100,4,2,3,80,0,1
31271,-100,4,2,3,70,0,0
36830,-100,4,2,3,50,0,0
37183,-100,4,2,2,80,0,1
42477,-100,4,2,2,50,0,0
42830,-100,4,2,2,80,0,1
47418,-100,4,2,2,50,0,0
80595,-100,4,2,3,70,0,0
82006,-100,4,2,2,60,0,0
82359,-100,4,2,5,60,0,0
82712,-100,4,2,2,60,0,0
83065,-100,4,2,5,60,0,0
83418,-100,4,2,2,60,0,0
83771,-100,4,2,5,60,0,0
84124,-100,4,2,2,60,0,0
85183,-100,4,2,5,60,0,0
85536,-100,4,2,2,60,0,0
85889,-100,4,2,5,60,0,0
86242,-100,4,2,2,60,0,0
86595,-100,4,2,5,60,0,0
86948,-100,4,2,2,60,0,0
87653,-100,4,2,2,50,0,0
92065,-100,4,2,3,80,0,0
92771,-100,4,2,3,70,0,0
93300,-100,4,2,3,75,0,1
103183,-100,4,2,3,60,0,0
104595,-100,4,2,3,75,0,1
116065,-100,4,2,3,55,0,0
116595,-100,4,2,3,45,0,0
117300,-100,4,2,3,35,0,0
118006,-100,4,2,3,25,0,0
118712,-100,4,2,3,15,0,0

[Colours]
Combo1 : 181,85,251
Combo2 : 0,179,255

[HitObjects]
256,256,2948,6,0,P|128:224|80:96,1,256,2|0,0:0|0:0,0:0:0:0:
256,256,4359,6,0,P|384:224|432:96,1,256,0|0,0:0|0:0,0:0:0:0:
256,336,5771,6,0,P|176:288|265:194,1,256,2|0,0:0|0:0,0:0:0:0:
496,208,7183,2,0,L|256:112,1,256,0|2,0:0|0:0,0:0:0:0:
78,119,8595,6,0,P|134:229|256:256,1,256,2|0,0:0|0:0,0:0:0:0:
433,119,10006,2,0,P|377:229|256:256,1,256,0|2,0:0|0:0,0:0:0:0:
16,288,11418,6,0,L|256:192,1,256,2|0,0:0|0:0,0:0:0:0:
480,304,12830,6,0,L|480:176,1,128,4|0,0:0|0:0,0:0:0:0:
480,160,13359,1,0,0:0:0:0:
480,288,13536,2,0,L|352:288,1,128,2|0,0:0|0:0,0:0:0:0:
160,304,14242,6,0,P|112:288|80:208,1,128,4|4,0:0|0:0,0:0:0:0:
224,240,14947,2,0,P|272:224|304:144,1,128,4|4,0:0|0:0,0:0:0:0:
160,128,15653,2,0,P|48:160|32:240,2,192,4|0|4,0:0|0:0|0:0,0:0:0:0:
320,128,17065,6,0,L|448:128,1,128,4|4,0:0|0:0,0:0:0:0:
288,192,17771,2,0,L|160:192,1,128,4|4,0:0|0:0,0:0:0:0:
320,272,18477,2,0,P|409:263|480:176,2,192,4|0|4,0:0|0:0|0:0,0:0:0:0:
160,272,19889,6,0,L|160:144,1,128,4|4,0:0|0:0,0:0:0:0:
288,128,20595,2,0,L|288:272,1,128,4|4,0:0|0:0,0:0:0:0:
416,272,21300,6,0,L|416:144,1,128,4|4,0:0|0:0,0:0:0:0:
288,128,22006,2,0,L|160:128,1,128,0|4,0:0|0:0,0:0:0:0:
256,192,22712,12,8,24124,0:0:0:0:
400,192,24653,5,0,0:0:0:0:
256,192,25183,1,8,0:0:0:0:
128,192,25536,6,0,P|70:206|135:335,1,256,4|4,0:3|0:0,0:0:0:0:
256,320,26595,1,8,0:0:0:0:
384,336,26947,6,0,L|400:208,1,128,2|4,0:0|0:0,0:0:0:0:
256,256,27653,2,0,L|240:128,1,128,2|4,0:0|0:0,0:0:0:0:
384,96,28359,6,0,P|384:192|240:256,1,256,4|8,0:0|0:0,0:0:0:0:
112,240,29771,6,0,L|96:112,1,128,2|4,0:0|0:0,0:0:0:0:
256,176,30477,2,0,L|272:48,1,128,2|8,0:0|0:0,0:0:0:0:
112,48,31183,6,0,P|48:80|128:208,1,256,4|4,0:3|0:0,0:0:0:0:
256,208,32242,1,4,0:0:0:0:
115,209,32595,6,0,L|99:65,1,128,8|8,0:0|0:0,0:0:0:0:
256,96,33300,2,0,P|336:128|384:224,1,192,2|0,0:0|0:0,0:0:0:0:
320,240,34006,6,0,B|192:240|192:240|336:240,1,256,4|8,0:0|0:0,0:0:0:0:
448,240,35065,1,0,0:0:0:0:
304,176,35418,6,0,L|176:176,1,128,8|8,0:0|0:0,0:0:0:0:
304,112,36124,2,0,L|448:112,1,128,2|2,0:0|0:0,0:0:0:0:
272,320,36830,6,0,B|144:320,1,128,0|4,0:0|0:0,0:0:0:0:
288,240,37536,1,8,0:0:0:0:
336,112,37889,1,8,0:0:0:0:
160,64,38242,6,0,L|96:64,2,64,4|4|4,0:0|0:0|0:0,0:0:0:0:
304,192,38947,2,0,L|448:192,1,128,4|2,0:0|0:0,0:0:0:0:
304,272,39653,5,0,0:0:0:0:
240,272,39829,1,0,0:0:0:0:
176,272,40005,1,4,0:0:0:0:
304,208,40359,2,0,P|336:176|291:104,1,128,4|4,0:0|0:0,0:0:0:0:
144,112,41065,6,0,L|0:112,1,128,2|4,0:0|0:0,0:0:0:0:
144,176,41771,1,4,0:0:0:0:
208,176,41947,1,4,0:0:0:0:
272,176,42123,1,0,0:0:0:0:
416,224,42477,6,0,L|272:224,1,128,0|4,0:0|0:0,0:0:0:0:
224,176,43006,1,0,0:0:0:0:
288,128,43183,1,8,0:0:0:0:
432,112,43536,1,8,0:0:0:0:
288,80,43889,6,0,L|160:80,1,128,4|4,0:0|0:0,0:0:0:0:
288,176,44595,2,0,L|368:176,2,64,4|2|2,0:0|0:0|0:0,0:0:0:0:
144,176,45300,6,0,B|80:176|80:176|160:176,1,128,0|4,0:0|0:0,0:0:0:0:
272,176,46006,2,0,L|400:176,1,128,4|4,0:0|0:0,0:0:0:0:
256,96,46712,6,0,L|128:96,1,128,2|4,0:0|0:0,0:0:0:0:
256,160,47418,2,0,L|272:224,1,64,8|0,0:0|0:0,0:0:0:0:
192,256,47771,1,8,0:0:0:0:
64,304,48124,6,0,P|80:240|400:320,1,512,2|0,0:0|0:0,0:0:0:0:
192,288,50242,1,0,0:0:0:0:
448,304,50947,6,0,P|432:240|112:320,1,512,0|0,0:0|0:0,0:0:0:0:
320,288,53065,1,0,0:0:0:0:
112,336,53771,5,2,0:0:0:0:
48,288,53947,2,0,P|64:208|310:303,1,448,0|2,0:0|0:0,0:0:0:0:
256,336,55359,6,0,P|176:320|271:74,1,448,0|0,0:0|0:0,0:0:0:0:
336,80,56771,2,0,P|432:128|324:261,1,320,0|0,0:0|0:0,0:0:0:0:
208,240,58006,6,0,B|80:240|80:240|352:240,1,384,2|0,0:0|0:0,0:0:0:0:
208,112,59418,6,0,L|208:240,1,128,2|2,0:0|0:0,0:0:0:0:
288,256,59947,1,0,0:0:0:0:
368,112,60124,2,0,L|368:240,1,128,2|2,0:0|0:0,0:0:0:0:
224,288,60830,6,0,L|96:288,1,128,2|2,0:0|0:0,0:0:0:0:
224,224,61536,2,0,L|352:224,1,128,2|2,0:0|0:0,0:0:0:0:
496,224,62242,6,0,L|496:80,1,128,2|2,0:0|0:0,0:0:0:0:
416,96,62771,1,0,0:0:0:0:
336,224,62947,2,0,L|336:80,1,128,2|2,0:0|0:0,0:0:0:0:
208,80,63653,6,0,L|64:80,1,128,2|2,0:0|0:0,0:0:0:0:
240,80,64359,2,0,L|384:80,1,128,2|2,0:0|0:0,0:0:0:0:
208,160,65065,6,0,L|208:288,1,128,2|2,0:0|0:0,0:0:0:0:
128,304,65595,1,0,0:0:0:0:
48,288,65771,2,0,L|48:160,1,128,2|2,0:0|0:0,0:0:0:0:
208,144,66477,6,0,L|336:144,1,128,2|2,0:0|0:0,0:0:0:0:
208,192,67183,2,0,L|80:192,1,128,2|2,0:0|0:0,0:0:0:0:
224,304,67889,6,0,L|224:160,1,128,2|8,0:0|0:0,0:0:0:0:
96,160,68595,1,8,0:0:0:0:
224,128,68947,1,8,0:0:0:0:
368,96,69300,6,0,L|224:96,1,128,12|12,0:0|0:0,0:0:0:0:
112,96,70006,2,0,L|256:96,1,128,12|4,0:0|0:0,0:0:0:0:
400,144,70712,6,0,P|400:208|240:304,1,256,4|0,0:0|0:0,0:0:0:0:
112,144,72124,2,0,P|112:208|272:304,1,256,4|0,0:0|0:0,0:0:0:0:
416,320,73536,6,0,P|464:288|418:121,1,256,4|0,0:0|0:0,0:0:0:0:
256,256,74947,6,0,P|208:224|254:57,1,256,8|0,0:0|0:0,0:0:0:0:
352,32,76006,1,8,0:0:0:0:
256,48,76359,6,0,P|160:64|96:208,1,256,4|0,0:0|0:0,0:0:0:0:
256,48,77771,2,0,P|352:64|416:208,1,256,4|0,0:0|0:0,0:0:0:0:
256,272,79183,6,0,L|128:272,1,128,4|8,0:0|0:0,0:0:0:0:
256,272,79889,2,0,L|384:272,1,128,4|8,0:0|0:0,0:0:0:0:
256,192,80595,5,4,0:3:0:0:
112,176,80947,1,4,0:3:0:0:
256,160,81300,1,4,0:3:0:0:
400,144,81653,1,2,0:0:0:0:
256,96,82006,6,0,B|128:96|128:96|128:224|128:224|256:224|256:224|256:352|256:352|384:352|384:352|384:224|384:224|256:224,1,896,4|8,0:0|0:0,0:0:0:0:
384,192,84830,6,0,B|384:64|384:64|256:64|256:64|256:192|256:192|128:192|128:192|128:64|128:64|256:64|256:64|256:192,1,896,4|8,0:0|0:0,0:0:0:0:
384,288,87653,6,0,L|256:288,1,128,4|0,0:0|0:0,0:0:0:0:
256,288,88359,2,0,L|128:288,1,128,8|0,0:0|0:0,0:0:0:0:
128,288,89065,6,0,L|256:288,1,128,4|0,0:0|0:0,0:0:0:0:
256,288,89771,2,0,L|384:288,1,128,8|0,0:0|0:0,0:0:0:0:
256,192,90477,12,0,91712,0:0:0:0:
288,304,92065,6,0,P|328:262|282:216,1,128,4|4,0:3|0:3,0:0:0:0:
192,272,92595,2,0,L|64:272,1,128,8|8,0:0|0:0,0:0:0:0:
256,272,93300,6,0,L|256:144,1,128,4|4,0:0|0:0,0:0:0:0:
112,224,94006,2,0,L|112:96,1,128,4|4,0:0|0:0,0:0:0:0:
256,272,94712,2,0,L|256:144,1,128,4|4,0:0|0:0,0:0:0:0:
400,224,95418,2,0,P|464:192|480:112,1,128,4|8,0:0|0:0,0:0:0:0:
416,112,95947,1,0,0:0:0:0:
336,112,96124,6,0,L|208:112,1,128,4|4,0:0|0:0,0:0:0:0:
352,160,96830,2,0,P|386:207|344:264,1,128,4|4,0:0|0:0,0:0:0:0:
208,272,97536,2,0,L|80:272,1,128,4|4,0:0|0:0,0:0:0:0:
224,224,98242,2,0,L|352:224,1,128,4|4,0:0|0:0,0:0:0:0:
288,224,98771,1,0,0:0:0:0:
208,224,98947,6,0,L|208:96,1,128,4|4,0:0|0:0,0:0:0:0:
64,128,99653,2,0,L|208:128,1,128,4|4,0:0|0:1,0:0:0:0:
336,128,100359,2,0,L|336:256,1,128,8|4,0:0|0:0,0:0:0:0:
192,272,101065,2,0,L|336:272,1,128,4|8,0:0|0:0,0:0:0:0:
256,272,101595,1,0,0:0:0:0:
176,208,101771,6,0,L|48:208,1,128,4|4,0:0|0:0,0:0:0:0:
192,160,102477,2,0,L|320:160,1,128,4|4,0:0|0:0,0:0:0:0:
256,160,103006,1,4,0:1:0:0:
320,144,103183,5,0,0:0:0:0:
384,176,103359,2,0,L|256:176,2,128,2|2|0,0:0|0:0|0:0,0:0:0:0:
320,176,104242,1,4,0:0:0:0:
224,160,104595,6,0,L|352:160,1,128,4|4,0:0|0:0,0:0:0:0:
208,224,105300,2,0,P|176:192|224:128,1,128,4|4,0:0|0:0,0:0:0:0:
352,160,106006,6,0,L|224:160,1,128,4|4,0:0|0:0,0:0:0:0:
368,224,106712,2,0,P|400:192|352:128,1,128,4|8,0:0|0:0,0:0:0:0:
304,128,107242,1,0,0:0:0:0:
240,128,107418,6,0,L|96:128,1,128,4|4,0:0|0:0,0:0:0:0:
256,192,108124,2,0,L|256:320,1,128,4|4,0:0|0:0,0:0:0:0:
192,336,108653,5,4,0:1:0:0:
80,288,109006,1,8,0:0:0:0:
48,208,109183,1,2,0:0:0:0:
80,128,109359,1,0,0:0:0:0:
176,96,109536,6,0,L|320:96,1,128,2|4,0:0|0:0,0:0:0:0:
384,96,110065,1,4,0:0:0:0:
304,96,110242,6,0,L|160:96,1,128,4|4,0:0|0:0,0:0:0:0:
320,160,110947,2,0,L|448:160,1,128,4|8,0:0|0:0,0:0:0:0:
288,208,111653,6,0,L|288:336,1,128,4|4,0:0|0:0,0:0:0:0:
144,304,112359,2,0,L|144:160,1,128,4|4,0:0|0:0,0:0:0:0:
208,160,112889,1,0,0:0:0:0:
288,144,113065,6,0,L|432:144,1,128,4|4,0:0|0:0,0:0:0:0:
224,144,113771,2,0,L|80:144,1,128,4|4,0:0|0:0,0:0:0:0:
160,144,114300,1,4,0:1:0:0:
256,144,114477,6,0,L|256:272,1,128,8|0,0:0|0:0,0:0:0:0:
112,288,115183,2,0,L|256:288,1,128,8|8,0:0|0:0,0:0:0:0:
400,288,115889,5,4,0:3:0:0:
256,192,116242,12,0,118712,0:0:0:0:
