osu file format v14

[General]
AudioFilename: audio.mp3
AudioLeadIn: 0
PreviewTime: 91080
Countdown: 0
SampleSet: Soft
StackLeniency: 0.7
Mode: 2
LetterboxInBreaks: 0
WidescreenStoryboard: 0

[Editor]
Bookmarks: 27180,39980,52780,65580,78380,91180,106380,118380,131180
DistanceSpacing: 0.8
BeatDivisor: 8
GridSize: 32
TimelineZoom: 2.9

[Metadata]
Title:Me & U
TitleUnicode:Me & U
Artist:siqlo
ArtistUnicode:siqlo
Creator:Jemzuu
Version:Us
Source:
Tags:ajamez rocma _asriel and bofu BOFXV19 bms ブルーガーデン・サイクロン emotional dubstep electronic instrumental english future bass drum hardcore core trap melody
BeatmapID:2548347
BeatmapSetID:1225300

[Difficulty]
HPDrainRate:6
CircleSize:4.2
OverallDifficulty:9.5
ApproachRate:9.5
SliderMultiplier:2.4
SliderTickRate:2

[Events]
//Background and Video events
0,0,"83128832_p0.jpg",0,0
//Break Periods
//Storyboard Layer 0 (Background)
//Storyboard Layer 1 (Fail)
//Storyboard Layer 2 (Pass)
//Storyboard Layer 3 (Foreground)
//Storyboard Layer 4 (Overlay)
//Storyboard Sound Samples

[TimingPoints]
1571,400,4,2,2,60,1,0
12371,-100,4,2,88,60,0,0
14371,-100,4,2,1,60,0,0
20771,-100,4,2,2,60,0,0
21571,-83.3333333333333,4,2,2,60,0,0
25571,-83.3333333333333,4,2,3,60,0,0
26371,-100,4,2,98,60,0,0
26571,-100,4,2,97,60,0,0
26671,-100,4,2,96,60,0,0
26721,-36.3636363636364,4,2,98,60,0,0
26971,-66.6666666666667,4,2,96,60,0,0
27171,-80,4,2,99,60,0,0
27271,-80,4,2,98,60,0,0
27771,-80,4,2,1,60,0,0
27971,-80,4,2,75,60,0,0
28271,-80,4,2,1,60,0,0
28971,-80,4,2,86,60,0,0
29071,-80,4,2,1,60,0,0
29771,-80,4,2,97,60,0,0
29971,-40,4,2,4,60,0,0
30171,-40,4,2,98,60,0,0
30271,-80,4,2,1,60,0,0
30371,-40,4,2,1,60,0,0
30571,-40,4,2,87,60,0,0
30771,-100,4,2,97,60,0,0
31071,-100,4,2,98,60,0,0
31171,-40,4,2,1,60,0,0
31371,-40,4,2,86,60,0,0
31571,-50,4,2,98,60,0,0
31871,-50,4,2,96,60,0,0
31971,-36.3636363636364,4,2,65,60,0,0
32571,-36.3636363636364,4,2,54,60,0,0
32771,-36.3636363636364,4,2,53,60,0,0
32971,-36.3636363636364,4,2,1,60,0,0
33171,-36.3636363636364,4,2,52,60,0,0
33371,-36.3636363636364,4,2,98,60,0,0
33471,-36.3636363636364,4,2,1,60,0,0
33571,-44.4444444444445,4,2,99,60,0,0
33971,-44.4444444444445,4,2,15,60,0,0
34021,-44.4444444444445,4,2,1,60,0,0
34171,-44.4444444444445,4,2,16,60,0,0
34221,-44.4444444444445,4,2,1,60,0,0
34371,-66.6666666666667,4,2,74,60,0,0
34621,-66.6666666666667,4,2,85,60,0,0
35771,-66.6666666666667,4,2,1,60,0,0
36171,-66.6666666666667,4,2,86,60,0,0
36671,-66.6666666666667,4,2,1,60,0,0
36771,-80,4,2,1,60,0,0
37171,-80,4,2,97,60,0,0
37271,-80,4,2,98,60,0,0
37471,-80,4,2,1,60,0,0
37771,-80,4,2,96,60,0,0
37971,-57.1428571428571,4,2,63,60,0,0
38371,-80,4,2,1,60,0,0
38471,-80,4,2,98,60,0,0
38571,-80,4,2,86,60,0,0
38671,-80,4,2,1,60,0,0
38771,-80,4,2,98,60,0,0
38971,-80,4,2,45,60,0,0
39571,-80,4,2,7,60,0,0
39971,-33.3333333333333,4,2,99,60,0,0
40371,-33.3333333333333,4,2,98,60,0,0
40471,-80,4,2,97,60,0,0
40571,-80,4,2,98,60,0,0
40671,-80,4,2,96,60,0,0
40771,-40,4,2,4,60,0,0
40971,-40,4,2,96,60,0,0
41171,-40,4,2,1,60,0,0
41571,-36.3636363636364,4,2,99,60,0,0
42171,-36.3636363636364,4,2,54,60,0,0
42371,-36.3636363636364,4,2,1,60,0,0
43171,-80,4,2,43,60,0,0
43771,-80,4,2,2,60,0,0
43871,-80,4,2,1,60,0,0
44371,-80,4,2,63,60,0,0
44396,-80,4,2,1,5,0,0
44471,-80,4,2,63,60,0,0
44496,-80,4,2,1,5,0,0
44571,-80,4,2,63,60,0,0
44596,-80,4,2,1,5,0,0
44771,-36.3636363636364,4,2,62,60,0,0
45371,-36.3636363636364,4,2,54,60,0,0
45571,-83.3333333333333,4,2,1,60,0,0
45671,-83.3333333333333,4,2,98,60,0,0
45871,-83.3333333333333,4,2,97,60,0,0
45971,-83.3333333333333,4,2,3,60,0,0
46071,-83.3333333333333,4,2,98,60,0,0
46171,-83.3333333333333,4,2,97,60,0,0
46271,-83.3333333333333,4,2,1,60,0,0
46971,-83.3333333333333,4,2,2,60,0,0
47171,-83.3333333333333,4,2,1,60,0,0
47271,-83.3333333333333,4,2,86,60,0,0
47671,-83.3333333333333,4,2,97,60,0,0
47771,-83.3333333333333,4,2,98,60,0,0
47971,-50,4,2,1,60,0,0
48771,-50,4,2,53,60,0,0
48971,-50,4,2,86,60,0,0
49371,-50,4,2,98,60,0,0
49571,-74.0740740740741,4,2,3,60,0,0
50171,-74.0740740740741,4,2,85,60,0,0
50371,-74.0740740740741,4,2,1,60,0,0
50771,-74.0740740740741,4,2,85,60,0,0
50971,-74.0740740740741,4,2,1,60,0,0
51171,-80,4,2,1,60,0,0
51471,-80,4,2,2,60,0,0
51771,-80,4,2,86,60,0,0
51971,-80,4,2,2,60,0,0
52771,-33.3333333333333,4,2,69,60,0,0
53371,-80,4,2,1,60,0,0
53471,-80,4,2,2,60,0,0
53571,-80,4,2,67,60,0,0
53971,-80,4,2,68,60,0,0
54021,-80,4,2,88,60,0,0
54971,-80,4,2,1,60,0,0
55171,-80,4,2,32,60,0,0
55571,-80,4,2,82,60,0,0
55621,-80,4,2,88,60,0,0
55771,-80,4,2,1,60,0,0
55971,-80,4,2,99,60,0,0
56071,-80,4,2,98,60,0,0
56171,-80,4,2,75,60,0,0
56571,-80,4,2,15,60,0,0
56621,-80,4,2,1,60,0,0
56771,-80,4,2,16,60,0,0
56821,-80,4,2,1,60,0,0
56971,-80,4,2,63,60,0,0
57171,-80,4,2,71,60,0,0
57221,-80,4,2,88,60,0,0
58171,-80,4,2,1,60,0,0
58621,-80,4,2,97,60,0,0
58771,-66.6666666666667,4,2,96,60,0,0
58971,-50,4,2,1,60,0,0
59171,-50,4,2,75,60,0,0
59771,-50,4,2,86,60,0,0
59971,-76.9230769230769,4,2,96,60,0,0
60171,-76.9230769230769,4,2,98,60,0,0
60371,-76.9230769230769,4,2,58,60,0,0
60396,-42.5531914893617,4,2,1,60,0,0
60571,-57.1428571428571,4,2,59,60,0,0
60771,-33.3333333333333,4,2,60,60,0,0
61171,-33.3333333333333,4,2,11,60,0,0
61371,-33.3333333333333,4,2,97,60,0,0
61571,-74.0740740740741,4,2,60,60,0,0
61771,-74.0740740740741,4,2,98,60,0,0
61796,-30.7692307692308,4,2,1,60,0,0
61971,-30.7692307692308,4,2,11,60,0,0
62171,-74.0740740740741,4,2,96,60,0,0
62371,-57.1428571428571,4,2,1,60,0,0
62571,-57.1428571428571,4,2,85,60,0,0
63171,-57.1428571428571,4,2,11,60,0,0
63571,-66.6666666666667,4,2,1,60,0,0
63771,-66.6666666666667,4,2,86,60,0,0
64371,-66.6666666666667,4,2,11,60,0,0
64771,-28.5714285714286,4,2,1,60,0,0
64971,-28.5714285714286,4,2,87,60,0,0
65571,-28.5714285714286,4,2,99,60,0,0
66371,-100,4,2,0,60,0,0
76871,-100,4,2,1,40,0,0
77371,-100,4,2,1,20,0,0
77771,-100,4,2,1,10,0,0
78171,-100,4,2,1,5,0,0
78371,-100,4,2,1,50,0,0
84771,-83.3333333333333,4,2,2,60,0,0
89571,-83.3333333333333,4,2,7,60,0,0
89671,-83.3333333333333,4,2,2,40,0,0
89971,-83.3333333333333,4,2,2,30,0,0
90371,-83.3333333333333,4,2,2,20,0,0
90771,-83.3333333333333,4,2,2,10,0,0
91171,-83.3333333333333,4,2,2,5,0,0
91521,-83.3333333333333,4,2,1,60,0,0
92771,-76.9230769230769,4,2,99,60,0,1
93371,-76.9230769230769,4,2,1,60,0,1
93471,-76.9230769230769,4,2,98,60,0,1
93571,-76.9230769230769,4,2,1,60,0,1
93721,-83.3333333333333,4,2,80,60,0,1
93746,-83.3333333333333,4,2,88,60,0,1
94171,-83.3333333333333,4,2,1,60,0,1
94271,-83.3333333333333,4,2,98,60,0,1
94371,-80,4,2,1,60,0,1
94771,-80,4,2,86,60,0,1
94971,-80,4,2,1,60,0,1
95071,-80,4,2,97,60,0,1
95171,-50,4,2,67,60,0,1
95571,-50,4,2,86,60,0,1
95771,-83.3333333333333,4,2,98,60,0,1
95871,-83.3333333333333,4,2,1,60,0,1
95971,-66.6666666666667,4,2,1,60,0,1
96171,-66.6666666666667,4,2,87,60,0,1
96571,-66.6666666666667,4,2,1,60,0,1
96671,-80,4,2,98,60,0,1
96771,-80,4,2,75,60,0,1
96796,-80,4,2,1,5,0,1
96871,-80,4,2,98,60,0,1
96896,-80,4,2,1,5,0,1
96971,-80,4,2,96,60,0,1
96996,-80,4,2,1,5,0,1
97071,-80,4,2,97,60,0,1
97096,-80,4,2,1,5,0,1
97171,-80,4,2,98,60,0,1
97196,-80,4,2,1,5,0,1
97371,-80,4,2,1,60,0,1
97771,-80,4,2,2,60,0,1
97871,-80,4,2,1,60,0,1
97971,-80,4,2,97,60,0,1
98171,-80,4,2,96,60,0,1
98271,-80,4,2,98,60,0,1
98396,-80,4,2,1,5,0,1
98471,-80,4,2,96,60,0,1
98496,-80,4,2,1,5,0,1
98571,-80,4,2,97,60,0,1
98596,-80,4,2,1,5,0,1
98671,-80,4,2,96,60,0,1
98696,-80,4,2,1,5,0,1
98771,-80,4,2,98,60,0,1
98904,-80,4,2,97,60,0,1
99171,-57.1428571428571,4,2,99,60,0,1
99871,-57.1428571428571,4,2,98,60,0,1
99971,-66.6666666666667,4,2,93,60,0,0
100371,-83.3333333333333,4,2,15,60,0,0
100421,-83.3333333333333,4,2,88,60,0,0
100571,-83.3333333333333,4,2,16,60,0,0
100621,-83.3333333333333,4,2,88,60,0,0
100771,-80,4,2,1,60,0,1
101171,-80,4,2,97,60,0,1
101371,-80,4,2,1,60,0,1
101571,-42.5531914893617,4,2,81,60,0,1
101971,-83.3333333333333,4,2,63,60,0,1
101996,-83.3333333333333,4,2,1,5,0,1
102071,-66.6666666666667,4,2,63,60,0,1
102096,-66.6666666666667,4,2,1,5,0,1
102171,-57.1428571428571,4,2,63,60,0,1
102196,-57.1428571428571,4,2,1,5,0,1
102271,-50,4,2,63,60,0,1
102296,-50,4,2,1,5,0,1
102371,-66.6666666666667,4,2,1,60,0,1
103071,-66.6666666666667,4,2,97,60,0,1
103171,-66.6666666666667,4,2,67,60,0,1
103196,-66.6666666666667,4,2,88,60,0,1
103371,-40,4,2,43,60,0,1
103571,-40,4,2,67,60,0,1
103596,-40,4,2,88,60,0,1
103771,-40,4,2,1,60,0,1
103871,-40,4,2,98,60,0,1
103971,-66.6666666666667,4,2,74,60,0,1
104771,-76.9230769230769,4,2,2,60,0,0
105571,-83.3333333333333,4,2,1,60,0,0
106371,-80,4,2,99,60,0,1
106571,-80,4,2,96,60,0,1
106771,-80,4,2,1,60,0,1
106971,-80,4,2,86,60,0,1
107171,-80,4,2,58,60,0,1
107221,-80,4,2,88,60,0,1
107371,-80,4,2,96,60,0,1
107571,-76.9230769230769,4,2,1,60,0,1
107771,-76.9230769230769,4,2,98,60,0,1
107971,-76.9230769230769,4,2,96,60,0,1
108171,-76.9230769230769,4,2,98,60,0,1
108371,-76.9230769230769,4,2,1,60,0,1
108571,-76.9230769230769,4,2,86,60,0,1
108771,-76.9230769230769,4,2,1,60,0,1
108971,-76.9230769230769,4,2,86,60,0,1
109071,-76.9230769230769,4,2,98,60,0,1
109171,-76.9230769230769,4,2,1,60,0,1
109371,-76.9230769230769,4,2,2,60,0,1
109471,-76.9230769230769,4,2,96,60,0,1
109571,-76.9230769230769,4,2,1,60,0,1
109771,-76.9230769230769,4,2,97,60,0,1
109971,-76.9230769230769,4,2,1,60,0,1
110071,-76.9230769230769,4,2,96,60,0,1
110171,-76.9230769230769,4,2,98,60,0,1
110271,-76.9230769230769,4,2,96,60,0,1
110371,-76.9230769230769,4,2,1,60,0,1
110871,-76.9230769230769,4,2,2,60,0,1
111171,-76.9230769230769,4,2,1,60,0,1
111371,-76.9230769230769,4,2,98,60,0,1
111471,-76.9230769230769,4,2,96,60,0,1
111571,-76.9230769230769,4,2,1,60,0,1
111671,-76.9230769230769,4,2,98,60,0,1
111971,-80,4,2,1,60,0,1
112171,-80,4,2,98,60,0,1
112271,-80,4,2,97,60,0,1
112371,-80,4,2,16,60,0,1
112396,-80,4,2,1,5,0,1
112471,-80,4,2,15,70,0,1
112496,-80,4,2,1,5,0,1
112571,-80,4,2,15,70,0,1
112596,-80,4,2,1,5,0,1
112671,-80,4,2,15,70,0,1
112696,-80,4,2,1,5,0,1
112771,-80,4,2,1,70,0,1
112871,-80,4,2,98,70,0,1
112971,-80,4,2,97,70,0,1
113371,-80,4,2,2,70,0,1
113571,-80,4,2,1,70,0,1
113721,-80,4,2,98,70,0,1
113971,-80,4,2,1,70,0,1
114171,-80,4,2,86,70,0,1
114371,-80,4,2,1,70,0,1
114471,-80,4,2,98,70,0,1
114771,-80,4,2,67,70,0,1
114821,-80,4,2,88,70,0,1
114971,-80,4,2,98,70,0,1
115071,-80,4,2,97,70,0,1
115171,-80,4,2,1,70,0,1
115371,-80,4,2,86,70,0,1
115571,-80,4,2,1,70,0,1
115671,-80,4,2,96,70,0,1
115771,-80,4,2,2,70,0,1
115871,-80,4,2,98,70,0,1
115971,-80,4,2,1,70,0,1
116071,-80,4,2,96,70,0,1
116171,-80,4,2,86,70,0,1
116271,-80,4,2,98,70,0,1
116371,-80,4,2,1,70,0,1
116471,-80,4,2,2,70,0,1
116771,-80,4,2,1,70,0,1
116871,-80,4,2,97,70,0,1
116971,-80,4,2,96,70,0,1
117171,-42.5531914893617,4,2,4,60,0,1
117371,-42.5531914893617,4,2,98,60,0,1
117571,-76.9230769230769,4,2,1,60,0,0
118371,-76.9230769230769,4,2,11,60,0,1
118771,-76.9230769230769,4,2,1,60,0,0
119971,-76.9230769230769,4,2,11,60,0,1
131171,-76.9230769230769,4,2,11,60,0,0

[Colours]
Combo1 : 128,255,255
Combo2 : 136,196,255
Combo3 : 192,192,192
Combo4 : 255,185,151

[HitObjects]
485,361,1571,6,0,L|485:215,1,120,2|0,0:0|0:0,0:0:0:0:
338,274,1971,2,0,L|338:128,1,120,0|0,0:0|0:0,0:0:0:0:
191,177,2371,2,0,L|191:31,1,120,2|0,0:0|0:0,0:0:0:0:
39,123,2771,2,0,L|39:-23,1,120,0|0,0:0|0:0,0:0:0:0:
214,57,3171,6,0,L|82:75,1,120,2|0,0:0|0:0,0:0:0:0:
248,146,3571,2,0,L|248:292,1,120,0|0,0:0|0:0,0:0:0:0:
400,227,3971,2,0,L|400:373,1,120,2|0,0:0|0:0,0:0:0:0:
219,357,4371,2,0,L|351:375,1,120,0|0,0:0|0:0,0:0:0:0:
52,338,4771,6,0,L|52:192,1,120,2|0,0:0|0:0,0:0:0:0:
204,211,5171,2,0,L|204:65,1,120,0|0,0:0|0:0,0:0:0:0:
357,50,5571,1,2,0:0:0:0:
200,16,5771,1,0,0:0:0:0:
474,121,5971,6,0,L|474:267,1,120,0|0,0:0|0:0,0:0:0:0:
302,310,6371,2,0,L|439:323,1,120,2|0,0:0|0:0,0:0:0:0:
257,372,6771,2,0,L|257:226,1,120,0|0,0:0|0:0,0:0:0:0:
92,273,7171,2,0,L|92:127,1,120,2|0,0:0|0:0,0:0:0:0:
163,120,7471,1,0,0:0:0:0:
243,102,7571,2,0,L|92:88,1,120,0|0,0:0|0:0,0:0:0:0:
313,46,7971,6,0,L|328:185,1,120,2|0,0:0|0:0,0:0:0:0:
160,183,8371,2,0,L|139:326,1,120,0|0,0:0|0:0,0:0:0:0:
416,357,8771,1,2,0:0:0:0:
261,352,8971,1,0,0:0:0:0:
437,246,9171,2,0,L|440:120,1,120,0|0,0:0|0:0,0:0:0:0:
257,52,9571,6,0,L|398:33,1,120,2|0,0:0|0:0,0:0:0:0:
198,151,9971,2,0,L|48:131,1,120,0|0,0:0|0:0,0:0:0:0:
231,75,10371,1,2,0:0:0:0:
323,195,10571,1,0,0:0:0:0:
238,316,10771,1,0,0:0:0:0:
81,333,10971,1,0,0:0:0:0:
354,367,11171,6,0,L|366:235,1,120,2|0,0:0|0:0,0:0:0:0:
191,230,11571,2,0,L|177:102,1,120,0|0,0:0|0:0,0:0:0:0:
342,56,11971,1,2,0:0:0:0:
169,31,12171,2,0,L|237:29,1,60,0|0,0:0|0:0,0:0:0:0:
448,18,12371,5,0,0:0:0:0:
483,13,12396,1,0,0:0:0:0:
465,42,12421,1,0,0:0:0:0:
492,41,12446,1,0,0:0:0:0:
474,70,12471,1,0,0:0:0:0:
495,71,12496,1,0,0:0:0:0:
473,100,12521,1,0,0:0:0:0:
490,100,12546,1,0,0:0:0:0:
463,128,12571,1,0,0:0:0:0:
478,128,12596,1,0,0:0:0:0:
444,151,12621,1,0,0:0:0:0:
459,151,12646,1,0,0:0:0:0:
419,167,12671,1,0,0:0:0:0:
436,170,12696,1,0,0:0:0:0:
390,174,12721,1,0,0:0:0:0:
408,182,12746,1,0,0:0:0:0:
370,163,12771,5,0,0:0:0:0:
331,168,12821,1,0,0:0:0:0:
299,188,12871,1,0,0:0:0:0:
277,220,12921,1,0,0:0:0:0:
271,258,12971,1,0,0:0:0:0:
281,295,13021,1,0,0:0:0:0:
306,325,13071,1,0,0:0:0:0:
341,341,13121,1,0,0:0:0:0:
376,343,13171,5,0,0:0:0:0:
408,335,13221,1,0,0:0:0:0:
436,314,13271,1,0,0:0:0:0:
454,285,13321,1,0,0:0:0:0:
457,250,13371,1,0,0:0:0:0:
448,218,13421,1,0,0:0:0:0:
428,191,13471,1,0,0:0:0:0:
398,176,13521,1,0,0:0:0:0:
364,170,13571,5,0,0:0:0:0:
307,154,13671,1,0,0:0:0:0:
279,103,13771,1,0,0:0:0:0:
296,47,13871,1,0,0:0:0:0:
347,21,13971,1,0,0:0:0:0:
490,18,14171,1,0,0:0:0:0:
207,177,14371,6,0,L|345:187,1,120,8|0,0:0|0:0,0:0:0:0:
147,354,14771,2,0,L|139:225,1,120,8|0,0:3|0:0,0:0:0:0:
417,108,15171,2,0,L|283:99,1,120,8|0,0:0|0:0,0:0:0:0:
171,34,15471,2,0,L|252:20,1,60,8|8,0:0|0:3,0:0:0:0:
406,22,15771,1,8,0:0:0:0:
109,113,15971,6,0,L|96:267,1,120,8|0,0:0|0:0,0:0:0:0:
272,215,16371,2,0,L|286:355,1,120,8|0,0:3|0:0,0:0:0:0:
95,374,16771,2,0,L|222:350,1,120,8|0,0:0|0:0,0:0:0:0:
89,280,17071,2,0,L|16:275,1,60,8|8,0:0|0:3,0:0:0:0:
318,198,17371,1,8,0:0:0:0:
154,175,17571,6,0,L|148:33,1,120,8|0,0:0|0:0,0:0:0:0:
331,11,17971,2,0,L|185:2,1,120,8|0,0:3|0:0,0:0:0:0:
486,117,18371,2,0,L|488:253,1,120,8|0,0:0|0:0,0:0:0:0:
359,255,18671,2,0,L|351:331,1,60,8|8,0:0|0:3,0:0:0:0:
192,358,18971,1,8,0:0:0:0:
486,98,19171,6,0,L|345:98,1,120,8|0,0:0|0:0,0:0:0:0:
188,16,19571,2,0,L|317:8,1,120,8|0,0:3|0:0,0:0:0:0:
43,104,19971,2,0,L|31:238,1,120,8|0,0:0|0:0,0:0:0:0:
163,244,20271,2,0,L|177:320,1,60,8|8,0:0|0:3,0:0:0:0:
334,336,20571,1,8,0:0:0:0:
42,344,20771,6,0,L|34:265,1,60,8|0,3:0|3:0,0:0:0:0:
137,259,20971,2,0,L|129:180,1,60,8|0,3:0|3:0,0:0:0:0:
236,181,21171,2,0,L|228:102,1,60,8|0,3:0|3:0,0:0:0:0:
342,113,21371,2,0,L|334:34,1,60,8|0,3:0|3:0,0:0:0:0:
110,19,21571,5,8,3:0:0:0:
71,76,21671,1,0,3:0:0:0:
98,139,21771,1,8,3:0:0:0:
166,151,21871,1,0,3:0:0:0:
262,217,21971,2,0,L|186:229,1,71.9999978027344,8|0,3:0|3:0,0:0:0:0:
85,290,22171,2,0,L|161:302,1,71.9999978027344,8|0,3:0|3:0,0:0:0:0:
421,350,22371,6,0,L|429:262,1,71.9999978027344,8|0,3:0|3:0,0:0:0:0:
328,252,22571,2,0,L|336:164,1,71.9999978027344,8|0,3:0|3:0,0:0:0:0:
226,153,22771,2,0,L|234:65,1,71.9999978027344,8|0,3:0|3:0,0:0:0:0:
112,81,22971,2,0,L|120:-7,1,71.9999978027344,8|0,3:0|3:0,0:0:0:0:
361,12,23171,6,0,L|444:17,1,71.9999978027344,8|0,3:0|3:0,0:0:0:0:
339,58,23371,2,0,L|247:72,1,71.9999978027344,8|0,3:0|3:0,0:0:0:0:
463,129,23571,2,0,L|476:218,1,71.9999978027344,8|0,3:0|3:0,0:0:0:0:
269,216,23771,2,0,L|263:298,1,71.9999978027344,8|0,3:0|3:0,0:0:0:0:
55,367,23971,6,0,L|137:367,1,71.9999978027344,8|0,3:0|3:0,0:0:0:0:
219,327,24171,2,0,L|227:264,2,35.9999989013672,8|8|8,3:0|3:0|3:0,0:0:0:0:
425,124,24371,6,0,L|343:124,1,71.9999978027344,8|0,3:0|3:0,0:0:0:0:
261,84,24571,2,0,L|253:21,2,35.9999989013672,8|8|8,3:0|3:0|3:0,0:0:0:0:
25,237,24771,6,0,L|107:237,1,71.9999978027344,8|0,3:0|3:0,0:0:0:0:
189,197,24971,2,0,L|197:134,2,35.9999989013672,8|8|8,3:0|3:0|3:0,0:0:0:0:
455,81,25171,6,0,L|373:81,1,71.9999978027344,8|0,3:0|3:0,0:0:0:0:
291,41,25371,2,0,L|283:-22,2,35.9999989013672,8|8|8,3:0|3:0|3:0,0:0:0:0:
26,178,25571,5,12,0:0:0:0:
37,204,26371,2,0,L|30:245,2,30,2|0|2,0:0|0:0|0:0,0:0:0:0:
134,161,26571,1,2,0:0:0:0:
239,144,26671,1,2,0:0:0:0:
263,138,26721,6,0,L|12:63,1,247.500002360344,2|8,0:0|0:0,0:0:0:0:
248,35,26971,2,0,L|251:96,2,45.0000017166138,2|0|0,0:0|0:0|0:0,0:0:0:0:
485,166,27171,6,0,L|391:175,1,75,6|2,0:0|0:0,0:0:0:0:
319,212,27371,1,2,0:0:0:0:
306,258,27437,1,2,0:0:0:0:
332,300,27504,1,2,0:0:0:0:
379,309,27571,1,2,0:0:0:0:
475,317,27671,1,2,0:0:0:0:
208,360,27771,1,2,0:0:0:0:
482,286,27971,6,0,L|486:37,1,225,14|2,0:3|0:0,0:0:0:0:
215,66,28371,1,10,0:0:0:0:
394,39,28571,1,2,0:0:0:0:
115,189,28771,6,0,L|242:200,1,112.5,2|0,0:0|0:0,0:0:0:0:
257,197,28971,1,2,0:0:0:0:
50,368,29071,2,0,L|45:216,1,150,2|0,0:0|0:0,0:0:0:0:
250,102,29371,2,0,L|146:97,1,75,2|0,0:0|0:0,0:0:0:0:
402,50,29571,5,10,0:0:0:0:
402,50,29671,1,0,0:0:0:0:
402,50,29771,1,2,0:0:0:0:
402,50,29871,1,2,0:0:0:0:
402,50,29971,6,0,L|192:271,1,300,4|2,0:0|0:0,0:0:0:0:
417,272,30271,1,2,0:0:0:0:
195,56,30371,6,0,B|195:357|195:357|477:192,1,600,4|2,0:0|0:0,0:0:0:0:
453,206,30871,1,2,0:0:0:0:
453,206,31071,2,0,L|431:204,1,15,2|0,0:0|0:0,0:0:0:0:
174,57,31171,6,0,B|174:363|174:363|449:235,1,600,6|2,0:0|0:0,0:0:0:0:
440,238,31671,1,2,0:0:0:0:
440,238,31871,2,0,L|399:240,1,30,2|0,0:0|0:0,0:0:0:0:
116,60,31971,6,0,B|116:225|116:225|116:57|116:57|270:58|270:58|184:207|184:207|288:337|288:337|388:209|388:209|57:202|57:202|63:368|63:368|101:41|101:41|181:371|181:371|213:199,1,2310.00002202988,6|2,0:0|0:0,0:0:0:0:
282,204,33471,1,2,0:0:0:0:
488,315,33571,6,0,B|315:104|315:104|316:295|316:295|316:181,1,540.000020599366,6|2,0:0|0:0,0:0:0:0:
354,201,34021,1,0,0:0:0:0:
399,194,34071,1,0,0:0:0:0:
152,127,34171,1,2,0:0:0:0:
114,109,34221,1,0,0:0:0:0:
69,102,34271,1,0,0:0:0:0:
375,2,34371,6,0,B|481:150|481:150|481:334|481:334|480:150|480:150|127:155|127:155|268:265|268:265|123:151,1,1260.00004806519,14|2,0:0|0:0,0:0:0:0:
33,154,35871,1,2,0:0:0:0:
280,81,35971,6,0,L|321:127,2,45.0000017166138,12|0|0,0:0|0:0|0:0,0:0:0:0:
164,72,36171,2,0,B|164:329|164:329|164:124,1,450.000017166138,2|2,0:0|0:0,0:0:0:0:
426,35,36771,6,0,B|426:186|426:186|274:194,1,300,6|2,0:0|0:0,0:0:0:0:
359,209,37271,1,2,0:0:0:0:
277,193,37371,1,0,0:0:0:0:
72,341,37471,1,2,0:0:0:0:
277,193,37571,2,0,L|277:42,1,150,10|2,0:0|0:0,0:0:0:0:
277,43,37821,1,0,0:0:0:0:
277,43,37871,1,2,0:0:0:0:
277,43,37971,6,0,B|477:95|477:95|481:242,1,315.000003004074,4|0,0:3|0:0,0:0:0:0:
285,253,38371,2,0,L|356:289,1,75,2|2,0:0|0:0,0:0:0:0:
439,277,38571,1,2,0:0:0:0:
238,164,38671,2,0,L|337:154,1,75,2|2,0:0|0:0,0:0:0:0:
16,60,38971,6,0,L|15:81,1,18.75,6|0,0:0|0:0,0:0:0:0:
32,215,39571,1,2,0:0:0:0:
46,352,39971,6,0,B|406:328|406:328|259:1|259:1|255:142,1,720.000027465821,6|2,0:0|0:0,0:0:0:0:
347,9,40471,1,2,0:0:0:0:
258,1,40571,2,0,L|259:51,2,37.5,2|0|2,0:0|0:0|0:0,0:0:0:0:
347,9,40771,2,0,L|135:238,1,300,4|2,0:0|0:0,0:0:0:0:
465,319,41171,1,6,0:0:0:0:
465,319,41371,1,2,0:0:0:0:
100,368,41571,6,0,B|100:202|100:202|100:372|100:372|235:287|235:287|235:121|235:121|376:172|376:172|376:351|376:351|15:358,1,1320.0000125885,6|10,0:0|0:0,0:0:0:0:
269,215,42671,1,2,0:0:0:0:
45,357,42971,1,2,0:0:0:0:
321,366,43171,6,0,P|416:292|208:95,1,450,2|2,3:2|0:0,0:0:0:0:
166,81,43871,1,2,0:0:0:0:
418,22,43971,1,10,0:0:0:0:
265,74,44171,1,2,0:0:0:0:
418,22,44371,2,0,L|446:22,1,18.75,2|0,0:0|0:0,0:0:0:0:
418,22,44471,2,0,L|446:22,1,18.75,2|0,0:0|0:0,0:0:0:0:
418,22,44571,2,0,L|446:22,1,18.75,2|0,0:0|0:0,0:0:0:0:
98,355,44771,6,0,B|72:190|72:190|99:358|99:358|224:253|224:253|223:84|223:84|72:31|72:31|72:200|72:200|426:209,1,1320.0000125885,2|10,3:2|0:0,0:0:0:0:
434,152,45671,1,2,0:0:0:0:
410,88,45771,1,2,0:0:0:0:
342,74,45871,1,2,0:0:0:0:
264,71,45971,2,0,L|361:57,1,71.9999978027344,4|2,0:0|0:0,0:0:0:0:
419,46,46171,2,0,L|508:38,1,71.9999978027344,2|2,0:0|0:0,0:0:0:0:
264,71,46371,6,0,P|195:131|402:306,1,431.999986816407,6|2,0:0|0:0,0:0:0:0:
196,357,47171,1,10,0:0:0:0:
196,285,47271,1,2,0:0:0:0:
196,213,47371,1,0,0:0:0:0:
25,190,47571,1,2,0:0:0:0:
25,118,47671,1,2,0:0:0:0:
25,46,47771,1,2,0:0:0:0:
356,19,47971,6,0,B|443:241|443:241|410:343|410:343|370:227|370:227|327:344|327:344|280:226|280:226|497:211|497:211|361:10|361:10|497:212|497:212|346:-7,1,1680,2|2,0:0|0:0,0:0:0:0:
269,15,49471,1,2,0:0:0:0:
29,40,49571,6,0,B|12:218|71:359|71:359|234:366|234:366|28:238|182:66|365:64|365:64|520:122|355:266,1,1215.00000463486,6|0,0:3|0:0,0:0:0:0:
98,102,51171,6,0,L|299:205,2,225,6|2|2,0:0|0:0|0:0,0:0:0:0:
48,174,51971,1,2,0:0:0:0:
38,259,52271,1,2,0:0:0:0:
65,349,52571,1,2,0:0:0:0:
431,82,52771,6,0,B|70:30|70:30|125:190|125:190|185:370|185:370|65:-1,1,1080.00004119873,6|2,3:2|0:0,0:0:0:0:
165,15,53471,1,2,0:0:0:0:
260,28,53571,2,0,L|277:55,4,18.75,10|0|0|0|0,0:0|0:0|0:0|0:0|0:0,0:0:0:0:
215,24,53721,1,0,0:0:0:0:
167,27,53771,1,0,0:0:0:0:
452,185,53971,6,0,L|479:226,2,37.5,6|0|2,3:2|0:0|0:0,0:0:0:0:
409,185,54121,1,0,0:0:0:0:
452,185,54171,2,0,L|505:164,2,37.5,2|0|2,0:0|0:0|0:0,0:0:0:0:
362,257,54371,6,0,L|337:295,2,37.5,0|0|2,0:0|0:0|0:0,0:0:0:0:
405,257,54521,1,0,0:0:0:0:
362,257,54571,2,0,L|309:236,2,37.5,2|0|2,0:0|0:0|0:0,0:0:0:0:
272,315,54771,5,2,0:0:0:0:
242,321,54821,1,0,0:0:0:0:
203,327,54871,1,2,0:0:0:0:
243,349,54921,1,0,0:0:0:0:
284,350,54971,2,0,L|303:303,2,37.5,2|0|2,0:0|0:0|0:0,0:0:0:0:
44,213,55171,6,0,L|43:57,1,150,10|0,3:2|3:0,0:0:0:0:
43,63,55571,1,2,3:2:0:0:
87,57,55621,1,0,0:0:0:0:
130,53,55671,1,0,0:0:0:0:
86,56,55721,1,0,0:0:0:0:
40,60,55771,1,2,0:0:0:0:
369,130,55971,5,6,0:0:0:0:
272,134,56071,1,2,0:0:0:0:
175,153,56171,2,0,P|130:225|286:329,1,300,4|2,0:3|0:0,0:0:0:0:
307,331,56621,1,0,0:0:0:0:
352,323,56671,1,0,0:0:0:0:
130,53,56771,1,10,0:0:0:0:
90,46,56821,1,0,0:0:0:0:
45,38,56871,1,0,0:0:0:0:
143,38,56971,2,0,L|153:181,1,112.5,4|0,0:3|0:0,0:0:0:0:
345,127,57171,6,0,L|359:179,1,37.5,6|0,3:2|0:0,0:0:0:0:
304,183,57271,1,2,0:0:0:0:
252,197,57321,2,0,L|266:249,1,37.5,0|2,0:0|0:0,0:0:0:0:
310,247,57421,1,0,0:0:0:0:
359,253,57471,1,2,0:0:0:0:
456,228,57571,6,0,L|470:281,1,37.5,2|0,0:0|0:0,0:0:0:0:
413,285,57671,1,2,0:0:0:0:
360,300,57721,2,0,L|374:353,1,37.5,0|2,0:0|0:0,0:0:0:0:
419,351,57821,1,0,0:0:0:0:
470,358,57871,1,2,0:0:0:0:
297,369,57971,5,2,0:0:0:0:
246,364,58021,1,0,0:0:0:0:
194,349,58071,2,0,L|184:312,1,37.5,2|0,0:0|0:0,0:0:0:0:
292,274,58171,1,2,0:0:0:0:
401,251,58221,2,0,L|391:214,1,37.5,0|2,0:0|0:0,0:0:0:0:
138,145,58371,6,0,L|293:112,1,150,10|2,0:0|0:0,0:0:0:0:
252,89,58637,1,2,0:0:0:0:
284,113,58704,1,2,0:0:0:0:
252,89,58771,2,0,L|31:71,1,180.000006866455,2|2,0:0|0:0,0:0:0:0:
72,74,59171,6,0,B|72:315|72:315|72:73|72:73|293:215,1,720,6|2,0:3|0:0,0:0:0:0:
8,296,59971,2,0,B|38:347|38:347|149:349,1,155.999992858887,2|8,0:0|0:2,0:0:0:0:
441,194,60371,5,2,3:2:0:0:
425,189,60396,2,0,L|159:138,1,246.749996234894,0|2,0:0|3:2,0:0:0:0:
198,135,60596,2,0,L|363:88,1,157.500001502037,0|0,0:0|0:0,0:0:0:0:
368,93,60771,6,0,B|465:247|465:247|463:68|463:68|66:67,1,720.000027465821,2|8,3:2|0:3,0:0:0:0:
104,67,61371,2,0,L|103:114,1,45.0000017166138,2|0,0:0|0:0,0:0:0:0:
390,209,61571,6,0,L|415:209,1,20.2500000772476,10|0,3:2|0:0,0:0:0:0:
410,209,61771,1,2,0:0:0:0:
390,209,61796,2,0,L|8:201,1,341.250009763241,0|8,0:0|0:3,0:0:0:0:
48,201,62171,2,0,L|78:201,1,20.2500000772476,2|0,0:0|0:0,0:0:0:0:
365,352,62371,6,0,B|480:168|480:168|288:90|288:90|498:63,1,630.000006008148,6|2,0:0|0:0,0:0:0:0:
175,12,63171,6,0,L|175:352,1,315.000003004074,8|0,0:3|0:0,0:0:0:0:
452,361,63571,6,0,B|290:278|290:278|465:235|465:235|511:151|511:151|443:71,1,540.000020599366,6|2,0:0|0:0,0:0:0:0:
108,73,64371,6,0,B|165:166|165:166|338:164,1,270.000010299683,8|0,0:3|0:0,0:0:0:0:
83,315,64771,6,0,B|29:111|29:111|30:320|30:320|118:128|118:128|171:331|171:331|60:153|60:153|41:361|41:361|505:352,1,1680.00001602173,6|4,0:0|0:0,0:0:0:0:
479,153,66171,1,0,0:0:0:0:
481,124,66371,5,2,0:0:0:0:
273,98,66671,1,2,0:0:0:0:
481,124,66971,1,2,0:0:0:0:
272,238,67171,2,0,L|262:371,1,120,2|0,0:0|0:0,0:0:0:0:
28,248,67771,2,0,L|108:235,1,60,2|0,0:0|0:0,0:0:0:0:
200,259,67971,2,0,L|213:62,1,180,2|2,0:0|0:0,0:0:0:0:
18,58,68571,1,2,0:0:0:0:
211,79,68771,6,0,L|454:143,1,240,2|0,0:0|0:0,0:0:0:0:
443,140,69571,2,0,L|203:177,1,240,2|0,0:0|0:0,0:0:0:0:
48,354,70321,1,0,0:0:0:0:
86,351,70371,6,0,L|395:288,1,300,2|0,0:0|0:0,0:0:0:0:
380,291,70971,2,0,L|32:157,1,360,2|2,0:0|0:0,0:0:0:0:
354,11,71971,6,0,P|477:86|285:310,1,480,2|0,0:0|0:0,0:0:0:0:
17,197,73171,2,0,L|157:169,1,120,0|2,0:0|0:0,0:0:0:0:
225,171,73471,1,2,0:0:0:0:
320,151,73571,6,0,P|197:208|330:308,2,360,2|2|2,0:0|0:0|0:0,0:0:0:0:
451,154,74971,1,0,0:0:0:0:
233,89,75171,6,0,P|212:167|344:247,1,240,2|0,0:0|0:0,0:0:0:0:
479,324,75771,2,0,L|209:345,1,240,2|0,0:0|0:0,0:0:0:0:
45,324,76371,1,2,0:0:0:0:
345,153,76737,1,0,0:0:0:0:
447,147,76771,5,2,0:0:0:0:
256,192,76871,12,0,78171,0:0:0:0:
243,272,78371,6,0,L|237:118,1,120,8|0,0:0|0:0,0:0:0:0:
64,190,78771,2,0,L|54:57,1,120,8|0,0:3|0:0,0:0:0:0:
244,31,79171,2,0,L|101:31,1,120,8|0,0:0|0:0,0:0:0:0:
241,119,79471,2,0,L|165:131,1,60,8|8,0:0|0:3,0:0:0:0:
21,161,79771,1,8,0:0:0:0:
201,215,79971,6,0,L|219:371,1,120,8|0,0:0|0:0,0:0:0:0:
388,204,80371,2,0,L|410:328,1,120,8|0,0:3|0:0,0:0:0:0:
171,79,80704,1,0,0:0:0:0:
217,67,80771,2,0,L|352:67,1,120,8|0,0:0|0:0,0:0:0:0:
227,166,81071,2,0,L|305:172,1,60,8|8,0:0|0:3,0:0:0:0:
463,197,81371,1,8,0:0:0:0:
164,359,81571,6,0,L|149:208,1,120,8|0,0:0|0:0,0:0:0:0:
330,145,81971,2,0,L|177:136,1,120,8|0,0:3|0:0,0:0:0:0:
398,74,82371,2,0,L|416:238,1,120,8|0,0:0|0:0,0:0:0:0:
291,235,82671,2,0,L|282:326,1,60,8|8,0:0|0:3,0:0:0:0:
464,334,82971,1,8,0:0:0:0:
178,137,83171,6,0,L|314:121,1,120,8|0,0:0|0:0,0:0:0:0:
107,61,83571,2,0,L|27:61,2,60,8|0|0,0:3|0:0|0:0,0:0:0:0:
372,30,83971,2,0,L|208:24,1,120,8|0,0:0|0:0,0:0:0:0:
363,128,84271,2,0,L|260:146,1,60,8|8,0:0|0:3,0:0:0:0:
468,230,84571,1,8,0:0:0:0:
138,308,84771,5,8,3:0:0:0:
77,274,84871,1,0,3:0:0:0:
59,206,84971,1,8,3:0:0:0:
95,146,85071,1,0,3:0:0:0:
163,130,85171,2,0,L|246:126,1,71.9999978027344,8|0,3:0|3:0,0:0:0:0:
162,109,85371,2,0,L|76:99,1,71.9999978027344,8|0,3:0|3:0,0:0:0:0:
278,202,85571,2,0,L|316:122,2,71.9999978027344,8|0|8,3:0|3:0|3:0,0:0:0:0:
186,147,85871,2,0,L|99:131,2,71.9999978027344,0|8|0,3:0|3:0|3:0,0:0:0:0:
375,66,86171,2,0,L|276:57,1,71.9999978027344,8|0,3:0|3:0,0:0:0:0:
57,125,86371,6,0,L|43:267,1,71.9999978027344,8|0,3:0|3:0,0:0:0:0:
153,219,86571,2,0,L|155:295,1,71.9999978027344,8|0,3:0|3:0,0:0:0:0:
257,285,86771,2,0,L|277:364,1,71.9999978027344,8|0,3:0|3:0,0:0:0:0:
88,368,86971,2,0,L|3:362,1,71.9999978027344,8|0,3:0|3:0,0:0:0:0:
245,199,87171,5,8,3:0:0:0:
174,135,87271,1,0,3:0:0:0:
89,124,87371,1,8,3:0:0:0:
177,89,87471,1,0,3:0:0:0:
379,58,87571,2,0,L|299:51,1,71.9999978027344,8|0,3:0|3:0,0:0:0:0:
132,11,87771,2,0,L|231:-1,1,71.9999978027344,8|0,3:0|3:0,0:0:0:0:
452,93,87971,6,0,L|461:180,1,71.9999978027344,8|0,3:0|3:0,0:0:0:0:
371,198,88171,2,0,L|362:264,2,35.9999989013672,8|8|8,3:0|3:0|3:0,0:0:0:0:
152,191,88371,6,0,L|143:278,1,71.9999978027344,8|0,3:0|3:0,0:0:0:0:
258,294,88571,2,0,L|267:360,2,35.9999989013672,8|8|8,3:0|3:0|3:0,0:0:0:0:
34,191,88771,6,0,L|25:104,1,71.9999978027344,8|0,3:0|3:0,0:0:0:0:
155,83,88971,2,0,L|164:17,2,35.9999989013672,8|8|8,3:0|3:0|3:0,0:0:0:0:
394,49,89171,6,0,L|403:136,1,71.9999978027344,8|0,3:0|3:0,0:0:0:0:
178,187,89371,2,0,L|169:253,2,35.9999989013672,8|8|8,3:0|3:0|3:0,0:0:0:0:
473,237,89571,5,2,0:0:0:0:
256,192,89671,12,0,91171,0:0:0:0:
25,194,91571,5,6,0:0:0:0:
261,199,91971,1,2,0:0:0:0:
494,169,92271,1,4,0:0:0:0:
46,94,92571,1,2,0:0:0:0:
434,32,92771,6,0,P|345:50|383:351,1,467.999978576661,6|2,0:0|0:0,0:0:0:0:
454,325,93471,1,2,0:0:0:0:
231,359,93571,6,0,L|353:347,1,116.999994644165,10|2,0:0|0:0,0:0:0:0:
374,331,93746,1,0,0:0:0:0:
382,340,93771,1,0,0:0:0:0:
400,307,93796,1,0,0:0:0:0:
412,321,93821,1,0,0:0:0:0:
416,275,93846,1,0,0:0:0:0:
432,291,93871,1,0,0:0:0:0:
419,239,93896,1,0,0:0:0:0:
440,256,93921,1,0,0:0:0:0:
408,205,93946,1,0,0:0:0:0:
433,221,93971,1,0,0:0:0:0:
385,177,93996,1,0,0:0:0:0:
414,191,94021,1,0,0:0:0:0:
354,160,94046,1,0,0:0:0:0:
385,170,94071,1,0,0:0:0:0:
168,144,94171,1,2,0:0:0:0:
88,132,94271,1,2,0:0:0:0:
311,75,94371,6,0,L|139:57,1,150,2|0,0:0|0:0,0:0:0:0:
383,35,94671,2,0,L|286:32,2,75,2|2|0,0:0|0:0|0:0,0:0:0:0:
181,219,94971,2,0,L|266:224,1,75,2|2,0:0|0:0,0:0:0:0:
478,353,95171,6,0,B|479:114|479:114|311:279|311:279|308:-9,1,720,10|2,0:0|0:0,0:0:0:0:
382,19,95871,1,2,0:0:0:0:
103,40,95971,6,0,B|41:216|41:216|214:234|214:234|257:317|257:317|214:237,1,540.000020599366,6|2,0:0|0:0,0:0:0:0:
128,234,96671,1,2,0:0:0:0:
355,202,96771,6,0,L|358:180,1,18.75,14|0,0:3|0:0,0:0:0:0:
280,156,96871,2,0,L|273:134,1,18.75,2|0,0:0|0:0,0:0:0:0:
353,89,96971,2,0,L|380:83,1,18.75,2|0,0:0|0:0,0:0:0:0:
453,30,97071,2,0,L|460:62,1,18.75,2|0,0:0|0:0,0:0:0:0:
372,85,97171,2,0,L|346:92,1,18.75,2|0,0:0|0:0,0:0:0:0:
181,75,97371,1,2,0:0:0:0:
485,253,97571,6,0,L|331:272,1,150,2|2,0:0|0:0,0:0:0:0:
121,350,97871,2,0,L|217:336,2,75,2|2|0,0:0|0:0|0:0,0:0:0:0:
340,163,98171,2,0,L|231:161,1,75,2|2,3:2|0:0,0:0:0:0:
45,151,98371,6,0,L|30:120,1,18.75,14|0,3:2|0:0,0:0:0:0:
117,104,98471,2,0,L|117:85,1,18.75,2|0,0:0|0:0,0:0:0:0:
199,71,98571,2,0,L|209:53,1,18.75,2|0,0:0|0:0,0:0:0:0:
124,45,98671,2,0,L|113:19,1,18.75,2|0,0:0|0:0,0:0:0:0:
203,9,98771,1,2,0:0:0:0:
331,20,98904,1,2,0:0:0:0:
61,168,99037,1,2,0:0:0:0:
341,163,99171,6,0,B|395:263|395:263|345:348|345:348|227:176|227:176|404:288,1,630.000006008148,6|2,0:0|0:0,0:0:0:0:
474,256,99871,1,2,0:0:0:0:
234,345,99971,6,0,B|92:235|92:235|294:182,1,360.000013732911,14|2,3:2|0:0,0:0:0:0:
303,190,100421,1,0,0:0:0:0:
266,189,100471,1,0,0:0:0:0:
64,48,100571,1,2,3:2:0:0:
27,48,100621,1,0,0:0:0:0:
64,48,100671,1,0,0:0:0:0:
300,85,100771,6,0,L|117:124,1,150,2|0,0:0|0:0,0:0:0:0:
349,194,101071,2,0,L|275:254,1,75,2|2,0:0|0:0,0:0:0:0:
203,257,101271,1,0,0:0:0:0:
392,364,101371,2,0,L|393:265,1,75,2|0,0:0|0:0,0:0:0:0:
114,129,101571,6,0,B|394:157|394:157|394:364|394:364|394:234,1,563.999991394043,12|2,3:2|0:0,0:0:0:0:
376,291,101996,1,0,0:0:0:0:
394,288,102071,2,0,L|356:292,1,22.5000008583069,2|0,0:0|0:0,0:0:0:0:
394,288,102171,2,0,L|356:293,1,26.2500002503395,2|0,0:0|0:0,0:0:0:0:
394,288,102271,2,0,L|355:296,1,30,2|0,3:2|0:0,0:0:0:0:
124,352,102371,6,0,B|68:277|68:277|123:205|123:205|300:168|300:168|109:140,1,540.000020599366,6|2,0:0|0:0,0:0:0:0:
50,143,103071,1,2,0:0:0:0:
358,98,103171,5,10,3:2:0:0:
345,97,103196,1,0,0:0:0:0:
369,129,103221,1,0,0:0:0:0:
334,129,103246,1,0,0:0:0:0:
372,165,103271,1,0,0:0:0:0:
335,165,103296,1,0,0:0:0:0:
365,200,103321,1,0,0:0:0:0:
345,197,103346,1,0,0:0:0:0:
354,217,103371,6,0,L|43:245,1,300,2|2,0:0|0:0,0:0:0:0:
69,240,103596,1,0,0:0:0:0:
40,272,103621,1,0,0:0:0:0:
82,272,103646,1,0,0:0:0:0:
37,308,103671,1,0,0:0:0:0:
81,308,103696,1,0,0:0:0:0:
45,343,103721,1,0,0:0:0:0:
69,340,103746,1,0,0:0:0:0:
57,360,103771,1,2,0:0:0:0:
262,361,103871,1,2,0:0:0:0:
465,362,103971,6,0,P|488:205|292:398,1,720.000027465821,6|2,0:0|0:0,0:0:0:0:
85,321,105071,1,2,0:0:0:0:
278,242,105371,1,2,0:0:0:0:
86,148,105571,6,0,L|-2:138,2,71.9999978027344,2|0|0,0:0|0:0|0:0,0:0:0:0:
286,49,105871,2,0,L|198:41,2,71.9999978027344,6|0|0,0:0|0:0|0:0,0:0:0:0:
497,182,106171,2,0,L|390:190,1,71.9999978027344,6|2,0:0|0:0,0:0:0:0:
200,346,106371,5,6,0:0:0:0:
119,324,106471,2,0,L|94:288,2,37.5,0|0|2,0:0|0:0|0:0,0:0:0:0:
200,346,106671,1,0,0:0:0:0:
393,109,106771,2,0,L|279:119,1,75,10|0,0:0|0:0,0:0:0:0:
409,151,106971,2,0,L|314:157,1,75,2|2,0:0|0:0,0:0:0:0:
244,173,107171,5,2,3:2:0:0:
209,182,107221,1,0,0:0:0:0:
194,215,107271,1,0,0:0:0:0:
210,248,107321,1,0,0:0:0:0:
245,256,107371,1,2,0:0:0:0:
339,273,107471,1,0,0:0:0:0:
101,348,107571,2,0,L|94:191,1,155.999992858887,8|8,0:0|0:0,0:0:0:0:
385,76,107971,5,2,3:2:0:0:
405,72,107996,2,0,L|262:61,1,136.499993751526,0|8,0:0|0:0,0:0:0:0:
356,37,108271,1,2,0:0:0:0:
140,29,108371,2,0,L|132:161,1,116.999994644165,10|0,0:0|0:0,0:0:0:0:
178,157,108571,2,0,L|267:170,1,77.9999964294435,2|0,0:0|0:0,0:0:0:0:
26,328,108771,2,0,L|44:169,1,155.999992858887,2|2,0:0|0:0,0:0:0:0:
135,148,109071,1,2,0:0:0:0:
371,62,109171,2,0,L|209:127,1,155.999992858887,10|2,0:0|0:0,0:0:0:0:
135,148,109471,1,2,0:0:0:0:
365,191,109571,5,2,0:0:0:0:
451,217,109671,2,0,L|471:266,2,38.9999982147218,0|0|2,0:0|0:0|0:0,0:0:0:0:
365,191,109871,1,2,0:0:0:0:
157,341,109971,1,10,0:0:0:0:
254,272,110071,2,0,L|219:272,1,19.4999991073609,2|0,0:0|0:0,0:0:0:0:
146,248,110171,1,2,0:0:0:0:
252,181,110271,2,0,L|220:183,1,19.4999991073609,2|0,0:0|0:0,0:0:0:0:
25,75,110371,6,0,L|192:50,1,155.999992858887,2|0,0:0|0:0,0:0:0:0:
458,24,110771,2,0,L|371:36,1,77.9999964294435,10|2,0:0|0:0,0:0:0:0:
278,98,110971,2,0,L|376:107,1,77.9999964294435,2|2,0:0|0:0,0:0:0:0:
140,176,111171,2,0,L|133:332,1,155.999992858887,2|8,0:0|0:0,0:0:0:0:
367,301,111471,2,0,L|276:258,1,77.9999964294435,2|10,0:0|0:0,0:0:0:0:
207,262,111671,1,2,0:0:0:0:
407,195,111771,2,0,L|489:178,1,77.9999964294435,10|0,0:0|0:0,0:0:0:0:
249,177,111971,6,0,P|229:104|279:50,1,150,2|2,0:0|0:0,0:0:0:0:
368,40,112271,1,2,0:0:0:0:
150,42,112371,2,0,L|126:43,1,18.75,10|0,3:2|0:0,0:0:0:0:
206,107,112471,2,0,L|228:107,1,18.75,0|0,0:0|0:0,0:0:0:0:
145,185,112571,2,0,L|115:186,1,18.75,2|0,0:0|0:0,0:0:0:0:
210,252,112671,2,0,L|233:254,1,18.75,0|0,0:0|0:0,0:0:0:0:
29,351,112771,6,0,L|40:266,1,75,2|2,0:0|0:0,0:0:0:0:
97,264,112921,1,2,0:0:0:0:
157,263,112971,2,0,L|170:174,1,75,2|0,0:0|0:0,0:0:0:0:
381,111,113171,2,0,L|298:103,1,75,10|0,0:0|0:0,0:0:0:0:
84,29,113371,2,0,L|167:15,1,75,2|0,0:0|0:0,0:0:0:0:
391,37,113571,6,0,L|399:123,1,75,2|0,0:0|0:0,0:0:0:0:
339,137,113721,1,2,0:0:0:0:
280,155,113771,2,0,L|286:236,1,75,2|0,0:0|0:0,0:0:0:0:
496,318,113971,2,0,L|367:238,1,150,10|2,0:0|0:0,0:0:0:0:
170,71,114371,2,0,L|265:54,1,75,2|2,0:0|0:0,0:0:0:0:
339,137,114571,2,0,L|237:135,1,75,10|0,0:0|0:0,0:0:0:0:
34,165,114771,6,0,L|19:225,4,37.5,10|0|0|0|8,3:2|0:0|0:0|0:0|0:0,0:0:0:0:
117,138,115071,1,2,0:0:0:0:
346,278,115171,2,0,L|187:293,1,150,2|2,0:0|0:0,0:0:0:0:
383,358,115571,1,10,0:0:0:0:
291,206,115671,2,0,L|320:200,1,18.75,2|0,0:0|0:0,0:0:0:0:
399,180,115771,1,2,0:0:0:0:
306,113,115871,1,2,0:0:0:0:
73,72,115971,5,2,0:0:0:0:
168,26,116071,2,0,L|143:25,1,18.75,2|0,0:0|0:0,0:0:0:0:
64,167,116171,1,2,0:0:0:0:
157,205,116271,1,2,0:0:0:0:
392,335,116371,2,0,L|298:348,1,75,10|2,0:0|0:0,0:0:0:0:
106,357,116571,2,0,L|16:352,1,75,2|2,0:0|0:0,0:0:0:0:
282,238,116771,2,0,L|267:161,1,75,2|2,0:0|0:0,0:0:0:0:
164,111,116971,2,0,L|110:108,2,37.5,2|0|0,0:0|0:0|0:0,0:0:0:0:
445,90,117171,6,0,L|149:112,1,281.999995697022,14|8,0:0|0:0,0:0:0:0:
492,228,117571,6,0,L|423:290,1,77.9999964294435,6|0,0:0|0:0,0:0:0:0:
217,315,117771,2,0,L|125:326,1,77.9999964294435,6|0,0:0|0:0,0:0:0:0:
335,263,117971,1,6,0:0:0:0:
135,225,118071,1,2,0:0:0:0:
409,170,118171,1,6,0:0:0:0:
226,138,118271,1,2,0:0:0:0:
37,57,118371,6,0,L|38:296,1,233.999989288331,10|0,0:3|0:0,0:0:0:0:
323,72,118771,5,6,0:0:0:0:
147,52,118971,1,2,0:0:0:0:
439,162,119171,1,2,0:0:0:0:
181,167,119371,1,2,0:0:0:0:
493,289,119571,2,0,L|406:299,1,77.9999964294435,10|10,0:0|0:0,0:0:0:0:
215,298,119771,1,10,0:0:0:0:
417,320,119871,1,10,0:0:0:0:
215,298,119971,6,0,P|119:290|61:159,1,233.999989288331,12|0,0:3|0:0,0:0:0:0:
309,90,120371,6,0,L|472:84,1,155.999992858887,10|0,3:3|0:0,0:0:0:0:
261,172,120771,2,0,P|232:89|281:6,1,155.999992858887,10|0,0:3|0:0,0:0:0:0:
352,24,121071,1,10,0:3:0:0:
128,80,121171,1,0,3:0:0:0:
399,231,121371,2,0,L|301:249,1,77.9999964294435,10|0,0:3|0:0,0:0:0:0:
93,322,121571,6,0,L|288:348,1,155.999992858887,10|0,0:3|0:0,0:0:0:0:
41,364,121971,2,0,L|35:190,1,155.999992858887,10|0,3:3|0:0,0:0:0:0:
121,179,122271,1,0,0:0:0:0:
363,54,122371,2,0,L|176:42,1,155.999992858887,10|0,0:3|0:0,0:0:0:0:
486,120,122771,2,0,L|481:303,1,155.999992858887,10|0,3:3|0:0,0:0:0:0:
191,352,123171,6,0,L|359:338,1,155.999992858887,10|0,0:3|0:0,0:0:0:0:
137,258,123571,2,0,L|295:241,1,155.999992858887,10|0,3:3|0:0,0:0:0:0:
28,10,123971,2,0,L|16:187,1,155.999992858887,10|0,0:3|0:0,0:0:0:0:
95,187,124271,1,0,0:0:0:0:
357,109,124371,1,10,3:3:0:0:
155,77,124571,1,10,3:3:0:0:
450,40,124771,6,0,P|484:122|361:194,1,233.999989288331,10|0,0:3|0:0,0:0:0:0:
164,318,125171,1,10,3:3:0:0:
349,199,125371,2,0,L|252:198,1,77.9999964294435,0|0,0:0|0:0,0:0:0:0:
45,297,125571,2,0,L|37:116,1,155.999992858887,10|0,0:3|0:0,0:0:0:0:
246,58,125971,2,0,L|63:40,1,155.999992858887,10|0,3:3|0:0,0:0:0:0:
409,22,126371,6,0,L|426:220,1,155.999992858887,10|0,0:3|0:0,0:0:0:0:
90,170,126771,2,0,L|80:333,1,155.999992858887,10|0,3:3|0:0,0:0:0:0:
356,346,127171,2,0,L|190:334,1,155.999992858887,10|0,0:3|0:0,0:0:0:0:
485,194,127571,2,0,L|294:180,1,155.999992858887,10|0,3:3|0:0,0:0:0:0:
57,144,127921,1,0,0:0:0:0:
18,137,127971,6,0,L|172:116,1,155.999992858887,10|0,0:3|0:0,0:0:0:0:
368,31,128371,2,0,L|195:24,1,155.999992858887,10|0,3:3|0:0,0:0:0:0:
482,121,128771,2,0,L|485:283,1,155.999992858887,10|0,0:3|0:0,0:0:0:0:
211,349,129171,1,10,3:3:0:0:
388,297,129371,2,0,L|281:285,1,77.9999964294435,8|0,0:3|0:0,0:0:0:0:
68,285,129571,5,10,3:3:0:0:
240,197,129771,2,0,L|326:191,1,77.9999964294435,8|0,3:3|0:0,0:0:0:0:
79,157,129971,1,10,3:3:0:0:
234,96,130171,1,8,3:3:0:0:
418,83,130371,1,10,3:3:0:0:
154,44,130571,1,8,3:3:0:0:
454,107,130771,5,2,3:0:0:0:
273,195,130871,1,0,3:0:0:0:
77,228,130971,1,0,3:0:0:0:
281,297,131071,1,0,3:0:0:0:
54,335,131171,5,12,3:3:0:0:
