osu file format v14

[General]
AudioFilename: audio.mp3
AudioLeadIn: 0
PreviewTime: 91080
Countdown: 0
SampleSet: Soft
StackLeniency: 0.7
Mode: 2
LetterboxInBreaks: 0
WidescreenStoryboard: 1

[Editor]
Bookmarks: 27180,39980,52780,65580,78380,91180,106380,118380,131180
DistanceSpacing: 0.8
BeatDivisor: 4
GridSize: 32
TimelineZoom: 2.9

[Metadata]
Title:Me & U
TitleUnicode:Me & U
Artist:siqlo
ArtistUnicode:siqlo
Creator:Jemzuu
Version:Salad
Source:
Tags:ajamez rocma _asriel and bofu BOFXV19 bms ブルーガーデン・サイクロン emotional dubstep electronic instrumental english future bass drum hardcore core trap melody
BeatmapID:2556450
BeatmapSetID:1225300

[Difficulty]
HPDrainRate:4
CircleSize:3
OverallDifficulty:7
ApproachRate:7
SliderMultiplier:1.6
SliderTickRate:1

[Events]
//Background and Video events
0,0,"83128832_p0.jpg",0,0
//Break Periods
2,65770,77471
//Storyboard Layer 0 (Background)
//Storyboard Layer 1 (Fail)
//Storyboard Layer 2 (Pass)
//Storyboard Layer 3 (Foreground)
//Storyboard Layer 4 (Overlay)
//Storyboard Sound Samples

[TimingPoints]
1571,400,4,2,2,60,1,0
1571,-125,4,2,2,60,0,0
12371,-100,4,2,88,60,0,0
14371,-100,4,2,1,60,0,0
20771,-100,4,2,2,60,0,0
21571,-100,4,2,2,60,0,0
25571,-100,4,2,3,60,0,0
26371,-100,4,2,98,60,0,0
26571,-100,4,2,97,60,0,0
26671,-100,4,2,96,60,0,0
26721,-100,4,2,98,60,0,0
26971,-100,4,2,96,60,0,0
27171,-100,4,2,99,60,0,0
27271,-100,4,2,98,60,0,0
27771,-100,4,2,1,60,0,0
27971,-100,4,2,75,60,0,0
28271,-100,4,2,1,60,0,0
28971,-100,4,2,86,60,0,0
29071,-100,4,2,1,60,0,0
29771,-100,4,2,97,60,0,0
29971,-100,4,2,4,60,0,0
30171,-100,4,2,98,60,0,0
30271,-100,4,2,1,60,0,0
30371,-100,4,2,1,60,0,0
30571,-100,4,2,87,60,0,0
30771,-100,4,2,97,60,0,0
31071,-100,4,2,98,60,0,0
31171,-100,4,2,1,60,0,0
31371,-100,4,2,86,60,0,0
31571,-100,4,2,98,60,0,0
31871,-100,4,2,96,60,0,0
31971,-100,4,2,65,60,0,0
32771,-100,4,2,1,60,0,0
32971,-100,4,2,1,60,0,0
33171,-100,4,2,52,60,0,0
33371,-100,4,2,98,60,0,0
33471,-100,4,2,1,60,0,0
33571,-100,4,2,99,60,0,0
33971,-100,4,2,15,60,0,0
34021,-100,4,2,1,60,0,0
34171,-100,4,2,16,60,0,0
34221,-100,4,2,1,60,0,0
34371,-100,4,2,74,60,0,0
34621,-100,4,2,85,60,0,0
35771,-100,4,2,1,60,0,0
36171,-100,4,2,86,60,0,0
36671,-100,4,2,1,60,0,0
36771,-100,4,2,1,60,0,0
37171,-100,4,2,97,60,0,0
37271,-100,4,2,98,60,0,0
37471,-100,4,2,1,60,0,0
37771,-100,4,2,96,60,0,0
37971,-100,4,2,63,60,0,0
38371,-100,4,2,1,60,0,0
38471,-100,4,2,98,60,0,0
38571,-100,4,2,86,60,0,0
38671,-100,4,2,1,60,0,0
38771,-100,4,2,98,60,0,0
38971,-100,4,2,45,60,0,0
39571,-100,4,2,7,60,0,0
39971,-100,4,2,99,60,0,0
40371,-100,4,2,98,60,0,0
40471,-100,4,2,97,60,0,0
40571,-100,4,2,98,60,0,0
40671,-100,4,2,96,60,0,0
40771,-100,4,2,4,60,0,0
40971,-100,4,2,96,60,0,0
41171,-100,4,2,1,60,0,0
41571,-100,4,2,99,60,0,0
42371,-100,4,2,1,60,0,0
43171,-100,4,2,43,60,0,0
43771,-100,4,2,2,60,0,0
43871,-100,4,2,1,60,0,0
44371,-100,4,2,63,60,0,0
44396,-100,4,2,1,5,0,0
44471,-100,4,2,63,60,0,0
44496,-100,4,2,1,5,0,0
44571,-100,4,2,63,60,0,0
44596,-100,4,2,1,5,0,0
44771,-100,4,2,62,60,0,0
45571,-100,4,2,1,60,0,0
45671,-100,4,2,98,60,0,0
45871,-100,4,2,97,60,0,0
45971,-100,4,2,3,60,0,0
46071,-100,4,2,98,60,0,0
46171,-100,4,2,97,60,0,0
46271,-100,4,2,1,60,0,0
46971,-100,4,2,2,60,0,0
47171,-100,4,2,1,60,0,0
47271,-100,4,2,86,60,0,0
47671,-100,4,2,97,60,0,0
47771,-100,4,2,98,60,0,0
47971,-100,4,2,1,60,0,0
48971,-100,4,2,86,60,0,0
49371,-100,4,2,98,60,0,0
49571,-100,4,2,3,60,0,0
50171,-100,4,2,85,60,0,0
50371,-100,4,2,1,60,0,0
50771,-100,4,2,85,60,0,0
50971,-100,4,2,1,60,0,0
51171,-100,4,2,1,60,0,0
51471,-100,4,2,2,60,0,0
51771,-100,4,2,86,60,0,0
51971,-100,4,2,2,60,0,0
52771,-100,4,2,69,60,0,0
53371,-100,4,2,1,60,0,0
53471,-100,4,2,2,60,0,0
53571,-100,4,2,67,60,0,0
53971,-100,4,2,68,60,0,0
54021,-100,4,2,88,60,0,0
54971,-100,4,2,1,60,0,0
55171,-100,4,2,32,60,0,0
55571,-100,4,2,82,60,0,0
55621,-100,4,2,88,60,0,0
55771,-100,4,2,1,60,0,0
55971,-100,4,2,99,60,0,0
56071,-100,4,2,98,60,0,0
56171,-100,4,2,75,60,0,0
56571,-100,4,2,15,60,0,0
56621,-100,4,2,1,60,0,0
56771,-100,4,2,16,60,0,0
56821,-100,4,2,1,60,0,0
56971,-100,4,2,63,60,0,0
57171,-100,4,2,71,60,0,0
57221,-100,4,2,88,60,0,0
58171,-100,4,2,1,60,0,0
58621,-100,4,2,97,60,0,0
58771,-100,4,2,96,60,0,0
58971,-100,4,2,1,60,0,0
59171,-100,4,2,75,60,0,0
59771,-100,4,2,86,60,0,0
59971,-100,4,2,96,60,0,0
60171,-100,4,2,98,60,0,0
60371,-100,4,2,58,60,0,0
60396,-100,4,2,1,60,0,0
60571,-100,4,2,59,60,0,0
60771,-100,4,2,60,60,0,0
61171,-100,4,2,11,60,0,0
61371,-100,4,2,97,60,0,0
61571,-100,4,2,60,60,0,0
61771,-100,4,2,98,60,0,0
61796,-100,4,2,1,60,0,0
61971,-100,4,2,11,60,0,0
62171,-100,4,2,96,60,0,0
62371,-100,4,2,1,60,0,0
62571,-100,4,2,85,60,0,0
63171,-100,4,2,11,60,0,0
63571,-100,4,2,1,60,0,0
63771,-100,4,2,86,60,0,0
64371,-100,4,2,11,60,0,0
64771,-50,4,2,1,60,0,0
64971,-50,4,2,87,60,0,0
65571,-50,4,2,99,60,0,0
66371,-166.666666666667,4,2,0,60,0,0
76871,-166.666666666667,4,2,1,40,0,0
77371,-166.666666666667,4,2,1,20,0,0
77771,-166.666666666667,4,2,1,10,0,0
78171,-166.666666666667,4,2,1,5,0,0
78371,-100,4,2,1,50,0,0
84771,-100,4,2,2,60,0,0
89571,-100,4,2,7,60,0,0
89671,-100,4,2,2,40,0,0
89971,-100,4,2,2,30,0,0
90371,-100,4,2,2,20,0,0
90771,-100,4,2,2,10,0,0
91171,-100,4,2,2,5,0,0
91521,-100,4,2,1,60,0,0
92771,-100,4,2,99,60,0,1
93371,-100,4,2,1,60,0,1
93471,-100,4,2,98,60,0,1
93571,-100,4,2,1,60,0,1
93721,-100,4,2,80,60,0,1
93746,-100,4,2,88,60,0,1
94171,-100,4,2,1,60,0,1
94271,-100,4,2,98,60,0,1
94371,-100,4,2,1,60,0,1
94771,-100,4,2,86,60,0,1
94971,-100,4,2,1,60,0,1
95071,-100,4,2,97,60,0,1
95171,-100,4,2,67,60,0,1
95571,-100,4,2,86,60,0,1
95771,-100,4,2,98,60,0,1
95871,-100,4,2,1,60,0,1
95971,-100,4,2,1,60,0,1
96171,-100,4,2,87,60,0,1
96571,-100,4,2,1,60,0,1
96671,-100,4,2,98,60,0,1
96771,-100,4,2,75,60,0,1
96796,-100,4,2,1,5,0,1
96871,-100,4,2,98,60,0,1
96896,-100,4,2,1,5,0,1
96971,-100,4,2,96,60,0,1
96996,-100,4,2,1,5,0,1
97071,-100,4,2,97,60,0,1
97096,-100,4,2,1,5,0,1
97171,-100,4,2,98,60,0,1
97196,-100,4,2,1,5,0,1
97371,-100,4,2,1,60,0,1
97771,-100,4,2,2,60,0,1
97871,-100,4,2,1,60,0,1
97971,-100,4,2,97,60,0,1
98171,-100,4,2,96,60,0,1
98271,-100,4,2,98,60,0,1
98396,-100,4,2,1,5,0,1
98471,-100,4,2,96,60,0,1
98496,-100,4,2,1,5,0,1
98571,-100,4,2,97,60,0,1
98596,-100,4,2,1,5,0,1
98671,-100,4,2,96,60,0,1
98696,-100,4,2,1,5,0,1
98771,-100,4,2,98,60,0,1
98904,-100,4,2,97,60,0,1
99171,-100,4,2,99,60,0,1
99871,-100,4,2,98,60,0,1
99971,-100,4,2,93,60,0,0
100371,-100,4,2,15,60,0,0
100421,-100,4,2,88,60,0,0
100571,-100,4,2,16,60,0,0
100621,-100,4,2,88,60,0,0
100771,-100,4,2,1,60,0,1
101171,-100,4,2,97,60,0,1
101371,-100,4,2,1,60,0,1
101571,-100,4,2,81,60,0,1
101971,-100,4,2,63,60,0,1
101996,-100,4,2,1,5,0,1
102071,-100,4,2,63,60,0,1
102096,-100,4,2,1,5,0,1
102171,-100,4,2,63,60,0,1
102196,-100,4,2,1,5,0,1
102271,-100,4,2,63,60,0,1
102296,-100,4,2,1,5,0,1
102371,-100,4,2,1,60,0,1
103071,-100,4,2,97,60,0,1
103171,-100,4,2,67,60,0,1
103196,-100,4,2,88,60,0,1
103371,-100,4,2,43,60,0,1
103571,-100,4,2,67,60,0,1
103596,-100,4,2,88,60,0,1
103771,-100,4,2,1,60,0,1
103871,-100,4,2,98,60,0,1
103971,-100,4,2,74,60,0,1
104771,-100,4,2,2,60,0,0
105571,-100,4,2,1,60,0,0
106371,-100,4,2,99,60,0,1
106571,-100,4,2,96,60,0,1
106771,-100,4,2,1,60,0,1
106971,-100,4,2,86,60,0,1
107171,-100,4,2,58,60,0,1
107221,-100,4,2,88,60,0,1
107371,-100,4,2,96,60,0,1
107571,-100,4,2,1,60,0,1
107771,-100,4,2,98,60,0,1
107971,-100,4,2,96,60,0,1
108171,-100,4,2,98,60,0,1
108371,-100,4,2,1,60,0,1
108571,-100,4,2,86,60,0,1
108771,-100,4,2,1,60,0,1
108971,-100,4,2,86,60,0,1
109071,-100,4,2,98,60,0,1
109171,-100,4,2,1,60,0,1
109371,-100,4,2,2,60,0,1
109471,-100,4,2,96,60,0,1
109571,-100,4,2,1,60,0,1
109771,-100,4,2,97,60,0,1
109971,-100,4,2,1,60,0,1
110071,-100,4,2,96,60,0,1
110171,-100,4,2,98,60,0,1
110271,-100,4,2,96,60,0,1
110371,-100,4,2,1,60,0,1
110871,-100,4,2,2,60,0,1
111171,-100,4,2,1,60,0,1
111371,-100,4,2,98,60,0,1
111471,-100,4,2,96,60,0,1
111571,-100,4,2,1,60,0,1
111671,-100,4,2,98,60,0,1
111971,-100,4,2,1,60,0,1
112171,-100,4,2,98,60,0,1
112271,-100,4,2,97,60,0,1
112371,-100,4,2,16,60,0,1
112396,-100,4,2,1,5,0,1
112471,-100,4,2,15,70,0,1
112496,-100,4,2,1,5,0,1
112571,-100,4,2,15,70,0,1
112596,-100,4,2,1,5,0,1
112671,-100,4,2,15,70,0,1
112696,-100,4,2,1,5,0,1
112771,-100,4,2,1,70,0,1
112871,-100,4,2,98,70,0,1
112971,-100,4,2,97,70,0,1
113371,-100,4,2,2,70,0,1
113571,-100,4,2,1,70,0,1
113721,-100,4,2,98,70,0,1
113971,-100,4,2,1,70,0,1
114171,-100,4,2,86,70,0,1
114371,-100,4,2,1,70,0,1
114471,-100,4,2,98,70,0,1
114771,-100,4,2,67,70,0,1
114821,-100,4,2,88,70,0,1
114971,-100,4,2,98,70,0,1
115071,-100,4,2,97,70,0,1
115171,-100,4,2,1,70,0,1
115371,-100,4,2,86,70,0,1
115571,-100,4,2,1,70,0,1
115671,-100,4,2,96,70,0,1
115771,-100,4,2,2,70,0,1
115871,-100,4,2,98,70,0,1
115971,-100,4,2,1,70,0,1
116071,-100,4,2,96,70,0,1
116171,-100,4,2,86,70,0,1
116271,-100,4,2,98,70,0,1
116371,-100,4,2,1,70,0,1
116471,-100,4,2,2,70,0,1
116771,-100,4,2,1,70,0,1
116871,-100,4,2,97,70,0,1
116971,-100,4,2,96,70,0,1
117171,-100,4,2,4,60,0,1
117371,-100,4,2,98,60,0,1
117571,-100,4,2,1,60,0,0
118371,-100,4,2,11,60,0,1
118771,-100,4,2,1,60,0,0
119971,-100,4,2,11,60,0,1
131171,-100,4,2,11,60,0,0

[Colours]
Combo1 : 128,255,255
Combo2 : 136,196,255
Combo3 : 192,192,192
Combo4 : 255,185,151

[HitObjects]
268,90,1571,6,0,L|409:79,2,128,2|0|2,0:0|0:0|0:0,0:0:0:0:
122,149,2771,1,0,0:0:0:0:
278,219,3171,2,0,L|434:209,1,128,2|0,0:0|0:0,0:0:0:0:
469,273,3771,1,0,0:0:0:0:
408,348,3971,1,2,0:0:0:0:
266,362,4371,1,0,0:0:0:0:
90,282,4771,6,0,L|161:269,1,64,2|0,0:0|0:0,0:0:0:0:
238,269,5171,2,0,P|259:222|210:142,1,128,0|2,0:0|0:0,0:0:0:0:
155,138,5771,1,0,0:0:0:0:
70,147,5971,1,0,0:0:0:0:
225,74,6371,2,0,L|236:229,1,128,2|0,0:0|0:0,0:0:0:0:
397,249,7171,2,0,L|466:246,2,64,2|0|0,0:0|0:0|0:0,0:0:0:0:
101,363,7971,6,0,L|38:240,1,128,2|0,0:0|0:0,0:0:0:0:
200,169,8771,2,0,L|332:155,1,128,2|0,0:0|0:0,0:0:0:0:
488,42,9571,2,0,L|333:41,1,128,2|0,0:0|0:0,0:0:0:0:
198,119,10371,2,0,L|283:134,1,64,2|0,0:0|0:0,0:0:0:0:
414,148,10971,1,0,0:0:0:0:
241,267,11171,6,0,L|91:246,2,128,2|0|2,0:0|0:0|0:0,0:0:0:0:
328,269,12171,1,0,0:0:0:0:
144,347,12371,5,0,0:0:0:0:
256,192,12671,12,0,13971,0:0:0:0:
177,99,14371,6,0,L|17:86,2,160,8|8|8,0:0|0:3|0:0,0:0:0:0:
319,160,15471,1,8,0:0:0:0:
179,237,15771,1,8,0:0:0:0:
86,284,15971,6,0,L|261:309,1,160,8|8,0:0|0:3,0:0:0:0:
425,336,16771,2,0,L|433:194,1,120,8|8,0:0|0:0,0:0:0:0:
284,177,17371,1,8,0:0:0:0:
195,196,17571,6,0,L|179:23,1,160,8|8,0:0|0:3,0:0:0:0:
361,26,18371,2,0,L|481:63,2,120,8|8|8,0:0|0:0|0:0,0:0:0:0:
265,49,19171,6,0,L|88:81,1,160,8|8,0:0|0:3,0:0:0:0:
299,138,19971,1,8,0:0:0:0:
350,233,20271,1,8,0:0:0:0:
291,331,20571,1,8,0:0:0:0:
89,342,20771,6,0,P|45:308|42:189,1,160,8|8,3:0|3:0,0:0:0:0:
125,175,21371,1,8,3:0:0:0:
309,76,21571,2,0,P|332:152|282:238,1,160,8|8,3:0|3:0,0:0:0:0:
212,246,22171,1,8,3:0:0:0:
113,287,22371,6,0,L|287:321,1,160,8|8,3:0|3:0,0:0:0:0:
453,338,23171,1,8,3:0:0:0:
479,264,23371,1,8,3:0:0:0:
447,193,23571,1,8,3:0:0:0:
374,165,23771,1,8,3:0:0:0:
180,106,23971,6,0,L|77:89,1,80,8|8,3:0|3:0,0:0:0:0:
198,30,24371,2,0,L|287:35,1,80,8|8,3:0|3:0,0:0:0:0:
100,151,24771,2,0,L|92:237,1,80,8|8,3:0|3:0,0:0:0:0:
194,265,25171,2,0,L|291:266,1,80,8|8,3:0|3:0,0:0:0:0:
80,360,25571,5,12,0:0:0:0:
55,239,26371,2,0,L|32:151,2,80,2|2|0,0:0|0:0|0:0,0:0:0:0:
388,61,27171,6,0,L|206:92,1,160,6|2,0:0|0:0,0:0:0:0:
312,128,27771,1,2,0:0:0:0:
488,184,27971,1,14,0:3:0:0:
481,307,28271,1,2,0:0:0:0:
438,335,28371,2,0,L|348:334,1,80,10|2,0:0|0:0,0:0:0:0:
162,184,28771,6,0,L|308:154,1,120,2|2,0:0|0:0,0:0:0:0:
279,62,29371,1,2,0:0:0:0:
83,108,29571,6,0,L|87:290,1,160,10|4,0:0|0:0,0:0:0:0:
342,348,30271,1,2,0:0:0:0:
386,346,30371,6,0,P|423:271|370:207,1,160,4|2,0:0|0:0,0:0:0:0:
71,206,31171,6,0,P|34:131|87:67,1,160,6|2,0:0|0:0,0:0:0:0:
395,41,31971,6,0,L|251:60,1,120,6|2,0:0|0:0,0:0:0:0:
271,175,32571,1,2,0:0:0:0:
454,158,32771,2,0,P|475:245|355:310,1,240,10|2,0:0|0:0,0:0:0:0:
173,351,33571,6,0,P|144:304|223:231,1,160,6|2,0:0|0:0,0:0:0:0:
284,217,34171,1,2,0:0:0:0:
92,156,34371,5,14,0:0:0:0:
256,192,34671,12,12,35971,0:0:0:0:
394,327,36671,5,2,0:0:0:0:
438,322,36771,6,0,P|476:281|422:189,1,160,6|2,0:0|0:0,0:0:0:0:
212,127,37471,1,2,0:0:0:0:
169,118,37571,2,0,L|344:97,1,160,10|4,0:0|0:3,0:0:0:0:
29,47,38371,6,0,L|37:195,1,120,2|2,0:0|0:0,0:0:0:0:
290,221,38971,5,6,0:0:0:0:
486,246,39571,1,2,0:0:0:0:
164,349,39971,6,0,P|155:296|245:217,1,160,6|2,0:0|0:0,0:0:0:0:
263,215,40471,1,2,0:0:0:0:
394,95,40771,2,0,L|305:81,1,80,4|2,0:0|0:0,0:0:0:0:
132,128,41171,2,0,L|120:212,1,80,6|2,0:0|0:0,0:0:0:0:
307,266,41571,6,0,L|443:261,2,120,6|2|2,0:0|0:0|0:0,0:0:0:0:
204,334,42371,2,0,L|353:361,1,120,10|2,0:0|0:0,0:0:0:0:
448,352,42971,1,2,0:0:0:0:
262,360,43171,6,0,P|192:362|109:220,1,240,2|2,3:2|0:0,0:0:0:0:
195,184,43971,1,10,0:0:0:0:
292,166,44171,1,2,0:0:0:0:
292,166,44371,2,0,L|303:106,2,40,2|2|2,0:0|0:0|0:0,0:0:0:0:
95,188,44771,6,0,L|25:80,1,120,2|0,3:2|3:0,0:0:0:0:
177,52,45371,1,0,3:0:0:0:
263,113,45571,2,0,L|95:136,1,160,10|4,0:0|0:0,0:0:0:0:
354,288,46271,1,2,0:0:0:0:
395,289,46371,6,0,P|450:262|370:140,1,240,6|2,0:0|0:0,0:0:0:0:
292,123,47171,2,0,L|488:91,1,160,10|2,0:0|0:0,0:0:0:0:
143,27,47971,6,0,P|97:101|250:211,1,320,2|10,0:0|0:0,0:0:0:0:
41,331,49371,2,0,L|16:289,1,40,2|2,0:0|0:0,0:0:0:0:
41,262,49571,2,0,L|233:109,2,240,6|2|2,0:3|0:0|0:0,0:0:0:0:
379,331,51171,6,0,L|485:268,2,120,6|2|2,0:0|0:0|0:0,0:0:0:0:
300,342,51971,1,2,0:0:0:0:
196,346,52271,1,2,0:0:0:0:
80,342,52571,1,2,0:0:0:0:
286,275,52771,6,0,B|446:246|446:246|443:134,1,240,6|2,3:2|0:0,0:0:0:0:
443,168,53571,1,10,0:0:0:0:
138,47,53971,6,0,L|294:27,2,120,6|2|2,3:2|0:0|0:0,0:0:0:0:
43,82,54771,2,0,L|41:175,1,80,2|2,0:0|0:0,0:0:0:0:
86,180,55071,1,2,0:0:0:0:
134,188,55171,2,0,L|233:186,1,80,10|0,3:2|3:0,0:0:0:0:
223,286,55571,2,0,L|134:293,1,80,2|2,3:2|0:0,0:0:0:0:
335,356,55971,6,0,P|391:350|458:193,1,240,6|2,0:0|0:0,0:0:0:0:
461,200,56771,1,10,0:0:0:0:
150,66,57171,6,0,L|34:156,2,120,6|2|2,3:2|0:0|0:0,0:0:0:0:
242,57,57971,2,0,L|141:53,1,80,2|2,0:0|0:0,0:0:0:0:
121,55,58271,1,2,0:0:0:0:
77,58,58371,2,0,L|70:152,1,80,10|2,0:0|0:0,0:0:0:0:
159,168,58771,2,0,L|250:162,1,80,2|2,0:0|0:0,0:0:0:0:
147,256,59171,6,0,L|414:275,1,240,6|2,0:3|0:0,0:0:0:0:
386,273,59971,2,0,L|283:288,1,80,2|8,0:0|0:2,0:0:0:0:
116,357,60371,5,2,3:2:0:0:
66,294,60571,1,2,3:2:0:0:
116,357,60771,1,2,3:2:0:0:
424,168,61171,5,8,0:3:0:0:
473,105,61371,1,2,0:0:0:0:
424,168,61571,1,10,3:2:0:0:
250,51,61971,2,0,L|345:38,1,80,8|2,0:3|0:0,0:0:0:0:
135,115,62371,6,0,P|65:131|93:292,1,240,6|2,0:0|0:0,0:0:0:0:
143,309,63171,1,8,0:3:0:0:
454,260,63571,6,0,P|414:215|219:164,1,240,6|2,0:0|0:0,0:0:0:0:
158,165,64371,1,8,0:3:0:0:
470,46,64771,6,0,B|471:205|471:205|471:44|471:44|112:53,1,640,6|4,0:0|0:0,0:0:0:0:
51,339,78371,6,0,P|31:271|96:215,1,160,8|8,0:0|0:3,0:0:0:0:
277,158,79171,2,0,L|412:125,2,120,8|8|8,0:0|0:0|0:0,0:0:0:0:
175,153,79971,6,0,P|145:216|213:307,1,160,8|8,0:0|0:3,0:0:0:0:
361,349,80771,2,0,L|227:373,1,120,8|8,0:0|0:0,0:0:0:0:
116,364,81371,1,8,0:0:0:0:
304,258,81571,6,0,L|484:250,1,160,8|8,0:0|0:3,0:0:0:0:
463,156,82171,1,0,0:0:0:0:
362,125,82371,2,0,L|214:111,1,120,8|8,0:0|0:0,0:0:0:0:
240,24,82971,1,8,0:0:0:0:
434,18,83171,6,0,P|474:60|405:151,1,160,8|8,0:0|0:3,0:0:0:0:
350,171,83771,1,0,0:0:0:0:
255,208,83971,2,0,L|126:188,2,120,8|8|8,0:0|0:0|0:0,0:0:0:0:
61,309,84771,6,0,P|35:264|111:186,1,160,8|8,3:0|3:0,0:0:0:0:
186,169,85371,1,8,3:0:0:0:
283,158,85571,2,0,L|406:91,2,120,8|0|8,3:0|3:0|3:0,0:0:0:0:
463,45,86371,5,8,3:0:0:0:
484,119,86571,1,8,3:0:0:0:
444,186,86771,1,8,3:0:0:0:
368,203,86971,1,8,3:0:0:0:
280,212,87171,2,0,L|157:233,2,120,8|0|8,3:0|3:0|3:0,0:0:0:0:
103,340,87971,6,0,L|21:337,1,80,8|8,3:0|3:0,0:0:0:0:
217,265,88371,1,8,3:0:0:0:
256,192,88671,12,0,91171,0:0:0:0:
258,212,91571,5,6,0:0:0:0:
62,241,91971,1,2,0:0:0:0:
159,228,92271,1,4,0:0:0:0:
62,241,92571,1,2,0:0:0:0:
265,87,92771,6,0,P|338:105|243:178,1,240,6|2,0:0|0:0,0:0:0:0:
165,228,93571,2,0,L|425:260,1,240,10|2,0:0|0:0,0:0:0:0:
217,357,94371,6,0,L|81:351,2,120,2|2|2,0:0|0:0|0:0,0:0:0:0:
315,311,95171,2,0,L|123:267,1,160,10|0,0:0|0:0,0:0:0:0:
413,245,95871,1,2,0:0:0:0:
457,255,95971,6,0,P|490:200|381:80,1,240,6|2,0:0|0:0,0:0:0:0:
299,78,96771,2,0,L|248:76,1,40,14|2,0:3|0:0,0:0:0:0:
309,71,96971,2,0,L|413:57,2,80,2|2|2,0:0|0:0|0:0,0:0:0:0:
120,160,97571,6,0,L|253:203,1,120,2|2,0:0|0:0,0:0:0:0:
357,206,98171,1,2,3:2:0:0:
170,322,98371,6,0,L|16:260,1,160,14|2,3:2|0:0,0:0:0:0:
74,210,98904,1,2,0:0:0:0:
138,196,99037,1,2,0:0:0:0:
288,237,99171,6,0,P|348:233|404:73,1,240,6|2,0:0|0:0,0:0:0:0:
212,38,99971,2,0,L|207:229,1,160,14|2,3:2|0:0,0:0:0:0:
300,223,100571,1,2,3:2:0:0:
481,335,100771,6,0,L|349:306,2,120,2|2|2,0:0|0:0|0:0,0:0:0:0:
284,223,101571,6,0,L|87:209,1,160,12|2,3:2|0:0,0:0:0:0:
398,177,102271,1,0,3:2:0:0:
441,173,102371,6,0,P|477:231|352:333,1,240,6|2,0:0|0:0,0:0:0:0:
180,313,103171,6,0,L|161:268,2,40,10|0|2,3:2|0:0|0:0,0:0:0:0:
284,235,103571,2,0,L|303:190,2,40,2|0|2,0:0|0:0|0:0,0:0:0:0:
83,175,103971,5,6,0:0:0:0:
256,192,104371,12,0,105971,0:0:0:0:
432,310,106371,6,0,P|461:231|385:192,1,160,6|10,0:0|0:0,0:0:0:0:
324,178,106971,1,2,0:0:0:0:
130,71,107171,2,0,L|301:67,1,160,2|8,3:2|0:0,0:0:0:0:
289,67,107771,1,8,0:0:0:0:
92,211,107971,5,2,3:2:0:0:
91,327,108371,1,10,0:0:0:0:
267,360,108771,2,0,L|101:350,1,160,2|10,0:0|0:0,0:0:0:0:
25,316,109371,1,2,0:0:0:0:
220,280,109571,2,0,P|277:272|298:162,1,160,2|10,0:0|0:0,0:0:0:0:
249,162,110171,1,2,0:0:0:0:
52,217,110371,6,0,P|28:157|106:84,1,160,2|10,0:0|0:0,0:0:0:0:
121,78,110871,1,2,0:0:0:0:
160,75,110971,1,2,0:0:0:0:
259,45,111171,2,0,L|127:65,2,120,2|2|10,0:0|0:0|0:0,0:0:0:0:
456,79,111971,5,2,0:0:0:0:
456,79,112371,1,10,3:2:0:0:
143,282,112771,2,0,L|311:307,1,160,2|10,0:0|0:0,0:0:0:0:
390,315,113371,1,2,0:0:0:0:
189,358,113571,6,0,L|29:340,1,160,2|10,0:0|0:0,0:0:0:0:
20,235,114371,1,2,0:0:0:0:
94,200,114571,1,10,0:0:0:0:
176,199,114771,1,10,3:2:0:0:
483,52,115171,6,0,L|291:39,1,160,2|10,0:0|0:0,0:0:0:0:
236,73,115771,1,2,0:0:0:0:
331,132,115971,2,0,L|436:133,1,80,2|2,0:0|0:0,0:0:0:0:
326,236,116371,2,0,L|241:241,1,80,10|2,0:0|0:0,0:0:0:0:
59,328,116771,2,0,L|53:160,1,160,2|14,0:0|0:0,0:0:0:0:
382,92,117571,6,0,L|274:99,1,80,6|6,0:0|0:0,0:0:0:0:
202,95,117971,2,0,L|177:48,2,40,6|2|6,0:0|0:0|0:0,0:0:0:0:
403,102,118371,6,0,P|455:128|453:233,1,160,10|6,0:3|0:0,0:0:0:0:
375,250,118971,1,2,0:0:0:0:
190,343,119171,2,0,L|274:349,1,80,2|2,0:0|0:0,0:0:0:0:
370,333,119571,2,0,L|391:295,2,40,10|10|10,0:0|0:0|0:0,0:0:0:0:
166,348,119971,6,0,L|10:280,1,160,12|10,0:3|3:3,0:0:0:0:
203,211,120771,2,0,L|341:194,2,120,10|10|10,0:3|0:3|0:3,0:0:0:0:
397,275,121571,6,0,L|403:92,1,160,10|10,0:3|3:3,0:0:0:0:
318,95,122171,1,0,0:0:0:0:
221,80,122371,2,0,L|405:44,1,160,10|10,0:3|3:3,0:0:0:0:
72,36,123171,6,0,L|59:220,1,160,10|10,0:3|3:3,0:0:0:0:
257,210,123971,2,0,L|267:382,1,160,10|10,0:3|3:3,0:0:0:0:
174,380,124571,1,10,3:3:0:0:
368,278,124771,2,0,L|505:166,1,160,10|10,0:3|3:3,0:0:0:0:
180,275,125571,6,0,L|177:95,1,160,10|10,0:3|3:3,0:0:0:0:
364,58,126371,2,0,L|202:52,1,160,10|10,0:3|3:3,0:0:0:0:
17,286,127171,2,0,L|191:267,1,160,10|10,0:3|3:3,0:0:0:0:
484,345,127971,6,0,P|491:284|394:204,1,160,10|10,0:3|3:3,0:0:0:0:
249,189,128771,1,10,0:3:0:0:
435,126,129171,2,0,L|321:99,1,80,10|8,3:3|0:3,0:0:0:0:
159,55,129571,5,10,3:3:0:0:
125,124,129771,1,8,3:3:0:0:
159,193,129971,1,10,3:3:0:0:
234,209,130171,1,8,3:3:0:0:
324,217,130371,5,10,3:3:0:0:
234,209,130571,1,8,3:3:0:0:
47,252,130771,2,0,L|25:205,2,40,2|0|0,3:0|3:0|3:0,0:0:0:0:
245,311,131171,5,12,3:3:0:0:
