osu file format v14

[General]
AudioFilename: audio.mp3
AudioLeadIn: 0
PreviewTime: 91080
Countdown: 0
SampleSet: Soft
StackLeniency: 0.7
Mode: 2
LetterboxInBreaks: 0
WidescreenStoryboard: 1

[Editor]
Bookmarks: 27180,39980,52780,65580,78380,91180,106380,118380,131180
DistanceSpacing: 0.8
BeatDivisor: 4
GridSize: 32
TimelineZoom: 2.9

[Metadata]
Title:Me & U
TitleUnicode:Me & U
Artist:siqlo
ArtistUnicode:siqlo
Creator:Jemzuu
Version:Rain
Source:
Tags:ajamez rocma _asriel and bofu BOFXV19 bms ブルーガーデン・サイクロン emotional dubstep electronic instrumental english future bass drum hardcore core trap melody
BeatmapID:2554078
BeatmapSetID:1225300

[Difficulty]
HPDrainRate:6
CircleSize:3.8
OverallDifficulty:9
ApproachRate:9
SliderMultiplier:2.1
SliderTickRate:2

[Events]
//Background and Video events
0,0,"83128832_p0.jpg",0,0
//Break Periods
//Storyboard Layer 0 (Background)
//Storyboard Layer 1 (Fail)
//Storyboard Layer 2 (Pass)
//Storyboard Layer 3 (Foreground)
//Storyboard Layer 4 (Overlay)
//Storyboard Sound Samples

[TimingPoints]
1571,400,4,2,2,60,1,0
12371,-100,4,2,88,60,0,0
14371,-100,4,2,1,60,0,0
20771,-100,4,2,2,60,0,0
21571,-100,4,2,2,60,0,0
25571,-100,4,2,3,60,0,0
26371,-100,4,2,98,60,0,0
26571,-100,4,2,97,60,0,0
26671,-100,4,2,96,60,0,0
26721,-100,4,2,98,60,0,0
26971,-100,4,2,96,60,0,0
27171,-100,4,2,99,60,0,0
27271,-100,4,2,98,60,0,0
27771,-100,4,2,1,60,0,0
27971,-100,4,2,75,60,0,0
28271,-100,4,2,1,60,0,0
28971,-100,4,2,86,60,0,0
29071,-100,4,2,1,60,0,0
29771,-100,4,2,97,60,0,0
29971,-100,4,2,4,60,0,0
30171,-100,4,2,98,60,0,0
30271,-100,4,2,1,60,0,0
30371,-83.3333333333333,4,2,1,60,0,0
30571,-83.3333333333333,4,2,87,60,0,0
30771,-100,4,2,97,60,0,0
31071,-100,4,2,98,60,0,0
31171,-71.4285714285714,4,2,1,60,0,0
31371,-71.4285714285714,4,2,86,60,0,0
31571,-100,4,2,98,60,0,0
31871,-100,4,2,96,60,0,0
31971,-100,4,2,65,60,0,0
32771,-100,4,2,1,60,0,0
32971,-100,4,2,1,60,0,0
33171,-100,4,2,52,60,0,0
33371,-100,4,2,98,60,0,0
33471,-100,4,2,1,60,0,0
33571,-100,4,2,99,60,0,0
33971,-100,4,2,15,60,0,0
34021,-100,4,2,1,60,0,0
34171,-100,4,2,16,60,0,0
34221,-100,4,2,1,60,0,0
34371,-100,4,2,74,60,0,0
34621,-100,4,2,85,60,0,0
35771,-100,4,2,1,60,0,0
36171,-100,4,2,86,60,0,0
36671,-100,4,2,1,60,0,0
36771,-100,4,2,1,60,0,0
37171,-100,4,2,97,60,0,0
37271,-100,4,2,98,60,0,0
37471,-100,4,2,1,60,0,0
37771,-100,4,2,96,60,0,0
37971,-66.6666666666667,4,2,63,60,0,0
38371,-100,4,2,1,60,0,0
38471,-100,4,2,98,60,0,0
38571,-100,4,2,86,60,0,0
38671,-100,4,2,1,60,0,0
38771,-100,4,2,98,60,0,0
38971,-100,4,2,45,60,0,0
39571,-100,4,2,7,60,0,0
39971,-100,4,2,99,60,0,0
40371,-100,4,2,98,60,0,0
40471,-100,4,2,97,60,0,0
40571,-100,4,2,98,60,0,0
40671,-100,4,2,96,60,0,0
40771,-83.3333333333333,4,2,4,60,0,0
40971,-83.3333333333333,4,2,96,60,0,0
41171,-83.3333333333333,4,2,1,60,0,0
41571,-100,4,2,99,60,0,0
42371,-100,4,2,1,60,0,0
43171,-100,4,2,43,60,0,0
43771,-100,4,2,2,60,0,0
43871,-100,4,2,1,60,0,0
44371,-100,4,2,63,60,0,0
44396,-100,4,2,1,5,0,0
44471,-100,4,2,63,60,0,0
44496,-100,4,2,1,5,0,0
44571,-100,4,2,63,60,0,0
44596,-100,4,2,1,5,0,0
44771,-100,4,2,62,60,0,0
45571,-100,4,2,1,60,0,0
45671,-100,4,2,98,60,0,0
45871,-100,4,2,97,60,0,0
45971,-100,4,2,3,60,0,0
46071,-100,4,2,98,60,0,0
46171,-100,4,2,97,60,0,0
46271,-100,4,2,1,60,0,0
46971,-100,4,2,2,60,0,0
47171,-100,4,2,1,60,0,0
47271,-100,4,2,86,60,0,0
47671,-100,4,2,97,60,0,0
47771,-100,4,2,98,60,0,0
47971,-76.9230769230769,4,2,1,60,0,0
48771,-76.9230769230769,4,2,53,60,0,0
48971,-76.9230769230769,4,2,86,60,0,0
49371,-76.9230769230769,4,2,98,60,0,0
49571,-100,4,2,3,60,0,0
50171,-100,4,2,85,60,0,0
50371,-100,4,2,1,60,0,0
50771,-100,4,2,85,60,0,0
50971,-100,4,2,1,60,0,0
51171,-100,4,2,1,60,0,0
51471,-100,4,2,2,60,0,0
51771,-100,4,2,86,60,0,0
51971,-100,4,2,2,60,0,0
52771,-74.0740740740741,4,2,69,60,0,0
53371,-100,4,2,1,60,0,0
53471,-100,4,2,2,60,0,0
53571,-100,4,2,67,60,0,0
53971,-100,4,2,68,60,0,0
54021,-100,4,2,88,60,0,0
54971,-100,4,2,1,60,0,0
55171,-100,4,2,32,60,0,0
55571,-100,4,2,82,60,0,0
55621,-100,4,2,88,60,0,0
55771,-100,4,2,1,60,0,0
55971,-74.0740740740741,4,2,99,60,0,0
56071,-74.0740740740741,4,2,98,60,0,0
56171,-74.0740740740741,4,2,75,60,0,0
56571,-74.0740740740741,4,2,15,60,0,0
56621,-74.0740740740741,4,2,1,60,0,0
56771,-74.0740740740741,4,2,16,60,0,0
56821,-74.0740740740741,4,2,1,60,0,0
56971,-100,4,2,63,60,0,0
57171,-100,4,2,71,60,0,0
57221,-100,4,2,88,60,0,0
58171,-100,4,2,1,60,0,0
58621,-100,4,2,97,60,0,0
58771,-100,4,2,96,60,0,0
58971,-74.0740740740741,4,2,1,60,0,0
59171,-74.0740740740741,4,2,75,60,0,0
59771,-74.0740740740741,4,2,86,60,0,0
59971,-83.3333333333333,4,2,96,60,0,0
60171,-83.3333333333333,4,2,98,60,0,0
60371,-83.3333333333333,4,2,58,60,0,0
60396,-100,4,2,1,60,0,0
60571,-100,4,2,59,60,0,0
60771,-100,4,2,60,60,0,0
61171,-100,4,2,11,60,0,0
61371,-100,4,2,97,60,0,0
61571,-100,4,2,60,60,0,0
61771,-100,4,2,98,60,0,0
61796,-100,4,2,1,60,0,0
61971,-100,4,2,11,60,0,0
62171,-100,4,2,96,60,0,0
62371,-76.9230769230769,4,2,1,60,0,0
62571,-76.9230769230769,4,2,85,60,0,0
63171,-100,4,2,11,60,0,0
63571,-80,4,2,1,60,0,0
63771,-80,4,2,86,60,0,0
64371,-100,4,2,11,60,0,0
64771,-30.3030303030303,4,2,1,60,0,0
64971,-30.3030303030303,4,2,87,60,0,0
65571,-30.3030303030303,4,2,99,60,0,0
66171,-100,4,2,99,60,0,0
66371,-100,4,2,0,60,0,0
76871,-100,4,2,1,40,0,0
77371,-100,4,2,1,20,0,0
77771,-100,4,2,1,10,0,0
78171,-100,4,2,1,5,0,0
78371,-100,4,2,1,50,0,0
84771,-100,4,2,2,60,0,0
89571,-100,4,2,7,60,0,0
89671,-100,4,2,2,40,0,0
89971,-100,4,2,2,30,0,0
90371,-100,4,2,2,20,0,0
90771,-100,4,2,2,10,0,0
91171,-100,4,2,2,5,0,0
91521,-100,4,2,1,60,0,0
92771,-83.3333333333333,4,2,99,60,0,1
93371,-83.3333333333333,4,2,1,60,0,1
93471,-83.3333333333333,4,2,98,60,0,1
93571,-83.3333333333333,4,2,1,60,0,1
93721,-83.3333333333333,4,2,80,60,0,1
93746,-83.3333333333333,4,2,88,60,0,1
94171,-83.3333333333333,4,2,1,60,0,1
94271,-83.3333333333333,4,2,98,60,0,1
94371,-83.3333333333333,4,2,1,60,0,1
94771,-83.3333333333333,4,2,86,60,0,1
94971,-83.3333333333333,4,2,1,60,0,1
95071,-83.3333333333333,4,2,97,60,0,1
95171,-83.3333333333333,4,2,67,60,0,1
95571,-83.3333333333333,4,2,86,60,0,1
95771,-83.3333333333333,4,2,98,60,0,1
95871,-83.3333333333333,4,2,1,60,0,1
95971,-83.3333333333333,4,2,1,60,0,1
96171,-83.3333333333333,4,2,87,60,0,1
96571,-83.3333333333333,4,2,1,60,0,1
96671,-83.3333333333333,4,2,98,60,0,1
96771,-83.3333333333333,4,2,75,60,0,1
96796,-83.3333333333333,4,2,1,5,0,1
96871,-83.3333333333333,4,2,98,60,0,1
96896,-83.3333333333333,4,2,1,5,0,1
96971,-83.3333333333333,4,2,96,60,0,1
96996,-83.3333333333333,4,2,1,5,0,1
97071,-83.3333333333333,4,2,97,60,0,1
97096,-83.3333333333333,4,2,1,5,0,1
97171,-83.3333333333333,4,2,98,60,0,1
97196,-83.3333333333333,4,2,1,5,0,1
97371,-83.3333333333333,4,2,1,60,0,1
97771,-83.3333333333333,4,2,2,60,0,1
97871,-83.3333333333333,4,2,1,60,0,1
97971,-83.3333333333333,4,2,97,60,0,1
98171,-83.3333333333333,4,2,96,60,0,1
98271,-83.3333333333333,4,2,98,60,0,1
98396,-83.3333333333333,4,2,1,5,0,1
98471,-83.3333333333333,4,2,96,60,0,1
98496,-83.3333333333333,4,2,1,5,0,1
98571,-83.3333333333333,4,2,97,60,0,1
98596,-83.3333333333333,4,2,1,5,0,1
98671,-83.3333333333333,4,2,96,60,0,1
98696,-83.3333333333333,4,2,1,5,0,1
98771,-83.3333333333333,4,2,98,60,0,1
98904,-83.3333333333333,4,2,97,60,0,1
99171,-83.3333333333333,4,2,99,60,0,1
99871,-83.3333333333333,4,2,98,60,0,1
99971,-83.3333333333333,4,2,93,60,0,0
100371,-83.3333333333333,4,2,15,60,0,0
100421,-83.3333333333333,4,2,88,60,0,0
100571,-83.3333333333333,4,2,16,60,0,0
100621,-83.3333333333333,4,2,88,60,0,0
100771,-83.3333333333333,4,2,1,60,0,1
101171,-83.3333333333333,4,2,97,60,0,1
101371,-83.3333333333333,4,2,1,60,0,1
101571,-83.3333333333333,4,2,81,60,0,1
101971,-83.3333333333333,4,2,63,60,0,1
101996,-83.3333333333333,4,2,1,5,0,1
102071,-83.3333333333333,4,2,63,60,0,1
102096,-83.3333333333333,4,2,1,5,0,1
102171,-83.3333333333333,4,2,63,60,0,1
102196,-83.3333333333333,4,2,1,5,0,1
102271,-83.3333333333333,4,2,63,60,0,1
102296,-83.3333333333333,4,2,1,5,0,1
102371,-83.3333333333333,4,2,1,60,0,1
103071,-83.3333333333333,4,2,97,60,0,1
103171,-83.3333333333333,4,2,67,60,0,1
103196,-83.3333333333333,4,2,88,60,0,1
103371,-83.3333333333333,4,2,43,60,0,1
103571,-83.3333333333333,4,2,67,60,0,1
103596,-83.3333333333333,4,2,88,60,0,1
103771,-83.3333333333333,4,2,1,60,0,1
103871,-83.3333333333333,4,2,98,60,0,1
103971,-83.3333333333333,4,2,74,60,0,1
104771,-83.3333333333333,4,2,2,60,0,0
105571,-83.3333333333333,4,2,1,60,0,0
106371,-83.3333333333333,4,2,99,60,0,1
106571,-83.3333333333333,4,2,96,60,0,1
106771,-83.3333333333333,4,2,1,60,0,1
106971,-83.3333333333333,4,2,86,60,0,1
107171,-83.3333333333333,4,2,58,60,0,1
107221,-83.3333333333333,4,2,88,60,0,1
107371,-83.3333333333333,4,2,96,60,0,1
107571,-83.3333333333333,4,2,1,60,0,1
107771,-83.3333333333333,4,2,98,60,0,1
107971,-83.3333333333333,4,2,96,60,0,1
108171,-83.3333333333333,4,2,98,60,0,1
108371,-83.3333333333333,4,2,1,60,0,1
108571,-83.3333333333333,4,2,86,60,0,1
108771,-83.3333333333333,4,2,1,60,0,1
108971,-83.3333333333333,4,2,86,60,0,1
109071,-83.3333333333333,4,2,98,60,0,1
109171,-83.3333333333333,4,2,1,60,0,1
109371,-83.3333333333333,4,2,2,60,0,1
109471,-83.3333333333333,4,2,96,60,0,1
109571,-83.3333333333333,4,2,1,60,0,1
109771,-83.3333333333333,4,2,97,60,0,1
109971,-83.3333333333333,4,2,1,60,0,1
110071,-83.3333333333333,4,2,96,60,0,1
110171,-83.3333333333333,4,2,98,60,0,1
110271,-83.3333333333333,4,2,96,60,0,1
110371,-83.3333333333333,4,2,1,60,0,1
110871,-83.3333333333333,4,2,2,60,0,1
111171,-83.3333333333333,4,2,1,60,0,1
111371,-83.3333333333333,4,2,98,60,0,1
111471,-83.3333333333333,4,2,96,60,0,1
111571,-83.3333333333333,4,2,1,60,0,1
111671,-83.3333333333333,4,2,98,60,0,1
111971,-83.3333333333333,4,2,1,60,0,1
112171,-83.3333333333333,4,2,98,60,0,1
112271,-83.3333333333333,4,2,97,60,0,1
112371,-83.3333333333333,4,2,16,60,0,1
112396,-83.3333333333333,4,2,1,5,0,1
112471,-83.3333333333333,4,2,15,70,0,1
112496,-83.3333333333333,4,2,1,5,0,1
112571,-83.3333333333333,4,2,15,70,0,1
112596,-83.3333333333333,4,2,1,5,0,1
112671,-83.3333333333333,4,2,15,70,0,1
112696,-83.3333333333333,4,2,1,5,0,1
112771,-83.3333333333333,4,2,1,70,0,1
112871,-83.3333333333333,4,2,98,70,0,1
112971,-83.3333333333333,4,2,97,70,0,1
113371,-83.3333333333333,4,2,2,70,0,1
113571,-83.3333333333333,4,2,1,70,0,1
113721,-83.3333333333333,4,2,98,70,0,1
113971,-83.3333333333333,4,2,1,70,0,1
114171,-83.3333333333333,4,2,86,70,0,1
114371,-83.3333333333333,4,2,1,70,0,1
114471,-83.3333333333333,4,2,98,70,0,1
114771,-83.3333333333333,4,2,67,70,0,1
114821,-83.3333333333333,4,2,88,70,0,1
114971,-83.3333333333333,4,2,98,70,0,1
115071,-83.3333333333333,4,2,97,70,0,1
115171,-83.3333333333333,4,2,1,70,0,1
115371,-83.3333333333333,4,2,86,70,0,1
115571,-83.3333333333333,4,2,1,70,0,1
115671,-83.3333333333333,4,2,96,70,0,1
115771,-83.3333333333333,4,2,2,70,0,1
115871,-83.3333333333333,4,2,98,70,0,1
115971,-83.3333333333333,4,2,1,70,0,1
116071,-83.3333333333333,4,2,96,70,0,1
116171,-83.3333333333333,4,2,86,70,0,1
116271,-83.3333333333333,4,2,98,70,0,1
116371,-83.3333333333333,4,2,1,70,0,1
116471,-83.3333333333333,4,2,2,70,0,1
116771,-83.3333333333333,4,2,1,70,0,1
116871,-83.3333333333333,4,2,97,70,0,1
116971,-83.3333333333333,4,2,96,70,0,1
117171,-83.3333333333333,4,2,4,60,0,1
117371,-83.3333333333333,4,2,98,60,0,1
117571,-83.3333333333333,4,2,1,60,0,0
118371,-83.3333333333333,4,2,11,60,0,1
118771,-76.9230769230769,4,2,1,60,0,0
119571,-83.3333333333333,4,2,1,60,0,0
119971,-83.3333333333333,4,2,11,60,0,1
131171,-100,4,2,11,60,0,0

[Colours]
Combo1 : 128,255,255
Combo2 : 136,196,255
Combo3 : 192,192,192
Combo4 : 255,185,151

[HitObjects]
418,342,1571,5,2,0:0:0:0:
481,263,1771,1,0,0:0:0:0:
447,168,1971,1,0,0:0:0:0:
349,146,2171,1,0,0:0:0:0:
175,174,2371,2,0,L|165:46,1,105,2|0,0:0|0:0,0:0:0:0:
349,146,2771,2,0,L|365:286,1,105,0|0,0:0|0:0,0:0:0:0:
177,289,3171,6,0,L|46:297,1,105,2|0,0:0|0:0,0:0:0:0:
244,361,3571,2,0,L|255:242,1,105,0|0,0:0|0:0,0:0:0:0:
85,211,3971,2,0,L|74:87,1,105,2|0,0:0|0:0,0:0:0:0:
234,58,4371,2,0,L|358:55,1,105,0|0,0:0|0:0,0:0:0:0:
167,136,4771,6,0,L|301:144,1,105,2|0,0:0|0:0,0:0:0:0:
440,102,5171,1,0,0:0:0:0:
445,205,5371,1,0,0:0:0:0:
450,300,5571,1,2,0:0:0:0:
280,338,5771,1,0,0:0:0:0:
461,352,5971,6,0,L|466:204,1,105,0|0,0:0|0:0,0:0:0:0:
312,216,6371,2,0,L|301:78,1,105,2|0,0:0|0:0,0:0:0:0:
145,129,6771,2,0,L|129:7,1,105,0|0,0:0|0:0,0:0:0:0:
311,20,7171,2,0,L|169:35,1,105,2|0,0:0|0:0,0:0:0:0:
134,65,7471,1,0,0:0:0:0:
210,116,7571,2,0,L|326:123,1,105,0|0,0:0|0:0,0:0:0:0:
127,169,7971,5,2,0:0:0:0:
96,265,8171,1,0,0:0:0:0:
161,341,8371,1,0,0:0:0:0:
267,344,8571,1,0,0:0:0:0:
88,372,8771,2,0,L|65:244,1,105,2|0,0:0|0:0,0:0:0:0:
227,227,9171,2,0,L|237:118,1,105,0|0,0:0|0:0,0:0:0:0:
411,41,9571,6,0,L|284:37,1,105,2|0,0:0|0:0,0:0:0:0:
478,108,9971,2,0,L|483:228,1,105,0|0,0:0|0:0,0:0:0:0:
327,237,10371,2,0,L|173:259,1,105,2|0,0:0|0:0,0:0:0:0:
395,321,10771,2,0,L|267:340,1,105,0|0,0:0|0:0,0:0:0:0:
104,77,11171,5,2,0:0:0:0:
200,108,11371,1,0,0:0:0:0:
238,202,11571,1,0,0:0:0:0:
189,291,11771,1,0,0:0:0:0:
89,311,11971,1,2,0:0:0:0:
252,343,12171,1,0,0:0:0:0:
72,364,12371,5,0,0:0:0:0:
48,351,12421,1,0,0:0:0:0:
31,332,12471,1,0,0:0:0:0:
23,307,12521,1,0,0:0:0:0:
24,281,12571,1,0,0:0:0:0:
35,257,12621,1,0,0:0:0:0:
54,239,12671,1,0,0:0:0:0:
78,229,12721,1,0,0:0:0:0:
108,223,12771,6,0,L|151:221,7,26.25,0|0|0|0|0|0|0|0,0:0|0:0|0:0|0:0|0:0|0:0|0:0|0:0,0:0:0:0:
182,197,13171,6,0,L|227:190,7,26.25,0|0|0|0|0|0|0|0,0:0|0:0|0:0|0:0|0:0|0:0|0:0|0:0,0:0:0:0:
253,186,13571,5,0,0:0:0:0:
296,158,13671,1,0,0:0:0:0:
308,108,13771,1,0,0:0:0:0:
283,63,13871,1,0,0:0:0:0:
235,47,13971,1,0,0:0:0:0:
89,45,14171,1,0,0:0:0:0:
371,52,14371,6,0,P|392:117|261:183,1,210,8|8,0:0|0:3,0:0:0:0:
430,205,14971,1,0,0:0:0:0:
253,349,15171,2,0,P|225:276|309:208,1,157.5,8|8,0:0|0:0,0:0:0:0:
332,203,15571,1,8,0:3:0:0:
179,147,15771,1,8,0:0:0:0:
346,70,15971,6,0,L|208:60,1,105,8|0,0:0|0:0,0:0:0:0:
76,85,16371,2,0,L|68:211,1,105,8|0,0:3|0:0,0:0:0:0:
250,227,16771,2,0,L|117:248,1,105,8|0,0:0|0:0,0:0:0:0:
201,274,17071,1,8,0:0:0:0:
265,284,17171,1,8,0:3:0:0:
105,346,17371,1,8,0:0:0:0:
273,371,17571,6,0,L|280:249,1,105,8|0,0:0|0:0,0:0:0:0:
441,238,17971,2,0,L|449:105,1,105,8|0,0:3|0:0,0:0:0:0:
279,66,18371,2,0,P|257:134|332:191,1,157.5,8|8,0:0|0:0,0:0:0:0:
374,191,18771,1,8,0:3:0:0:
234,253,18971,1,8,0:0:0:0:
397,344,19171,6,0,L|288:363,1,105,8|0,0:0|0:0,0:0:0:0:
126,133,19571,2,0,L|246:147,1,105,8|0,0:3|0:0,0:0:0:0:
399,126,19971,2,0,L|375:9,1,105,8|0,0:0|0:0,0:0:0:0:
323,9,20271,1,8,0:0:0:0:
262,13,20371,1,8,0:3:0:0:
431,91,20571,1,8,0:0:0:0:
160,122,20771,5,8,3:0:0:0:
111,136,20871,1,0,3:0:0:0:
96,184,20971,1,8,3:0:0:0:
128,224,21071,1,0,3:0:0:0:
183,231,21171,2,0,L|248:219,1,52.5,8|0,3:0|3:0,0:0:0:0:
177,270,21371,2,0,L|113:272,1,52.5,8|0,3:0|3:0,0:0:0:0:
335,358,21571,5,8,3:0:0:0:
381,338,21671,1,0,3:0:0:0:
397,289,21771,1,8,3:0:0:0:
370,246,21871,1,0,3:0:0:0:
307,243,21971,2,0,L|399:219,1,52.5,8|0,3:0|3:0,0:0:0:0:
427,171,22171,2,0,L|347:165,1,52.5,8|0,3:0|3:0,0:0:0:0:
293,170,22371,6,0,L|268:78,3,52.5,8|0|8|0,3:0|3:0|3:0|3:0,0:0:0:0:
192,118,22771,2,0,L|145:64,3,52.5,8|0|8|0,3:0|3:0|3:0|3:0,0:0:0:0:
63,54,23171,2,0,L|142:33,1,52.5,8|0,3:0|3:0,0:0:0:0:
207,24,23371,2,0,L|275:28,1,52.5,8|0,3:0|3:0,0:0:0:0:
56,147,23571,1,8,3:0:0:0:
29,189,23671,1,0,3:0:0:0:
51,234,23771,1,8,3:0:0:0:
101,240,23871,1,0,3:0:0:0:
312,322,23971,6,0,L|197:335,1,105,8|8,3:0|3:0,0:0:0:0:
180,310,24221,1,8,3:0:0:0:
207,333,24271,1,8,3:0:0:0:
309,223,24371,6,0,L|194:236,1,105,8|8,3:0|3:0,0:0:0:0:
177,211,24621,1,8,3:0:0:0:
204,234,24671,1,8,3:0:0:0:
373,118,24771,6,0,L|258:131,1,105,8|8,3:0|3:0,0:0:0:0:
241,106,25021,1,8,3:0:0:0:
268,129,25071,1,8,3:0:0:0:
453,19,25171,6,0,L|338:32,1,105,8|8,3:0|3:0,0:0:0:0:
312,31,25421,1,8,3:0:0:0:
270,37,25471,1,8,3:0:0:0:
493,231,25571,5,12,0:0:0:0:
483,151,26371,6,0,L|486:217,3,52.5,2|2|2|2,0:0|0:0|0:0|0:0,0:0:0:0:
321,80,26871,2,0,L|393:64,1,52.5,8|2,0:0|0:0,0:0:0:0:
66,197,27171,5,6,0:0:0:0:
142,184,27271,1,2,0:0:0:0:
218,187,27371,1,2,0:0:0:0:
243,224,27437,1,2,0:0:0:0:
227,250,27504,1,2,0:0:0:0:
196,261,27571,1,2,0:0:0:0:
45,302,27771,1,2,0:0:0:0:
341,338,27971,6,0,P|366:273|288:229,1,157.5,14|2,0:3|0:0,0:0:0:0:
241,220,28371,1,10,0:0:0:0:
396,156,28571,1,2,0:0:0:0:
95,67,28771,6,0,L|226:50,1,105,2|2,0:0|0:0,0:0:0:0:
317,149,29071,2,0,L|179:134,1,105,2|0,0:0|0:0,0:0:0:0:
95,190,29371,2,0,L|165:197,1,52.5,2|0,0:0|0:0,0:0:0:0:
356,236,29571,2,0,L|360:306,3,52.5,10|0|2|2,0:0|0:0|0:0|0:0,0:0:0:0:
264,331,29971,2,0,L|380:347,1,105,4|2,0:0|0:0,0:0:0:0:
438,341,30271,1,2,0:0:0:0:
173,321,30371,6,0,B|182:196|182:196|333:184,1,251.999992309571,4|2,0:0|0:0,0:0:0:0:
308,185,30871,1,2,0:0:0:0:
308,185,31071,1,2,0:0:0:0:
87,239,31171,6,0,B|122:96|122:96|271:86,1,293.999991027832,6|2,0:0|0:0,0:0:0:0:
268,86,31671,1,2,0:0:0:0:
268,86,31871,1,2,0:0:0:0:
32,51,31971,6,0,L|50:177,1,105,6|0,0:0|0:0,0:0:0:0:
147,182,32271,2,0,L|280:190,1,105,2|0,0:0|0:0,0:0:0:0:
154,272,32571,2,0,L|232:278,1,52.5,2|0,0:0|0:0,0:0:0:0:
415,332,32771,6,0,P|436:270|261:147,1,315,10|2,0:0|0:0,0:0:0:0:
205,139,33471,1,2,0:0:0:0:
446,46,33571,6,0,P|476:113|372:207,1,210,6|2,0:0|0:0,0:0:0:0:
370,212,34021,1,0,0:0:0:0:
220,305,34171,2,0,L|179:313,1,26.25,2|0,0:0|0:0,0:0:0:0:
473,26,34371,6,0,P|303:43|495:358,1,735,14|2,0:0|0:0,0:0:0:0:
420,349,35871,1,2,0:0:0:0:
199,320,35971,6,0,L|152:316,2,26.25,12|0|0,0:0|0:0|0:0,0:0:0:0:
290,315,36171,2,0,P|366:290|346:124,1,262.5,2|2,0:0|0:0,0:0:0:0:
150,82,36771,6,0,B|46:67|46:67|175:57,1,210,6|2,0:0|0:0,0:0:0:0:
210,42,37271,1,2,0:0:0:0:
276,26,37371,2,0,L|190:24,1,52.5,0|2,0:0|0:0,0:0:0:0:
33,71,37571,6,0,L|32:179,1,105,10|2,0:0|0:0,0:0:0:0:
32,175,37871,1,2,0:0:0:0:
32,175,37971,2,0,L|286:195,1,236.250009012223,4|0,0:3|0:0,0:0:0:0:
52,357,38371,6,0,L|44:236,1,105,2|2,0:0|0:0,0:0:0:0:
154,168,38671,2,0,L|78:165,1,52.5,2|2,0:0|0:0,0:0:0:0:
462,74,38971,5,6,0:0:0:0:
493,283,39571,1,2,0:0:0:0:
26,61,39971,6,0,B|58:143|58:143|214:143,1,210,6|2,0:0|0:0,0:0:0:0:
256,211,40471,2,0,L|177:222,1,52.5,2|2,0:0|0:0,0:0:0:0:
131,223,40671,1,2,0:0:0:0:
221,293,40771,2,0,L|385:296,1,125.999996154785,4|2,0:0|0:0,0:0:0:0:
47,372,41171,1,6,0:0:0:0:
32,245,41371,1,2,0:0:0:0:
302,147,41571,6,0,L|168:138,1,105,6|0,0:0|0:0,0:0:0:0:
289,64,41871,2,0,L|399:60,1,105,2|0,0:0|0:0,0:0:0:0:
486,229,42171,2,0,L|413:234,1,52.5,2|0,0:0|0:0,0:0:0:0:
233,365,42371,6,0,L|198:244,1,105,10|0,0:0|0:0,0:0:0:0:
310,234,42671,2,0,L|328:114,1,105,2|0,0:0|0:0,0:0:0:0:
432,97,42971,2,0,L|497:91,1,52.5,2|0,0:0|0:0,0:0:0:0:
255,27,43171,6,0,P|162:36|122:257,1,315,2|2,3:2|0:0,0:0:0:0:
177,256,43871,1,2,0:0:0:0:
276,261,43971,1,10,0:0:0:0:
74,363,44171,2,0,L|61:224,1,105,2|2,0:0|0:0,0:0:0:0:
77,255,44396,1,0,0:0:0:0:
64,258,44471,2,0,L|87:258,1,13.125,2|0,0:0|0:0,0:0:0:0:
64,258,44571,2,0,L|85:256,1,13.125,2|0,0:0|0:0,0:0:0:0:
342,137,44771,6,0,L|219:132,1,105,2|0,3:2|0:0,0:0:0:0:
120,70,45071,2,0,L|244:54,1,105,0|0,3:0|0:0,0:0:0:0:
342,12,45371,2,0,L|263:5,1,52.5,0|0,3:0|0:0,0:0:0:0:
74,79,45571,6,0,P|30:132|133:208,1,210,10|4,0:0|0:0,0:0:0:0:
175,218,46071,1,2,0:0:0:0:
116,257,46171,1,2,0:0:0:0:
53,268,46271,1,2,0:0:0:0:
275,355,46371,6,0,P|404:307|346:142,1,315,6|2,0:0|0:0,0:0:0:0:
194,107,47171,2,0,L|436:76,1,210,10|2,0:0|0:0,0:0:0:0:
402,80,47671,1,2,0:0:0:0:
402,80,47771,1,2,0:0:0:0:
121,49,47971,6,0,B|-40:131|20:347|223:384|320:366|320:366|319:226|319:226|184:225|184:225|177:66,1,955.499956260683,2|2,0:0|0:0,0:0:0:0:
248,53,49471,1,2,0:0:0:0:
474,60,49571,2,0,P|381:82|511:168,2,315,6|2|2,0:3|0:0|0:0,0:0:0:0:
113,55,51171,6,0,L|111:234,2,157.5,6|2|2,0:0|0:0|0:0,0:0:0:0:
298,26,51971,1,2,0:0:0:0:
298,26,52271,1,2,0:0:0:0:
298,26,52571,1,2,0:0:0:0:
28,46,52771,6,0,B|165:80|165:80|165:224|165:224|26:208,1,425.2500016222,6|2,3:2|0:0,0:0:0:0:
218,213,53571,2,0,L|235:248,2,26.25,10|0|0,0:0|0:0|0:0,0:0:0:0:
136,186,53771,1,0,0:0:0:0:
404,108,53971,6,0,L|436:37,2,52.5,6|2|2,3:2|0:0|0:0,0:0:0:0:
329,116,54271,1,2,0:0:0:0:
417,151,54371,2,0,L|477:117,2,52.5,0|2|2,0:0|0:0|0:0,0:0:0:0:
337,164,54671,1,2,0:0:0:0:
433,197,54771,2,0,L|507:202,2,52.5,2|2|2,0:0|0:0|0:0,0:0:0:0:
342,213,55071,1,2,0:0:0:0:
115,366,55171,6,0,L|98:222,1,105,10|0,3:2|3:0,0:0:0:0:
257,143,55571,1,2,3:2:0:0:
226,141,55621,1,0,0:0:0:0:
197,139,55671,1,0,0:0:0:0:
109,132,55771,1,2,0:0:0:0:
381,51,55971,6,0,B|505:118|505:118|372:166|372:166|303:241|426:279,1,425.2500016222,6|2,0:0|0:0,0:0:0:0:
438,277,56621,1,0,0:0:0:0:
200,107,56771,2,0,L|152:115,1,35.4375001351833,10|0,0:0|0:0,0:0:0:0:
270,39,56971,2,0,L|339:37,1,52.5,4|0,0:3|0:0,0:0:0:0:
110,118,57171,6,0,L|78:47,2,52.5,6|2|2,3:2|0:0|0:0,0:0:0:0:
185,126,57471,1,2,0:0:0:0:
97,161,57571,2,0,L|37:127,2,52.5,2|2|2,0:0|0:0|0:0,0:0:0:0:
177,174,57871,1,2,0:0:0:0:
81,207,57971,2,0,L|7:212,2,52.5,2|2|2,0:0|0:0|0:0,0:0:0:0:
172,223,58271,1,2,0:0:0:0:
392,304,58371,6,0,L|266:327,1,105,10|2,0:0|0:0,0:0:0:0:
455,373,58771,2,0,L|459:244,1,105,2|2,0:0|0:0,0:0:0:0:
269,185,59171,6,0,B|271:44|271:44|413:41|413:41|416:190,1,425.2500016222,6|2,0:3|0:0,0:0:0:0:
148,267,59971,2,0,L|292:267,1,125.999996154785,2|8,0:0|0:2,0:0:0:0:
100,366,60371,5,2,3:2:0:0:
100,366,60571,1,2,3:2:0:0:
286,268,60771,2,0,L|286:106,1,157.5,2|0,3:2|0:0,0:0:0:0:
62,71,61171,5,8,0:3:0:0:
62,71,61371,2,0,L|84:66,1,13.125,2|0,0:0|0:0,0:0:0:0:
229,185,61571,2,0,L|99:194,1,105,10|2,3:2|0:0,0:0:0:0:
424,327,61971,1,8,0:3:0:0:
424,327,62171,2,0,L|405:327,1,13.125,2|0,0:0|0:0,0:0:0:0:
124,355,62371,6,0,B|123:218|123:218|252:178|252:178|120:226,1,409.499981254579,6|2,0:0|0:0,0:0:0:0:
277,79,63171,2,0,L|461:11,1,157.5,8|0,0:3|0:0,0:0:0:0:
206,119,63571,6,0,B|77:92|77:92|210:120|210:120|211:276,1,393.75,6|2,0:0|0:0,0:0:0:0:
37,338,64371,2,0,L|34:176,1,157.5,8|0,0:3|0:0,0:0:0:0:
244,98,64771,6,0,B|283:270|283:270|328:106|328:106|377:273|377:273|417:102|417:102|466:278|466:278|493:120|493:120|87:124,1,1386.00001321793,6|4,0:0|0:0,0:0:0:0:
144,122,66171,6,0,L|137:257,1,105,0|2,0:0|0:0,0:0:0:0:
322,281,66671,1,2,0:0:0:0:
138,226,66971,1,2,0:0:0:0:
322,281,67171,2,0,L|328:155,1,105,2|0,0:0|0:0,0:0:0:0:
100,99,67771,2,0,L|26:93,1,52.5,2|0,0:0|0:0,0:0:0:0:
103,68,67971,2,0,L|280:50,1,157.5,2|2,0:0|0:0,0:0:0:0:
261,52,68571,1,2,0:0:0:0:
73,99,68771,6,0,L|66:320,1,210,2|0,0:0|0:0,0:0:0:0:
359,247,69571,2,0,L|152:207,1,210,2|0,0:0|0:0,0:0:0:0:
417,146,70321,1,0,0:0:0:0:
442,146,70371,6,0,P|476:200|375:346,1,262.5,2|0,0:0|0:0,0:0:0:0:
326,335,70971,2,0,B|228:288|228:288|13:344,1,315,2|2,0:0|0:0,0:0:0:0:
332,32,71971,6,0,P|395:105|212:309,1,420,2|0,0:0|0:0,0:0:0:0:
485,337,73171,2,0,L|494:211,1,105,0|2,0:0|0:0,0:0:0:0:
419,209,73471,1,2,0:0:0:0:
333,202,73571,2,0,P|281:144|432:20,2,315,2|2|2,0:0|0:0|0:0,0:0:0:0:
446,209,74971,1,0,0:0:0:0:
264,319,75171,6,0,B|266:212|266:212|482:195,2,315,2|2|2,0:0|0:0|0:0,0:0:0:0:
20,97,76746,6,0,L|42:96,1,13.125,0|2,0:0|0:0,0:0:0:0:
256,192,76971,12,0,78171,0:0:0:0:
50,49,78371,6,0,L|172:40,1,105,8|0,0:0|0:0,0:0:0:0:
302,89,78771,2,0,L|314:204,1,105,8|0,0:3|0:0,0:0:0:0:
465,272,79171,2,0,L|258:297,1,157.5,8|8,0:0|0:0,0:0:0:0:
308,290,79571,2,0,L|423:308,1,105,8|8,0:3|0:0,0:0:0:0:
249,368,79971,6,0,L|238:252,1,105,8|0,0:0|0:0,0:0:0:0:
75,240,80371,2,0,L|63:131,1,105,8|0,0:3|0:0,0:0:0:0:
195,87,80704,1,0,0:0:0:0:
237,73,80771,2,0,L|76:43,1,157.5,8|8,0:0|0:0,0:0:0:0:
82,44,81171,2,0,L|201:21,1,105,8|8,0:3|0:0,0:0:0:0:
365,138,81571,6,0,B|326:210|326:210|168:224,1,210,8|8,0:0|0:3,0:0:0:0:
353,286,82171,1,0,0:0:0:0:
182,348,82371,2,0,B|177:280|177:280|263:200,1,157.5,8|8,0:0|0:0,0:0:0:0:
307,213,82771,1,8,0:3:0:0:
149,161,82971,1,8,0:0:0:0:
321,103,83171,6,0,B|395:96|395:96|497:204,1,210,8|8,0:0|0:3,0:0:0:0:
432,226,83671,1,0,0:0:0:0:
370,229,83771,1,0,0:0:0:0:
189,358,83971,2,0,L|200:193,1,157.5,8|8,0:0|0:0,0:0:0:0:
419,140,84571,1,8,0:0:0:0:
133,346,84771,5,8,3:0:0:0:
77,326,84871,1,0,3:0:0:0:
54,278,84971,1,8,3:0:0:0:
77,231,85071,1,0,3:0:0:0:
140,216,85171,1,8,3:0:0:0:
204,199,85271,1,0,3:0:0:0:
227,151,85371,1,8,3:0:0:0:
204,103,85471,1,0,3:0:0:0:
131,78,85571,6,0,L|15:66,1,105,8|8,3:0|3:0,0:0:0:0:
115,29,85871,2,0,L|247:18,1,105,0|0,3:0|3:0,0:0:0:0:
169,56,86171,1,8,3:0:0:0:
110,65,86271,1,0,3:0:0:0:
324,96,86371,5,8,3:0:0:0:
376,117,86471,1,0,3:0:0:0:
395,166,86571,1,8,3:0:0:0:
369,211,86671,1,0,3:0:0:0:
313,226,86771,2,0,L|235:235,1,52.5,8|0,3:0|3:0,0:0:0:0:
182,277,86971,2,0,L|267:288,1,52.5,8|0,3:0|3:0,0:0:0:0:
440,349,87171,6,0,L|454:235,1,105,8|8,3:0|3:0,0:0:0:0:
369,211,87471,2,0,L|255:195,1,105,0|0,3:0|3:0,0:0:0:0:
326,166,87771,1,8,3:0:0:0:
395,159,87871,1,0,3:0:0:0:
187,201,87971,6,0,L|188:77,1,105,8|8,3:0|3:0,0:0:0:0:
217,87,88221,1,8,3:0:0:0:
250,81,88271,1,8,3:0:0:0:
348,312,88371,6,0,L|347:188,1,105,8|8,3:0|3:0,0:0:0:0:
318,198,88621,1,8,3:0:0:0:
285,192,88671,1,8,3:0:0:0:
101,236,88771,6,0,L|102:112,1,105,8|8,3:0|3:0,0:0:0:0:
131,122,89021,1,8,3:0:0:0:
164,116,89071,1,8,3:0:0:0:
362,26,89171,6,0,L|251:26,1,105,8|8,3:0|3:0,0:0:0:0:
229,27,89421,1,8,3:0:0:0:
198,33,89471,1,8,3:0:0:0:
419,125,89571,5,2,0:0:0:0:
256,192,89771,12,0,91171,0:0:0:0:
38,223,91571,5,6,0:0:0:0:
325,71,91971,2,0,L|134:66,1,157.5,2|4,0:0|0:0,0:0:0:0:
416,188,92571,1,2,0:0:0:0:
103,361,92771,6,0,P|29:303|183:118,1,377.999988464356,6|2,0:0|0:0,0:0:0:0:
225,105,93471,1,2,0:0:0:0:
426,98,93571,6,0,B|504:255|322:256|322:256|496:256,1,377.999988464356,10|2,0:0|0:0,0:0:0:0:
165,358,94371,2,0,L|35:337,1,125.999996154785,2|0,0:0|0:0,0:0:0:0:
139,287,94671,2,0,L|276:264,1,125.999996154785,2|0,0:0|0:0,0:0:0:0:
166,195,94971,2,0,L|248:185,1,62.9999980773926,2|2,0:0|0:0,0:0:0:0:
428,168,95171,6,0,B|459:106|459:106|425:63|425:63|294:61|294:61|262:13|262:13|299:66,1,377.999988464356,10|2,0:0|0:0,0:0:0:0:
366,75,95871,1,2,0:0:0:0:
166,100,95971,6,0,P|85:129|227:278,1,377.999988464356,6|2,0:0|0:0,0:0:0:0:
266,290,96671,1,2,0:0:0:0:
78,345,96771,6,0,L|19:306,1,62.9999980773926,14|2,0:3|0:0,0:0:0:0:
95,241,96971,2,0,L|191:229,1,62.9999980773926,2|2,0:0|0:0,0:0:0:0:
241,174,97171,2,0,L|94:149,1,125.999996154785,2|2,0:0|0:0,0:0:0:0:
399,220,97571,2,0,L|412:65,1,125.999996154785,2|2,0:0|0:0,0:0:0:0:
321,67,97871,2,0,L|182:45,1,125.999996154785,2|0,0:0|0:0,0:0:0:0:
110,173,98171,2,0,L|221:174,1,62.9999980773926,2|2,3:2|0:0,0:0:0:0:
361,141,98371,5,14,3:2:0:0:
418,161,98471,1,2,0:0:0:0:
441,218,98571,1,2,0:0:0:0:
413,273,98671,1,2,0:0:0:0:
354,289,98771,1,2,0:0:0:0:
238,321,98904,1,2,0:0:0:0:
354,289,99037,1,2,0:0:0:0:
115,373,99171,6,0,P|43:317|192:146,1,377.999988464356,6|2,0:0|0:0,0:0:0:0:
464,99,99971,2,0,P|405:206|252:220,1,251.999992309571,14|2,3:2|0:0,0:0:0:0:
253,228,100421,1,0,0:0:0:0:
386,316,100571,2,0,L|421:313,1,31.4999990386963,2|0,3:2|0:0,0:0:0:0:
165,359,100771,6,0,L|37:326,1,125.999996154785,2|0,0:0|0:0,0:0:0:0:
134,277,101071,2,0,L|271:246,1,125.999996154785,2|0,0:0|0:0,0:0:0:0:
192,196,101371,1,2,0:0:0:0:
116,184,101471,1,0,0:0:0:0:
328,176,101571,6,0,B|455:171|455:171|455:28,1,251.999992309571,12|2,3:2|0:0,0:0:0:0:
455,46,102071,1,2,0:0:0:0:
455,46,102171,1,2,0:0:0:0:
455,46,102271,1,2,3:2:0:0:
213,42,102371,6,0,P|187:115|408:243,1,377.999988464356,6|2,0:0|0:0,0:0:0:0:
323,281,103071,1,2,0:0:0:0:
118,353,103171,5,10,3:2:0:0:
98,328,103221,1,0,0:0:0:0:
91,298,103271,1,0,0:0:0:0:
100,268,103321,1,0,0:0:0:0:
121,245,103371,1,2,0:0:0:0:
317,186,103571,5,2,0:0:0:0:
336,161,103621,1,0,0:0:0:0:
343,131,103671,1,0,0:0:0:0:
334,101,103721,1,0,0:0:0:0:
313,78,103771,1,2,0:0:0:0:
31,40,103971,6,0,B|59:271|288:247|288:247|125:265,1,503.999984619141,6|2,0:0|0:0,0:0:0:0:
162,259,105071,1,2,0:0:0:0:
162,259,105371,1,2,0:0:0:0:
342,347,105571,6,0,L|378:291,2,62.9999980773926,2|0|0,0:0|0:0|0:0,0:0:0:0:
260,352,105871,2,0,L|182:338,2,62.9999980773926,6|0|0,0:0|0:0|0:0,0:0:0:0:
355,204,106171,2,0,L|278:195,1,62.9999980773926,6|2,0:0|0:0,0:0:0:0:
79,283,106371,6,0,P|26:210|152:116,1,251.999992309571,6|10,0:0|0:0,0:0:0:0:
186,88,106871,1,0,0:0:0:0:
254,70,106971,1,2,0:0:0:0:
186,88,107071,1,2,0:0:0:0:
112,107,107171,2,0,L|90:146,2,31.4999990386963,2|0|0,3:2|0:0|0:0,0:0:0:0:
205,104,107371,2,0,L|340:114,2,125.999996154785,2|8|8,0:0|0:0|0:0,0:0:0:0:
473,70,107971,6,0,L|483:236,1,125.999996154785,2|8,3:2|0:0,0:0:0:0:
319,292,108371,2,0,L|466:306,1,125.999996154785,10|2,0:0|0:0,0:0:0:0:
180,153,108771,2,0,L|32:139,1,125.999996154785,2|2,0:0|0:0,0:0:0:0:
243,74,109171,2,0,L|250:251,1,125.999996154785,10|2,0:0|0:0,0:0:0:0:
188,210,109471,1,2,0:0:0:0:
160,265,109571,1,2,0:0:0:0:
187,319,109671,1,0,0:0:0:0:
246,331,109771,1,2,0:0:0:0:
95,358,109971,6,0,L|29:341,1,62.9999980773926,10|2,0:0|0:0,0:0:0:0:
114,284,110171,2,0,L|42:269,1,62.9999980773926,2|2,0:0|0:0,0:0:0:0:
235,186,110371,6,0,L|399:168,1,125.999996154785,2|0,0:0|0:0,0:0:0:0:
179,198,110771,1,10,0:0:0:0:
179,135,110871,1,2,0:0:0:0:
179,72,110971,1,2,0:0:0:0:
241,71,111071,1,2,0:0:0:0:
304,71,111171,1,2,0:0:0:0:
150,232,111371,2,0,L|233:250,1,62.9999980773926,8|2,0:0|0:0,0:0:0:0:
148,260,111571,2,0,L|15:228,1,125.999996154785,10|10,0:0|0:0,0:0:0:0:
314,94,111971,6,0,P|383:134|288:240,1,251.999992309571,2|10,0:0|3:2,0:0:0:0:
237,251,112471,1,0,0:0:0:0:
306,263,112571,1,2,0:0:0:0:
375,277,112671,1,0,0:0:0:0:
302,300,112771,2,0,L|152:319,1,125.999996154785,2|2,0:0|0:0,0:0:0:0:
379,376,113171,2,0,L|385:240,1,125.999996154785,10|2,0:0|0:0,0:0:0:0:
111,29,113571,6,0,P|172:132|321:131,1,251.999992309571,2|10,0:0|0:0,0:0:0:0:
162,198,114171,1,2,0:0:0:0:
19,291,114371,2,0,L|154:315,1,125.999996154785,2|10,0:0|0:0,0:0:0:0:
304,332,114771,2,0,L|334:290,2,31.4999990386963,10|0|0,3:2|0:0|0:0,0:0:0:0:
222,346,114971,1,8,0:0:0:0:
496,158,115171,6,0,L|351:148,1,125.999996154785,2|2,0:0|0:0,0:0:0:0:
208,100,115571,2,0,L|174:31,2,62.9999980773926,10|2|2,0:0|0:0|0:0,0:0:0:0:
392,162,115971,1,2,0:0:0:0:
341,210,116071,1,2,0:0:0:0:
266,223,116171,2,0,L|263:306,1,62.9999980773926,2|2,0:0|0:0,0:0:0:0:
353,320,116371,2,0,L|502:303,1,125.999996154785,10|2,0:0|0:0,0:0:0:0:
194,368,116771,2,0,L|188:229,1,125.999996154785,2|2,0:0|0:0,0:0:0:0:
347,172,117171,1,14,0:0:0:0:
185,133,117371,1,8,0:0:0:0:
470,52,117571,5,6,0:0:0:0:
315,24,117771,1,6,0:0:0:0:
141,57,117971,2,0,L|212:104,1,62.9999980773926,6|2,0:0|0:0,0:0:0:0:
275,108,118171,2,0,L|351:98,1,62.9999980773926,6|2,0:0|0:0,0:0:0:0:
133,161,118371,6,0,P|49:180|44:317,1,188.999994232178,10|0,0:3|0:0,0:0:0:0:
250,330,118771,6,0,L|386:293,3,136.499993751526,6|2|2|2,0:0|0:0|0:0|0:0,0:0:0:0:
227,183,119571,2,0,L|156:230,1,62.9999980773926,10|10,0:0|0:0,0:0:0:0:
93,234,119771,2,0,L|17:224,1,62.9999980773926,10|10,0:0|0:0,0:0:0:0:
225,68,119971,6,0,L|367:49,1,125.999996154785,12|0,0:3|0:0,0:0:0:0:
166,160,120371,2,0,L|153:302,1,125.999996154785,10|0,3:3|0:0,0:0:0:0:
343,336,120771,2,0,L|326:195,1,125.999996154785,10|0,0:3|0:0,0:0:0:0:
266,196,121071,1,10,0:3:0:0:
198,196,121171,1,0,3:0:0:0:
377,130,121371,1,10,0:3:0:0:
92,41,121571,6,0,L|219:82,1,125.999996154785,10|0,0:3|0:0,0:0:0:0:
377,130,121971,2,0,L|394:276,1,125.999996154785,10|0,3:3|0:0,0:0:0:0:
330,279,122271,1,0,0:0:0:0:
259,297,122371,2,0,L|388:329,1,125.999996154785,10|0,0:3|0:0,0:0:0:0:
202,368,122771,2,0,L|50:331,1,125.999996154785,10|0,3:3|0:0,0:0:0:0:
383,328,123171,6,0,L|391:177,1,125.999996154785,10|0,0:3|0:0,0:0:0:0:
212,117,123571,2,0,L|385:82,1,125.999996154785,10|0,3:3|0:0,0:0:0:0:
155,31,123971,2,0,L|0:67,1,125.999996154785,10|0,0:3|0:0,0:0:0:0:
212,117,124371,1,10,3:3:0:0:
33,70,124571,1,10,3:3:0:0:
322,59,124771,6,0,L|324:208,1,125.999996154785,10|0,0:3|0:0,0:0:0:0:
149,310,125171,2,0,L|157:151,1,125.999996154785,10|0,3:3|0:0,0:0:0:0:
224,171,125471,1,0,0:0:0:0:
299,196,125571,2,0,L|147:152,1,125.999996154785,10|0,0:3|0:0,0:0:0:0:
352,113,125971,2,0,L|362:258,1,125.999996154785,10|0,3:3|0:0,0:0:0:0:
38,49,126371,6,0,L|191:24,1,125.999996154785,10|0,0:3|0:0,0:0:0:0:
333,191,126771,2,0,L|165:165,1,125.999996154785,10|0,3:3|0:0,0:0:0:0:
28,195,127171,2,0,L|25:344,1,125.999996154785,10|0,0:3|0:0,0:0:0:0:
204,176,127571,2,0,L|219:307,1,125.999996154785,10|0,3:3|0:0,0:0:0:0:
495,68,127971,6,0,L|348:44,1,125.999996154785,10|0,0:3|0:0,0:0:0:0:
196,248,128371,2,0,L|337:218,1,125.999996154785,10|0,3:3|0:0,0:0:0:0:
134,347,128771,2,0,L|119:196,1,125.999996154785,10|0,0:3|0:0,0:0:0:0:
300,136,129171,1,10,3:3:0:0:
120,115,129371,1,8,0:3:0:0:
439,44,129571,5,10,3:3:0:0:
281,33,129771,1,8,3:3:0:0:
123,68,129971,1,10,3:3:0:0:
290,149,130171,1,8,3:3:0:0:
29,255,130371,1,10,3:3:0:0:
197,312,130571,1,8,3:3:0:0:
365,335,130771,2,0,L|381:262,1,62.9999980773926,2|0,3:0|3:0,0:0:0:0:
133,193,130971,2,0,L|112:110,1,62.9999980773926,0|0,3:0|3:0,0:0:0:0:
342,62,131171,5,12,3:3:0:0:
