osu file format v14

[General]
AudioFilename: audio.mp3
AudioLeadIn: 0
PreviewTime: 66293
Countdown: 0
SampleSet: Normal
StackLeniency: 0.2
Mode: 1
LetterboxInBreaks: 0
WidescreenStoryboard: 1

[Editor]
Bookmarks: 9742,66293,87673
DistanceSpacing: 0.2
BeatDivisor: 4
GridSize: 32
TimelineZoom: 2.800002

[Metadata]
Title:Forest Haze
TitleUnicode:Forest Haze
Artist:siqlo
ArtistUnicode:siqlo
Creator:DDM
Version:Inner Oni
Source:BMS
Tags:G2R2014 GO BACK 2 YOUR ROOTS BOF OF FIGHTERS White Canvas magarikado Neuro Drum'n'Bass Drumstep Dubstep WobbleBass
BeatmapID:1473832
BeatmapSetID:695633

[Difficulty]
HPDrainRate:6
CircleSize:2
OverallDifficulty:6.6
ApproachRate:10
SliderMultiplier:1.4
SliderTickRate:1

[Events]
//Background and Video events
0,0,"fh.png",0,-134
//Break Periods
2,44424,54809
2,121666,130671
//Storyboard Layer 0 (Background)
//Storyboard Layer 1 (Fail)
//Storyboard Layer 2 (Pass)
//Storyboard Layer 3 (Foreground)
//Storyboard Sound Samples

[TimingPoints]
87,344.827586206897,4,1,0,65,1,0
87,-131.578947368421,4,1,0,65,0,0
11121,-131.578947368421,4,1,0,70,0,0
16351,-129.87012987013,4,1,0,70,0,0
16408,-128.205128205128,4,1,0,70,0,0
16466,-126.582278481013,4,1,0,70,0,0
16523,-125,4,1,0,70,0,0
16581,-123.456790123457,4,1,0,70,0,0
16638,-121.951219512195,4,1,0,80,0,0
16811,-120.481927710843,4,1,0,80,0,0
16983,-119.047619047619,4,1,0,80,0,0
17155,-117.647058823529,4,1,0,80,0,0
17328,-116.279069767442,4,1,0,80,0,0
17500,-114.942528735632,4,1,0,80,0,0
17673,-113.636363636364,4,1,0,80,0,0
17845,-112.359550561798,4,1,0,80,0,0
18018,-111.111111111111,4,1,0,80,0,0
18190,-109.89010989011,4,1,0,80,0,0
18362,-108.695652173913,4,1,0,80,0,0
18535,-107.52688172043,4,1,0,80,0,0
18707,-106.382978723404,4,1,0,80,0,0
18880,-105.263157894737,4,1,0,80,0,0
19052,-104.166666666667,4,1,0,80,0,0
19224,-103.092783505155,4,1,0,80,0,0
19397,-102.040816326531,4,1,0,80,0,0
19569,-101.010101010101,4,1,0,80,0,0
19742,-100,4,1,0,80,0,0
19914,-99.009900990099,4,1,0,80,0,0
20087,-98.0392156862745,4,1,0,80,0,0
20259,-97.0873786407767,4,1,0,80,0,0
20431,-96.1538461538461,4,1,0,80,0,0
20604,-95.2380952380952,4,1,0,80,0,0
20776,-94.3396226415094,4,1,0,85,0,0
22155,-95.2380952380952,4,1,0,90,0,0
55259,-120.481927710843,4,1,0,80,0,0
60776,-119.047619047619,4,1,0,85,0,0
60949,-117.647058823529,4,1,0,85,0,0
61121,-116.279069767442,4,1,0,85,0,0
61293,-114.942528735632,4,1,0,85,0,0
61466,-113.636363636364,4,1,0,85,0,0
61638,-112.359550561798,4,1,0,85,0,0
61811,-111.111111111111,4,1,0,85,0,0
61983,-109.89010989011,4,1,0,85,0,0
62155,-108.695652173913,4,1,0,85,0,0
62328,-107.52688172043,4,1,0,85,0,0
62500,-106.382978723404,4,1,0,85,0,0
62673,-105.263157894737,4,1,0,85,0,0
62845,-104.166666666667,4,1,0,85,0,0
63018,-103.092783505155,4,1,0,85,0,0
63190,-102.040816326531,4,1,0,85,0,0
63362,-101.010101010101,4,1,0,85,0,0
63535,-100,4,1,0,90,0,0
63707,-96.1538461538461,4,1,0,90,0,0
63966,-92.5925925925926,4,1,0,90,0,0
64224,-89.2857142857143,4,1,0,90,0,0
64483,-86.2068965517241,4,1,0,90,0,0
64742,-83.3333333333333,4,1,0,90,0,0
64914,-80.6451612903226,4,1,0,90,0,0
65000,-81.3008130081301,4,1,0,90,0,0
65087,-81.9672131147541,4,1,0,90,0,0
65173,-82.6446280991736,4,1,0,90,0,0
65259,-84.0336134453781,4,1,0,90,0,0
65345,-85.4700854700855,4,1,0,90,0,0
65431,-86.9565217391304,4,1,0,90,0,0
65518,-88.4955752212389,4,1,0,90,0,0
65604,-90.9090909090909,4,1,0,90,0,0
65690,-93.4579439252336,4,1,0,90,0,0
65776,-96.1538461538461,4,1,0,75,0,0
65862,-99.009900990099,4,1,0,60,0,0
65949,-102.040816326531,4,1,0,45,0,0
66293,-125,4,1,0,100,0,1
77328,-117.647058823529,4,1,0,100,0,1
78707,-111.111111111111,4,1,0,100,0,1
80087,-105.263157894737,4,1,0,100,0,1
81466,-100,4,1,0,100,0,1
82500,-99.009900990099,4,1,0,100,0,1
82587,-98.0392156862745,4,1,0,100,0,1
82673,-97.0873786407767,4,1,0,100,0,1
82759,-96.1538461538461,4,1,0,100,0,1
82845,-95.2380952380952,4,1,0,100,0,1
84224,-90.9090909090909,4,1,0,100,0,1
85604,-86.9565217391304,4,1,0,100,0,1
86638,-86.2068965517241,4,1,0,100,0,1
86724,-85.4700854700855,4,1,0,100,0,1
86811,-84.7457627118644,4,1,0,100,0,1
86897,-84.0336134453781,4,1,0,100,0,1
86983,-83.3333333333333,4,1,0,75,0,0
87673,-82.6446280991736,4,1,0,85,0,0
87759,-81.9672131147541,4,1,0,85,0,0
87845,-81.3008130081301,4,1,0,85,0,0
87931,-80.6451612903226,4,1,0,85,0,0
88018,-80,4,1,0,95,0,0
88104,-79.3650793650794,4,1,0,95,0,0
88190,-78.7401574803149,4,1,0,95,0,0
88276,-78.125,4,1,0,95,0,0
88362,-77.5193798449612,4,1,0,100,0,1
110431,-77.5193798449612,4,1,0,100,0,0
110949,-81.3008130081301,4,1,0,70,0,0
111466,-85.4700854700855,4,1,0,70,0,0
111983,-90.0900900900901,4,1,0,70,0,0
112500,-95.2380952380952,4,1,0,70,0,0
112845,-100,4,1,0,70,0,0
113190,-105.263157894737,4,1,0,70,0,0
113707,-112.359550561798,4,1,0,70,0,0
114224,-120.481927710843,4,1,0,70,0,0
115949,-131.578947368421,4,1,0,70,0,0
120087,-131.578947368421,4,1,0,70,0,0
132500,-65.7894736842105,4,1,0,90,0,0

[HitObjects]
256,192,10431,5,0,0:0:0:0:
256,192,10776,1,0,0:0:0:0:
256,192,11121,5,4,0:0:0:0:
256,192,11638,1,0,0:0:0:0:
256,192,12155,1,8,0:0:0:0:
256,192,12673,1,8,0:0:0:0:
256,192,13190,1,0,0:0:0:0:
256,192,13535,1,8,0:0:0:0:
256,192,13707,1,0,0:0:0:0:
256,192,13880,1,0,0:0:0:0:
256,192,14397,1,8,0:0:0:0:
256,192,14914,1,0,0:0:0:0:
256,192,16121,1,0,0:0:0:0:
256,192,16293,1,0,0:0:0:0:
256,192,16351,1,0,0:0:0:0:
256,192,16408,1,0,0:0:0:0:
256,192,16466,1,0,0:0:0:0:
256,192,16523,1,0,0:0:0:0:
256,192,16581,1,0,0:0:0:0:
256,192,16638,5,8,0:0:0:0:
256,192,16811,1,0,0:0:0:0:
256,192,16983,1,0,0:0:0:0:
256,192,17155,1,8,0:0:0:0:
256,192,17328,1,0,0:0:0:0:
256,192,17500,1,0,0:0:0:0:
256,192,17673,1,8,0:0:0:0:
256,192,17845,1,0,0:0:0:0:
256,192,18018,1,0,0:0:0:0:
256,192,18190,1,8,0:0:0:0:
256,192,18362,1,0,0:0:0:0:
256,192,18535,1,0,0:0:0:0:
256,192,18707,1,8,0:0:0:0:
256,192,18880,1,0,0:0:0:0:
256,192,19052,1,8,0:0:0:0:
256,192,19224,1,8,0:0:0:0:
256,192,19397,5,0,0:0:0:0:
256,192,19569,1,8,0:0:0:0:
256,192,19742,1,0,0:0:0:0:
256,192,19914,1,8,0:0:0:0:
256,192,20087,1,0,0:0:0:0:
256,192,20259,1,8,0:0:0:0:
256,192,20431,1,0,0:0:0:0:
256,192,20604,1,8,0:0:0:0:
256,192,20776,1,0,0:0:0:0:
256,192,20862,1,0,0:0:0:0:
256,192,20949,1,0,0:0:0:0:
256,192,21035,1,0,0:0:0:0:
256,192,21121,1,8,0:0:0:0:
256,192,21207,1,8,0:0:0:0:
256,192,21293,1,8,0:0:0:0:
256,192,21380,1,8,0:0:0:0:
256,192,21466,1,0,0:0:0:0:
256,192,21552,1,0,0:0:0:0:
256,192,21638,1,8,0:0:0:0:
256,192,21724,1,0,0:0:0:0:
256,192,21811,1,8,0:0:0:0:
256,192,22155,5,4,0:0:0:0:
256,192,22328,1,0,0:0:0:0:
256,192,22500,1,8,0:0:0:0:
256,192,22673,1,0,0:0:0:0:
256,192,22759,1,0,0:0:0:0:
256,192,22845,1,8,0:0:0:0:
256,192,22931,1,8,0:0:0:0:
256,192,23018,1,0,0:0:0:0:
256,192,23190,1,8,0:0:0:0:
256,192,23362,1,0,0:0:0:0:
256,192,23535,1,0,0:0:0:0:
256,192,23707,1,8,0:0:0:0:
256,192,23793,1,8,0:0:0:0:
256,192,23880,1,0,0:0:0:0:
256,192,24052,1,0,0:0:0:0:
256,192,24224,1,8,0:0:0:0:
256,192,24311,1,8,0:0:0:0:
256,192,24397,1,0,0:0:0:0:
256,192,24569,1,8,0:0:0:0:
256,192,24742,1,8,0:0:0:0:
256,192,24914,5,8,0:0:0:0:
256,192,25087,1,0,0:0:0:0:
256,192,25259,1,8,0:0:0:0:
256,192,25431,1,0,0:0:0:0:
256,192,25604,1,8,0:0:0:0:
256,192,25776,1,0,0:0:0:0:
256,192,25949,1,8,0:0:0:0:
256,192,26121,1,8,0:0:0:0:
256,192,26207,1,8,0:0:0:0:
256,192,26293,1,0,0:0:0:0:
256,192,26466,1,8,0:0:0:0:
256,192,26638,1,0,0:0:0:0:
256,192,26811,1,8,0:0:0:0:
256,192,26897,1,8,0:0:0:0:
256,192,26983,1,0,0:0:0:0:
256,192,27069,1,0,0:0:0:0:
256,192,27155,1,8,0:0:0:0:
256,192,27328,1,0,0:0:0:0:
256,192,27414,1,0,0:0:0:0:
256,192,27500,1,0,0:0:0:0:
256,192,27673,5,0,0:0:0:0:
256,192,27845,1,0,0:0:0:0:
256,192,28018,1,8,0:0:0:0:
256,192,28190,1,0,0:0:0:0:
256,192,28276,1,0,0:0:0:0:
256,192,28362,1,8,0:0:0:0:
256,192,28449,1,8,0:0:0:0:
256,192,28535,1,0,0:0:0:0:
256,192,28707,1,8,0:0:0:0:
256,192,28880,1,0,0:0:0:0:
256,192,29052,1,8,0:0:0:0:
256,192,29138,1,8,0:0:0:0:
256,192,29224,1,8,0:0:0:0:
256,192,29311,1,8,0:0:0:0:
256,192,29397,1,0,0:0:0:0:
256,192,29483,1,0,0:0:0:0:
256,192,29569,1,8,0:0:0:0:
256,192,29655,1,8,0:0:0:0:
256,192,29742,1,0,0:0:0:0:
256,192,29828,1,8,0:0:0:0:
256,192,29914,1,0,0:0:0:0:
256,192,30087,1,8,0:0:0:0:
256,192,30259,1,0,0:0:0:0:
256,192,30345,1,0,0:0:0:0:
256,192,30431,5,8,0:0:0:0:
256,192,30604,1,0,0:0:0:0:
256,192,30776,1,0,0:0:0:0:
256,192,30949,1,8,0:0:0:0:
256,192,31035,1,8,0:0:0:0:
256,192,31121,1,0,0:0:0:0:
256,192,31293,1,0,0:0:0:0:
256,192,31380,1,0,0:0:0:0:
256,192,31466,1,8,0:0:0:0:
256,192,31552,1,0,0:0:0:0:
256,192,31638,1,8,0:0:0:0:
256,192,31811,1,0,0:0:0:0:
256,192,31983,1,0,0:0:0:0:
256,192,32155,1,8,0:0:0:0:
256,192,32328,1,0,0:0:0:0:
256,192,32414,1,0,0:0:0:0:
256,192,32500,1,8,0:0:0:0:
256,192,32673,1,4,0:0:0:0:
256,192,33190,5,4,0:0:0:0:
256,192,33362,1,0,0:0:0:0:
256,192,33535,1,8,0:0:0:0:
256,192,33707,1,0,0:0:0:0:
256,192,33793,1,0,0:0:0:0:
256,192,33880,1,8,0:0:0:0:
256,192,33966,1,8,0:0:0:0:
256,192,34052,1,0,0:0:0:0:
256,192,34224,1,8,0:0:0:0:
256,192,34397,1,0,0:0:0:0:
256,192,34569,1,0,0:0:0:0:
256,192,34655,1,0,0:0:0:0:
256,192,34742,1,8,0:0:0:0:
256,192,34828,1,8,0:0:0:0:
256,192,34914,1,0,0:0:0:0:
256,192,35000,1,0,0:0:0:0:
256,192,35087,1,8,0:0:0:0:
256,192,35173,1,8,0:0:0:0:
256,192,35259,1,8,0:0:0:0:
256,192,35431,1,8,0:0:0:0:
256,192,35604,1,0,0:0:0:0:
256,192,35776,1,8,0:0:0:0:
256,192,35949,5,0,0:0:0:0:
256,192,36121,1,8,0:0:0:0:
256,192,36293,1,0,0:0:0:0:
256,192,36466,1,8,0:0:0:0:
256,192,36638,1,0,0:0:0:0:
256,192,36811,1,8,0:0:0:0:
256,192,36983,1,0,0:0:0:0:
256,192,37155,1,8,0:0:0:0:
256,192,37242,1,8,0:0:0:0:
256,192,37328,1,8,0:0:0:0:
256,192,37500,1,0,0:0:0:0:
256,192,37673,1,8,0:0:0:0:
256,192,37845,1,0,0:0:0:0:
256,192,38018,1,0,0:0:0:0:
256,192,38104,1,0,0:0:0:0:
256,192,38190,1,8,0:0:0:0:
256,192,38362,1,0,0:0:0:0:
256,192,38449,1,0,0:0:0:0:
256,192,38535,1,0,0:0:0:0:
256,192,38707,5,0,0:0:0:0:
256,192,38880,1,0,0:0:0:0:
256,192,39052,1,8,0:0:0:0:
256,192,39224,1,0,0:0:0:0:
256,192,39311,1,0,0:0:0:0:
256,192,39397,1,8,0:0:0:0:
256,192,39483,1,8,0:0:0:0:
256,192,39569,1,0,0:0:0:0:
256,192,39742,1,0,0:0:0:0:
256,192,39914,1,8,0:0:0:0:
256,192,40000,1,8,0:0:0:0:
256,192,40087,1,8,0:0:0:0:
256,192,40259,1,8,0:0:0:0:
256,192,40431,1,0,0:0:0:0:
256,192,40604,1,8,0:0:0:0:
256,192,40949,1,0,0:0:0:0:
256,192,41293,1,8,0:0:0:0:
256,192,41466,5,8,0:0:0:0:
256,192,41552,1,0,0:0:0:0:
256,192,41638,1,8,0:0:0:0:
256,192,41724,1,0,0:0:0:0:
256,192,41811,1,8,0:0:0:0:
256,192,41897,1,0,0:0:0:0:
256,192,41983,1,8,0:0:0:0:
256,192,42069,1,0,0:0:0:0:
256,192,42155,1,8,0:0:0:0:
256,192,42242,1,0,0:0:0:0:
256,192,42328,1,8,0:0:0:0:
256,192,42414,1,0,0:0:0:0:
256,192,42500,1,8,0:0:0:0:
256,192,42587,1,0,0:0:0:0:
256,192,42673,1,8,0:0:0:0:
256,192,43018,1,0,0:0:0:0:
256,192,43190,1,8,0:0:0:0:
256,192,43362,1,0,0:0:0:0:
256,192,43535,1,8,0:0:0:0:
256,192,43621,1,8,0:0:0:0:
256,192,43707,1,0,0:0:0:0:
256,192,43880,1,8,0:0:0:0:
256,192,43966,1,0,0:0:0:0:
256,192,44052,1,8,0:0:0:0:
256,192,44224,5,4,0:0:0:0:
256,192,55259,5,0,0:0:0:0:
256,192,55604,1,0,0:0:0:0:
256,192,55949,1,0,0:0:0:0:
256,192,56293,1,0,0:0:0:0:
256,192,56638,1,0,0:0:0:0:
256,192,56983,1,0,0:0:0:0:
256,192,57328,1,0,0:0:0:0:
256,192,57673,1,0,0:0:0:0:
256,192,58018,5,0,0:0:0:0:
256,192,58362,1,0,0:0:0:0:
256,192,58707,1,0,0:0:0:0:
256,192,59052,1,0,0:0:0:0:
256,192,59397,1,0,0:0:0:0:
256,192,59742,1,0,0:0:0:0:
256,192,60087,1,0,0:0:0:0:
256,192,60431,1,0,0:0:0:0:
256,192,60776,5,0,0:0:0:0:
256,192,60949,1,0,0:0:0:0:
256,192,61121,1,0,0:0:0:0:
256,192,61293,1,0,0:0:0:0:
256,192,61466,1,0,0:0:0:0:
256,192,61638,1,0,0:0:0:0:
256,192,61811,1,0,0:0:0:0:
256,192,61983,1,0,0:0:0:0:
256,192,62155,1,0,0:0:0:0:
256,192,62328,1,0,0:0:0:0:
256,192,62500,1,0,0:0:0:0:
256,192,62673,1,0,0:0:0:0:
256,192,62845,1,0,0:0:0:0:
256,192,63018,1,0,0:0:0:0:
256,192,63190,1,0,0:0:0:0:
256,192,63362,1,0,0:0:0:0:
256,192,63535,5,0,0:0:0:0:
256,192,63621,1,0,0:0:0:0:
256,192,63707,1,8,0:0:0:0:
256,192,63793,1,0,0:0:0:0:
256,192,63880,1,0,0:0:0:0:
256,192,63966,1,8,0:0:0:0:
256,192,64052,1,0,0:0:0:0:
256,192,64138,1,0,0:0:0:0:
256,192,64224,1,8,0:0:0:0:
256,192,64311,1,0,0:0:0:0:
256,192,64397,1,0,0:0:0:0:
256,192,64483,1,8,0:0:0:0:
256,192,64569,1,0,0:0:0:0:
256,192,64655,1,0,0:0:0:0:
256,192,64742,1,8,0:0:0:0:
256,192,64828,1,0,0:0:0:0:
256,192,64914,1,8,0:0:0:0:
256,192,65000,1,8,0:0:0:0:
256,192,65087,1,8,0:0:0:0:
256,192,65173,1,8,0:0:0:0:
256,192,65259,1,0,0:0:0:0:
256,192,65345,1,0,0:0:0:0:
256,192,65431,1,8,0:0:0:0:
256,192,65518,1,0,0:0:0:0:
256,192,65604,1,8,0:0:0:0:
256,192,65690,1,8,0:0:0:0:
256,192,65776,1,0,0:0:0:0:
256,192,65862,1,8,0:0:0:0:
256,192,65949,1,8,0:0:0:0:
256,192,66293,5,12,0:0:0:0:
256,192,66466,1,0,0:0:0:0:
256,192,66552,1,8,0:0:0:0:
256,192,66638,1,8,0:0:0:0:
256,192,66811,1,0,0:0:0:0:
256,192,66983,1,0,0:0:0:0:
256,192,67069,1,8,0:0:0:0:
256,192,67242,1,0,0:0:0:0:
256,192,67328,1,8,0:0:0:0:
256,192,67500,1,0,0:0:0:0:
256,192,67587,1,0,0:0:0:0:
256,192,67673,5,8,0:0:0:0:
256,192,67845,1,8,0:0:0:0:
256,192,68018,1,0,0:0:0:0:
256,192,68075,1,0,0:0:0:0:
256,192,68132,1,0,0:0:0:0:
256,192,68190,1,8,0:0:0:0:
256,192,68276,1,8,0:0:0:0:
256,192,68362,1,0,0:0:0:0:
256,192,68449,1,0,0:0:0:0:
256,192,68535,1,0,0:0:0:0:
256,192,68621,1,0,0:0:0:0:
256,192,68707,1,8,0:0:0:0:
256,192,68793,1,8,0:0:0:0:
256,192,68880,1,8,0:0:0:0:
256,192,68966,1,8,0:0:0:0:
256,192,69052,5,0,0:0:0:0:
256,192,69138,1,8,0:0:0:0:
256,192,69311,1,0,0:0:0:0:
256,192,69397,1,8,0:0:0:0:
256,192,69569,1,0,0:0:0:0:
256,192,69655,1,8,0:0:0:0:
256,192,69742,1,0,0:0:0:0:
256,192,69828,1,0,0:0:0:0:
256,192,69914,1,0,0:0:0:0:
256,192,70000,1,8,0:0:0:0:
256,192,70087,1,8,0:0:0:0:
256,192,70173,1,8,0:0:0:0:
256,192,70259,1,8,0:0:0:0:
256,192,70431,5,0,0:0:0:0:
256,192,70518,1,8,0:0:0:0:
256,192,70604,1,8,0:0:0:0:
256,192,70776,1,0,0:0:0:0:
256,192,70862,1,8,0:0:0:0:
256,192,70949,1,8,0:0:0:0:
256,192,71121,1,0,0:0:0:0:
256,192,71207,1,8,0:0:0:0:
256,192,71293,1,0,0:0:0:0:
256,192,71380,1,8,0:0:0:0:
256,192,71466,1,0,0:0:0:0:
256,192,71552,1,8,0:0:0:0:
256,192,71638,1,0,0:0:0:0:
256,192,71724,1,0,0:0:0:0:
256,192,71811,5,8,0:0:0:0:
256,192,71983,1,0,0:0:0:0:
256,192,72069,1,8,0:0:0:0:
256,192,72155,1,8,0:0:0:0:
256,192,72328,1,0,0:0:0:0:
256,192,72500,1,0,0:0:0:0:
256,192,72587,1,8,0:0:0:0:
256,192,72759,1,0,0:0:0:0:
256,192,72845,1,8,0:0:0:0:
256,192,73018,1,0,0:0:0:0:
256,192,73104,1,0,0:0:0:0:
256,192,73190,5,8,0:0:0:0:
256,192,73247,1,8,0:0:0:0:
256,192,73305,1,0,0:0:0:0:
256,192,73362,1,0,0:0:0:0:
256,192,73535,1,0,0:0:0:0:
256,192,73621,1,8,0:0:0:0:
256,192,73707,1,0,0:0:0:0:
256,192,73793,1,0,0:0:0:0:
256,192,73880,1,8,0:0:0:0:
256,192,73966,1,8,0:0:0:0:
256,192,74138,1,0,0:0:0:0:
256,192,74224,1,0,0:0:0:0:
256,192,74397,1,8,0:0:0:0:
256,192,74483,1,8,0:0:0:0:
256,192,74569,5,0,0:0:0:0:
256,192,74655,1,8,0:0:0:0:
256,192,74742,1,0,0:0:0:0:
256,192,74914,1,8,0:0:0:0:
256,192,75000,1,8,0:0:0:0:
256,192,75087,1,0,0:0:0:0:
256,192,75259,1,0,0:0:0:0:
256,192,75345,1,0,0:0:0:0:
256,192,75431,1,8,0:0:0:0:
256,192,75518,1,0,0:0:0:0:
256,192,75604,1,8,0:0:0:0:
256,192,75690,1,0,0:0:0:0:
256,192,75776,1,8,0:0:0:0:
256,192,75862,1,0,0:0:0:0:
256,192,75949,5,8,0:0:0:0:
256,192,76035,1,8,0:0:0:0:
256,192,76121,1,0,0:0:0:0:
256,192,76207,1,8,0:0:0:0:
256,192,76293,1,8,0:0:0:0:
256,192,76380,1,8,0:0:0:0:
256,192,76466,1,8,0:0:0:0:
256,192,76552,1,8,0:0:0:0:
256,192,76638,1,0,0:0:0:0:
256,192,76696,1,8,0:0:0:0:
256,192,76753,1,0,0:0:0:0:
256,192,76811,1,8,0:0:0:0:
256,192,76983,1,8,0:0:0:0:
256,192,77155,1,0,0:0:0:0:
256,192,77328,5,0,0:0:0:0:
256,192,77414,1,8,0:0:0:0:
256,192,77587,1,0,0:0:0:0:
256,192,77673,1,8,0:0:0:0:
256,192,77845,1,8,0:0:0:0:
256,192,78018,1,8,0:0:0:0:
256,192,78075,1,8,0:0:0:0:
256,192,78132,1,0,0:0:0:0:
256,192,78190,1,0,0:0:0:0:
256,192,78362,1,8,0:0:0:0:
256,192,78449,1,0,0:0:0:0:
256,192,78535,1,0,0:0:0:0:
256,192,78707,5,0,0:0:0:0:
256,192,78793,1,8,0:0:0:0:
256,192,78880,1,0,0:0:0:0:
256,192,78966,1,8,0:0:0:0:
256,192,79052,1,0,0:0:0:0:
256,192,79138,1,0,0:0:0:0:
256,192,79224,1,0,0:0:0:0:
256,192,79311,1,0,0:0:0:0:
256,192,79397,1,8,0:0:0:0:
256,192,79483,1,8,0:0:0:0:
256,192,79569,1,0,0:0:0:0:
256,192,79742,1,8,0:0:0:0:
256,192,79828,1,8,0:0:0:0:
256,192,79914,1,0,0:0:0:0:
256,192,80087,5,0,0:0:0:0:
256,192,80173,1,8,0:0:0:0:
256,192,80345,1,0,0:0:0:0:
256,192,80431,1,8,0:0:0:0:
256,192,80604,1,8,0:0:0:0:
256,192,80776,1,0,0:0:0:0:
256,192,80862,1,8,0:0:0:0:
256,192,80949,1,8,0:0:0:0:
256,192,81121,1,8,0:0:0:0:
256,192,81207,1,0,0:0:0:0:
256,192,81293,1,0,0:0:0:0:
256,192,81466,5,0,0:0:0:0:
256,192,81552,1,8,0:0:0:0:
256,192,81638,1,8,0:0:0:0:
256,192,81811,1,0,0:0:0:0:
256,192,81897,1,8,0:0:0:0:
256,192,81983,1,8,0:0:0:0:
256,192,82155,1,0,0:0:0:0:
256,192,82242,1,8,0:0:0:0:
256,192,82328,1,0,0:0:0:0:
256,192,82414,1,8,0:0:0:0:
256,192,82500,1,0,0:0:0:0:
256,192,82587,1,8,0:0:0:0:
256,192,82673,1,0,0:0:0:0:
256,192,82759,1,0,0:0:0:0:
256,192,82845,5,8,0:0:0:0:
256,192,82931,1,0,0:0:0:0:
256,192,83104,1,8,0:0:0:0:
256,192,83190,1,0,0:0:0:0:
256,192,83362,1,8,0:0:0:0:
256,192,83535,1,0,0:0:0:0:
256,192,83621,1,8,0:0:0:0:
256,192,83707,1,8,0:0:0:0:
256,192,83793,1,8,0:0:0:0:
256,192,83880,1,8,0:0:0:0:
256,192,84052,1,0,0:0:0:0:
256,192,84224,5,8,0:0:0:0:
256,192,84311,1,0,0:0:0:0:
256,192,84483,1,8,0:0:0:0:
256,192,84569,1,0,0:0:0:0:
256,192,84742,1,8,0:0:0:0:
256,192,84914,1,0,0:0:0:0:
256,192,85000,1,8,0:0:0:0:
256,192,85087,1,8,0:0:0:0:
256,192,85173,1,8,0:0:0:0:
256,192,85259,1,8,0:0:0:0:
256,192,85431,1,0,0:0:0:0:
256,192,85604,5,0,0:0:0:0:
256,192,85690,1,8,0:0:0:0:
256,192,85862,1,0,0:0:0:0:
256,192,85949,1,8,0:0:0:0:
256,192,86121,1,8,0:0:0:0:
256,192,86207,1,8,0:0:0:0:
256,192,86293,1,0,0:0:0:0:
256,192,86380,1,8,0:0:0:0:
256,192,86466,1,0,0:0:0:0:
256,192,86552,1,0,0:0:0:0:
256,192,86638,1,0,0:0:0:0:
256,192,86724,1,8,0:0:0:0:
256,192,86811,1,0,0:0:0:0:
256,192,86897,1,8,0:0:0:0:
256,192,86983,5,0,0:0:0:0:
256,192,87069,1,0,0:0:0:0:
256,192,87155,1,0,0:0:0:0:
256,192,87242,1,8,0:0:0:0:
256,192,87328,1,8,0:0:0:0:
256,192,87414,1,8,0:0:0:0:
256,192,87500,1,0,0:0:0:0:
256,192,87587,1,8,0:0:0:0:
256,192,87673,1,0,0:0:0:0:
256,192,87759,1,0,0:0:0:0:
256,192,87845,1,8,0:0:0:0:
256,192,87931,1,8,0:0:0:0:
256,192,88018,1,0,0:0:0:0:
256,192,88104,1,0,0:0:0:0:
256,192,88190,1,8,0:0:0:0:
256,192,88276,1,0,0:0:0:0:
256,192,88362,5,12,0:0:0:0:
256,192,88535,1,0,0:0:0:0:
256,192,88621,1,8,0:0:0:0:
256,192,88707,1,8,0:0:0:0:
256,192,88793,1,0,0:0:0:0:
256,192,88880,1,8,0:0:0:0:
256,192,89052,1,8,0:0:0:0:
256,192,89138,1,0,0:0:0:0:
256,192,89311,1,8,0:0:0:0:
256,192,89397,1,0,0:0:0:0:
256,192,89483,1,0,0:0:0:0:
256,192,89569,1,8,0:0:0:0:
256,192,89742,5,8,0:0:0:0:
256,192,89828,1,8,0:0:0:0:
256,192,89914,1,0,0:0:0:0:
256,192,90000,1,8,0:0:0:0:
256,192,90087,1,8,0:0:0:0:
256,192,90259,1,0,0:0:0:0:
256,192,90345,1,0,0:0:0:0:
256,192,90431,1,8,0:0:0:0:
256,192,90518,1,8,0:0:0:0:
256,192,90690,1,8,0:0:0:0:
256,192,90776,1,0,0:0:0:0:
256,192,90949,1,8,0:0:0:0:
256,192,91121,5,8,0:0:0:0:
256,192,91207,1,8,0:0:0:0:
256,192,91293,1,0,0:0:0:0:
256,192,91380,1,8,0:0:0:0:
256,192,91552,1,0,0:0:0:0:
256,192,91638,1,8,0:0:0:0:
256,192,91811,1,8,0:0:0:0:
256,192,91983,1,0,0:0:0:0:
256,192,92069,1,8,0:0:0:0:
256,192,92155,1,0,0:0:0:0:
256,192,92242,1,0,0:0:0:0:
256,192,92328,1,8,0:0:0:0:
256,192,92500,5,8,0:0:0:0:
256,192,92673,1,0,0:0:0:0:
256,192,92759,1,8,0:0:0:0:
256,192,92845,1,8,0:0:0:0:
256,192,93018,1,0,0:0:0:0:
256,192,93104,1,0,0:0:0:0:
256,192,93190,1,8,0:0:0:0:
256,192,93276,1,8,0:0:0:0:
256,192,93362,1,0,0:0:0:0:
256,192,93449,1,8,0:0:0:0:
256,192,93621,1,0,0:0:0:0:
256,192,93707,1,8,0:0:0:0:
256,192,93880,5,8,0:0:0:0:
256,192,94052,1,0,0:0:0:0:
256,192,94138,1,8,0:0:0:0:
256,192,94224,1,8,0:0:0:0:
256,192,94311,1,0,0:0:0:0:
256,192,94397,1,8,0:0:0:0:
256,192,94569,1,8,0:0:0:0:
256,192,94742,1,0,0:0:0:0:
256,192,94828,1,8,0:0:0:0:
256,192,94914,1,8,0:0:0:0:
256,192,95087,1,8,0:0:0:0:
256,192,95173,1,0,0:0:0:0:
256,192,95259,5,8,0:0:0:0:
256,192,95345,1,8,0:0:0:0:
256,192,95431,1,0,0:0:0:0:
256,192,95518,1,8,0:0:0:0:
256,192,95604,1,8,0:0:0:0:
256,192,95776,1,0,0:0:0:0:
256,192,95862,1,0,0:0:0:0:
256,192,95949,1,8,0:0:0:0:
256,192,96035,1,8,0:0:0:0:
256,192,96207,1,0,0:0:0:0:
256,192,96293,1,0,0:0:0:0:
256,192,96466,1,8,0:0:0:0:
256,192,96638,5,8,0:0:0:0:
256,192,96724,1,8,0:0:0:0:
256,192,96810,1,0,0:0:0:0:
256,192,96897,1,8,0:0:0:0:
256,192,97069,1,0,0:0:0:0:
256,192,97155,1,8,0:0:0:0:
256,192,97328,1,8,0:0:0:0:
256,192,97414,1,8,0:0:0:0:
256,192,97587,1,8,0:0:0:0:
256,192,97672,1,0,0:0:0:0:
256,192,97759,1,0,0:0:0:0:
256,192,97845,1,8,0:0:0:0:
256,192,98018,5,8,0:0:0:0:
256,192,98190,1,0,0:0:0:0:
256,192,98276,1,8,0:0:0:0:
256,192,98362,1,8,0:0:0:0:
256,192,98535,1,0,0:0:0:0:
256,192,98621,1,8,0:0:0:0:
256,192,98707,1,8,0:0:0:0:
256,192,98793,1,8,0:0:0:0:
256,192,98966,1,0,0:0:0:0:
256,192,99138,1,0,0:0:0:0:
256,192,99224,1,8,0:0:0:0:
256,192,99397,5,12,0:0:0:0:
256,192,99569,1,0,0:0:0:0:
256,192,99655,1,8,0:0:0:0:
256,192,99742,1,8,0:0:0:0:
256,192,99828,1,0,0:0:0:0:
256,192,99914,1,8,0:0:0:0:
256,192,100087,1,8,0:0:0:0:
256,192,100173,1,0,0:0:0:0:
256,192,100345,1,8,0:0:0:0:
256,192,100431,1,0,0:0:0:0:
256,192,100518,1,0,0:0:0:0:
256,192,100604,1,8,0:0:0:0:
256,192,100776,5,8,0:0:0:0:
256,192,100862,1,8,0:0:0:0:
256,192,100949,1,0,0:0:0:0:
256,192,101035,1,8,0:0:0:0:
256,192,101121,1,8,0:0:0:0:
256,192,101293,1,0,0:0:0:0:
256,192,101380,1,0,0:0:0:0:
256,192,101466,1,8,0:0:0:0:
256,192,101552,1,8,0:0:0:0:
256,192,101724,1,8,0:0:0:0:
256,192,101811,1,0,0:0:0:0:
256,192,101983,1,8,0:0:0:0:
256,192,102155,5,8,0:0:0:0:
256,192,102242,1,8,0:0:0:0:
256,192,102328,1,0,0:0:0:0:
256,192,102414,1,8,0:0:0:0:
256,192,102587,1,0,0:0:0:0:
256,192,102673,1,8,0:0:0:0:
256,192,102845,1,8,0:0:0:0:
256,192,103018,1,0,0:0:0:0:
256,192,103104,1,8,0:0:0:0:
256,192,103190,1,0,0:0:0:0:
256,192,103276,1,0,0:0:0:0:
256,192,103362,1,12,0:0:0:0:
256,192,103707,5,8,0:0:0:0:
256,192,103793,1,8,0:0:0:0:
256,192,103880,1,8,0:0:0:0:
256,192,103966,1,0,0:0:0:0:
256,192,104052,1,0,0:0:0:0:
256,192,104138,1,0,0:0:0:0:
256,192,104224,1,8,0:0:0:0:
256,192,104311,1,8,0:0:0:0:
256,192,104483,1,8,0:0:0:0:
256,192,104569,1,0,0:0:0:0:
256,192,104655,1,0,0:0:0:0:
256,192,104742,1,8,0:0:0:0:
256,192,104914,5,8,0:0:0:0:
256,192,105087,1,0,0:0:0:0:
256,192,105173,1,8,0:0:0:0:
256,192,105259,1,8,0:0:0:0:
256,192,105345,1,0,0:0:0:0:
256,192,105431,1,8,0:0:0:0:
256,192,105604,1,8,0:0:0:0:
256,192,105776,1,0,0:0:0:0:
256,192,105862,1,8,0:0:0:0:
256,192,105949,1,8,0:0:0:0:
256,192,106121,1,8,0:0:0:0:
256,192,106207,1,0,0:0:0:0:
256,192,106293,5,8,0:0:0:0:
256,192,106380,1,8,0:0:0:0:
256,192,106466,1,0,0:0:0:0:
256,192,106552,1,8,0:0:0:0:
256,192,106638,1,8,0:0:0:0:
256,192,106811,1,0,0:0:0:0:
256,192,106897,1,8,0:0:0:0:
256,192,106983,1,0,0:0:0:0:
256,192,107069,1,0,0:0:0:0:
256,192,107242,1,8,0:0:0:0:
256,192,107328,1,8,0:0:0:0:
256,192,107500,1,0,0:0:0:0:
256,192,107673,5,8,0:0:0:0:
256,192,107759,1,8,0:0:0:0:
256,192,107845,1,0,0:0:0:0:
256,192,107931,1,8,0:0:0:0:
256,192,108104,1,0,0:0:0:0:
256,192,108190,1,8,0:0:0:0:
256,192,108276,1,0,0:0:0:0:
256,192,108362,1,8,0:0:0:0:
256,192,108449,1,8,0:0:0:0:
256,192,108535,1,0,0:0:0:0:
256,192,108621,1,8,0:0:0:0:
256,192,108793,1,0,0:0:0:0:
256,192,108880,1,8,0:0:0:0:
256,192,109052,5,8,0:0:0:0:
256,192,109138,1,0,0:0:0:0:
256,192,109224,1,0,0:0:0:0:
256,192,109311,1,8,0:0:0:0:
256,192,109397,1,0,0:0:0:0:
256,192,109483,1,0,0:0:0:0:
256,192,109569,1,8,0:0:0:0:
256,192,109655,1,8,0:0:0:0:
256,192,109742,1,8,0:0:0:0:
256,192,109828,1,8,0:0:0:0:
256,192,109914,1,8,0:0:0:0:
256,192,110000,1,8,0:0:0:0:
256,192,110087,1,8,0:0:0:0:
256,192,110173,1,8,0:0:0:0:
256,192,110259,1,8,0:0:0:0:
256,192,110345,1,8,0:0:0:0:
256,192,110431,5,4,0:0:0:0:
256,192,110949,1,0,0:0:0:0:
256,192,111466,1,8,0:0:0:0:
256,192,111983,1,8,0:0:0:0:
256,192,112500,1,0,0:0:0:0:
256,192,112845,1,8,0:0:0:0:
256,192,113190,1,0,0:0:0:0:
256,192,113707,1,8,0:0:0:0:
256,192,114224,1,0,0:0:0:0:
256,192,115949,5,0,0:0:0:0:
256,192,116466,1,8,0:0:0:0:
256,192,116983,1,0,0:0:0:0:
256,192,117500,1,8,0:0:0:0:
256,192,118018,1,8,0:0:0:0:
256,192,118362,1,0,0:0:0:0:
256,192,118535,1,8,0:0:0:0:
256,192,118707,1,0,0:0:0:0:
256,192,118880,1,8,0:0:0:0:
256,192,119052,1,0,0:0:0:0:
256,192,119224,1,8,0:0:0:0:
256,192,119397,1,0,0:0:0:0:
256,192,119569,1,8,0:0:0:0:
256,192,119742,1,0,0:0:0:0:
256,192,119914,1,8,0:0:0:0:
256,192,120087,5,0,0:0:0:0:
256,192,120173,1,0,0:0:0:0:
256,192,120259,1,0,0:0:0:0:
256,192,120345,1,0,0:0:0:0:
256,192,120431,1,8,0:0:0:0:
256,192,120518,1,8,0:0:0:0:
256,192,120604,1,0,0:0:0:0:
256,192,120690,1,0,0:0:0:0:
256,192,120776,1,8,0:0:0:0:
256,192,120862,1,8,0:0:0:0:
256,192,120949,1,8,0:0:0:0:
256,192,121035,1,8,0:0:0:0:
256,192,121121,1,0,0:0:0:0:
256,192,121207,1,0,0:0:0:0:
256,192,121293,1,8,0:0:0:0:
256,192,121380,1,8,0:0:0:0:
256,192,121466,5,4,0:0:0:0:
256,192,131121,5,8,0:0:0:0:
256,192,131207,1,8,0:0:0:0:
256,192,131293,1,8,0:0:0:0:
256,192,131380,1,8,0:0:0:0:
256,192,131466,1,0,0:0:0:0:
256,192,131552,1,0,0:0:0:0:
256,192,131638,1,0,0:0:0:0:
256,192,131724,1,0,0:0:0:0:
256,192,131811,1,8,0:0:0:0:
256,192,131897,1,8,0:0:0:0:
256,192,131983,1,4,0:0:0:0:
256,192,132500,1,12,0:0:0:0:
