osu file format v14

[General]
AudioFilename: audio.mp3
AudioLeadIn: 0
PreviewTime: 25
Countdown: 0
SampleSet: Soft
StackLeniency: 0.7
Mode: 0
LetterboxInBreaks: 0
WidescreenStoryboard: 1

[Editor]
DistanceSpacing: 1
BeatDivisor: 4
GridSize: 4
TimelineZoom: 1.250001

[Metadata]
Title:Dirigeant Decision
TitleUnicode:Dirigeant Decision
Artist:siqlo
ArtistUnicode:siqlo
Creator:PandaHero
Version:Normal
Source:
Tags:shooter's festival k-shoot mania ksm ksmevent hard renaissance electronic instrumental SF2016
BeatmapID:2591647
BeatmapSetID:1240362

[Difficulty]
HPDrainRate:4
CircleSize:3.5
OverallDifficulty:4
ApproachRate:6
SliderMultiplier:1
SliderTickRate:1

[Events]
//Background and Video events
0,0,"sky-5119622_1920.jpg",0,0
//Break Periods
2,72955,76894
2,78144,82084
//Storyboard Layer 0 (Background)
//Storyboard Layer 1 (Fail)
//Storyboard Layer 2 (Pass)
//Storyboard Layer 3 (Foreground)
//Storyboard Layer 4 (Overlay)
//Storyboard Sound Samples

[TimingPoints]
107,324.324324324325,4,2,0,10,1,0
107,-133.333333333333,4,2,0,10,0,0
7890,-133.333333333333,4,2,0,15,0,0
9188,-133.333333333333,4,2,0,20,0,0
10485,-100,4,2,0,50,0,0
16971,-100,4,2,0,55,0,0
17620,-100,4,2,0,60,0,0
18269,-100,4,2,0,65,0,0
19566,-100,4,2,0,55,0,0
20863,-100,4,2,0,70,0,0
46323,-100,4,2,0,60,0,0
46809,-100,4,2,0,70,0,0
56701,-100,4,2,0,50,0,0
56782,-100,4,2,0,35,0,0
57188,-100,4,2,0,75,0,0
62134,-100,4,2,0,75,0,0
62377,-100,4,2,0,65,0,0
67566,-100,4,2,0,70,0,0
77944,-100,4,2,0,25,0,0
83134,-133.333333333333,4,2,0,30,0,0
87025,-133.333333333333,4,2,0,35,0,0
87350,-133.333333333333,4,2,0,25,0,0
87674,-133.333333333333,4,2,0,20,0,0
88323,-100,4,2,0,50,0,0
89620,-100,4,2,0,55,0,0
90269,-100,4,2,0,60,0,0
90917,-100,4,2,0,40,0,0
91404,-100,4,2,0,45,0,0
91890,-100,4,2,0,50,0,0
93512,-100,4,2,0,75,0,1
98052,-100,4,2,0,70,0,1
98296,-100,4,2,0,50,0,0
98377,-100,4,2,0,65,0,1
98458,-100,4,2,0,65,0,0
98701,-100,4,2,0,75,0,1
103242,-100,4,2,0,65,0,0
103890,-100,4,2,0,80,0,1
108674,-100,4,2,0,70,0,0
108755,-100,4,2,0,80,0,1
108836,-100,4,2,0,70,0,0
109079,-100,4,2,0,85,0,1
114269,-100,4,2,0,85,0,0
114593,-100,4,2,0,40,0,0
115566,-100,4,2,0,30,0,0
115890,-100,4,2,0,20,0,0
116215,-100,4,2,0,15,0,0
116539,-100,4,2,0,10,0,0
116863,-100,4,2,0,5,0,0

[Colours]
Combo1 : 120,130,218
Combo2 : 152,211,126
Combo3 : 123,210,215
Combo4 : 211,122,216

[HitObjects]
17,154,107,5,0,1:0:0:0:
156,100,755,1,2,0:0:0:0:
194,245,1404,2,0,P|162:290|134:340,2,112.500004291535,0|2|0,1:0|0:0|3:0,0:0:0:0:
248,193,2701,2,0,P|280:148|308:98,2,112.500004291535,0|2|0,1:0|0:0|1:0,0:0:0:0:
263,266,3998,2,0,P|337:283|421:278,1,150.000005722046,0|0,1:0|0:0,0:0:0:0:
488,151,5296,5,0,1:0:0:0:
387,40,5944,1,2,0:0:0:0:
264,126,6593,2,0,P|281:186|288:246,2,112.500004291535,0|2|0,1:0|0:0|3:0,0:0:0:0:
194,97,7890,2,0,P|175:156|146:217,2,112.500004291535,0|2|2,1:0|0:0|1:0,0:0:0:0:
143,40,9188,2,2,P|95:79|6:135,1,150.000005722046,4|0,1:2|0:0,0:0:0:0:
84,316,10485,5,0,1:0:0:0:
160,251,10809,1,0,1:0:0:0:
253,286,11134,2,0,L|372:324,1,100,2|0,1:0|1:0,0:0:0:0:
417,244,11782,2,0,L|298:206,1,100,2|0,1:0|1:0,0:0:0:0:
226,181,12431,1,0,1:0:0:0:
209,82,12755,1,2,1:0:0:0:
293,28,13079,6,0,P|347:43|425:55,2,100,2|0|0,1:0|1:0|1:0,0:0:0:0:
194,45,14052,1,2,1:0:0:0:
164,140,14377,2,0,L|201:254,1,100,2|0,1:0|1:0,0:0:0:0:
116,297,15025,2,0,L|79:183,1,100,0|0,1:0|1:0,0:0:0:0:
43,110,15674,5,4,1:3:0:0:
96,25,15998,1,4,1:3:0:0:
194,43,16323,1,2,1:0:0:0:
198,142,16647,1,4,1:3:0:0:
260,219,16971,6,0,P|337:221|361:198,1,100,2|4,1:0|1:3,0:0:0:0:
402,122,17620,2,0,P|325:120|301:143,1,100,4|10,1:3|1:0,0:0:0:0:
289,145,18107,1,0,1:0:0:0:
269,161,18269,2,0,L|294:2,1,150,4|4,1:2|1:2,3:3:0:0:
269,23,18917,1,0,3:0:0:0:
174,56,19242,1,8,1:0:0:0:
180,155,19566,1,4,1:2:0:0:
180,155,20863,6,0,P|109:148|68:154,1,100,4|8,1:0|1:0,0:0:0:0:
40,243,21512,1,2,1:0:0:0:
105,318,21836,1,8,1:0:0:0:
188,262,22161,2,0,P|259:260|310:263,1,100,2|8,1:0|1:0,0:0:0:0:
361,329,22809,2,0,L|423:324,1,50,0|2,1:0|1:0,0:0:0:0:
428,343,23134,2,0,L|490:338,1,50,8|2,1:0|1:0,0:0:0:0:
497,323,23458,5,4,1:2:0:0:
480,224,23782,1,8,1:0:0:0:
380,237,24107,2,0,L|302:261,2,50,2|0|8,1:0|0:0|1:0,0:0:0:0:
425,148,24755,2,0,P|364:99|324:70,1,100,4|8,1:2|1:0,0:0:0:0:
262,31,25404,1,2,1:0:0:0:
186,96,25728,2,0,L|130:132,1,50,4|2,1:2|1:0,0:0:0:0:
119,128,26052,6,0,P|129:70|131:23,1,100,4|8,1:2|1:0,0:0:0:0:
34,54,26701,1,2,1:0:0:0:
24,153,27025,1,8,1:0:0:0:
102,215,27350,2,0,P|156:199|204:192,1,100,0|8,1:0|1:0,0:0:0:0:
287,239,27998,2,0,L|290:300,1,50,2|2,1:0|3:0,0:0:0:0:
268,302,28323,2,0,L|265:363,1,50,8|2,1:0|1:0,0:0:0:0:
241,358,28647,6,0,P|162:346|121:346,2,100,4|8|0,1:2|1:0|1:0,0:0:0:0:
334,321,29620,1,8,1:0:0:0:
279,237,29944,2,0,L|217:241,2,50,0|4|4,1:0|1:2|1:2,0:0:0:0:
333,152,30593,2,0,P|296:118|255:86,1,100,4|8,1:2|1:0,0:0:0:0:
243,66,31079,1,4,1:2:0:0:
228,45,31242,6,0,L|338:46,1,100,4|8,1:0|1:0,0:0:0:0:
427,57,31890,1,2,1:0:0:0:
401,153,32215,2,0,L|383:216,1,50,8|10,1:0|0:1,0:0:0:0:
381,225,32539,1,2,1:0:0:0:
282,210,32863,1,8,1:0:0:0:
257,310,33188,1,2,1:0:0:0:
174,254,33512,2,0,L|128:203,1,50,10|2,1:0|1:0,0:0:0:0:
116,210,33836,6,0,L|54:240,2,50,2|0|8,1:0|1:0|1:0,0:0:0:0:
189,141,34485,1,0,1:0:0:0:
108,82,34809,1,8,1:0:0:0:
194,30,35134,2,0,L|270:31,2,50,2|0|8,1:0|1:0|1:0,0:0:0:0:
94,27,35782,2,0,P|59:88|68:142,1,100,2|4,1:0|1:2,0:0:0:0:
72,137,36269,1,2,1:0:0:0:
89,154,36431,6,0,L|204:131,1,100,4|8,1:2|1:0,0:0:0:0:
268,192,37079,1,2,1:0:0:0:
212,275,37404,2,0,L|223:333,1,50,8|10,1:0|1:0,0:0:0:0:
231,346,37728,1,2,1:0:0:0:
327,319,38052,1,8,1:0:0:0:
421,353,38377,1,2,1:0:0:0:
432,253,38701,2,0,L|441:184,1,50,8|2,1:0|1:0,0:0:0:0:
431,179,39025,6,0,L|361:197,2,50,2|0|8,1:0|1:0|1:0,0:0:0:0:
495,101,39674,1,2,1:0:0:0:
414,42,39998,1,8,1:0:0:0:
318,71,40323,2,0,P|316:130|325:201,1,100,4|4,1:0|1:2,0:0:0:0:
240,231,40971,2,0,P|231:192|211:139,2,75,4|4|4,1:2|1:2|1:2,0:0:0:0:
231,254,41620,5,4,1:0:0:0:
150,313,41944,1,8,1:0:0:0:
60,267,42269,2,0,L|40:162,1,100,0|8,1:0|1:0,0:0:0:0:
123,111,42917,2,0,L|183:121,2,50,0|2|8,1:0|3:0|1:0,0:0:0:0:
73,23,43566,2,0,L|13:13,2,50,0|2|8,1:0|3:0|1:0,0:0:0:0:
171,39,44215,5,0,1:0:0:0:
257,88,44539,1,8,1:0:0:0:
226,183,44863,2,0,L|225:297,1,100,0|8,1:0|1:0,0:0:0:0:
324,294,45512,2,0,L|336:234,2,50,0|2|8,1:0|3:0|1:0,0:0:0:0:
408,356,46161,1,4,1:2:0:0:
408,356,46323,2,2,B|434:326|434:326|423:263,1,100,4|0,1:2|0:0,0:0:0:0:
416,242,46809,5,4,1:0:0:0:
345,170,47134,1,8,1:0:0:0:
251,204,47458,2,0,L|146:243,1,100,0|8,1:0|1:0,0:0:0:0:
88,165,48107,2,0,L|106:101,2,50,0|2|8,1:0|3:0|1:0,0:0:0:0:
33,248,48755,2,0,L|51:312,2,50,0|2|8,1:0|3:0|1:0,0:0:0:0:
9,150,49404,5,0,1:0:0:0:
31,52,49728,1,8,1:0:0:0:
130,60,50052,2,0,L|250:71,1,100,0|8,1:0|1:0,0:0:0:0:
291,147,50701,2,2,P|229:199|232:266,1,150,4|0,1:2|1:0,0:0:0:0:
243,284,51350,2,0,L|303:277,1,50,0|2,1:0|0:0,0:0:0:0:
313,292,51674,2,0,L|373:285,1,50,8|0,1:0|0:0,0:0:0:0:
385,296,51998,5,4,1:0:0:0:
466,354,52323,1,8,1:0:0:0:
469,254,52647,2,0,L|471:137,1,100,2|8,1:0|1:0,0:0:0:0:
375,123,53296,2,0,L|327:146,2,50,0|2|8,1:0|1:0|1:0,0:0:0:0:
425,36,53944,2,0,L|473:59,2,50,0|2|8,1:0|0:0|1:0,0:0:0:0:
326,18,54593,5,0,1:0:0:0:
232,53,54917,1,8,1:0:0:0:
273,144,55242,2,0,L|258:251,1,100,2|8,1:0|1:0,0:0:0:0:
186,311,55890,2,0,L|170:256,2,50,0|0|8,1:0|1:0|1:0,0:0:0:0:
101,364,56539,1,0,1:0:0:0:
101,364,56701,2,0,B|72:333|72:333|75:264,1,100,4|0,1:2|1:0,0:0:0:0:
76,250,57188,5,4,1:0:0:0:
131,166,57512,2,0,L|190:176,2,50,8|2|2,1:0|1:0|1:0,0:0:0:0:
73,83,58161,2,0,L|14:93,2,50,8|2|4,1:0|1:0|1:2,0:0:0:0:
165,45,58809,1,8,1:0:0:0:
246,104,59134,1,0,1:0:0:0:
211,197,59458,1,8,1:0:0:0:
276,272,59782,6,0,P|339:257|392:245,1,100,4|8,1:0|1:0,0:0:0:0:
464,291,60431,2,0,L|442:352,2,50,2|0|8,1:0|1:0|1:0,0:0:0:0:
453,268,60917,2,0,L|484:165,1,100,4|0,1:2|1:0,0:0:0:0:
464,154,61404,1,8,1:0:0:0:
369,122,61728,2,2,L|364:178,2,50,2|4|2,1:0|1:2|1:2,0:0:0:0:
332,28,62377,6,0,P|268:49|266:138,1,150,4|4,1:2|0:0,0:0:0:0:
106,125,63350,2,0,P|170:146|172:235,1,150,4|4,1:2|1:2,0:0:0:0:
328,247,64323,2,0,P|272:264|260:320,1,100,4|4,1:2|1:2,0:0:0:0:
175,355,64971,5,4,1:2:0:0:
87,232,65458,1,4,1:2:0:0:
216,156,65944,1,4,1:2:0:0:
303,278,66431,1,4,1:2:0:0:
216,156,66917,1,4,1:2:0:0:
137,218,67242,1,12,1:2:0:0:
51,166,67566,6,0,P|42:110|130:67,1,150,4|4,1:0|1:2,0:0:0:0:
249,2,68539,2,0,P|240:58|328:101,1,150,4|4,1:2|1:2,0:0:0:0:
403,222,69512,2,0,P|447:173|484:180,1,100,4|4,1:2|1:2,0:0:0:0:
492,274,70161,6,0,L|454:353,1,75,4|8,1:2|1:0,0:0:0:0:
389,365,70647,2,0,L|360:287,1,75,4|8,1:2|1:2,0:0:0:0:
295,261,71134,2,0,L|266:313,1,50,4|8,1:2|1:0,0:0:0:0:
254,323,71458,6,0,B|217:299|217:299|146:309,1,100,4|8,1:2|1:2,0:0:0:0:
64,329,72107,2,0,L|74:275,1,50,4|8,1:2|1:2,0:0:0:0:
53,264,72431,2,0,L|60:209,1,50,4|8,1:2|1:0,0:0:0:0:
79,199,72755,1,4,1:2:0:0:
79,199,77944,5,0,1:0:0:0:
121,330,83134,6,0,B|188:362|188:362|268:339,1,150.000005722046,4|0,1:0|3:0,0:0:0:0:
179,214,84431,2,0,L|59:232,2,112.500004291535,0|2|2,1:0|0:0|3:0,0:0:0:0:
253,225,85728,1,0,1:0:0:0:
324,356,86377,1,2,0:0:0:0:
458,290,87025,2,0,B|488:251|488:251|468:134,1,150.000005722046,0|2,1:0|0:0,0:0:0:0:
312,32,88323,5,0,1:0:0:0:
232,92,88647,1,0,1:0:0:0:
151,33,88971,1,2,1:0:0:0:
68,89,89296,1,0,1:0:0:0:
125,171,89620,2,0,L|103:271,2,100,2|0|0,1:0|1:0|1:0,0:0:0:0:
216,212,90593,1,2,1:0:0:0:
182,305,90917,6,0,P|122:302|70:318,1,100,0|0,1:0|1:0,0:0:0:0:
61,322,91404,2,0,L|50:209,1,100,2|0,1:0|1:0,0:0:0:0:
48,197,91890,2,0,L|108:204,1,50,2|0,1:0|1:0,0:0:0:0:
122,204,92215,1,4,1:2:0:0:
148,202,93512,6,0,P|122:151|84:102,1,100,4|8,1:0|1:0,0:0:0:0:
78,99,93998,1,2,1:0:0:0:
58,83,94161,2,0,L|37:158,2,50,2|0|8,1:0|0:0|1:0,0:0:0:0:
132,16,94809,1,0,1:0:0:0:
211,77,95134,1,8,1:0:0:0:
157,161,95458,1,2,1:0:0:0:
239,217,95782,2,0,L|299:198,1,50,10|10,1:0|1:0,1:0:0:0:
330,226,96107,6,0,B|347:207|347:207|418:201,2,75,4|10|10,1:2|0:1|1:0,0:0:0:0:
298,264,96755,2,0,B|281:283|281:283|210:289,2,75,0|10|10,1:0|0:1|1:0,0:0:0:0:
344,284,97404,1,0,1:0:0:0:
403,364,97728,1,8,1:0:0:0:
496,321,98052,1,0,1:0:0:0:
496,321,98215,1,0,1:0:0:0:
496,321,98377,2,0,L|509:265,1,50,4|0,1:2|0:0,0:0:0:0:
472,236,98701,5,4,1:2:0:0:
411,156,99025,1,8,1:0:0:0:
316,189,99350,2,0,L|209:218,1,100,2|8,1:0|1:0,0:0:0:0:
194,215,99836,1,10,1:0:0:0:
169,210,99998,1,2,1:0:0:0:
93,146,100323,1,8,1:0:0:0:
122,50,100647,1,2,1:0:0:0:
221,55,100971,2,0,B|285:76,1,50,10|10,1:0|1:0,1:0:0:0:
302,107,101296,6,0,B|285:134|285:134|293:193,2,75,2|10|10,1:0|1:0|1:0,0:0:0:0:
324,62,101944,1,2,1:0:0:0:
424,56,102269,2,0,L|482:67,1,50,8|10,1:0|1:0,0:0:0:0:
487,113,102593,1,2,1:0:0:0:
405,170,102917,1,4,1:2:0:0:
475,240,103242,1,4,1:2:0:0:
403,309,103566,1,8,1:0:0:0:
403,309,103728,1,4,1:2:0:0:
403,309,103890,6,0,P|324:288|296:287,1,100,4|8,1:0|1:0,0:0:0:0:
282,297,104377,1,2,1:0:0:0:
259,308,104539,1,2,1:0:0:0:
181,244,104863,2,0,L|161:196,1,50,8|10,1:0|1:0,0:0:0:0:
140,152,105188,1,2,1:0:0:0:
61,213,105512,1,8,1:0:0:0:
70,312,105836,2,0,L|125:295,1,50,2|0,1:0|0:0,0:0:0:0:
154,331,106161,2,0,L|209:306,1,50,10|2,1:0|1:0,0:0:0:0:
249,314,106485,6,0,P|251:263|249:210,1,100,4|8,1:2|1:0,0:0:0:0:
241,190,106971,1,10,1:0:0:0:
223,171,107134,1,2,1:0:0:0:
269,82,107458,1,8,1:0:0:0:
290,95,107620,1,10,1:0:0:0:
312,105,107782,2,0,L|416:82,1,100,2|8,1:0|1:0,0:0:0:0:
489,143,108431,2,0,L|477:213,1,50,8|2,1:0|1:0,0:0:0:0:
473,241,108755,1,4,1:2:0:0:
372,273,109079,5,4,1:0:0:0:
292,212,109404,2,0,L|246:237,2,50,8|2|2,1:0|1:0|1:0,0:0:0:0:
234,130,110052,2,0,L|181:160,1,50,10|10,1:0|1:0,0:0:0:0:
148,182,110377,1,2,1:0:0:0:
64,111,110701,2,0,L|106:78,2,50,8|2|2,1:0|1:0|1:0,0:0:0:0:
47,216,111350,1,8,1:0:0:0:
47,216,111512,1,2,1:0:0:0:
47,216,111674,6,0,L|58:279,1,50,4|2,1:2|1:0,0:0:0:0:
122,340,112161,2,0,L|143:283,1,50,10|8,1:0|1:0,0:0:0:0:
231,254,112647,1,8,1:0:0:0:
251,269,112809,1,2,1:0:0:0:
273,282,112971,6,0,B|313:256|313:256|373:270,1,100,2|10,1:0|1:0,0:0:0:0:
429,192,113620,2,0,L|341:165,2,75,2|10|10,1:0|1:0|1:0,0:0:0:0:
476,207,114269,1,4,1:2:0:0:
256,192,114431,12,0,116863,0:0:0:0:
