osu file format v14

[General]
AudioFilename: audio.mp3
AudioLeadIn: 0
PreviewTime: 25
Countdown: 0
SampleSet: Soft
StackLeniency: 0.7
Mode: 0
LetterboxInBreaks: 0
WidescreenStoryboard: 0

[Editor]
DistanceSpacing: 1.4
BeatDivisor: 4
GridSize: 4
TimelineZoom: 2.350001

[Metadata]
Title:Dirigeant Decision
TitleUnicode:Dirigeant Decision
Artist:siqlo
ArtistUnicode:siqlo
Creator:PandaHero
Version:Hard
Source:
Tags:shooter's festival k-shoot mania ksm ksmevent hard renaissance electronic instrumental SF2016
BeatmapID:2591521
BeatmapSetID:1240362

[Difficulty]
HPDrainRate:5
CircleSize:3.8
OverallDifficulty:7
ApproachRate:8
SliderMultiplier:1.2
SliderTickRate:1

[Events]
//Background and Video events
0,0,"sky-5119622_1920.jpg",0,0
//Break Periods
2,72955,77194
2,78144,82384
//Storyboard Layer 0 (Background)
//Storyboard Layer 1 (Fail)
//Storyboard Layer 2 (Pass)
//Storyboard Layer 3 (Foreground)
//Storyboard Layer 4 (Overlay)
//Storyboard Sound Samples

[TimingPoints]
107,324.324324324325,4,2,0,10,1,0
107,-200,4,2,0,10,0,0
7890,-200,4,2,0,15,0,0
9188,-200,4,2,0,20,0,0
10485,-133.333333333333,4,2,0,50,0,0
16971,-133.333333333333,4,2,0,55,0,0
17620,-133.333333333333,4,2,0,60,0,0
18269,-133.333333333333,4,2,0,65,0,0
19566,-133.333333333333,4,2,0,55,0,0
20863,-100,4,2,0,70,0,0
46323,-133.333333333333,4,2,0,60,0,0
46809,-100,4,2,0,70,0,0
56701,-133.333333333333,4,2,0,50,0,0
56782,-133.333333333333,4,2,0,35,0,0
57188,-83.3333333333333,4,2,0,75,0,0
62134,-133.333333333333,4,2,0,75,0,0
62377,-133.333333333333,4,2,0,65,0,0
67566,-133.333333333333,4,2,0,70,0,0
77944,-133.333333333333,4,2,0,25,0,0
83134,-200,4,2,0,30,0,0
87025,-200,4,2,0,35,0,0
87350,-200,4,2,0,25,0,0
87674,-200,4,2,0,20,0,0
88323,-133.333333333333,4,2,0,50,0,0
89620,-133.333333333333,4,2,0,55,0,0
90269,-133.333333333333,4,2,0,60,0,0
90917,-133.333333333333,4,2,0,40,0,0
91404,-133.333333333333,4,2,0,45,0,0
91890,-133.333333333333,4,2,0,50,0,0
93512,-83.3333333333333,4,2,0,75,0,1
98052,-83.3333333333333,4,2,0,70,0,1
98296,-83.3333333333333,4,2,0,50,0,0
98377,-133.333333333333,4,2,0,65,0,1
98458,-133.333333333333,4,2,0,65,0,0
98701,-83.3333333333333,4,2,0,75,0,1
103242,-83.3333333333333,4,2,0,65,0,0
103890,-83.3333333333333,4,2,0,80,0,1
108674,-83.3333333333333,4,2,0,70,0,0
108755,-83.3333333333333,4,2,0,80,0,1
108836,-83.3333333333333,4,2,0,70,0,0
109079,-83.3333333333333,4,2,0,85,0,1
114269,-83.3333333333333,4,2,0,85,0,0
114593,-83.3333333333333,4,2,0,40,0,0
115566,-83.3333333333333,4,2,0,30,0,0
115890,-83.3333333333333,4,2,0,20,0,0
116215,-83.3333333333333,4,2,0,15,0,0
116539,-83.3333333333333,4,2,0,10,0,0
116863,-83.3333333333333,4,2,0,5,0,0

[Colours]
Combo1 : 120,130,218
Combo2 : 152,211,126
Combo3 : 123,210,215
Combo4 : 211,122,216

[HitObjects]
35,185,107,6,0,B|81:151|81:151|149:160,1,120,0|2,1:0|0:0,0:0:0:0:
257,265,1404,2,0,L|237:360,2,90,0|2|0,1:0|0:0|3:0,0:0:0:0:
291,195,2701,2,0,L|283:102,1,90,0|2,1:0|0:0,0:0:0:0:
377,35,3674,2,0,L|416:41,1,30,0|0,1:0|3:0,0:0:0:0:
441,56,3998,2,0,B|415:108|415:108|432:174,1,120,0|0,1:0|0:0,0:0:0:0:
466,320,5296,6,0,B|420:286|420:286|352:295,1,120,0|2,1:0|0:0,0:0:0:0:
209,246,6593,2,0,P|235:219|285:181,2,90,0|2|0,1:0|0:0|3:0,0:0:0:0:
128,246,7890,2,0,P|135:209|156:150,2,90,0|2|2,1:0|0:0|1:0,0:0:0:0:
65,294,9188,2,2,P|44:262|28:171,1,120,4|0,1:2|0:0,0:0:0:0:
216,45,10485,5,0,1:0:0:0:
301,125,10809,1,0,1:0:0:0:
215,205,11134,2,0,B|208:309,1,90.0000034332277,2|0,1:0|1:0,0:0:0:0:
307,357,11782,2,0,B|314:253,1,90.0000034332277,2|0,1:0|1:0,0:0:0:0:
401,190,12431,1,0,1:0:0:0:
490,264,12755,1,2,1:0:0:0:
441,370,13079,6,0,B|401:340|401:340|299:351,1,135.000005149841,2|2,1:0|0:1,0:0:0:0:
286,369,13728,2,0,L|181:362,1,90.0000034332277,0|2,1:0|1:0,0:0:0:0:
79,369,14377,2,0,B|79:322|79:322|120:275,2,90.0000034332277,2|0|0,1:0|1:0|1:0,0:0:0:0:
7,265,15350,1,0,1:0:0:0:
97,177,15674,6,0,L|161:184,1,45.0000017166138,4|4,1:3|0:3,0:0:0:0:
204,137,15998,2,0,L|248:141,1,45.0000017166138,4|8,1:3|0:3,0:0:0:0:
311,185,16323,2,0,L|285:291,1,90.0000034332277,2|4,1:0|1:3,0:0:0:0:
333,334,16809,1,8,1:3:0:0:
402,301,16971,6,0,L|410:242,1,45.0000017166138,2|8,1:0|0:3,0:0:0:0:
477,223,17296,2,0,L|469:164,1,45.0000017166138,4|2,1:3|1:0,0:0:0:0:
428,114,17620,2,0,L|326:144,1,90.0000034332277,4|10,1:3|1:0,0:0:0:0:
295,78,18107,1,0,1:0:0:0:
301,61,18188,1,0,1:0:0:0:
307,43,18269,6,0,L|217:54,1,90.0000034332277,4|8,1:2|1:0,0:0:0:0:
143,76,18755,2,0,L|93:67,1,45.0000017166138,4|0,1:2|3:0,3:3:0:0:
57,135,19079,2,0,L|107:146,1,45.0000017166138,4|8,1:2|1:0,3:3:0:0:
161,192,19404,1,2,1:0:0:0:
168,268,19566,6,0,P|143:313|124:333,3,67.5000025749207,0|4|4|4,1:0|1:2|1:2|1:2,0:0:0:0:
64,186,20539,1,4,1:2:0:0:
64,186,20863,6,0,L|127:201,1,60,4|0,1:0|1:0,0:0:0:0:
188,147,21188,2,0,L|154:78,1,60,8|0,1:0|1:0,0:0:0:0:
54,30,21512,2,0,L|90:121,2,90,2|10|10,1:0|1:0|0:1,0:0:0:0:
135,7,22161,2,0,P|171:9|234:19,1,90,2|2,1:0|0:1,0:0:0:0:
239,31,22485,2,0,L|305:30,1,60,8|2,1:0|1:0,0:0:0:0:
366,80,22809,1,0,1:0:0:0:
297,127,22971,1,2,1:0:0:0:
357,185,23134,2,0,L|350:258,1,60,8|2,1:0|1:0,0:0:0:0:
428,301,23458,6,0,L|437:232,1,60,4|0,1:2|1:0,0:0:0:0:
452,159,23782,1,8,1:0:0:0:
369,173,23944,1,0,1:0:0:0:
332,102,24107,1,2,1:0:0:0:
332,102,24188,2,0,L|377:36,1,60,0|2,0:0|1:0,0:0:0:0:
367,31,24431,2,0,L|291:41,1,60,8|2,1:0|0:1,0:0:0:0:
212,50,24755,5,4,1:2:0:0:
131,24,24917,1,0,1:0:0:0:
77,89,25079,1,8,1:0:0:0:
77,89,25161,2,0,L|85:165,1,60,2|0,1:0|0:0,0:0:0:0:
88,169,25404,2,0,P|129:144|180:135,2,90,2|10|10,1:0|1:0|1:0,0:0:0:0:
47,255,26052,5,4,1:2:0:0:
104,316,26215,1,2,1:0:0:0:
175,272,26377,2,0,L|257:261,1,60,8|0,1:0|3:0,0:0:0:0:
299,317,26701,2,0,P|336:326|402:322,2,90,2|10|10,1:0|1:0|1:0,0:0:0:0:
294,220,27350,5,0,1:0:0:0:
376,189,27512,1,0,1:0:0:0:
376,189,27593,2,0,L|472:211,1,90,10|8,1:0|1:0,0:0:0:0:
471,125,27998,2,0,L|395:109,1,60,2|2,1:0|3:0,0:0:0:0:
332,86,28323,1,8,1:0:0:0:
276,149,28485,1,2,1:0:0:0:
306,240,28647,6,0,L|300:326,1,60,4|0,1:2|1:0,0:0:0:0:
240,357,28971,2,0,L|170:345,1,60,8|0,1:0|1:0,0:0:0:0:
100,327,29296,1,0,1:0:0:0:
100,327,29377,2,0,L|117:259,1,60,2|2,1:0|1:0,0:0:0:0:
123,249,29620,2,0,L|190:262,1,60,8|2,1:0|1:0,0:0:0:0:
254,198,29944,5,0,1:0:0:0:
216,122,30107,1,4,1:2:0:0:
133,135,30269,1,4,1:2:0:0:
299,40,30593,2,0,L|300:146,2,90,4|4|4,1:2|1:2|1:2,0:0:0:0:
394,27,31242,6,0,P|445:84|431:141,1,120,4|8,1:0|1:0,0:0:0:0:
415,202,31728,1,2,0:0:0:0:
332,214,31890,2,0,P|283:206|237:199,1,90,2|10,1:0|1:0,0:0:0:0:
222,204,32215,1,0,0:0:0:0:
226,287,32377,1,10,1:0:0:0:
148,343,32539,6,0,L|119:283,1,60,2|2,1:0|0:0,0:0:0:0:
61,230,32863,2,0,L|76:154,1,60,8|2,1:0|0:0,0:0:0:0:
95,89,33188,2,0,P|143:108|223:109,1,120,2|10,1:0|1:0,0:0:0:0:
291,87,33674,1,2,1:0:0:0:
319,178,33836,6,0,P|292:196|254:226,1,60,2|0,1:0|1:0,0:0:0:0:
200,260,34161,1,8,1:0:0:0:
244,330,34323,1,2,0:0:0:0:
338,305,34485,1,0,1:0:0:0:
338,305,34566,2,0,L|411:294,1,60,2|2,1:0|0:1,0:0:0:0:
418,296,34809,2,0,L|426:362,1,60,8|2,1:0|0:1,0:0:0:0:
500,294,35134,5,2,1:0:0:0:
478,212,35296,1,0,1:0:0:0:
394,214,35458,2,0,P|365:219|317:228,1,60,8|2,1:0|1:2,0:0:0:0:
363,133,35782,2,0,P|409:114|455:102,2,90,2|10|10,1:0|1:0|1:0,0:0:0:0:
268,159,36431,5,4,1:2:0:0:
190,127,36593,1,2,0:0:0:0:
114,163,36755,2,0,L|122:234,1,60,8|2,1:0|0:0,0:0:0:0:
185,276,37079,2,0,P|196:320|205:376,2,90,2|10|10,1:0|1:0|1:0,0:0:0:0:
93,244,37728,6,0,L|21:263,1,60,2|2,1:0|0:0,0:0:0:0:
15,177,38052,2,0,L|83:154,1,60,8|2,1:0|0:0,0:0:0:0:
141,110,38377,2,0,P|181:175|227:189,1,120,2|8,1:0|1:0,0:0:0:0:
315,191,38863,1,2,1:0:0:0:
364,108,39025,6,0,L|436:118,1,60,2|0,1:0|1:0,0:0:0:0:
466,188,39350,2,0,L|451:248,1,60,8|2,1:0|0:0,0:0:0:0:
431,327,39674,1,2,1:0:0:0:
357,272,39836,6,0,L|271:286,1,60,4|0,1:2|3:0,3:3:0:0:
263,371,40161,2,0,L|349:357,1,60,2|0,1:0|3:0,3:3:0:0:
212,275,40485,5,4,1:2:0:0:
212,275,40647,2,0,P|142:344|117:354,1,120,4|4,1:2|1:2,0:0:0:0:
48,249,41215,1,4,1:2:0:0:
113,141,41458,1,4,1:2:0:0:
207,157,41620,6,0,L|335:181,1,120,4|8,1:0|1:0,0:0:0:0:
409,186,42107,1,12,1:2:0:0:
467,125,42269,2,0,L|379:87,1,90,0|12,1:0|1:2,0:0:0:0:
367,76,42593,1,0,0:0:0:0:
305,18,42755,1,12,1:2:0:0:
231,79,42917,6,0,P|240:127|248:178,1,90,0|8,1:0|1:0,0:0:0:0:
230,181,43242,2,0,P|180:180|161:181,1,60,0|8,0:0|1:0,0:0:0:0:
87,196,43566,2,0,P|86:149|95:84,2,90,0|8|8,1:0|1:0|1:0,0:0:0:0:
87,292,44215,6,0,P|145:334|171:329,1,90,0|4,1:0|1:2,0:0:0:0:
172,316,44539,2,0,L|249:324,1,60,8|12,1:0|1:2,0:0:0:0:
313,302,44863,1,0,1:0:0:0:
261,234,45025,1,0,0:0:0:0:
261,234,45107,2,0,L|279:135,1,90,12|12,1:2|1:2,0:0:0:0:
370,121,45512,6,0,P|432:140|443:140,1,60,0|2,1:0|3:0,0:0:0:0:
447,140,45755,2,0,L|426:235,1,90,8|8,1:0|1:0,0:0:0:0:
414,311,46161,1,4,1:2:0:0:
336,262,46323,6,2,P|285:278|265:319,1,90.0000034332277,4|0,1:2|0:0,0:0:0:0:
188,359,46809,5,4,1:0:0:0:
188,359,47134,2,0,P|173:295|171:286,1,60,8|12,1:0|1:2,0:0:0:0:
140,223,47458,2,0,P|92:233|39:253,1,90,0|4,1:0|1:2,0:0:0:0:
32,247,47782,2,0,L|43:179,1,60,8|12,0:0|1:2,0:0:0:0:
57,92,48107,6,0,P|109:119|154:114,1,90,0|8,1:0|1:0,0:0:0:0:
162,111,48431,1,0,0:0:0:0:
214,45,48593,1,8,1:0:0:0:
281,95,48755,2,0,P|260:119|232:177,2,90,0|8|8,1:0|1:0|1:0,0:0:0:0:
362,41,49404,5,0,1:0:0:0:
362,41,49728,2,0,L|436:55,1,60,8|12,1:0|1:2,0:0:0:0:
483,108,50052,2,0,P|459:150|444:200,1,90,0|12,1:0|1:2,0:0:0:0:
437,208,50377,1,0,0:0:0:0:
358,178,50539,1,12,1:2:0:0:
277,229,50701,6,2,P|288:292|291:358,1,120,4|8,1:2|1:0,0:0:0:0:
208,366,51188,2,0,L|208:324,2,30,0|0|0,1:0|1:0|1:0,0:0:0:0:
172,261,51512,1,2,0:0:0:0:
95,297,51674,1,8,1:0:0:0:
95,297,51755,2,0,L|81:370,1,60,2|0,1:0|0:0,0:0:0:0:
63,360,51998,6,0,P|48:306|46:240,1,120,4|8,1:0|1:0,0:0:0:0:
56,158,52485,1,2,1:0:0:0:
139,162,52647,2,0,P|166:165|230:181,1,90,2|0,1:0|1:0,0:0:0:0:
242,193,52971,1,8,1:0:0:0:
326,197,53134,1,8,0:0:0:0:
339,102,53296,6,0,P|324:63|311:24,1,60,0|2,1:0|1:0,0:0:0:0:
304,29,53539,2,0,P|261:31|209:37,1,90,8|8,0:0|0:0,0:0:0:0:
211,120,53944,2,0,P|254:118|306:112,2,90,0|8|10,1:0|1:0|0:0,0:0:0:0:
137,182,54593,6,0,P|135:233|138:280,1,90,0|0,1:0|2:0,0:0:0:0:
143,291,54917,1,8,1:0:0:0:
201,351,55079,1,2,1:0:0:0:
269,299,55242,2,0,P|261:262|235:199,2,90,2|10|10,1:0|1:0|1:0,0:0:0:0:
353,343,55890,6,0,P|412:356|442:347,1,90,0|2,1:0|0:1,0:0:0:0:
459,342,56215,1,8,1:0:0:0:
492,265,56377,2,0,L|445:265,2,30,10|0|0,1:0|1:0|1:0,0:0:0:0:
410,206,56701,2,0,B|286:211,1,112.500004291535,4|0,1:2|1:0,0:0:0:0:
272,206,57188,5,4,1:0:0:0:
180,248,57350,2,0,L|190:295,2,35.9999989013672,0|0|8,0:0|1:0|1:0,0:0:0:0:
149,151,57674,1,2,1:0:0:0:
227,88,57836,2,0,P|262:103|334:124,1,107.999996704102,2|2,1:0|1:0,0:0:0:0:
353,128,58161,2,0,L|328:24,1,71.9999978027344,8|2,1:0|1:0,0:0:0:0:
232,7,58485,5,4,1:2:0:0:
145,58,58647,2,0,L|103:38,2,35.9999989013672,0|2|8,3:0|1:0|1:0,0:0:0:0:
216,128,58971,1,10,1:0:0:0:
119,160,59134,2,0,P|132:201|144:276,1,107.999996704102,0|10,1:0|1:0,0:0:0:0:
123,280,59458,2,0,P|72:275|43:272,1,71.9999978027344,0|10,0:0|1:0,0:0:0:0:
124,361,59782,5,4,1:0:0:0:
145,361,59863,1,0,1:0:0:0:
166,358,59944,1,0,1:0:0:0:
187,356,60025,1,2,1:0:0:0:
208,352,60107,2,0,L|203:299,3,35.9999989013672,8|0|2|0,1:0|1:0|1:0|1:0,0:0:0:0:
230,253,60431,2,0,L|235:306,3,35.9999989013672,2|0|0|2,1:0|1:0|1:0|1:0,0:0:0:0:
299,211,60755,5,8,1:0:0:0:
299,211,60836,1,0,1:0:0:0:
299,211,60917,2,0,P|329:240|401:253,1,107.999996704102,4|0,1:2|0:0,0:0:0:0:
416,246,61242,2,0,L|403:302,2,35.9999989013672,0|0|0,1:0|0:0|1:0,0:0:0:0:
439,148,61566,2,0,L|452:92,2,35.9999989013672,2|0|2,1:0|1:0|1:0,0:0:0:0:
338,148,61890,1,4,1:2:0:0:
297,55,62052,1,2,1:2:0:0:
297,55,62377,6,0,L|218:33,1,67.5000025749207,4|8,1:2|1:2,0:0:0:0:
131,122,62863,2,0,L|52:100,1,67.5000025749207,4|8,0:0|1:2,0:0:0:0:
85,234,63350,2,0,L|141:245,2,45.0000017166138,4|0|8,1:2|1:0|1:0,0:0:0:0:
33,290,63836,1,4,1:2:0:0:
84,351,63998,1,8,1:0:0:0:
84,351,64323,2,0,P|132:340|175:334,1,90.0000034332277,4|4,1:2|1:2,0:0:0:0:
323,363,64971,6,0,L|318:283,1,67.5000025749207,4|8,1:2|1:2,0:0:0:0:
250,202,65458,2,0,L|255:122,1,67.5000025749207,4|8,1:2|1:2,0:0:0:0:
351,74,65944,2,0,L|352:128,2,45.0000017166138,4|0|8,1:2|1:0|1:0,0:0:0:0:
408,23,66431,1,4,1:2:0:0:
479,65,66593,1,0,1:0:0:0:
479,65,66917,2,0,L|473:169,1,90.0000034332277,4|12,1:2|1:2,0:0:0:0:
343,235,67566,6,0,L|348:174,2,45.0000017166138,4|0|0,1:0|0:0|1:0,0:0:0:0:
408,273,68052,2,0,P|445:268|484:255,1,67.5000025749207,4|8,1:2|1:0,0:0:0:0:
409,354,68539,2,0,L|354:344,1,45.0000017166138,4|0,1:2|1:0,0:0:0:0:
297,309,68863,2,0,L|242:319,1,45.0000017166138,8|4,1:0|1:2,0:0:0:0:
184,280,69188,6,0,L|173:197,1,67.5000025749207,2|8,1:0|1:0,0:0:0:0:
175,199,69512,2,0,L|230:209,1,45.0000017166138,4|8,1:2|1:2,0:0:0:0:
292,230,69836,2,0,L|347:220,1,45.0000017166138,4|8,1:2|1:2,0:0:0:0:
373,154,70161,1,4,1:2:0:0:
363,144,70242,1,0,3:0:0:0:
353,134,70323,2,0,L|364:94,2,22.5000008583069,2|8|2,0:0|1:0|0:0,0:0:0:0:
445,94,70647,1,4,1:2:0:0:
457,98,70728,1,0,3:0:0:0:
469,102,70809,2,0,L|458:142,2,22.5000008583069,0|8|2,1:0|1:2|0:0,0:0:0:0:
437,17,71134,6,0,L|500:17,2,45.0000017166138,4|8|4,1:2|1:0|1:2,0:0:0:0:
363,34,71620,2,0,P|327:51|271:59,1,90.0000034332277,4|0,1:2|0:0,0:0:0:0:
204,81,72107,2,0,L|230:137,1,45.0000017166138,4|8,1:2|1:2,0:0:0:0:
263,186,72431,1,4,1:2:0:0:
209,240,72593,1,8,1:0:0:0:
139,210,72755,1,4,1:2:0:0:
209,240,77944,5,0,1:0:0:0:
235,331,83134,5,4,1:0:0:0:
235,331,83782,2,0,P|160:297|141:295,1,90,0|0,3:0|0:0,0:0:0:0:
108,293,84431,2,0,L|94:197,2,90,0|2|2,1:0|0:0|3:0,0:0:0:0:
190,221,85728,2,0,L|183:153,1,60,0|0,1:0|0:0,0:0:0:0:
181,116,86215,1,2,0:0:0:0:
181,116,86701,2,0,L|217:120,1,30,2|0,0:0|1:0,0:0:0:0:
251,100,87025,2,0,B|306:126|306:126|368:100,1,120,0|0,1:0|1:0,3:3:0:0:
360,103,88323,6,0,L|421:120,1,45.0000017166138,0|0,1:0|1:0,0:0:0:0:
458,61,88647,2,0,L|519:78,1,45.0000017166138,0|0,1:0|1:0,0:0:0:0:
398,6,88971,2,0,L|297:15,1,90.0000034332277,2|0,1:0|1:0,0:0:0:0:
236,41,89458,1,0,1:0:0:0:
219,115,89620,6,0,L|225:173,1,45.0000017166138,2|0,1:0|1:0,0:0:0:0:
154,191,89944,2,0,L|148:133,1,45.0000017166138,0|2,1:0|1:0,0:0:0:0:
66,219,90269,2,0,L|82:317,1,90.0000034332277,0|2,1:0|1:0,0:0:0:0:
140,355,90755,1,0,1:0:0:0:
204,314,90917,6,0,L|190:283,5,22.5000008583069,0|0|0|0|0|0,1:0|1:0|1:0|1:0|1:0|1:0,0:0:0:0:
283,349,91404,2,0,L|290:324,5,22.5000008583069,2|0|0|0|0|0,1:0|1:0|1:0|1:0|1:0|1:0,0:0:0:0:
267,228,91890,2,0,L|259:269,4,22.5000008583069,2|0|0|0|4,1:0|1:0|1:0|1:0|1:2,0:0:0:0:
224,131,93512,6,0,B|178:107|178:107|106:133,1,107.999996704102,4|2,1:0|1:0,0:0:0:0:
106,142,93836,2,0,L|27:126,1,71.9999978027344,8|2,1:0|1:0,0:0:0:0:
30,221,94161,2,0,B|63:261|63:261|49:321,1,107.999996704102,2|2,1:0|1:0,0:0:0:0:
42,339,94485,2,0,L|124:326,1,71.9999978027344,8|10,1:0|1:0,0:0:0:0:
138,329,94728,1,0,1:0:0:0:
163,329,94809,6,0,L|152:229,1,71.9999978027344,0|2,1:0|0:0,0:0:0:0:
256,231,95134,2,0,L|245:331,1,71.9999978027344,8|2,1:0|0:0,0:0:0:0:
268,318,95377,1,0,3:0:0:0:
290,328,95458,1,2,1:0:0:0:
381,346,95620,1,2,1:2:0:0:
400,254,95782,2,0,L|410:176,1,71.9999978027344,10|10,1:0|1:0,0:0:0:0:
327,109,96107,6,0,P|263:129|207:127,2,107.999996704102,4|10|10,1:2|0:1|1:0,0:0:0:0:
249,33,96755,2,0,P|185:13|129:15,2,107.999996704102,0|10|10,1:0|0:1|1:0,0:0:0:0:
338,63,97404,2,0,L|413:55,1,71.9999978027344,0|0,1:0|3:0,0:0:0:0:
430,68,97647,1,2,1:0:0:0:
451,80,97728,1,8,1:0:0:0:
407,162,97890,2,0,L|349:145,2,35.9999989013672,2|2|0,1:0|0:3|1:0,0:0:0:0:
480,221,98215,1,0,1:0:0:0:
404,299,98377,1,4,1:2:0:0:
404,299,98701,6,0,B|406:245|406:245|364:195,1,107.999996704102,4|2,1:2|1:0,0:0:0:0:
349,216,99025,2,0,L|273:236,1,71.9999978027344,8|2,1:0|1:0,0:0:0:0:
195,191,99350,2,0,B|193:137|193:137|235:87,1,107.999996704102,2|2,1:0|1:0,0:0:0:0:
249,83,99674,1,8,1:0:0:0:
337,119,99836,1,10,1:0:0:0:
282,25,99998,6,0,L|261:111,1,71.9999978027344,2|2,1:0|0:0,0:0:0:0:
360,179,100323,2,0,L|381:93,1,71.9999978027344,8|2,1:0|0:0,0:0:0:0:
274,194,100647,2,0,L|253:280,1,71.9999978027344,2|2,1:0|0:0,0:0:0:0:
233,272,100890,1,2,1:0:0:0:
211,285,100971,1,8,1:0:0:0:
119,307,101134,1,10,1:0:0:0:
35,239,101296,6,0,P|45:189|63:126,1,107.999996704102,2|2,1:0|1:0,0:0:0:0:
82,123,101620,2,0,P|93:73|100:30,1,71.9999978027344,8|2,1:0|1:0,0:0:0:0:
112,32,101863,1,2,0:0:0:0:
134,20,101944,1,2,1:0:0:0:
204,82,102107,2,0,L|174:135,2,35.9999989013672,0|2|8,0:0|1:0|1:0,0:0:0:0:
283,131,102431,1,10,1:0:0:0:
290,154,102512,1,0,1:0:0:0:
298,177,102593,6,0,P|335:159|375:150,1,71.9999978027344,2|0,1:0|0:0,0:0:0:0:
390,241,102917,2,0,P|424:266|498:267,1,107.999996704102,4|0,1:2|0:0,0:0:0:0:
497,246,103242,6,0,L|469:143,1,71.9999978027344,4|0,1:2|0:0,0:0:0:0:
462,156,103485,1,4,1:2:0:0:
441,141,103566,1,8,1:0:0:0:
348,153,103728,1,4,1:2:0:0:
249,109,103890,6,4,P|267:64|297:19,1,71.9999978027344,4|0,1:0|0:0,0:0:0:0:
292,22,104134,2,0,L|179:30,1,107.999996704102,10|10,1:0|1:0,0:0:0:0:
93,51,104539,2,0,L|109:138,1,71.9999978027344,2|2,1:0|0:0,0:0:0:0:
100,146,104782,1,10,1:0:0:0:
86,167,104863,1,0,0:0:0:0:
149,235,105025,1,10,1:0:0:0:
232,304,105188,6,0,P|284:287|313:273,1,71.9999978027344,2|0,1:0|0:0,0:0:0:0:
326,293,105431,1,2,1:0:0:0:
326,293,105512,2,0,P|359:306|393:317,1,71.9999978027344,8|0,1:0|1:0,0:0:0:0:
417,310,105755,1,0,0:0:0:0:
441,303,105836,1,2,1:0:0:0:
489,222,105998,1,0,0:0:0:0:
405,178,106161,2,0,L|318:203,1,71.9999978027344,10|2,1:0|1:0,0:0:0:0:
227,196,106485,6,0,P|246:133|274:75,2,107.999996704102,4|10|10,1:2|1:0|1:0,0:0:0:0:
137,256,107134,2,0,P|118:192|110:128,2,107.999996704102,2|10|10,1:0|1:0|1:0,0:0:0:0:
201,323,107782,1,2,1:0:0:0:
285,279,107944,1,2,0:0:0:0:
285,279,108025,2,0,L|357:303,1,71.9999978027344,10|2,1:0|0:0,0:0:0:0:
368,322,108269,2,0,L|334:365,2,35.9999989013672,10|0|8,1:0|1:0|1:0,0:0:0:0:
441,263,108593,1,2,1:0:0:0:
399,179,108755,2,0,L|269:190,1,107.999996704102,4|0,1:2|1:0,0:0:0:0:
249,167,109079,6,0,B|266:84,1,71.9999978027344,4|0,1:0|0:0,0:0:0:0:
266,74,109323,2,0,B|210:86|210:86|142:45,1,107.999996704102,10|10,1:0|1:0,0:0:0:0:
79,24,109728,1,2,1:0:0:0:
54,114,109890,1,0,1:0:0:0:
54,114,109971,1,0,1:0:0:0:
54,114,110052,1,10,1:0:0:0:
140,151,110215,1,10,1:0:0:0:
135,258,110377,6,0,L|50:258,1,71.9999978027344,2|2,1:0|0:0,0:0:0:0:
38,262,110620,2,0,B|40:315|40:315|95:360,1,107.999996704102,10|10,1:0|1:0,0:0:0:0:
174,333,111025,2,0,L|249:337,1,71.9999978027344,2|2,1:0|0:0,0:0:0:0:
268,348,111269,2,0,L|249:266,1,71.9999978027344,10|2,1:0|0:0,0:0:0:0:
242,254,111512,1,10,1:0:0:0:
312,171,111674,5,4,1:2:0:0:
406,212,111836,1,2,1:0:0:0:
406,212,111917,1,2,1:0:0:0:
406,212,111998,1,8,1:0:0:0:
483,158,112161,1,10,1:0:0:0:
457,68,112323,2,0,L|363:47,1,71.9999978027344,2|0,1:0|1:0,0:0:0:0:
362,58,112566,1,0,1:2:0:0:
338,67,112647,1,8,1:0:0:0:
251,103,112809,1,2,1:0:0:0:
188,33,112971,6,0,L|102:35,1,71.9999978027344,2|2,1:0|0:0,0:0:0:0:
55,107,113296,2,0,L|85:186,1,71.9999978027344,10|2,1:0|0:0,0:0:0:0:
157,227,113620,2,0,B|160:186|160:186|210:116,2,107.999996704102,2|10|10,1:0|1:0|1:0,0:0:0:0:
171,319,114269,1,4,1:2:0:0:
256,192,114350,12,0,116863,0:0:0:0:
