osu file format v14

[General]
AudioFilename: audio.mp3
AudioLeadIn: 0
PreviewTime: 25
Countdown: 0
SampleSet: Soft
StackLeniency: 0.7
Mode: 0
LetterboxInBreaks: 0
WidescreenStoryboard: 1

[Editor]
DistanceSpacing: 1
BeatDivisor: 2
GridSize: 4
TimelineZoom: 0.3500007

[Metadata]
Title:Dirigeant Decision
TitleUnicode:Dirigeant Decision
Artist:siqlo
ArtistUnicode:siqlo
Creator:PandaHero
Version:Easy
Source:
Tags:shooter's festival k-shoot mania ksm ksmevent hard renaissance electronic instrumental SF2016
BeatmapID:2596370
BeatmapSetID:1240362

[Difficulty]
HPDrainRate:2
CircleSize:3
OverallDifficulty:2
ApproachRate:4
SliderMultiplier:0.9
SliderTickRate:1

[Events]
//Background and Video events
0,0,"sky-5119622_1920.jpg",0,0
//Break Periods
2,72955,76624
2,78144,81814
//Storyboard Layer 0 (Background)
//Storyboard Layer 1 (Fail)
//Storyboard Layer 2 (Pass)
//Storyboard Layer 3 (Foreground)
//Storyboard Layer 4 (Overlay)
//Storyboard Sound Samples

[TimingPoints]
107,324.324324324325,4,2,0,10,1,0
107,-100,4,2,0,10,0,0
7890,-100,4,2,0,15,0,0
9188,-100,4,2,0,20,0,0
10485,-100,4,2,0,50,0,0
16971,-100,4,2,0,55,0,0
17620,-100,4,2,0,60,0,0
18269,-100,4,2,0,65,0,0
19566,-100,4,2,0,55,0,0
20863,-100,4,2,0,70,0,0
46323,-100,4,2,0,60,0,0
46809,-100,4,2,0,70,0,0
56701,-100,4,2,0,50,0,0
56782,-100,4,2,0,35,0,0
57188,-100,4,2,0,75,0,0
62134,-100,4,2,0,75,0,0
62377,-100,4,2,0,65,0,0
67566,-100,4,2,0,70,0,0
77944,-100,4,2,0,25,0,0
83134,-100,4,2,0,30,0,0
87025,-100,4,2,0,35,0,0
87350,-100,4,2,0,25,0,0
87674,-100,4,2,0,20,0,0
88323,-100,4,2,0,50,0,0
89620,-100,4,2,0,55,0,0
90269,-100,4,2,0,60,0,0
90917,-100,4,2,0,40,0,0
91404,-100,4,2,0,45,0,0
91890,-100,4,2,0,50,0,0
93512,-100,4,2,0,75,0,1
98052,-100,4,2,0,70,0,1
98296,-100,4,2,0,50,0,0
98377,-100,4,2,0,65,0,1
98458,-100,4,2,0,65,0,0
98701,-100,4,2,0,75,0,1
103242,-100,4,2,0,65,0,0
103890,-100,4,2,0,80,0,1
108674,-100,4,2,0,70,0,0
108755,-100,4,2,0,80,0,1
108836,-100,4,2,0,70,0,0
109079,-100,4,2,0,85,0,1
114269,-100,4,2,0,85,0,0
114593,-100,4,2,0,40,0,0
115566,-100,4,2,0,30,0,0
115890,-100,4,2,0,20,0,0
116215,-100,4,2,0,15,0,0
116539,-100,4,2,0,10,0,0
116863,-100,4,2,0,5,0,0

[Colours]
Combo1 : 120,130,218
Combo2 : 152,211,126
Combo3 : 123,210,215
Combo4 : 211,122,216

[HitObjects]
32,100,107,6,0,P|75:46|190:39,1,180,0|2,1:0|0:0,0:0:0:0:
264,193,1404,2,0,L|239:336,2,135,0|2|0,1:0|0:0|3:0,0:0:0:0:
333,135,2701,6,0,B|379:168|379:168|474:153,1,135,0|2,1:0|0:0,0:0:0:0:
474,289,3674,1,0,1:0:0:0:
410,353,3998,2,0,B|364:320|364:320|231:368,1,180,0|0,1:0|0:0,0:0:0:0:
194,189,5296,6,0,P|207:96|221:7,1,180,0|2,1:0|0:0,0:0:0:0:
65,103,6593,2,0,B|26:150|26:150|72:359,1,270,0|0,1:0|3:0,0:0:0:0:
160,360,7890,2,0,B|192:316|192:316|302:301,1,135,0|2,1:0|0:0,0:0:0:0:
405,288,8863,1,2,1:0:0:0:
472,347,9188,1,4,1:2:0:0:
467,55,10485,6,0,L|357:30,1,90,0|0,1:0|1:0,0:0:0:0:
293,62,11134,1,2,1:0:0:0:
150,171,11782,2,0,L|272:204,1,90,2|0,1:0|1:0,0:0:0:0:
321,225,12431,1,2,1:0:0:0:
475,316,13079,6,0,P|377:319|271:358,1,180,2|0,1:0|1:0,0:0:0:0:
152,234,14377,1,2,1:0:0:0:
323,179,15025,1,0,1:0:0:0:
217,33,15674,6,0,B|183:58|183:58|112:42,1,90,4|4,1:3|1:3,0:0:0:0:
59,93,16323,2,0,B|34:127|34:127|50:198,1,90,2|4,1:0|1:3,0:0:0:0:
106,239,16971,1,2,1:0:0:0:
268,161,17620,1,4,1:3:0:0:
421,255,18269,2,0,B|361:283|361:283|324:375,2,135,4|4|4,1:2|1:2|1:2,3:3:0:0:
273,25,20863,5,4,1:0:0:0:
210,193,21512,1,2,1:0:0:0:
42,126,22161,2,0,L|72:16,2,90,2|8|0,1:0|1:0|1:0,0:0:0:0:
35,305,23458,6,0,B|99:250|99:250|230:261,1,180,4|2,1:2|1:0,0:0:0:0:
296,109,24755,2,0,B|360:164|360:164|491:153,1,180,4|2,1:2|1:0,0:0:0:0:
403,328,26052,5,4,1:2:0:0:
226,361,26701,1,2,1:0:0:0:
194,183,27350,2,0,L|182:86,2,90,0|8|2,1:0|1:0|1:0,0:0:0:0:
361,249,28647,6,0,L|381:150,1,90,4|8,1:2|1:0,0:0:0:0:
397,72,29296,1,0,1:0:0:0:
224,21,29944,2,0,L|240:129,1,90,0|4,1:0|1:2,0:0:0:0:
191,187,30593,2,0,P|123:210|57:118,1,180,4|4,1:2|1:0,0:0:0:0:
54,318,31890,5,2,1:0:0:0:
230,283,32539,2,0,P|273:286|345:291,2,90,2|8|2,1:0|1:0|1:0,0:0:0:0:
70,198,33836,6,0,L|84:86,1,90,2|8,1:0|1:0,0:0:0:0:
101,20,34485,1,0,1:0:0:0:
220,155,35134,2,0,L|213:253,1,90,2|8,1:0|1:0,0:0:0:0:
206,334,35782,1,2,1:0:0:0:
296,330,36107,1,4,1:2:0:0:
313,241,36431,5,4,1:2:0:0:
457,348,37079,1,2,1:0:0:0:
461,167,37728,2,0,L|472:62,1,90,2|8,1:0|1:0,0:0:0:0:
388,40,38377,2,0,L|377:145,1,90,2|8,1:0|1:0,0:0:0:0:
319,197,39025,5,2,1:0:0:0:
145,150,39674,1,2,1:0:0:0:
150,330,40323,2,0,P|193:317|266:339,2,90,4|4|4,1:0|1:2|1:2,0:0:0:0:
40,186,41620,5,4,1:0:0:0:
130,30,42269,1,0,1:0:0:0:
273,138,42917,2,0,L|232:331,1,180,0|0,1:0|1:0,0:0:0:0:
405,374,44215,6,0,L|446:181,1,180,0|0,1:0|1:0,0:0:0:0:
476,21,45512,1,0,1:0:0:0:
386,30,45836,1,8,1:0:0:0:
365,117,46161,1,4,1:2:0:0:
205,34,46809,5,4,1:0:0:0:
297,188,47458,1,0,1:0:0:0:
133,263,48107,2,0,L|107:54,1,180,0|0,1:0|1:0,0:0:0:0:
260,185,49404,6,0,L|234:394,1,180,0|0,1:0|1:0,0:0:0:0:
57,356,50701,1,4,1:2:0:0:
45,266,51025,1,8,1:0:0:0:
107,200,51350,2,0,L|215:215,1,90,0|8,1:0|1:0,0:0:0:0:
268,159,51998,5,4,1:0:0:0:
446,184,52647,1,2,1:0:0:0:
283,260,53296,2,0,L|288:366,1,90,0|8,1:0|1:0,0:0:0:0:
372,377,53944,2,0,L|367:271,1,90,0|8,1:0|1:0,0:0:0:0:
367,196,54593,5,0,1:0:0:0:
190,231,55242,1,2,1:0:0:0:
223,54,55890,2,0,P|366:36|398:79,1,180,0|0,1:0|1:0,0:0:0:0:
475,202,57188,6,0,L|453:303,2,90,4|8|2,1:0|1:0|1:0,0:0:0:0:
302,150,58485,2,0,L|304:256,1,90,4|8,1:2|1:0,0:0:0:0:
306,330,59134,1,0,1:0:0:0:
128,358,59782,6,0,L|25:341,1,90,4|8,1:0|1:0,0:0:0:0:
40,253,60431,2,0,L|189:280,1,135,2|4,1:0|1:2,0:0:0:0:
251,167,61404,2,2,P|251:89|210:22,1,135,0|4,1:0|1:2,0:0:0:0:
93,67,62377,6,0,B|72:129|72:129|91:211,2,135,4|4|4,1:2|0:0|1:2,0:0:0:0:
180,169,63836,2,0,L|339:183,1,135,4|4,1:2|1:2,0:0:0:0:
403,196,64647,1,4,1:2:0:0:
471,137,64971,5,4,1:2:0:0:
401,21,65458,1,4,1:2:0:0:
319,128,65944,1,4,1:2:0:0:
183,125,66431,2,0,B|213:75|213:75|194:-14,1,135,4|4,1:2|1:2,0:0:0:0:
113,35,67242,1,12,1:2:0:0:
77,117,67566,6,0,L|91:275,1,135,4|4,1:0|1:2,0:0:0:0:
181,349,68539,2,0,L|205:203,1,135,4|4,1:2|1:2,0:0:0:0:
335,189,69512,1,4,1:2:0:0:
406,243,69836,1,4,1:2:0:0:
466,176,70161,6,0,B|467:108|467:108|410:54,1,135,4|4,1:2|1:2,0:0:0:0:
286,38,71134,2,0,B|287:106|287:106|230:160,1,135,4|4,1:2|0:0,0:0:0:0:
103,138,72107,1,4,1:2:0:0:
54,62,72431,1,4,1:2:0:0:
139,34,72755,1,4,1:2:0:0:
139,34,77944,5,0,1:0:0:0:
139,34,83134,5,4,1:0:0:0:
317,58,83782,1,0,3:0:0:0:
263,230,84431,2,0,B|199:207|199:207|125:242,2,135,0|0|0,1:0|0:0|0:0,0:0:0:0:
332,172,85728,6,0,B|396:149|396:149|470:184,2,135,0|0|0,1:0|0:0|0:0,0:0:0:0:
251,211,87025,1,0,1:0:0:0:
267,31,87674,1,2,0:0:0:0:
92,74,88323,6,0,L|121:188,1,90,0|0,1:0|1:0,0:0:0:0:
49,223,88971,2,0,L|78:337,1,90,2|0,1:0|1:0,0:0:0:0:
141,366,89620,2,0,P|258:325|343:320,1,180,2|0,1:0|1:0,0:0:0:0:
466,225,90917,5,0,1:0:0:0:
375,219,91242,1,0,1:0:0:0:
395,131,91566,2,0,L|429:28,2,90,0|2|4,1:0|1:0|1:2,0:0:0:0:
101,339,93512,6,0,P|154:314|198:312,1,90,4|8,1:0|1:0,0:0:0:0:
271,285,94161,1,2,1:0:0:0:
351,324,94485,1,8,1:0:0:0:
376,237,94809,2,0,L|399:119,2,90,0|8|2,1:0|1:0|1:0,0:0:0:0:
198,270,96107,5,4,1:2:0:0:
112,242,96431,1,8,1:0:0:0:
134,154,96755,2,0,L|167:53,1,90,0|8,1:0|1:0,0:0:0:0:
80,30,97404,2,0,L|48:126,1,90,0|8,1:0|1:0,0:0:0:0:
16,198,98052,1,0,1:0:0:0:
192,235,98701,6,0,L|176:107,1,90,4|8,1:2|1:0,0:0:0:0:
264,110,99350,2,0,L|280:-18,1,90,2|8,1:0|1:0,0:0:0:0:
365,17,99998,1,2,1:0:0:0:
439,68,100323,1,8,1:0:0:0:
389,142,100647,1,2,1:0:0:0:
241,245,101296,6,0,P|180:232|61:237,1,180,2|2,1:0|1:0,0:0:0:0:
41,324,102269,1,8,1:0:0:0:
121,366,102593,2,0,P|165:360|231:349,2,90,2|4|4,1:0|1:2|1:2,0:0:0:0:
44,203,103890,5,4,1:0:0:0:
73,117,104215,1,8,1:0:0:0:
157,86,104539,2,0,L|263:96,1,90,2|8,1:0|1:0,0:0:0:0:
280,178,105188,2,0,L|174:168,2,90,2|8|2,1:0|1:0|1:0,0:0:0:0:
429,277,106485,6,0,L|371:355,1,90,4|8,1:2|1:0,0:0:0:0:
288,375,107134,2,0,L|279:262,1,90,2|8,1:0|1:0,0:0:0:0:
234,208,107782,1,2,1:0:0:0:
151,245,108107,1,8,1:0:0:0:
168,333,108431,1,0,1:0:0:0:
44,201,109079,6,0,L|62:91,1,90,4|8,1:0|1:0,0:0:0:0:
81,24,109728,1,2,1:0:0:0:
232,120,110377,2,0,P|269:103|326:90,2,90,2|8|2,1:0|1:0|1:0,0:0:0:0:
162,177,111350,1,8,1:0:0:0:
198,259,111674,6,0,P|259:269|312:265,1,90,4|8,1:2|1:0,0:0:0:0:
353,329,112323,2,0,P|414:319|467:323,1,90,0|8,1:0|1:0,0:0:0:0:
496,248,112971,1,2,1:0:0:0:
464,163,113296,1,10,1:0:0:0:
376,143,113620,2,0,B|291:127|294:218|177:182,1,180,2|4,1:0|1:2,0:0:0:0:
256,192,114431,12,0,116863,0:0:0:0:
