osu file format v14

[General]
AudioFilename: audio.mp3
AudioLeadIn: 0
PreviewTime: 109451
Countdown: 0
SampleSet: Normal
StackLeniency: 0.2
Mode: 0
LetterboxInBreaks: 0
WidescreenStoryboard: 1

[Editor]
Bookmarks: 9769,24571,50141,55311,101270
DistanceSpacing: 0.7
BeatDivisor: 4
GridSize: 8
TimelineZoom: 1

[Metadata]
Title:gang poem compilation
TitleUnicode:gang poem compilation
Artist:singapore
ArtistUnicode:singapore
Creator:Histoire
Version:MOON SECT
Source:15
Tags:emilia P4ndemonium wailord2700 Elegant Loli Soba Noodles apl- techno trance hokkien chinese salakau Antares Ride On A Meteorite Nick Skitz Atlantis (Deep Blue)
BeatmapID:1433518
BeatmapSetID:670479

[Difficulty]
HPDrainRate:5
CircleSize:4.2
OverallDifficulty:8
ApproachRate:9.3
SliderMultiplier:1.7
SliderTickRate:1

[Events]
//Background and Video events
0,0,"AU AU SALAKAYU.jpg",0,0
//Break Periods
2,60785,65302
2,108158,112419
//Storyboard Layer 0 (Background)
//Storyboard Layer 1 (Fail)
//Storyboard Layer 2 (Pass)
//Storyboard Layer 3 (Foreground)
//Storyboard Layer 4 (Overlay)
//Storyboard Sound Samples

[TimingPoints]
555.15451371161,428.571428571429,4,1,0,100,1,0
26269,426.287744227353,4,1,0,100,1,0
60372,-50,4,1,0,100,0,0
61311,461.538461538462,4,1,0,100,1,0
64080,-50,4,1,0,100,0,0
65856,393.948944216829,4,1,0,100,1,0
65856,-100,4,1,0,100,0,0
89270,393.44262295082,4,1,0,100,1,0
109451,381,4,1,0,100,1,0
112973,393.44262295082,4,1,0,100,1,0

[HitObjects]
176,198,555,5,0,0:0:0:0:
335,185,769,1,0,0:0:0:0:
176,198,983,1,0,0:0:0:0:
335,185,1197,1,0,0:0:0:0:
169,119,1412,5,0,0:0:0:0:
183,277,1626,1,0,0:0:0:0:
342,264,1840,1,0,0:0:0:0:
328,106,2055,1,0,0:0:0:0:
122,180,2269,5,0,0:0:0:0:
390,202,2483,1,0,0:0:0:0:
122,180,2697,1,0,0:0:0:0:
390,202,2911,1,0,0:0:0:0:
162,80,3126,5,0,0:0:0:0:
144,285,3341,1,0,0:0:0:0:
350,302,3555,1,0,0:0:0:0:
369,97,3769,1,0,0:0:0:0:
176,198,3983,5,0,0:0:0:0:
335,185,4197,1,0,0:0:0:0:
176,198,4411,1,0,0:0:0:0:
335,185,4625,1,0,0:0:0:0:
169,119,4840,5,0,0:0:0:0:
183,277,5054,1,0,0:0:0:0:
342,264,5268,1,0,0:0:0:0:
328,106,5483,1,0,0:0:0:0:
122,180,5697,5,0,0:0:0:0:
390,202,5911,1,0,0:0:0:0:
122,180,6125,1,0,0:0:0:0:
390,202,6339,1,0,0:0:0:0:
162,80,6554,5,0,0:0:0:0:
144,285,6769,1,0,0:0:0:0:
350,302,6983,1,0,0:0:0:0:
369,97,7197,1,0,0:0:0:0:
176,186,7412,5,0,0:0:0:0:
335,199,7626,1,0,0:0:0:0:
176,186,7840,1,0,0:0:0:0:
335,199,8054,1,0,0:0:0:0:
169,265,8269,5,0,0:0:0:0:
183,107,8483,1,0,0:0:0:0:
342,120,8697,1,0,0:0:0:0:
328,278,8912,1,0,0:0:0:0:
122,203,9126,5,0,0:0:0:0:
390,181,9340,1,0,0:0:0:0:
122,203,9554,1,0,0:0:0:0:
390,181,9768,1,0,0:0:0:0:
162,303,9983,5,0,0:0:0:0:
144,98,10198,1,0,0:0:0:0:
350,81,10412,1,0,0:0:0:0:
369,286,10626,1,0,0:0:0:0:
176,186,10840,5,0,0:0:0:0:
335,199,11054,1,0,0:0:0:0:
176,186,11268,1,0,0:0:0:0:
335,199,11482,1,0,0:0:0:0:
169,265,11697,5,0,0:0:0:0:
183,107,11911,1,0,0:0:0:0:
342,120,12125,1,0,0:0:0:0:
328,278,12340,1,0,0:0:0:0:
122,203,12554,5,0,0:0:0:0:
390,181,12768,1,0,0:0:0:0:
122,203,12982,1,0,0:0:0:0:
390,181,13196,1,0,0:0:0:0:
162,303,13411,5,0,0:0:0:0:
144,98,13626,1,0,0:0:0:0:
350,81,13840,1,0,0:0:0:0:
369,286,14054,1,0,0:0:0:0:
176,198,14269,5,0,0:0:0:0:
335,185,14483,1,0,0:0:0:0:
176,198,14697,1,0,0:0:0:0:
335,185,14911,1,0,0:0:0:0:
169,119,15126,5,0,0:0:0:0:
183,277,15340,1,0,0:0:0:0:
342,264,15554,1,0,0:0:0:0:
328,106,15769,1,0,0:0:0:0:
122,180,15983,5,0,0:0:0:0:
390,202,16197,1,0,0:0:0:0:
122,180,16411,1,0,0:0:0:0:
390,202,16625,1,0,0:0:0:0:
162,80,16840,5,0,0:0:0:0:
144,285,17055,1,0,0:0:0:0:
350,302,17269,1,0,0:0:0:0:
369,97,17483,1,0,0:0:0:0:
176,198,17697,5,0,0:0:0:0:
335,185,17911,1,0,0:0:0:0:
176,198,18125,1,0,0:0:0:0:
335,185,18339,1,0,0:0:0:0:
169,119,18554,5,0,0:0:0:0:
183,277,18768,1,0,0:0:0:0:
342,264,18982,1,0,0:0:0:0:
328,106,19197,1,0,0:0:0:0:
122,180,19411,5,0,0:0:0:0:
390,202,19625,1,0,0:0:0:0:
122,180,19839,1,0,0:0:0:0:
390,202,20053,1,0,0:0:0:0:
162,80,20268,5,0,0:0:0:0:
144,285,20483,1,0,0:0:0:0:
350,302,20697,1,0,0:0:0:0:
369,97,20911,1,0,0:0:0:0:
176,186,21126,5,0,0:0:0:0:
335,199,21340,1,0,0:0:0:0:
176,186,21554,1,0,0:0:0:0:
335,199,21768,1,0,0:0:0:0:
169,265,21983,5,0,0:0:0:0:
183,107,22197,1,0,0:0:0:0:
342,120,22411,1,0,0:0:0:0:
328,278,22626,1,0,0:0:0:0:
122,203,22840,5,0,0:0:0:0:
390,181,23054,1,0,0:0:0:0:
122,203,23268,1,0,0:0:0:0:
390,181,23482,1,0,0:0:0:0:
162,303,23697,5,0,0:0:0:0:
144,98,23912,1,0,0:0:0:0:
350,81,24126,1,0,0:0:0:0:
369,286,24340,1,0,0:0:0:0:
256,192,26269,6,0,L|341:192,1,85
171,192,26588,2,0,L|256:192,1,85
383,192,26908,2,0,L|340:192,1,42.5
256,192,27121,6,0,L|171:192,1,85
341,192,27440,2,0,L|256:192,1,85
129,192,27760,2,0,L|171:192,1,42.5
256,192,27974,6,0,L|341:192,1,85
171,192,28293,2,0,L|256:192,1,85
383,192,28613,2,0,L|340:192,1,42.5
171,192,28826,1,0,0:0:0:0:
341,192,29039,1,0,0:0:0:0:
129,192,29253,1,0,0:0:0:0:
383,192,29466,1,0,0:0:0:0:
256,120,29679,6,0,L|341:120,1,85
171,120,29998,2,0,L|256:120,1,85
383,120,30318,2,0,L|340:120,1,42.5
256,120,30531,6,0,L|171:120,1,85
341,120,30850,2,0,L|256:120,1,85
129,120,31170,2,0,L|171:120,1,42.5
256,120,31384,6,0,L|341:120,1,85
171,120,31703,2,0,L|256:120,1,85
383,120,32023,2,0,L|340:120,1,42.5
171,120,32236,1,0,0:0:0:0:
341,120,32449,1,0,0:0:0:0:
129,120,32663,1,0,0:0:0:0:
383,120,32876,1,0,0:0:0:0:
256,48,33089,6,0,L|341:48,1,85
171,48,33408,2,0,L|256:48,1,85
383,48,33728,2,0,L|340:48,1,42.5
256,48,33941,6,0,L|171:48,1,85
341,48,34260,2,0,L|256:48,1,85
129,48,34580,2,0,L|171:48,1,42.5
256,48,34794,6,0,L|341:48,1,85
171,48,35113,2,0,L|256:48,1,85
383,48,35433,2,0,L|340:48,1,42.5
171,48,35646,1,0,0:0:0:0:
341,48,35859,1,0,0:0:0:0:
129,48,36073,1,0,0:0:0:0:
383,48,36286,1,0,0:0:0:0:
256,120,36499,6,0,L|341:120,1,85
171,120,36818,2,0,L|256:120,1,85
383,120,37138,2,0,L|340:120,1,42.5
171,120,37351,1,0,0:0:0:0:
341,120,37564,1,0,0:0:0:0:
129,120,37778,1,0,0:0:0:0:
383,120,37991,1,0,0:0:0:0:
256,192,38205,6,0,L|341:192,1,85
171,192,38524,2,0,L|256:192,1,85
383,192,38844,2,0,L|340:192,1,42.5
171,192,39057,1,0,0:0:0:0:
341,192,39270,1,0,0:0:0:0:
129,192,39484,1,0,0:0:0:0:
383,192,39697,1,0,0:0:0:0:
256,192,39910,6,0,L|341:192,1,85
171,192,40229,2,0,L|256:192,1,85
383,192,40549,2,0,L|340:192,1,42.5
256,192,40762,6,0,L|171:192,1,85
341,192,41081,2,0,L|256:192,1,85
129,192,41401,2,0,L|171:192,1,42.5
256,192,41615,6,0,L|341:192,1,85
171,192,41934,2,0,L|256:192,1,85
383,192,42254,2,0,L|340:192,1,42.5
171,192,42467,1,0,0:0:0:0:
341,192,42680,1,0,0:0:0:0:
129,192,42894,1,0,0:0:0:0:
383,192,43107,1,0,0:0:0:0:
256,192,43320,6,0,L|341:192,1,85
171,192,43639,2,0,L|256:192,1,85
383,192,43959,2,0,L|340:192,1,42.5
256,192,44172,6,0,L|171:192,1,85
341,192,44491,2,0,L|256:192,1,85
129,192,44811,2,0,L|171:192,1,42.5
256,192,45025,6,0,L|341:192,1,85
171,192,45344,2,0,L|256:192,1,85
383,192,45664,2,0,L|340:192,1,42.5
171,192,45877,1,0,0:0:0:0:
341,192,46090,1,0,0:0:0:0:
129,192,46304,1,0,0:0:0:0:
383,192,46517,1,0,0:0:0:0:
256,120,46730,6,0,L|341:120,1,85
171,120,47049,2,0,L|256:120,1,85
383,120,47369,2,0,L|340:120,1,42.5
256,120,47582,6,0,L|171:120,1,85
341,120,47901,2,0,L|256:120,1,85
129,120,48221,2,0,L|171:120,1,42.5
256,120,48435,6,0,L|341:120,1,85
171,120,48754,2,0,L|256:120,1,85
383,120,49074,2,0,L|340:120,1,42.5
171,120,49287,1,0,0:0:0:0:
341,120,49500,1,0,0:0:0:0:
129,120,49714,1,0,0:0:0:0:
383,120,49927,1,0,0:0:0:0:
256,48,50140,6,0,L|341:48,1,85
171,48,50459,2,0,L|256:48,1,85
383,48,50779,2,0,L|340:48,1,42.5
256,48,50992,6,0,L|171:48,1,85
341,48,51311,2,0,L|256:48,1,85
129,48,51631,2,0,L|171:48,1,42.5
256,48,51845,6,0,L|341:48,1,85
171,48,52164,2,0,L|256:48,1,85
383,48,52484,2,0,L|340:48,1,42.5
171,48,52697,1,0,0:0:0:0:
341,48,52910,1,0,0:0:0:0:
129,48,53124,1,0,0:0:0:0:
383,48,53337,1,0,0:0:0:0:
256,120,53550,6,0,L|341:120,1,85
171,120,53869,2,0,L|256:120,1,85
383,120,54189,2,0,L|340:120,1,42.5
171,120,54402,1,0,0:0:0:0:
341,120,54615,1,0,0:0:0:0:
129,120,54829,1,0,0:0:0:0:
383,120,55042,1,0,0:0:0:0:
256,192,55256,6,0,L|341:192,1,85
171,192,55575,2,0,L|256:192,1,85
383,192,55895,2,0,L|340:192,1,42.5
171,192,56108,1,0,0:0:0:0:
341,192,56321,1,0,0:0:0:0:
129,192,56535,1,0,0:0:0:0:
383,192,56748,1,0,0:0:0:0:
256,192,56961,6,0,L|341:192,1,85
171,192,57280,2,0,L|256:192,1,85
383,192,57600,2,0,L|340:192,1,42.5
256,192,57813,6,0,L|171:192,1,85
341,192,58132,2,0,L|256:192,1,85
129,192,58452,2,0,L|171:192,1,42.5
256,192,58666,6,0,L|341:192,1,85
171,192,58985,2,0,L|256:192,1,85
383,192,59305,2,0,L|340:192,1,42.5
171,192,59518,1,0,0:0:0:0:
341,192,59731,1,0,0:0:0:0:
129,192,59945,1,0,0:0:0:0:
383,192,60158,1,0,0:0:0:0:
256,362,60372,6,0,L|256:192,1,170
176,192,65856,5,0,0:0:0:0:
176,192,66052,1,0,0:0:0:0:
336,192,66249,1,0,0:0:0:0:
336,192,66446,1,0,0:0:0:0:
91,192,66643,2,0,L|176:192,1,85
421,192,67037,2,0,L|336:192,1,85
176,192,67431,5,0,0:0:0:0:
176,192,67627,1,0,0:0:0:0:
336,192,67824,1,0,0:0:0:0:
336,192,68021,1,0,0:0:0:0:
91,192,68219,1,0,0:0:0:0:
421,192,68416,1,0,0:0:0:0:
256,192,68613,1,0,0:0:0:0:
336,192,69007,6,0,L|336:107,1,85
176,192,69401,2,0,L|176:107,1,85
421,192,69795,2,0,L|421:107,1,85
91,192,70189,1,0,0:0:0:0:
91,192,70583,5,0,0:0:0:0:
421,192,70780,1,0,0:0:0:0:
176,192,70977,1,0,0:0:0:0:
336,192,71174,1,0,0:0:0:0:
256,192,71371,1,0,0:0:0:0:
256,192,71568,1,0,0:0:0:0:
256,107,71765,2,0,L|256:192,1,85
176,192,72159,5,0,0:0:0:0:
176,192,72355,1,0,0:0:0:0:
336,192,72552,1,0,0:0:0:0:
336,192,72749,1,0,0:0:0:0:
91,192,72947,1,0,0:0:0:0:
421,192,73144,1,0,0:0:0:0:
256,192,73341,1,0,0:0:0:0:
336,192,73734,5,0,0:0:0:0:
336,192,73930,1,0,0:0:0:0:
176,192,74127,1,0,0:0:0:0:
176,192,74324,1,0,0:0:0:0:
421,192,74522,1,0,0:0:0:0:
91,192,74719,1,0,0:0:0:0:
256,192,74916,1,0,0:0:0:0:
176,192,75310,5,0,0:0:0:0:
176,192,75507,1,0,0:0:0:0:
336,192,75704,1,0,0:0:0:0:
336,192,75900,1,0,0:0:0:0:
91,192,76098,1,0,0:0:0:0:
91,192,76295,1,0,0:0:0:0:
421,192,76492,2,0,L|336:192,1,85
91,192,76886,6,0,L|176:192,1,85
421,192,77280,1,0,0:0:0:0:
91,192,77477,1,0,0:0:0:0:
421,192,77674,2,0,L|336:192,1,85
91,192,78068,6,0,L|133:192,1,42.5
91,192,78462,5,0,0:0:0:0:
91,192,78659,1,0,0:0:0:0:
421,192,78856,2,0,L|336:192,1,85
421,192,79250,1,0,0:0:0:0:
421,192,79447,1,0,0:0:0:0:
91,192,79644,2,0,L|176:192,1,85
256,192,80038,6,0,L|341:192,1,85
256,192,80432,2,0,L|171:192,1,85
256,192,80826,1,0,0:0:0:0:
256,192,81023,1,0,0:0:0:0:
256,192,81220,1,0,0:0:0:0:
171,192,81613,5,0,0:0:0:0:
341,192,81810,1,0,0:0:0:0:
171,192,82007,1,0,0:0:0:0:
341,192,82204,1,0,0:0:0:0:
171,192,82401,1,0,0:0:0:0:
341,192,82598,1,0,0:0:0:0:
171,192,82795,1,0,0:0:0:0:
341,192,83189,5,0,0:0:0:0:
171,192,83386,1,0,0:0:0:0:
341,192,83583,1,0,0:0:0:0:
171,192,83780,1,0,0:0:0:0:
341,192,83977,1,0,0:0:0:0:
171,192,84174,1,0,0:0:0:0:
341,192,84371,1,0,0:0:0:0:
171,192,84765,5,0,0:0:0:0:
341,192,84962,1,0,0:0:0:0:
171,192,85159,1,0,0:0:0:0:
341,192,85356,1,0,0:0:0:0:
171,192,85553,1,0,0:0:0:0:
341,192,85750,1,0,0:0:0:0:
171,192,85947,1,0,0:0:0:0:
341,192,86341,5,0,0:0:0:0:
171,192,86538,1,0,0:0:0:0:
341,192,86735,1,0,0:0:0:0:
171,192,86932,1,0,0:0:0:0:
341,192,87129,1,0,0:0:0:0:
171,192,87326,1,0,0:0:0:0:
341,192,87523,1,0,0:0:0:0:
341,192,89270,5,0,0:0:0:0:
171,192,89466,1,0,0:0:0:0:
341,192,89663,1,0,0:0:0:0:
171,192,89860,1,0,0:0:0:0:
341,192,90056,1,0,0:0:0:0:
171,192,90253,1,0,0:0:0:0:
341,192,90450,1,0,0:0:0:0:
171,192,90647,1,0,0:0:0:0:
341,192,90843,5,0,0:0:0:0:
171,192,91039,1,0,0:0:0:0:
341,192,91236,1,0,0:0:0:0:
171,192,91433,1,0,0:0:0:0:
341,192,91629,1,0,0:0:0:0:
171,192,91826,1,0,0:0:0:0:
341,192,92023,1,0,0:0:0:0:
171,192,92220,1,0,0:0:0:0:
341,192,92417,5,0,0:0:0:0:
171,192,92613,1,0,0:0:0:0:
341,192,92810,1,0,0:0:0:0:
171,192,93007,1,0,0:0:0:0:
341,192,93203,1,0,0:0:0:0:
171,192,93400,1,0,0:0:0:0:
341,192,93597,1,0,0:0:0:0:
171,192,93794,1,0,0:0:0:0:
341,192,93991,5,0,0:0:0:0:
171,192,94187,1,0,0:0:0:0:
341,192,94384,1,0,0:0:0:0:
171,192,94581,1,0,0:0:0:0:
341,192,94777,1,0,0:0:0:0:
171,192,94974,1,0,0:0:0:0:
341,192,95171,1,0,0:0:0:0:
171,192,95368,1,0,0:0:0:0:
341,192,95565,5,0,0:0:0:0:
171,192,95761,1,0,0:0:0:0:
341,192,95958,1,0,0:0:0:0:
171,192,96155,1,0,0:0:0:0:
341,192,96351,1,0,0:0:0:0:
171,192,96548,1,0,0:0:0:0:
341,192,96745,1,0,0:0:0:0:
171,192,96942,1,0,0:0:0:0:
341,192,97138,5,0,0:0:0:0:
171,192,97334,1,0,0:0:0:0:
341,192,97531,1,0,0:0:0:0:
171,192,97728,1,0,0:0:0:0:
341,192,97924,1,0,0:0:0:0:
171,192,98121,1,0,0:0:0:0:
341,192,98318,1,0,0:0:0:0:
171,192,98515,1,0,0:0:0:0:
341,192,98712,5,0,0:0:0:0:
171,192,98908,1,0,0:0:0:0:
341,192,99105,1,0,0:0:0:0:
171,192,99302,1,0,0:0:0:0:
341,192,99498,1,0,0:0:0:0:
171,192,99695,1,0,0:0:0:0:
341,192,99892,1,0,0:0:0:0:
171,192,100089,1,0,0:0:0:0:
341,192,100286,5,0,0:0:0:0:
171,192,100482,1,0,0:0:0:0:
341,192,100679,1,0,0:0:0:0:
171,192,100876,1,0,0:0:0:0:
341,192,101072,1,0,0:0:0:0:
171,192,101269,1,0,0:0:0:0:
341,192,101466,1,0,0:0:0:0:
171,192,101663,1,0,0:0:0:0:
341,192,101860,5,0,0:0:0:0:
171,192,102056,1,0,0:0:0:0:
341,192,102253,1,0,0:0:0:0:
171,192,102450,1,0,0:0:0:0:
341,192,102646,1,0,0:0:0:0:
171,192,102843,1,0,0:0:0:0:
341,192,103040,1,0,0:0:0:0:
171,192,103237,1,0,0:0:0:0:
341,192,103433,5,0,0:0:0:0:
171,192,103629,1,0,0:0:0:0:
341,192,103826,1,0,0:0:0:0:
171,192,104023,1,0,0:0:0:0:
341,192,104219,1,0,0:0:0:0:
171,192,104416,1,0,0:0:0:0:
341,192,104613,1,0,0:0:0:0:
171,192,104810,1,0,0:0:0:0:
341,192,105007,5,0,0:0:0:0:
171,192,105203,1,0,0:0:0:0:
341,192,105400,1,0,0:0:0:0:
171,192,105597,1,0,0:0:0:0:
341,192,105793,1,0,0:0:0:0:
171,192,105990,1,0,0:0:0:0:
341,192,106187,1,0,0:0:0:0:
171,192,106384,1,0,0:0:0:0:
341,192,106581,5,0,0:0:0:0:
171,192,106777,1,0,0:0:0:0:
341,192,106974,1,0,0:0:0:0:
171,192,107171,1,0,0:0:0:0:
341,192,107367,1,0,0:0:0:0:
171,192,107564,1,0,0:0:0:0:
341,192,107761,1,0,0:0:0:0:
171,192,107958,1,0,0:0:0:0:
176,112,112973,5,0,0:0:0:0:
176,272,113169,1,0,0:0:0:0:
336,272,113366,1,0,0:0:0:0:
336,112,113563,1,0,0:0:0:0:
176,112,113759,1,0,0:0:0:0:
176,272,113955,1,0,0:0:0:0:
336,272,114152,1,0,0:0:0:0:
336,112,114349,1,0,0:0:0:0:
176,112,114546,5,0,0:0:0:0:
176,272,114742,1,0,0:0:0:0:
336,272,114939,1,0,0:0:0:0:
336,112,115136,1,0,0:0:0:0:
176,112,115332,1,0,0:0:0:0:
176,272,115528,1,0,0:0:0:0:
336,272,115725,1,0,0:0:0:0:
336,112,115922,1,0,0:0:0:0:
336,112,116120,5,0,0:0:0:0:
336,272,116316,1,0,0:0:0:0:
176,272,116513,1,0,0:0:0:0:
176,112,116710,1,0,0:0:0:0:
336,112,116906,1,0,0:0:0:0:
336,272,117102,1,0,0:0:0:0:
176,272,117299,1,0,0:0:0:0:
176,112,117496,1,0,0:0:0:0:
336,112,117693,5,0,0:0:0:0:
336,272,117889,1,0,0:0:0:0:
176,272,118086,1,0,0:0:0:0:
176,112,118283,1,0,0:0:0:0:
336,112,118479,1,0,0:0:0:0:
336,272,118675,1,0,0:0:0:0:
176,272,118872,1,0,0:0:0:0:
176,112,119069,1,0,0:0:0:0:
256,325,119268,5,0,0:0:0:0:
122,192,119464,1,0,0:0:0:0:
256,58,119661,1,0,0:0:0:0:
389,192,119858,1,0,0:0:0:0:
256,325,120054,1,0,0:0:0:0:
122,192,120250,1,0,0:0:0:0:
256,58,120447,1,0,0:0:0:0:
389,192,120644,1,0,0:0:0:0:
256,325,120841,5,0,0:0:0:0:
122,192,121037,1,0,0:0:0:0:
256,58,121234,1,0,0:0:0:0:
389,192,121431,1,0,0:0:0:0:
256,325,121627,1,0,0:0:0:0:
122,192,121823,1,0,0:0:0:0:
256,58,122020,1,0,0:0:0:0:
389,192,122217,1,0,0:0:0:0:
389,192,122415,5,0,0:0:0:0:
256,58,122611,1,0,0:0:0:0:
122,192,122808,1,0,0:0:0:0:
256,325,123005,1,0,0:0:0:0:
389,192,123201,1,0,0:0:0:0:
256,58,123397,1,0,0:0:0:0:
122,192,123594,1,0,0:0:0:0:
256,325,123791,1,0,0:0:0:0:
389,192,123988,5,0,0:0:0:0:
256,58,124184,1,0,0:0:0:0:
122,192,124381,1,0,0:0:0:0:
256,325,124578,1,0,0:0:0:0:
389,192,124774,1,0,0:0:0:0:
256,58,124970,1,0,0:0:0:0:
122,192,125167,1,0,0:0:0:0:
256,325,125364,1,0,0:0:0:0:
336,112,125563,5,0,0:0:0:0:
336,272,125759,1,0,0:0:0:0:
176,272,125956,1,0,0:0:0:0:
176,112,126153,1,0,0:0:0:0:
336,112,126349,1,0,0:0:0:0:
336,272,126545,1,0,0:0:0:0:
176,272,126742,1,0,0:0:0:0:
176,112,126939,1,0,0:0:0:0:
336,112,127136,5,0,0:0:0:0:
336,272,127332,1,0,0:0:0:0:
176,272,127529,1,0,0:0:0:0:
176,112,127726,1,0,0:0:0:0:
336,112,127922,1,0,0:0:0:0:
336,272,128118,1,0,0:0:0:0:
176,272,128315,1,0,0:0:0:0:
176,112,128512,1,0,0:0:0:0:
176,112,128710,5,0,0:0:0:0:
176,272,128906,1,0,0:0:0:0:
336,272,129103,1,0,0:0:0:0:
336,112,129300,1,0,0:0:0:0:
176,112,129496,1,0,0:0:0:0:
176,272,129692,1,0,0:0:0:0:
336,272,129889,1,0,0:0:0:0:
336,112,130086,1,0,0:0:0:0:
176,112,130283,5,0,0:0:0:0:
176,272,130479,1,0,0:0:0:0:
336,272,130676,1,0,0:0:0:0:
336,112,130873,1,0,0:0:0:0:
176,112,131069,1,0,0:0:0:0:
176,272,131265,1,0,0:0:0:0:
336,272,131462,1,0,0:0:0:0:
336,112,131659,1,0,0:0:0:0:
256,325,131858,5,0,0:0:0:0:
389,192,132054,1,0,0:0:0:0:
256,58,132251,1,0,0:0:0:0:
122,192,132448,1,0,0:0:0:0:
256,325,132644,1,0,0:0:0:0:
389,192,132840,1,0,0:0:0:0:
256,58,133037,1,0,0:0:0:0:
122,192,133234,1,0,0:0:0:0:
256,325,133431,5,0,0:0:0:0:
389,192,133627,1,0,0:0:0:0:
256,58,133824,1,0,0:0:0:0:
122,192,134021,1,0,0:0:0:0:
256,325,134217,1,0,0:0:0:0:
389,192,134413,1,0,0:0:0:0:
256,58,134610,1,0,0:0:0:0:
122,192,134807,1,0,0:0:0:0:
122,192,135005,5,0,0:0:0:0:
256,58,135201,1,0,0:0:0:0:
389,192,135398,1,0,0:0:0:0:
256,325,135595,1,0,0:0:0:0:
122,192,135791,1,0,0:0:0:0:
256,58,135987,1,0,0:0:0:0:
389,192,136184,1,0,0:0:0:0:
256,325,136381,1,0,0:0:0:0:
122,192,136578,5,0,0:0:0:0:
256,58,136774,1,0,0:0:0:0:
389,192,136971,1,0,0:0:0:0:
256,325,137168,1,0,0:0:0:0:
0,0,137364,5,0,0:0:0:0:
512,0,137560,5,0,0:0:0:0:
512,384,137757,5,0,0:0:0:0:
0,384,137954,5,0,0:0:0:0:
