osu file format v14

[General]
AudioFilename: audio.mp3
AudioLeadIn: 0
PreviewTime: -1
Countdown: 0
SampleSet: Normal
StackLeniency: 0.2
Mode: 0
LetterboxInBreaks: 0
WidescreenStoryboard: 1

[Editor]
Bookmarks: 103433
DistanceSpacing: 0.7
BeatDivisor: 4
GridSize: 4
TimelineZoom: 1.3

[Metadata]
Title:gang poem compilation
TitleUnicode:gang poem compilation
Artist:singapore
ArtistUnicode:singapore
Creator:Histoire
Version:Jesus Roti Canai 1942
Source:15
Tags:emilia P4ndemonium wailord2700 Elegant Loli Soba Noodles apl- techno trance hokkien chinese salakau Antares Ride On A Meteorite Nick Skitz Atlantis (Deep Blue)
BeatmapID:1436909
BeatmapSetID:670479

[Difficulty]
HPDrainRate:4
CircleSize:5
OverallDifficulty:8
ApproachRate:9.3
SliderMultiplier:1.8
SliderTickRate:1

[Events]
//Background and Video events
0,0,"AU AU SALAKAYU.jpg",0,0
//Break Periods
2,20468,22669
2,109338,112040
//Storyboard Layer 0 (Background)
//Storyboard Layer 1 (Fail)
//Storyboard Layer 2 (Pass)
//Storyboard Layer 3 (Foreground)
//Storyboard Layer 4 (Overlay)
//Storyboard Sound Samples

[TimingPoints]
555.15451371161,428.571428571429,4,1,0,100,1,0
19840,-200,4,1,0,100,0,0
23269,-30,4,1,0,100,0,0
24340,-100,4,1,0,100,0,0
24769,-50,4,1,0,100,0,0
25198,-100,4,1,0,100,0,0
26269,426.287744227353,4,1,0,100,1,0
35647,-25,4,1,0,100,0,0
36499,-100,4,1,0,100,0,0
37352,-25,4,1,0,100,0,0
38205,-100,4,1,0,100,0,0
39057,-25,4,1,0,100,0,0
39910,-100,4,1,0,100,0,0
52698,-25,4,1,0,100,0,0
56961,-100,4,1,0,100,0,0
60372,-50,4,1,0,100,0,0
60585,-100,4,1,0,100,0,0
61311,461.538461538462,4,1,0,100,1,0
65856,393.948944216829,4,1,0,100,1,0
87917,-50,4,1,0,100,0,0
89270,393.44262295082,4,1,0,100,1,0
95565,-200,4,1,0,100,0,0
96351,-100,4,1,0,100,0,0
103433,-15,4,1,0,100,0,0
105007,-100,4,1,0,100,0,0
109451,381,4,1,0,100,1,0
112973,393.44262295082,4,1,0,100,1,0
136579,-15,4,1,0,100,0,0
138153,-100,4,1,0,100,0,0

[HitObjects]
88,248,555,6,0,P|80:288|120:288,1,90
368,80,983,2,0,P|364:56|300:64,1,90
384,288,1412,1,0,0:0:0:0:
184,76,1626,1,0,0:0:0:0:
248,308,1840,2,0,B|208:348|208:348|148:320,1,90
32,136,2269,1,0,0:0:0:0:
248,308,2483,1,0,0:0:0:0:
424,112,2698,2,0,L|488:32,1,90
156,168,3126,5,0,0:0:0:0:
432,232,3340,1,0,0:0:0:0:
104,288,3555,1,0,0:0:0:0:
304,160,3769,1,0,0:0:0:0:
36,52,3983,2,0,B|64:72|64:72|40:128|64:160,1,90
112,344,4412,2,0,B|92:324|92:324|112:284|92:244,1,90
160,36,4840,5,0,0:0:0:0:
272,288,5055,1,0,0:0:0:0:
404,123,5269,2,0,B|432:96|432:96|416:68|416:68|452:35,2,90
180,284,5912,1,0,0:0:0:0:
72,52,6126,1,0,0:0:0:0:
344,160,6340,1,0,0:0:0:0:
180,284,6555,2,0,L|96:248,1,90
97,248,6983,5,0,0:0:0:0:
296,52,7198,1,0,0:0:0:0:
308,316,7412,1,0,0:0:0:0:
152,104,7626,1,0,0:0:0:0:
272,272,7840,2,0,L|216:196,1,90
416,280,8269,1,0,0:0:0:0:
492,68,8483,1,0,0:0:0:0:
350,218,8698,2,0,L|422:286,1,90
256,64,9126,5,0,0:0:0:0:
256,300,9340,1,0,0:0:0:0:
336,104,9555,1,0,0:0:0:0:
172,260,9769,1,0,0:0:0:0:
428,200,9983,2,0,P|480:176|504:144,2,90
128,80,10626,1,0,0:0:0:0:
96,56,10733,2,0,L|52:28,1,45
152,320,11055,5,0,0:0:0:0:
256,192,11269,1,0,0:0:0:0:
360,320,11483,1,0,0:0:0:0:
256,60,11698,1,0,0:0:0:0:
256,292,11912,2,0,L|256:416,1,90
464,276,12340,1,0,0:0:0:0:
168,120,12555,2,0,B|160:104|160:104|104:96|104:96|88:68,1,90
368,36,12983,1,0,0:0:0:0:
100,248,13198,5,0,0:0:0:0:
56,316,13305,1,0,0:0:0:0:
80,280,13412,1,0,0:0:0:0:
204,84,13626,1,0,0:0:0:0:
232,24,13733,1,0,0:0:0:0:
216,56,13840,1,0,0:0:0:0:
256,264,14055,1,0,0:0:0:0:
424,152,14269,1,0,0:0:0:0:
204,184,14483,2,0,L|88:196,2,90
292,68,15126,5,0,0:0:0:0:
376,288,15340,1,0,0:0:0:0:
168,172,15555,1,0,0:0:0:0:
408,100,15769,1,0,0:0:0:0:
196,320,15983,2,0,P|168:352|108:364,1,90
16,172,16412,1,0,0:0:0:0:
232,92,16626,1,0,0:0:0:0:
400,192,16840,5,0,0:0:0:0:
256,336,17055,1,0,0:0:0:0:
108,192,17269,1,0,0:0:0:0:
256,268,17483,1,0,0:0:0:0:
400,192,17698,1,0,0:0:0:0:
256,48,17912,1,0,0:0:0:0:
108,192,18126,1,0,0:0:0:0:
256,116,18340,1,0,0:0:0:0:
416,284,18555,5,0,0:0:0:0:
100,284,18769,1,0,0:0:0:0:
380,284,18983,1,0,0:0:0:0:
136,284,19198,1,0,0:0:0:0:
340,284,19412,1,0,0:0:0:0:
176,284,19626,1,0,0:0:0:0:
306,284,19840,2,0,L|216:284,1,90
88,196,23269,6,0,B|120:168|172:184|164:236|128:268|128:268|176:252|232:288|192:360|120:348,1,300
284,124,23698,2,0,B|164:324|336:324|392:204|252:188,1,300
408,168,24126,2,0,B|368:180|356:148|348:124|364:92|400:88|432:100|432:124|432:124|452:352,1,300
64,160,24769,6,0,P|160:100|68:172,1,360
123,147,25412,1,0,0:0:0:0:
364,108,25626,1,0,0:0:0:0:
280,320,25840,1,0,0:0:0:0:
123,147,26055,1,0,0:0:0:0:
264,192,26269,1,0,0:0:0:0:
364,108,26482,2,0,L|408:72,1,45
398,79,26908,5,0,0:0:0:0:
456,260,27121,1,0,0:0:0:0:
268,332,27334,2,0,P|236:312|228:296,1,45
160,40,27761,1,0,0:0:0:0:
0,192,27974,1,0,0:0:0:0:
148,104,28187,1,0,0:0:0:0:
88,48,28293,1,0,0:0:0:0:
72,304,28613,5,0,0:0:0:0:
296,280,28826,1,0,0:0:0:0:
112,224,29039,1,0,0:0:0:0:
328,208,29253,1,0,0:0:0:0:
160,144,29466,1,0,0:0:0:0:
372,136,29679,1,0,0:0:0:0:
208,64,29892,1,0,0:0:0:0:
148,32,29999,1,0,0:0:0:0:
36,168,30318,6,0,P|8:216|16:276,1,90
132,360,30745,1,0,0:0:0:0:
200,336,30851,1,0,0:0:0:0:
328,168,31171,1,0,0:0:0:0:
196,56,31384,1,0,0:0:0:0:
256,192,31597,1,0,0:0:0:0:
284,248,31704,1,0,0:0:0:0:
452,60,32023,5,0,0:0:0:0:
456,264,32237,1,0,0:0:0:0:
400,108,32450,1,0,0:0:0:0:
400,308,32663,1,0,0:0:0:0:
348,152,32876,1,0,0:0:0:0:
348,352,33089,1,0,0:0:0:0:
292,192,33302,2,0,L|292:236,1,45
168,352,33729,5,0,0:0:0:0:
28,220,33942,1,0,0:0:0:0:
160,124,34155,1,0,0:0:0:0:
196,108,34261,1,0,0:0:0:0:
368,40,34581,1,0,0:0:0:0:
476,184,34794,1,0,0:0:0:0:
380,304,35007,2,0,L|344:344,1,45
161,169,35434,1,0,0:0:0:0:
284,220,35647,2,0,B|232:220|244:172|288:124|420:164|428:332|300:372|240:304|136:300|112:224|152:196|172:112|244:64|320:52|388:76|404:156|384:212|488:252|452:284|384:348|332:352|252:356|188:348|156:328|144:268|116:180|108:112|196:84|268:68|332:80|356:92|404:112|460:200|484:300|404:356|308:384|220:372|108:312|168:148,1,1440
240,168,36713,5,0,0:0:0:0:
288,152,36819,1,0,0:0:0:0:
483,258,37139,1,0,0:0:0:0:
0,100,37352,2,0,B|224:12|456:100|456:100|0:248|0:248|272:344|512:248,1,1440
408,116,38418,1,0,0:0:0:0:
376,72,38524,1,0,0:0:0:0:
256,188,38844,1,0,0:0:0:0:
28,144,39057,2,0,P|440:52|24:168,1,1440
485,147,40123,2,0,P|488:169|488:192,1,45
340,256,40549,5,0,0:0:0:0:
168,128,40762,1,0,0:0:0:0:
284,164,40975,1,0,0:0:0:0:
228,220,41082,1,0,0:0:0:0:
24,288,41402,1,0,0:0:0:0:
136,68,41615,1,0,0:0:0:0:
60,216,41828,2,0,L|88:160,1,45
316,68,42254,5,0,0:0:0:0:
196,312,42467,1,0,0:0:0:0:
196,68,42681,1,0,0:0:0:0:
312,312,42894,1,0,0:0:0:0:
256,68,43107,1,0,0:0:0:0:
256,312,43320,1,0,0:0:0:0:
256,192,43533,1,0,0:0:0:0:
256,192,43640,1,0,0:0:0:0:
392,16,43959,5,0,0:0:0:0:
496,104,44173,1,0,0:0:0:0:
440,224,44386,1,0,0:0:0:0:
408,272,44492,1,0,0:0:0:0:
88,208,44812,1,0,0:0:0:0:
88,24,45025,1,0,0:0:0:0:
64,144,45238,1,0,0:0:0:0:
112,92,45345,1,0,0:0:0:0:
368,152,45665,5,0,0:0:0:0:
152,40,45878,1,0,0:0:0:0:
384,224,46091,1,0,0:0:0:0:
164,108,46304,1,0,0:0:0:0:
400,292,46517,1,0,0:0:0:0:
176,172,46730,1,0,0:0:0:0:
412,360,46943,1,0,0:0:0:0:
456,328,47050,1,0,0:0:0:0:
160,304,47370,5,0,0:0:0:0:
32,192,47583,1,0,0:0:0:0:
168,220,47796,1,0,0:0:0:0:
160,300,47903,1,0,0:0:0:0:
300,144,48222,1,0,0:0:0:0:
276,332,48435,1,0,0:0:0:0:
388,208,48649,1,0,0:0:0:0:
300,144,48755,1,0,0:0:0:0:
136,44,49075,5,0,0:0:0:0:
0,236,49288,1,0,0:0:0:0:
264,236,49501,1,0,0:0:0:0:
136,44,49714,1,0,0:0:0:0:
136,236,49927,1,0,0:0:0:0:
320,88,50141,1,0,0:0:0:0:
136,44,50354,1,0,0:0:0:0:
136,44,50460,1,0,0:0:0:0:
296,128,50780,5,0,0:0:0:0:
476,128,50993,1,0,0:0:0:0:
304,276,51206,1,0,0:0:0:0:
304,276,51313,1,0,0:0:0:0:
168,48,51633,1,0,0:0:0:0:
168,240,51846,1,0,0:0:0:0:
44,48,52059,1,0,0:0:0:0:
44,48,52165,1,0,0:0:0:0:
308,100,52485,5,0,0:0:0:0:
48,312,52698,2,0,B|4:216|44:112|104:32|104:32|176:88|184:176|184:176|192:88|260:32|260:32|332:108|360:228|320:312|320:312|304:340|328:372|404:376|456:364|504:328|532:248|516:132|484:108|376:64,1,1440
200,232,53764,1,0,0:0:0:0:
168,252,53871,1,0,0:0:0:0:
340,28,54190,1,0,0:0:0:0:
236,232,54403,2,0,B|156:200|92:164|92:164|160:152|240:164|240:164|200:108|176:48|176:48|240:88|284:140|284:140|300:80|340:24|340:24|348:84|332:140|332:140|400:104|472:96|472:96|428:140|372:164|372:164|476:172|544:200|544:200|464:228|356:236,1,1440
160,188,55469,1,0,0:0:0:0:
184,220,55575,1,0,0:0:0:0:
256,332,55895,1,0,0:0:0:0:
116,336,56109,2,0,B|36:288|-44:164|20:104|64:40|88:36|88:36|112:40|220:88|256:332|256:332|288:88|376:44|408:36|408:36|440:44|472:104|552:152|484:300|384:340,1,1440
116,336,57174,5,0,0:0:0:0:
80,308,57281,1,0,0:0:0:0:
72,128,57601,1,0,0:0:0:0:
272,320,57814,1,0,0:0:0:0:
264,136,58027,1,0,0:0:0:0:
236,112,58134,1,0,0:0:0:0:
112,172,58453,1,0,0:0:0:0:
232,284,58666,1,0,0:0:0:0:
160,220,58880,1,0,0:0:0:0:
184,240,58986,1,0,0:0:0:0:
424,148,59306,5,0,0:0:0:0:
256,28,59519,1,0,0:0:0:0:
88,148,59732,1,0,0:0:0:0:
152,320,59945,1,0,0:0:0:0:
360,320,60158,1,0,0:0:0:0:
226,186,60372,2,0,P|286:202|226:198,1,180
392,104,61311,6,0,L|416:136,1,22.5
416,136,61426,1,0,0:0:0:0:
424,148,61484,1,0,0:0:0:0:
432,160,61541,1,0,0:0:0:0:
296,308,61657,2,0,P|260:328|216:316,1,67.5
80,248,61945,2,0,B|60:236|60:236|76:220,1,45
204,80,62234,1,0,0:0:0:0:
228,68,62291,1,0,0:0:0:0:
376,28,62407,1,0,0:0:0:0:
324,152,62522,1,0,0:0:0:0:
220,204,62695,6,0,L|176:240,1,45
168,244,62868,1,0,0:0:0:0:
164,324,62984,1,0,0:0:0:0:
184,336,63157,2,0,L|232:364,1,45
376,320,63387,1,0,0:0:0:0:
416,148,63503,1,0,0:0:0:0:
256,56,63618,2,0,B|264:40|244:24|256:8,2,45
256,192,64080,12,0,64541,0:0:0:0:
256,240,64657,5,0,0:0:0:0:
128,288,65061,1,0,0:0:0:0:
232,84,65234,1,0,0:0:0:0:
256,68,65349,1,0,0:0:0:0:
280,84,65464,1,0,0:0:0:0:
280,84,65637,1,0,0:0:0:0:
256,296,65856,5,0,0:0:0:0:
104,260,66052,1,0,0:0:0:0:
216,88,66249,2,0,P|248:68|296:88,1,90
320,300,66643,1,0,0:0:0:0:
496,144,66840,1,0,0:0:0:0:
293,85,67037,1,0,0:0:0:0:
368,172,67234,1,0,0:0:0:0:
152,280,67431,2,0,B|132:324|80:284|60:348,1,90
75,320,67825,1,0,0:0:0:0:
0,108,68022,1,0,0:0:0:0:
240,72,68219,6,0,P|298:72|322:116,1,90
346,139,68613,2,0,P|303:146|268:120,1,90
452,32,69007,1,0,0:0:0:0:
452,288,69204,1,0,0:0:0:0:
492,236,69401,1,0,0:0:0:0:
208,240,69598,1,0,0:0:0:0:
252,288,69795,1,0,0:0:0:0:
248,32,69992,1,0,0:0:0:0:
200,84,70189,1,0,0:0:0:0:
496,84,70386,1,0,0:0:0:0:
80,364,70583,6,0,P|32:340|24:288,1,90
170,108,70977,2,0,P|218:132|226:184,1,90
272,376,71371,2,0,B|284:360|284:360|340:360|340:360|352:336,2,90
272,376,71962,1,0,0:0:0:0:
456,228,72159,1,0,0:0:0:0:
272,96,72356,1,0,0:0:0:0:
272,284,72553,2,0,P|288:240|268:200,1,90
240,240,72947,2,0,P|216:292|240:328,1,90
440,196,73341,5,0,0:0:0:0:
504,16,73538,1,0,0:0:0:0:
268,180,73734,1,0,0:0:0:0:
332,0,73931,1,0,0:0:0:0:
80,72,74128,2,0,L|-16:128,1,90
88,276,74522,1,0,0:0:0:0:
2,117,74719,1,0,0:0:0:0:
196,304,74916,1,0,0:0:0:0:
40,20,75113,1,0,0:0:0:0:
104,216,75310,2,0,L|64:136,2,90
208,312,75901,5,0,0:0:0:0:
168,96,76098,2,0,L|212:192,2,90
336,0,76689,1,0,0:0:0:0:
512,192,76886,1,0,0:0:0:0:
272,0,77083,1,0,0:0:0:0:
452,192,77280,1,0,0:0:0:0:
212,0,77477,1,0,0:0:0:0:
396,192,77674,1,0,0:0:0:0:
152,0,77871,1,0,0:0:0:0:
340,192,78068,1,0,0:0:0:0:
256,344,78265,6,0,P|204:348|148:304,1,90
40,192,78659,1,0,0:0:0:0:
128,72,78856,1,0,0:0:0:0:
212,192,79053,1,0,0:0:0:0:
384,360,79250,2,0,P|428:340|456:288,1,90
448,88,79644,2,0,P|428:44|376:16,1,90
394,20,80038,1,0,0:0:0:0:
344,212,80235,1,0,0:0:0:0:
196,56,80432,1,0,0:0:0:0:
394,20,80629,1,0,0:0:0:0:
228,220,80826,6,0,P|192:252|144:252,2,90
152,72,81416,1,0,0:0:0:0:
16,200,81613,1,0,0:0:0:0:
200,248,81810,1,0,0:0:0:0:
420,56,82007,1,0,0:0:0:0:
276,320,82204,1,0,0:0:0:0:
384,120,82401,2,0,L|324:228,2,90
384,120,82992,1,0,0:0:0:0:
208,184,83189,5,0,0:0:0:0:
80,48,83386,1,0,0:0:0:0:
20,232,83583,1,0,0:0:0:0:
188,80,83780,1,0,0:0:0:0:
0,124,83977,1,0,0:0:0:0:
132,260,84174,1,0,0:0:0:0:
104,152,84371,1,0,0:0:0:0:
104,152,84568,1,0,0:0:0:0:
328,108,84765,6,0,L|432:108,1,90
418,108,85159,1,0,0:0:0:0:
420,236,85356,1,0,0:0:0:0:
256,236,85553,6,0,L|152:236,1,90
166,236,85947,1,0,0:0:0:0:
164,108,86144,1,0,0:0:0:0:
412,56,86341,5,0,0:0:0:0:
256,308,86538,1,0,0:0:0:0:
388,188,86735,2,0,P|356:148|304:132,1,90
88,352,87129,2,0,P|40:328|29:293,1,90
29,296,87523,1,0,0:0:0:0:
220,176,87720,1,0,0:0:0:0:
192,216,87917,6,0,P|204:132|216:224,1,270
200,276,88311,2,0,P|308:224|156:256,1,540
200,276,89270,5,0,0:0:0:0:
200,84,89466,1,0,0:0:0:0:
252,276,89663,1,0,0:0:0:0:
252,84,89860,1,0,0:0:0:0:
304,224,90056,2,0,L|304:132,2,90
304,134,90647,1,0,0:0:0:0:
60,116,90843,5,0,0:0:0:0:
236,32,91040,1,0,0:0:0:0:
84,164,91237,1,0,0:0:0:0:
256,80,91433,1,0,0:0:0:0:
152,192,91630,2,2,L|232:144,2,90
229,145,92220,1,0,0:0:0:0:
432,68,92417,5,0,0:0:0:0:
480,256,92614,1,0,0:0:0:0:
380,80,92810,1,0,0:0:0:0:
432,268,93007,1,0,0:0:0:0:
344,148,93204,2,0,L|372:244,2,90
369,234,93794,1,0,0:0:0:0:
160,360,93991,5,0,0:0:0:0:
40,200,94188,1,0,0:0:0:0:
208,324,94384,1,0,0:0:0:0:
84,168,94581,1,0,0:0:0:0:
212,248,94778,2,2,L|152:168,2,90
158,176,95368,1,0,0:0:0:0:
292,68,95565,6,0,P|316:60|340:68,1,45
400,264,95958,2,0,P|424:272|448:264,1,45
216,60,96351,2,0,P|168:64|128:100,2,90
135,88,96942,1,0,0:0:0:0:
328,280,97138,2,0,L|404:356,2,90
88,160,97729,1,0,0:0:0:0:
128,316,97925,1,0,0:0:0:0:
256,192,98122,1,0,0:0:0:0:
412,40,98319,2,2,P|456:40|488:76,1,90
356,100,98712,5,0,0:0:0:0:
196,296,98909,1,0,0:0:0:0:
156,100,99106,1,0,0:0:0:0:
316,296,99302,1,0,0:0:0:0:
372,100,99499,5,0,0:0:0:0:
180,296,99696,1,0,0:0:0:0:
140,100,99892,1,0,0:0:0:0:
332,296,100089,1,0,0:0:0:0:
388,100,100286,5,0,0:0:0:0:
164,296,100483,1,0,0:0:0:0:
124,100,100679,1,0,0:0:0:0:
348,296,100876,1,0,0:0:0:0:
256,112,101073,2,2,L|256:208,2,90
256,232,101663,1,0,0:0:0:0:
144,288,101860,5,0,0:0:0:0:
28,116,102056,1,0,0:0:0:0:
240,112,102253,1,0,0:0:0:0:
144,288,102450,1,0,0:0:0:0:
368,112,102647,5,0,0:0:0:0:
484,284,102843,1,0,0:0:0:0:
272,288,103040,1,0,0:0:0:0:
368,112,103237,1,0,0:0:0:0:
48,32,103433,6,0,B|48:188|48:188|48:100|48:100|92:80|124:32|124:32|92:80|48:100|48:100|120:152|120:196,1,562.5
152,184,103630,6,0,B|119:125|151:89|151:89|219:177|219:177|259:125|211:65,1,315
272,180,103827,6,0,B|239:121|271:85|271:85|339:173|339:173|379:121|331:61,1,315
396,184,104024,6,0,B|376:44|376:44|364:40|448:12|460:40|472:80|412:96|412:96|496:140|476:192|396:180|396:180,1,450
184,220,104220,6,0,P|120:244|188:372,1,247.5
272,228,104417,6,0,P|208:252|280:372,1,247.5
320,368,104614,6,0,B|300:228|300:228|288:224|372:196|384:224|396:264|336:280|336:280|420:324|400:376|320:364|320:364,1,450
256,68,105007,1,0,0:0:0:0:
256,316,105204,1,0,0:0:0:0:
348,104,105401,1,0,0:0:0:0:
164,280,105597,1,0,0:0:0:0:
380,192,105794,1,0,0:0:0:0:
132,192,105991,1,0,0:0:0:0:
344,284,106188,1,0,0:0:0:0:
168,100,106384,1,0,0:0:0:0:
264,280,106581,6,0,P|284:327|288:368,2,90
168,140,107171,1,0,0:0:0:0:
72,280,107368,2,0,P|52:327|48:368,2,90
276,184,107958,2,0,B|280:152|340:160|352:116,1,90
368,108,108253,1,0,0:0:0:0:
200,40,108647,1,0,0:0:0:0:
96,212,108843,1,0,0:0:0:0:
308,300,109040,1,0,0:0:0:0:
332,308,109138,1,4,0:0:0:0:
320,304,112594,5,0,0:0:0:0:
80,244,112973,2,0,L|40:344,3,90
120,148,113759,1,0,0:0:0:0:
440,28,114153,1,0,0:0:0:0:
380,228,114350,1,0,0:0:0:0:
256,80,114546,2,0,B|236:48|204:76|172:36,2,90
396,168,115136,5,0,0:0:0:0:
300,348,115333,1,0,0:0:0:0:
112,296,115530,1,0,0:0:0:0:
192,176,115727,1,0,0:0:0:0:
188,108,115825,1,0,0:0:0:0:
132,144,115923,1,0,0:0:0:0:
336,244,116120,2,0,P|380:244|428:204,2,90
468,92,116710,1,0,0:0:0:0:
80,232,117104,5,0,0:0:0:0:
16,180,117300,2,0,B|-20:152|-20:152|8:100,1,90
168,32,117694,1,0,0:0:0:0:
410,33,117891,1,0,0:0:0:0:
168,32,118087,1,0,0:0:0:0:
332,192,118284,1,0,0:0:0:0:
168,32,118481,1,0,0:0:0:0:
168,252,118677,1,0,0:0:0:0:
344,76,118874,2,0,B|396:80|396:80|400:128,1,90
360,320,119268,6,0,P|332:352|276:360,3,90
212,328,120054,1,0,0:0:0:0:
72,60,120448,1,0,0:0:0:0:
248,12,120645,1,0,0:0:0:0:
117,47,120841,2,0,L|204:24,1,90
408,80,121235,1,0,0:0:0:0:
336,256,121432,1,0,0:0:0:0:
40,216,121628,6,0,P|28:172|36:128,1,90
192,268,122022,2,0,P|203:224|192:180,1,90
156,60,122415,1,0,0:0:0:0:
96,32,122513,1,0,0:0:0:0:
100,100,122612,1,0,0:0:0:0:
316,60,122809,1,0,0:0:0:0:
448,244,123005,1,0,0:0:0:0:
484,60,123202,1,0,0:0:0:0:
352,244,123399,1,0,0:0:0:0:
88,88,123595,6,0,L|20:20,1,90
4,280,123989,2,0,L|80:360,1,90
256,80,124382,1,0,0:0:0:0:
256,304,124579,1,0,0:0:0:0:
424,88,124776,2,0,L|492:20,1,90
508,280,125170,2,0,L|432:360,1,90
256,336,125563,5,0,0:0:0:0:
96,256,125759,1,0,0:0:0:0:
96,128,125956,1,0,0:0:0:0:
256,48,126153,1,0,0:0:0:0:
416,128,126350,1,0,0:0:0:0:
416,256,126547,1,0,0:0:0:0:
256,230,126743,1,0,0:0:0:0:
289,172,126841,1,0,0:0:0:0:
222,172,126940,1,0,0:0:0:0:
204,140,127136,5,0,0:0:0:0:
256,118,127333,1,0,0:0:0:0:
307,140,127530,1,0,0:0:0:0:
329,192,127727,1,0,0:0:0:0:
307,243,127923,1,0,0:0:0:0:
255,265,128120,1,0,0:0:0:0:
204,243,128317,1,0,0:0:0:0:
182,191,128513,1,0,0:0:0:0:
256,40,128710,5,0,0:0:0:0:
424,128,128906,1,0,0:0:0:0:
424,256,129103,1,0,0:0:0:0:
256,344,129300,1,0,0:0:0:0:
88,256,129497,1,0,0:0:0:0:
88,128,129694,1,0,0:0:0:0:
256,230,129891,1,0,0:0:0:0:
289,172,129989,1,0,0:0:0:0:
222,172,130087,1,0,0:0:0:0:
318,254,130284,5,0,0:0:0:0:
256,280,130481,1,0,0:0:0:0:
193,254,130677,1,0,0:0:0:0:
167,191,130874,1,0,0:0:0:0:
193,129,131071,1,0,0:0:0:0:
256,103,131268,1,0,0:0:0:0:
318,129,131464,1,0,0:0:0:0:
344,192,131661,1,0,0:0:0:0:
300,312,131858,5,0,0:0:0:0:
132,72,132055,1,0,0:0:0:0:
212,312,132251,1,0,0:0:0:0:
380,72,132448,1,0,0:0:0:0:
256,360,132645,1,0,0:0:0:0:
256,24,132842,1,0,0:0:0:0:
256,144,133039,1,0,0:0:0:0:
256,192,133137,1,0,0:0:0:0:
256,240,133235,1,0,0:0:0:0:
359,295,133432,5,0,0:0:0:0:
256,338,133628,1,0,0:0:0:0:
152,295,133825,1,0,0:0:0:0:
109,191,134022,1,0,0:0:0:0:
152,88,134218,1,0,0:0:0:0:
256,45,134415,1,0,0:0:0:0:
359,88,134612,1,0,0:0:0:0:
402,192,134809,1,0,0:0:0:0:
204,72,135005,5,0,0:0:0:0:
388,312,135202,1,0,0:0:0:0:
308,72,135398,1,0,0:0:0:0:
124,312,135595,1,0,0:0:0:0:
256,20,135792,1,0,0:0:0:0:
256,364,135989,1,0,0:0:0:0:
256,248,136186,1,0,0:0:0:0:
256,192,136284,1,0,0:0:0:0:
256,136,136382,1,0,0:0:0:0:
48,32,136579,6,0,B|48:188|48:188|48:100|48:100|92:80|124:32|124:32|92:80|48:100|48:100|120:152|120:196,1,562.5
152,184,136776,6,0,B|119:125|151:89|151:89|219:177|219:177|259:125|211:65,1,315
272,180,136973,6,0,B|239:121|271:85|271:85|339:173|339:173|379:121|331:61,1,315
396,184,137170,6,0,B|376:44|376:44|364:40|448:12|460:40|472:80|412:96|412:96|496:140|476:192|396:180|396:180,1,450
192,172,137366,2,0,B|160:136|104:144|72:168|72:184|72:184|72:200|120:268|188:272|200:304|192:332|192:332|184:344|168:364|132:356|76:344,1,450
312,180,137563,2,0,B|212:180|212:180|212:344|212:344|316:344|316:344|316:252|316:252|268:252,1,495
356,344,137759,2,0,B|352:172|352:172|424:144|468:264|368:244,1,337.5
