osu file format v14

[General]
AudioFilename: audio.mp3
AudioLeadIn: 0
PreviewTime: 109451
Countdown: 0
SampleSet: Normal
StackLeniency: 0.7
Mode: 0
LetterboxInBreaks: 0
WidescreenStoryboard: 1

[Editor]
Bookmarks: 9769,24571,50141,55311,101270
DistanceSpacing: 0.7
BeatDivisor: 4
GridSize: 8
TimelineZoom: 1

[Metadata]
Title:gang poem compilation
TitleUnicode:gang poem compilation
Artist:singapore
ArtistUnicode:singapore
Creator:Histoire
Version:HUP SOON HENG
Source:15
Tags:emilia P4ndemonium wailord2700 Elegant Loli Soba Noodles apl- techno trance hokkien chinese salakau Antares Ride On A Meteorite Nick Skitz Atlantis (Deep Blue)
BeatmapID:1417972
BeatmapSetID:670479

[Difficulty]
HPDrainRate:5
CircleSize:4
OverallDifficulty:7
ApproachRate:9
SliderMultiplier:1.7
SliderTickRate:1

[Events]
//Background and Video events
0,0,"AU AU SALAKAYU.jpg",0,0
//Break Periods
//Storyboard Layer 0 (Background)
//Storyboard Layer 1 (Fail)
//Storyboard Layer 2 (Pass)
//Storyboard Layer 3 (Foreground)
//Storyboard Layer 4 (Overlay)
//Storyboard Sound Samples

[TimingPoints]
555.15451371161,428.571428571429,4,1,0,100,1,0
26269,426.287744227353,4,1,0,100,1,0
61311,461.538461538462,4,1,0,100,1,0
64080,-50,4,1,0,100,0,0
65856,393.948944216829,4,1,0,100,1,0
65856,-100,4,1,0,100,0,0
89270,393.44262295082,4,1,0,100,1,0
109451,381,4,1,0,100,1,0
112973,393.44262295082,4,1,0,100,1,0

[HitObjects]
253,352,555,5,0,0:0:0:0:
163,60,769,1,0,0:0:0:0:
408,244,983,1,0,0:0:0:0:
102,239,1198,1,0,0:0:0:0:
352,63,1412,1,0,0:0:0:0:
115,327,1626,1,0,0:0:0:0:
289,0,1840,1,0,0:0:0:0:
341,367,2054,1,0,0:0:0:0:
83,100,2269,5,0,0:0:0:0:
448,164,2483,1,0,0:0:0:0:
104,160,2698,5,0,0:0:0:0:
409,213,2912,1,0,0:0:0:0:
120,210,3126,5,0,0:0:0:0:
378,254,3340,1,0,0:0:0:0:
91,232,3555,5,0,0:0:0:0:
406,231,3769,1,0,0:0:0:0:
85,280,3983,5,0,0:0:0:0:
446,215,4197,1,0,0:0:0:0:
59,324,4412,5,0,0:0:0:0:
471,171,4626,1,0,0:0:0:0:
41,295,4840,5,0,0:0:0:0:
412,60,5054,1,0,0:0:0:0:
471,295,5269,5,0,0:0:0:0:
100,60,5483,1,0,0:0:0:0:
459,265,5698,5,0,0:0:0:0:
108,84,5912,1,0,0:0:0:0:
459,265,6126,5,0,0:0:0:0:
108,84,6340,1,0,0:0:0:0:
426,221,6555,5,0,0:0:0:0:
125,127,6769,1,0,0:0:0:0:
426,221,6983,5,0,0:0:0:0:
125,127,7197,1,0,0:0:0:0:
125,256,7412,5,0,0:0:0:0:
426,162,7626,1,0,0:0:0:0:
310,55,7840,5,0,0:0:0:0:
241,363,8054,1,0,0:0:0:0:
391,316,8269,5,0,0:0:0:0:
159,102,8483,1,0,0:0:0:0:
310,55,8698,5,0,0:0:0:0:
241,363,8912,1,0,0:0:0:0:
310,55,9126,5,0,0:0:0:0:
159,102,9340,1,0,0:0:0:0:
241,363,9555,1,0,0:0:0:0:
391,316,9769,1,0,0:0:0:0:
190,75,9983,5,0,0:0:0:0:
117,215,10197,1,0,0:0:0:0:
359,342,10412,1,0,0:0:0:0:
432,202,10626,1,0,0:0:0:0:
121,174,10840,5,0,0:0:0:0:
168,325,11054,1,0,0:0:0:0:
429,243,11269,1,0,0:0:0:0:
382,93,11483,1,0,0:0:0:0:
141,293,11697,5,0,0:0:0:0:
281,366,11911,1,0,0:0:0:0:
408,124,12126,1,0,0:0:0:0:
269,51,12340,1,0,0:0:0:0:
281,366,12555,6,0,L|379:359,1,85
269,51,12983,2,0,L|171:58,1,85
280,350,13412,6,0,L|366:328,1,85
269,66,13840,2,0,L|183:88,1,85
279,336,14269,6,0,L|376:292,1,85
270,80,14697,2,0,L|166:127,1,85
279,323,15126,6,0,L|358:269,1,85
270,93,15554,2,0,L|185:151,1,85
278,311,15983,6,0,L|340:252,1,85
271,105,16412,2,0,L|204:169,1,85
278,301,16840,6,0,P|294:262|323:230,2,85
417,214,17483,2,0,P|399:172|359:134,2,85
323,230,18126,6,0,P|294:262|278:301,1,85
457,289,18555,6,0,P|443:248|418:215,1,85
339,376,18983,6,0,P|380:384|422:379,1,85
181,103,19412,1,0,0:0:0:0:
417,239,19626,1,0,0:0:0:0:
181,376,19840,1,0,0:0:0:0:
339,376,20055,5,0,0:0:0:0:
103,239,20269,1,0,0:0:0:0:
339,103,20483,1,0,0:0:0:0:
320,367,20698,5,0,0:0:0:0:
119,226,20912,1,0,0:0:0:0:
341,123,21126,1,0,0:0:0:0:
303,359,21340,5,0,0:0:0:0:
135,216,21554,1,0,0:0:0:0:
342,141,21768,1,0,0:0:0:0:
279,348,21983,5,0,0:0:0:0:
156,201,22197,1,0,0:0:0:0:
344,168,22411,1,0,0:0:0:0:
268,338,22626,5,0,0:0:0:0:
170,197,22840,1,0,0:0:0:0:
341,182,23054,1,0,0:0:0:0:
260,328,23268,5,0,0:0:0:0:
183,194,23482,1,0,0:0:0:0:
337,194,23696,1,0,0:0:0:0:
262,84,23912,5,0,0:0:0:0:
401,327,24126,1,0,0:0:0:0:
121,327,24340,1,0,0:0:0:0:
121,327,25198,5,0,0:0:0:0:
253,40,25412,1,0,0:0:0:0:
314,350,25626,1,0,0:0:0:0:
82,134,25840,1,0,0:0:0:0:
396,173,26055,1,0,0:0:0:0:
124,327,26269,6,0,P|171:281|186:225,1,85
388,57,26695,2,0,P|341:103|326:159,1,85
160,332,27121,6,0,P|194:284|199:232,1,85
351,51,27547,2,0,P|317:99|312:151,1,85
192,331,27974,6,0,P|215:283|211:236,1,85
319,52,28400,2,0,P|296:100|300:147,1,85
221,325,28826,6,0,P|234:279|223:238,1,85
290,58,29253,2,0,P|277:98|285:140,1,85
324,200,29679,6,0,P|263:192|217:209,1,85
355,269,30105,2,0,P|392:220|400:171,1,85
279,261,30531,2,0,P|302:317|340:349,2,85
240,197,31384,6,0,P|216:140|178:108,1,85
64,193,31810,6,0,P|124:200|171:184,1,85
155,42,32237,6,0,P|117:90|109:139,2,85
124,364,33089,6,0,P|111:313|109:269,1,85
225,280,33515,2,0,P|237:229|240:185,1,85
194,83,33942,1,0,0:0:0:0:
380,154,34155,1,0,0:0:0:0:
239,196,34368,2,0,P|235:238|225:280,1,85
169,138,34794,6,0,P|203:113|245:104,1,85
317,163,35221,2,0,P|335:108|331:74,1,85
475,181,35647,2,0,P|446:151|408:134,1,85
398,228,36073,6,0,P|389:274|398:328,1,85
509,305,36499,2,0,P|466:278|418:278,1,85
349,281,36926,2,0,P|310:306|292:351,1,85
103,145,37352,1,0,0:0:0:0:
284,272,37565,1,0,0:0:0:0:
84,366,37778,2,0,P|52:329|42:294,1,85
395,132,38204,5,0,0:0:0:0:
177,322,38418,1,0,0:0:0:0:
242,40,38631,1,0,0:0:0:0:
355,306,38844,1,0,0:0:0:0:
108,157,39057,1,0,0:0:0:0:
395,132,39270,1,0,0:0:0:0:
177,322,39483,2,0,P|207:274|215:234,1,85
108,157,39910,5,0,0:0:0:0:
355,305,40123,1,0,0:0:0:0:
242,39,40336,1,0,0:0:0:0:
177,321,40549,1,0,0:0:0:0:
395,131,40763,1,0,0:0:0:0:
108,157,40975,1,0,0:0:0:0:
355,305,41189,1,0,0:0:0:0:
177,321,41615,5,0,0:0:0:0:
395,131,41829,1,0,0:0:0:0:
157,309,42041,5,0,0:0:0:0:
356,61,42255,1,0,0:0:0:0:
126,307,42467,5,0,0:0:0:0:
294,0,42681,1,0,0:0:0:0:
475,298,42894,2,0,P|450:260|431:203,1,85
173,266,43320,5,0,0:0:0:0:
181,109,43533,1,0,0:0:0:0:
338,117,43746,1,0,0:0:0:0:
330,274,43959,1,0,0:0:0:0:
101,239,44173,5,0,0:0:0:0:
208,37,44386,1,0,0:0:0:0:
410,144,44599,2,0,P|405:191|426:234,1,85
208,326,45025,5,0,0:0:0:0:
208,37,45238,1,0,0:0:0:0:
377,270,45451,1,0,0:0:0:0:
103,181,45665,1,0,0:0:0:0:
377,92,45878,1,0,0:0:0:0:
208,326,46091,1,0,0:0:0:0:
208,37,46304,1,0,0:0:0:0:
208,37,46730,5,0,0:0:0:0:
377,270,46943,1,0,0:0:0:0:
90,299,47156,1,0,0:0:0:0:
235,53,47370,5,0,0:0:0:0:
348,285,47583,1,0,0:0:0:0:
90,266,47796,1,0,0:0:0:0:
257,71,48009,5,0,0:0:0:0:
321,295,48222,1,0,0:0:0:0:
95,238,48435,1,0,0:0:0:0:
264,87,48649,5,0,0:0:0:0:
304,293,48862,1,0,0:0:0:0:
106,224,49075,1,0,0:0:0:0:
269,102,49288,5,0,0:0:0:0:
288,290,49501,1,0,0:0:0:0:
116,212,49714,1,0,0:0:0:0:
116,212,50141,5,0,0:0:0:0:
288,290,50354,1,0,0:0:0:0:
269,102,50567,1,0,0:0:0:0:
106,224,50780,5,0,0:0:0:0:
304,293,50993,1,0,0:0:0:0:
264,87,51206,1,0,0:0:0:0:
95,238,51420,5,0,0:0:0:0:
321,295,51633,1,0,0:0:0:0:
257,71,51846,1,0,0:0:0:0:
90,266,52059,5,0,0:0:0:0:
348,285,52272,1,0,0:0:0:0:
235,53,52485,1,0,0:0:0:0:
90,299,52699,5,0,0:0:0:0:
377,270,52912,1,0,0:0:0:0:
208,37,53125,1,0,0:0:0:0:
208,37,53551,5,0,0:0:0:0:
208,326,53764,1,0,0:0:0:0:
377,92,53977,1,0,0:0:0:0:
103,181,54190,1,0,0:0:0:0:
377,270,54404,1,0,0:0:0:0:
208,37,54617,5,0,0:0:0:0:
208,326,54830,1,0,0:0:0:0:
208,37,55256,5,0,0:0:0:0:
208,326,55469,1,0,0:0:0:0:
241,52,55682,5,0,0:0:0:0:
241,312,55895,1,0,0:0:0:0:
275,65,56109,5,0,0:0:0:0:
275,297,56322,1,0,0:0:0:0:
474,182,56535,2,0,B|434:150|436:202|395:178,1,85
358,262,56961,6,0,P|311:213|304:187,1,85
303,165,57281,2,0,P|256:182|197:187,1,85
204,189,57601,1,0,0:0:0:0:
91,232,57814,6,0,P|138:281|145:307,1,85
146,329,58134,2,0,P|193:312|252:307,1,85
245,305,58454,1,0,0:0:0:0:
204,189,58666,6,0,P|157:140|150:114,1,85
149,92,58986,2,0,P|102:109|43:114,1,85
50,116,59306,1,0,0:0:0:0:
245,38,59519,5,0,0:0:0:0:
215,245,59732,1,0,0:0:0:0:
374,162,59945,5,0,0:0:0:0:
85,120,60158,1,0,0:0:0:0:
198,384,60372,2,0,L|207:338,1,42.5
195,382,61311,5,0,0:0:0:0:
177,358,61426,5,0,0:0:0:0:
173,328,61541,5,0,0:0:0:0:
184,301,61657,5,0,0:0:0:0:
207,282,61772,5,0,0:0:0:0:
235,276,61887,5,0,0:0:0:0:
264,285,62003,5,0,0:0:0:0:
284,306,62118,5,0,0:0:0:0:
301,331,62234,5,0,0:0:0:0:
322,351,62349,5,0,0:0:0:0:
351,355,62464,5,0,0:0:0:0:
377,341,62580,5,0,0:0:0:0:
390,315,62695,5,0,0:0:0:0:
381,286,62811,5,0,0:0:0:0:
368,258,62926,5,0,0:0:0:0:
367,229,63041,5,0,0:0:0:0:
376,201,63157,5,0,0:0:0:0:
395,178,63272,5,0,0:0:0:0:
413,155,63387,5,0,0:0:0:0:
406,126,63502,5,0,0:0:0:0:
390,101,63617,5,0,0:0:0:0:
365,84,63733,5,0,0:0:0:0:
337,78,63848,5,0,0:0:0:0:
240,16,64541,6,0,B|194:12|73:76|80:154|192:255|313:221|331:317|300:367|155:407|47:385|6:194|319:206|348:132|232:66|179:8|111:3|79:134,1,850
101,260,65856,6,0,P|106:322|138:362,1,85
278,363,66249,2,0,P|303:328|310:286,1,85
316,197,66643,2,0,P|381:233|396:271,1,85
395,53,67037,2,0,P|331:91|290:85,1,85
480,193,67431,6,0,P|478:118|504:86,1,85
387,321,67825,2,0,P|388:246|362:214,1,85
233,274,68219,2,0,L|318:282,1,85
456,192,68613,2,0,P|394:152|352:162,1,85
168,175,69007,5,0,0:0:0:0:
436,119,69204,1,0,0:0:0:0:
216,80,69401,1,0,0:0:0:0:
434,247,69795,5,0,0:0:0:0:
166,191,69992,1,0,0:0:0:0:
386,152,70189,1,0,0:0:0:0:
386,152,70583,5,0,0:0:0:0:
105,243,70780,1,0,0:0:0:0:
279,4,70977,1,0,0:0:0:0:
279,300,71174,1,0,0:0:0:0:
105,60,71371,1,0,0:0:0:0:
386,152,71568,1,0,0:0:0:0:
105,243,71765,1,0,0:0:0:0:
376,167,72159,5,0,0:0:0:0:
117,226,72356,1,0,0:0:0:0:
365,180,72553,5,0,0:0:0:0:
128,213,72750,1,0,0:0:0:0:
352,191,72947,5,0,0:0:0:0:
140,202,73144,1,0,0:0:0:0:
342,200,73341,5,0,0:0:0:0:
150,193,73538,1,0,0:0:0:0:
150,193,73734,5,0,0:0:0:0:
342,200,73931,1,0,0:0:0:0:
140,202,74128,5,0,0:0:0:0:
352,191,74325,1,0,0:0:0:0:
128,213,74522,5,0,0:0:0:0:
365,180,74719,1,0,0:0:0:0:
117,226,74916,5,0,0:0:0:0:
376,167,75113,1,0,0:0:0:0:
140,248,75310,5,0,0:0:0:0:
399,188,75507,1,0,0:0:0:0:
162,269,75704,5,0,0:0:0:0:
421,209,75901,1,0,0:0:0:0:
184,290,76098,5,0,0:0:0:0:
443,230,76295,1,0,0:0:0:0:
262,35,76492,2,0,P|256:78|264:119,1,85
276,208,76886,6,0,P|315:192|342:160,1,85
380,348,77280,2,0,P|378:278|356:247,1,85
202,162,77674,2,0,P|189:223|275:299,1,170
257,296,78462,5,0,0:0:0:0:
357,88,78659,1,0,0:0:0:0:
397,219,78856,1,0,0:0:0:0:
255,88,79250,5,0,0:0:0:0:
155,296,79447,1,0,0:0:0:0:
115,165,79644,1,0,0:0:0:0:
115,165,80038,5,0,0:0:0:0:
348,84,80235,1,0,0:0:0:0:
301,326,80432,1,0,0:0:0:0:
115,165,80629,1,0,0:0:0:0:
348,84,80826,1,0,0:0:0:0:
301,326,81023,1,0,0:0:0:0:
115,165,81220,1,0,0:0:0:0:
115,165,81613,5,0,0:0:0:0:
269,377,81810,1,0,0:0:0:0:
115,327,82007,1,0,0:0:0:0:
363,246,82401,5,0,0:0:0:0:
115,165,82598,1,0,0:0:0:0:
269,377,82795,1,0,0:0:0:0:
269,377,83189,5,0,0:0:0:0:
115,327,83386,1,0,0:0:0:0:
363,246,83583,1,0,0:0:0:0:
115,165,83780,1,0,0:0:0:0:
269,377,83977,1,0,0:0:0:0:
115,327,84174,1,0,0:0:0:0:
363,246,84371,1,0,0:0:0:0:
115,165,84765,6,0,P|137:120|143:54,1,85
57,34,85159,1,0,0:0:0:0:
252,66,85356,1,0,0:0:0:0:
269,68,85750,5,0,0:0:0:0:
39,31,85947,1,0,0:0:0:0:
57,34,86341,5,0,0:0:0:0:
139,251,86538,1,0,0:0:0:0:
287,71,86735,1,0,0:0:0:0:
5,163,86932,5,0,0:0:0:0:
186,311,87129,1,0,0:0:0:0:
223,81,87326,1,0,0:0:0:0:
25,302,87523,5,0,0:0:0:0:
256,339,87720,1,0,0:0:0:0:
173,121,87917,1,0,0:0:0:0:
165,277,89270,6,0,P|149:225|106:192,1,85
169,53,89663,2,0,P|185:105|228:138,1,85
341,62,90056,1,0,0:0:0:0:
259,57,90253,1,0,0:0:0:0:
247,206,90450,2,0,P|284:166|291:112,1,85
38,200,90843,6,0,P|67:137|88:123,1,85
128,203,91237,2,0,P|155:235|165:277,1,85
53,293,91630,1,0,0:0:0:0:
249,210,91827,1,0,0:0:0:0:
98,364,92024,2,0,P|79:291|54:270,1,85
414,20,92417,6,0,P|433:93|458:114,1,85
506,130,92810,2,0,P|459:171|417:166,1,85
337,222,93204,1,0,0:0:0:0:
433,282,93401,1,0,0:0:0:0:
238,209,93597,2,0,P|265:152|303:127,1,85
437,98,93991,6,0,P|410:155|372:180,1,85
337,222,94384,2,0,P|364:279|402:304,1,85
440,212,94778,1,0,0:0:0:0:
271,320,94974,1,0,0:0:0:0:
220,183,95171,2,0,P|289:179|322:196,1,85
163,105,95565,6,0,P|126:150|126:194,1,85
100,60,95958,2,0,P|71:97|51:148,1,85
39,274,96351,1,0,0:0:0:0:
39,78,96548,1,0,0:0:0:0:
208,176,96745,2,0,L|285:219,1,85
157,313,97138,5,0,0:0:0:0:
279,213,97335,1,0,0:0:0:0:
292,62,97532,1,0,0:0:0:0:
317,48,97925,5,0,0:0:0:0:
301,224,98122,1,0,0:0:0:0:
159,341,98319,1,0,0:0:0:0:
159,341,98712,5,0,0:0:0:0:
269,37,98909,1,0,0:0:0:0:
358,347,99106,1,0,0:0:0:0:
103,148,99302,1,0,0:0:0:0:
426,160,99499,1,0,0:0:0:0:
159,341,99696,1,0,0:0:0:0:
269,37,99893,1,0,0:0:0:0:
269,37,100286,5,0,0:0:0:0:
321,199,100483,1,0,0:0:0:0:
159,251,100679,1,0,0:0:0:0:
107,90,100876,1,0,0:0:0:0:
214,145,101073,1,0,0:0:0:0:
321,199,101270,1,0,0:0:0:0:
428,253,101466,1,0,0:0:0:0:
428,253,101860,5,0,0:0:0:0:
186,332,102056,1,0,0:0:0:0:
336,381,102253,1,0,0:0:0:0:
186,175,102449,1,0,0:0:0:0:
428,253,102647,1,0,0:0:0:0:
186,332,102843,1,0,0:0:0:0:
336,381,103040,1,0,0:0:0:0:
336,381,103433,5,0,0:0:0:0:
336,126,103630,1,0,0:0:0:0:
186,332,103827,1,0,0:0:0:0:
428,253,104024,1,0,0:0:0:0:
186,175,104222,1,0,0:0:0:0:
336,381,104417,1,0,0:0:0:0:
336,126,104614,1,0,0:0:0:0:
336,126,105007,5,0,0:0:0:0:
343,338,105204,1,0,0:0:0:0:
156,239,105401,1,0,0:0:0:0:
438,220,105597,5,0,0:0:0:0:
208,364,105794,1,0,0:0:0:0:
199,94,105991,1,0,0:0:0:0:
438,220,106188,1,0,0:0:0:0:
438,220,106581,5,0,0:0:0:0:
259,304,106778,1,0,0:0:0:0:
398,369,106974,5,0,0:0:0:0:
298,155,107171,1,0,0:0:0:0:
495,192,107368,5,0,0:0:0:0:
201,331,107565,1,0,0:0:0:0:
228,6,107761,1,0,0:0:0:0:
319,47,107958,6,0,L|383:55,1,56.6666666666667,0|0,2:0|2:0,2:0:0:0:
319,62,108220,2,0,P|313:117|290:157,1,85,0|0,2:0|2:0,2:0:0:0:
284,144,108614,6,0,P|252:130|208:134,1,56.6666666666667,0|0,3:0|3:0,3:0:0:0:
268,250,108810,2,0,P|296:229|314:189,1,56.6666666666667,0|0,3:0|3:0,3:0:0:0:
184,183,109007,2,0,P|187:217|213:253,1,56.6666666666667,0|0,3:0|3:0,3:0:0:0:
196,236,109451,6,0,P|200:298|186:332,1,85
95,179,109832,2,0,P|91:241|105:275,1,85
183,58,110213,1,0,0:0:0:0:
227,140,110403,1,0,0:0:0:0:
223,236,110594,1,0,0:0:0:0:
291,335,110975,5,0,0:0:0:0:
197,332,111165,1,0,0:0:0:0:
116,280,111356,1,0,0:0:0:0:
1,286,111737,5,0,0:0:0:0:
50,206,111927,1,0,0:0:0:0:
136,161,112118,1,0,0:0:0:0:
256,192,112499,12,8,112522,0:0:0:0:
89,167,112973,6,0,P|147:161|185:135,1,85
135,11,113366,2,0,P|111:64|114:110,1,85
140,276,113956,1,0,0:0:0:0:
172,59,114153,1,0,0:0:0:0:
247,128,114546,6,0,P|212:80|171:60,1,85
302,251,114940,2,0,P|349:216|369:175,1,85
179,306,115333,2,0,P|213:353|254:373,1,85
124,183,115727,2,0,L|56:258,1,85
31,241,116120,6,0,L|101:164,1,85
180,190,116513,2,0,P|173:139|140:97,1,85
404,227,116907,6,0,L|334:304,1,85
255,278,117300,2,0,P|262:329|295:371,1,85
286,134,117694,1,0,0:0:0:0:
82,257,117891,1,0,0:0:0:0:
290,372,118087,1,0,0:0:0:0:
286,134,118284,1,0,0:0:0:0:
184,196,118481,2,0,P|208:146|246:117,2,85
319,258,119268,6,0,P|283:211|255:193,1,85
168,89,119661,2,0,P|226:81|256:66,1,85
389,42,120054,2,0,P|366:96|364:129,1,85
364,151,120350,1,0,0:0:0:0:
372,183,120448,1,0,0:0:0:0:
448,248,120841,6,0,P|393:281|344:279,1,85
319,365,121235,2,0,P|264:332|215:334,1,85
158,278,121628,2,0,P|213:245|262:247,1,85
155,359,122022,2,0,P|98:337|80:296,1,85
68,288,122415,5,0,0:0:0:0:
235,212,122612,1,0,0:0:0:0:
56,262,122809,5,0,0:0:0:0:
222,147,123006,1,0,0:0:0:0:
40,236,123202,5,0,0:0:0:0:
197,79,123399,1,0,0:0:0:0:
254,293,123595,1,0,0:0:0:0:
35,178,123989,5,0,0:0:0:0:
228,67,124186,1,0,0:0:0:0:
227,289,124382,1,0,0:0:0:0:
46,122,124579,1,0,0:0:0:0:
261,64,124776,1,0,0:0:0:0:
203,278,124972,1,0,0:0:0:0:
72,70,125169,1,0,0:0:0:0:
143,114,125563,6,0,P|105:96|72:70,1,85
222,144,125956,2,0,P|184:188|146:198,1,85
143,114,126350,1,0,0:0:0:0:
285,309,126546,1,0,0:0:0:0:
143,263,126743,1,0,0:0:0:0:
372,188,127136,6,0,L|302:94,1,85
454,188,127530,2,0,P|444:229|406:263,1,85
321,119,127923,1,0,0:0:0:0:
506,226,128120,1,0,0:0:0:0:
321,333,128317,2,0,P|300:286|271:253,1,85
321,333,128710,6,0,P|300:286|271:253,1,85
414,258,129104,2,0,P|392:186|374:154,1,85
215,76,129497,1,0,0:0:0:0:
155,201,129694,1,0,0:0:0:0:
94,325,129891,1,0,0:0:0:0:
215,76,130284,5,0,0:0:0:0:
30,139,130481,1,0,0:0:0:0:
278,260,130677,1,0,0:0:0:0:
94,325,131071,5,0,0:0:0:0:
155,201,131268,1,0,0:0:0:0:
215,76,131465,1,0,0:0:0:0:
170,49,131858,5,0,0:0:0:0:
138,351,132054,1,0,0:0:0:0:
114,39,132251,5,0,0:0:0:0:
194,361,132447,1,0,0:0:0:0:
252,360,132645,1,0,0:0:0:0:
305,344,132841,1,0,0:0:0:0:
350,309,133038,2,0,P|311:259|306:207,1,85
259,159,133432,6,0,P|321:150|369:171,1,85
434,155,133825,2,0,P|410:213|367:244,1,85
350,309,134218,2,0,P|311:259|306:207,2,85
258,159,135005,6,0,P|299:148|341:155,1,85
186,197,135399,2,0,P|176:154|191:110,1,85
296,232,135792,2,0,P|306:272|299:314,1,85
224,270,136186,2,0,P|183:280|141:273,1,85
156,59,136579,5,0,0:0:0:0:
396,122,136776,1,0,0:0:0:0:
331,371,136972,1,0,0:0:0:0:
84,306,137169,1,0,0:0:0:0:
299,11,137366,1,0,0:0:0:0:
299,376,137563,1,0,0:0:0:0:
84,81,137759,1,0,0:0:0:0:
