osu file format v14

[General]
AudioFilename: audio.mp3
AudioLeadIn: 0
PreviewTime: -1
Countdown: 0
SampleSet: Normal
StackLeniency: 0.2
Mode: 0
LetterboxInBreaks: 0
WidescreenStoryboard: 1

[Editor]
Bookmarks: 9769,24571,50141,55311,101270
DistanceSpacing: 0.7
BeatDivisor: 4
GridSize: 8
TimelineZoom: 1.3

[Metadata]
Title:gang poem compilation
TitleUnicode:gang poem compilation
Artist:singapore
ArtistUnicode:singapore
Creator:Histoire
Version:FURY HOUNDS
Source:15
Tags:emilia P4ndemonium wailord2700 Elegant Loli Soba Noodles apl- techno trance hokkien chinese salakau Antares Ride On A Meteorite Nick Skitz Atlantis (Deep Blue)
BeatmapID:1433626
BeatmapSetID:670479

[Difficulty]
HPDrainRate:5
CircleSize:4
OverallDifficulty:7
ApproachRate:9
SliderMultiplier:1.7
SliderTickRate:1

[Events]
//Background and Video events
0,0,"AU AU SALAKAYU.jpg",0,0
//Break Periods
//Storyboard Layer 0 (Background)
//Storyboard Layer 1 (Fail)
//Storyboard Layer 2 (Pass)
//Storyboard Layer 3 (Foreground)
//Storyboard Layer 4 (Overlay)
//Storyboard Sound Samples

[TimingPoints]
555.15451371161,428.571428571429,4,1,0,100,1,0
5698,-50,4,1,0,100,0,0
6769,-133.333333333333,4,1,0,100,0,0
7412,-66.6666666666667,4,1,0,100,0,0
8055,-100,4,1,0,100,0,0
9126,-50,4,1,0,100,0,0
9555,-66.6666666666667,4,1,0,100,0,0
16840,-100,4,1,0,100,0,0
26269,426.287744227353,4,1,0,100,1,0
60372,-50,4,1,0,100,0,0
61224,-100,4,1,0,100,0,0
61311,461.538461538462,4,1,0,100,1,0
64080,-50,4,1,0,100,0,0
65856,393.948944216829,4,1,0,100,1,0
65856,-100,4,1,0,100,0,0
67431,-50,4,1,0,100,0,0
76492,-100,4,1,0,100,0,0
89270,393.44262295082,4,1,0,100,1,0
107958,-200,4,1,0,100,0,0
109007,-100,4,1,0,100,0,0
109451,381,4,1,0,100,1,0
112973,393.44262295082,4,1,0,100,1,0

[HitObjects]
144,112,555,6,0,P|160:80|232:80,1,85,0|8,0:0|0:0,0:0:0:0:
368,272,983,2,0,P|352:304|280:304,1,85
96,136,1412,1,0,0:0:0:0:
416,144,1626,1,8,0:0:0:0:
248,136,1840,1,0,0:0:0:0:
248,136,2055,1,0,0:0:0:0:
160,192,2269,6,0,P|160:256|192:288,1,85,0|8,0:0|0:0,0:0:0:0:
360,192,2698,2,0,P|360:256|328:288,1,85
448,192,3126,2,0,P|448:256|416:288,1,85
72,192,3555,2,0,P|72:256|104:288,1,85,0|8,0:0|0:0,0:0:0:0:
320,320,3983,5,0,0:0:0:0:
200,280,4198,1,8,0:0:0:0:
128,176,4412,1,0,0:0:0:0:
112,64,4626,1,0,0:0:0:0:
200,40,4840,2,0,B|264:48|280:104|384:128,1,170
416,208,5483,1,0,0:0:0:0:
392,304,5698,6,0,L|32:304,1,340
312,200,6340,2,0,L|80:200,1,170
256,96,6769,2,0,L|168:96,1,63.7500024318696,8|0,0:0|0:0,0:0:0:0:
240,64,7198,5,0,0:0:0:0:
128,184,7412,2,0,L|400:184,1,255.000009727478
160,272,8055,2,0,P|128:304|72:320,1,85
352,272,8483,2,0,P|384:304|440:320,1,85,8|0,0:0|0:0,0:0:0:0:
176,80,9126,6,0,B|176:176|120:264|80:288,1,170,0|8,0:0|0:0,0:0:0:0:
88,160,9555,2,0,B|216:160|288:144|288:144|264:256|264:256|384:256|384:256|384:168|384:168,1,510.000019454957
416,288,10840,6,0,P|304:320|272:280,1,127.500004863739
208,232,11269,2,0,L|104:112,1,127.500004863739,8|0,0:0|0:0,0:0:0:0:
120,48,11698,1,0,0:0:0:0:
120,200,11912,1,0,0:0:0:0:
120,328,12126,2,0,B|224:312|224:312|360:200,1,255.000009727478,8|0,0:0|0:0,0:0:0:0:
432,312,12769,5,8,0:0:0:0:
344,80,12983,1,0,0:0:0:0:
200,80,13198,1,0,0:0:0:0:
280,304,13412,1,0,0:0:0:0:
72,80,13626,1,0,0:0:0:0:
144,304,13840,1,8,0:0:0:0:
72,80,14055,1,0,0:0:0:0:
80,184,14269,6,0,P|167:122|172:105,1,127.500004863739,0|8,0:0|0:0,0:0:0:0:
288,72,14698,2,0,P|360:72|400:128,1,127.500004863739
440,232,15126,1,0,0:0:0:0:
224,304,15340,1,8,0:0:0:0:
272,88,15555,1,0,0:0:0:0:
368,336,15769,1,0,0:0:0:0:
296,232,15983,6,0,L|200:112,1,127.500004863739,0|8,0:0|0:0,0:0:0:0:
168,208,16412,2,0,L|72:88,1,127.500004863739
88,272,16840,2,0,P|128:320|168:320,2,85,0|8|0,0:0|0:0|0:0,0:0:0:0:
320,272,17483,2,0,P|280:320|240:320,2,85,0|0|8,0:0|0:0|0:0,0:0:0:0:
200,208,18126,6,0,L|200:16,1,170
200,38,18769,1,0,0:0:0:0:
352,104,18983,1,0,0:0:0:0:
352,104,19198,1,0,0:0:0:0:
440,296,19412,5,0,0:0:0:0:
88,296,19626,1,0,0:0:0:0:
256,96,19840,1,0,0:0:0:0:
256,192,20269,12,4,24340,0:0:0:0:
256,112,26269,5,0,0:0:0:0:
392,232,26482,1,0,0:0:0:0:
392,232,26588,1,0,0:0:0:0:
392,232,26695,1,8,0:0:0:0:
216,344,26908,1,0,0:0:0:0:
144,160,27121,5,0,0:0:0:0:
344,336,27334,1,0,0:0:0:0:
344,336,27440,1,0,0:0:0:0:
344,336,27547,1,8,0:0:0:0:
392,112,27761,1,0,0:0:0:0:
176,128,27974,5,0,0:0:0:0:
104,304,28187,2,0,L|56:336,2,42.5,0|0|8,0:0|0:0|0:0,0:0:0:0:
208,232,28613,1,0,0:0:0:0:
288,168,28826,1,0,0:0:0:0:
248,200,29039,1,0,0:0:0:0:
376,104,29253,1,8,0:0:0:0:
336,136,29466,1,0,0:0:0:0:
416,176,29679,6,0,P|440:216|488:232,1,85
296,256,30105,2,0,P|320:312|296:352,1,85,8|0,0:0|0:0,0:0:0:0:
288,144,30531,2,0,P|248:96|264:72,1,85,0|0,0:0|0:0,0:0:0:0:
152,232,30958,2,0,P|104:184|64:192,1,85,8|0,0:0|0:0,0:0:0:0:
64,72,31384,5,0,0:0:0:0:
216,328,31597,1,0,0:0:0:0:
408,88,31810,1,8,0:0:0:0:
96,144,32023,1,0,0:0:0:0:
128,240,32237,1,0,0:0:0:0:
154,273,32343,1,0,0:0:0:0:
185,301,32450,1,0,0:0:0:0:
221,325,32556,1,0,0:0:0:0:
259,343,32663,1,8,0:0:0:0:
392,328,32876,1,0,0:0:0:0:
408,120,33089,5,0,0:0:0:0:
112,328,33302,1,0,0:0:0:0:
408,120,33515,1,8,0:0:0:0:
112,328,33729,1,0,0:0:0:0:
320,304,33942,2,0,L|320:256,1,42.5
232,248,34155,2,0,L|232:200,1,42.5
216,104,34368,2,0,B|176:48|80:48|80:48|80:96,1,170,8|0,0:0|0:0,0:0:0:0:
88,256,35007,6,0,L|160:304,1,85,0|8,0:0|0:0,0:0:0:0:
304,336,35434,1,0,0:0:0:0:
432,288,35647,2,0,P|448:264|448:232,1,42.5
360,168,35860,2,0,P|384:152|384:128,1,42.5
248,96,36073,2,0,P|272:80|272:56,1,42.5,8|0,0:0|0:0,0:0:0:0:
88,72,36286,2,0,P|120:56|128:32,1,42.5
120,280,36499,5,0,0:0:0:0:
368,288,36713,2,0,L|408:320,2,42.5,0|0|8,0:0|0:0|0:0,0:0:0:0:
344,128,37139,2,0,L|248:64,1,85
104,136,37565,2,0,L|32:160,2,42.5,0|0|8,0:0|0:0|0:0,0:0:0:0:
176,320,37991,1,0,0:0:0:0:
320,248,38205,6,0,L|320:176,1,42.5
112,216,38418,2,0,L|112:144,1,42.5
328,160,38631,2,0,L|328:96,1,42.5,8|0,0:0|0:0,0:0:0:0:
112,128,38844,2,0,L|112:56,1,42.5
64,40,39057,1,0,0:0:0:0:
248,200,39270,1,0,0:0:0:0:
144,112,39483,1,8,0:0:0:0:
376,288,39697,1,0,0:0:0:0:
472,104,39910,6,0,P|432:48|400:32,1,85
328,120,40229,1,0,0:0:0:0:
297,150,40335,1,8,0:0:0:0:
267,180,40442,1,0,0:0:0:0:
237,210,40548,1,0,0:0:0:0:
207,240,40655,1,0,0:0:0:0:
120,336,40762,6,0,P|72:304|64:272,1,85
56,136,41082,1,0,0:0:0:0:
92,114,41188,1,8,0:0:0:0:
129,93,41295,1,0,0:0:0:0:
166,72,41401,1,0,0:0:0:0:
203,51,41508,1,0,0:0:0:0:
328,56,41615,6,0,P|384:72|416:96,1,85
472,224,41935,1,0,0:0:0:0:
438,250,42041,1,8,0:0:0:0:
405,276,42148,1,0,0:0:0:0:
371,303,42254,1,0,0:0:0:0:
338,329,42361,1,0,0:0:0:0:
216,320,42467,1,0,0:0:0:0:
192,288,42681,5,0,0:0:0:0:
168,256,42894,1,8,0:0:0:0:
144,224,43107,1,0,0:0:0:0:
136,112,43320,1,0,0:0:0:0:
192,112,43533,6,0,L|256:128,1,42.5
280,136,43746,2,0,L|216:120,1,42.5,8|0,0:0|0:0,0:0:0:0:
192,112,43959,1,0,0:0:0:0:
280,136,44066,1,0,0:0:0:0:
160,208,44386,6,0,L|192:256,1,42.5
208,288,44599,2,0,L|168:232,1,42.5,8|0,0:0|0:0,0:0:0:0:
152,208,44812,1,0,0:0:0:0:
208,288,44919,1,0,0:0:0:0:
64,120,45238,6,0,L|128:88,1,42.5
160,72,45451,2,0,L|104:104,1,42.5,8|0,0:0|0:0,0:0:0:0:
32,144,45665,2,0,L|88:112,1,42.5
184,64,45878,1,0,0:0:0:0:
416,192,46091,5,0,0:0:0:0:
232,328,46304,1,8,0:0:0:0:
88,208,46517,1,0,0:0:0:0:
184,72,46730,2,0,L|296:96,1,85
352,216,47157,1,8,0:0:0:0:
352,216,47370,1,0,0:0:0:0:
240,328,47583,2,0,L|168:256,1,85
88,184,48009,2,0,P|120:112|208:24,1,170,8|0,0:0|0:0,0:0:0:0:
179,44,48649,5,0,0:0:0:0:
376,152,48862,1,8,0:0:0:0:
376,152,49075,1,0,0:0:0:0:
296,304,49288,1,0,0:0:0:0:
296,304,49501,1,0,0:0:0:0:
224,112,49714,2,0,B|128:168|128:168|120:232,1,170,8|0,0:0|0:0,0:0:0:0:
56,336,50354,2,0,P|128:336|160:320,1,85,0|8,0:0|0:0,0:0:0:0:
224,240,50780,2,0,B|328:240|328:240|400:240|400:240|304:240,1,255,0|8,0:0|0:0,0:0:0:0:
192,336,51846,6,0,P|144:296|160:248,1,85
368,336,52272,2,0,P|416:296|400:248,1,85,8|0,0:0|0:0,0:0:0:0:
456,120,52698,2,0,L|448:112,1,10.625
264,168,52911,2,0,L|248:160,1,10.625
88,240,53125,2,0,L|80:232,1,10.625,8|0,0:0|0:0,0:0:0:0:
64,64,53551,5,0,0:0:0:0:
256,192,53764,1,0,0:0:0:0:
256,192,53871,1,0,0:0:0:0:
256,192,53977,1,8,0:0:0:0:
440,320,54190,1,0,0:0:0:0:
240,328,54403,2,0,B|192:288|192:288|168:296|168:296|176:272|176:272|136:272|136:272|152:248|152:248|112:256|112:256|128:224|128:224,1,255
64,320,55256,5,0,0:0:0:0:
256,192,55469,1,0,0:0:0:0:
256,192,55576,1,0,0:0:0:0:
256,192,55682,1,8,0:0:0:0:
440,64,55895,1,0,0:0:0:0:
240,56,56108,2,0,B|192:96|192:96|168:88|168:88|176:112|176:112|136:112|136:112|152:136|152:136|112:128|112:128|128:160|128:160,1,255
256,192,56961,5,0,0:0:0:0:
256,192,57174,1,0,0:0:0:0:
256,192,57281,1,0,0:0:0:0:
256,192,57388,1,8,0:0:0:0:
256,192,57601,1,0,0:0:0:0:
256,192,57814,5,0,0:0:0:0:
256,192,58027,1,0,0:0:0:0:
256,192,58134,1,0,0:0:0:0:
256,192,58240,1,8,0:0:0:0:
256,192,58453,1,0,0:0:0:0:
256,192,58666,5,0,0:0:0:0:
256,192,58880,1,0,0:0:0:0:
256,192,58986,1,0,0:0:0:0:
256,192,59093,1,8,0:0:0:0:
256,192,59306,1,0,0:0:0:0:
256,192,59519,5,0,0:0:0:0:
256,192,59732,1,0,0:0:0:0:
256,192,59945,1,8,0:0:0:0:
256,192,60158,1,0,0:0:0:0:
256,192,60372,2,0,L|256:224,1,21.25
256,192,60585,1,0,0:0:0:0:
224,192,61311,6,0,L|224:224,1,28.3333333333333
336,184,61464,6,0,L|336:224,2,28.3333333333333
128,200,61743,6,0,L|136:248,1,42.5
208,208,61964,6,0,L|200:240,1,28.3333333333333
344,320,62234,6,0,L|392:336,3,42.5
272,240,62695,6,0,L|264:208,1,28.3333333333333
160,160,62887,6,0,L|152:104,1,56.6666666666667
72,56,63157,6,0,L|64:96,1,28.3333333333333
88,232,63349,6,0,L|136:272,1,56.6666666666667
192,152,63657,6,0,L|256:112,1,70.8333333333333
264,56,64541,6,0,B|256:256|144:336|144:336|448:336|448:336|368:336,1,680
176,336,65856,1,0,0:0:0:0:
376,88,66052,1,0,0:0:0:0:
96,288,66249,1,0,0:0:0:0:
424,160,66446,1,0,0:0:0:0:
80,192,66643,1,0,0:0:0:0:
80,192,66840,1,0,0:0:0:0:
264,192,67037,1,0,0:0:0:0:
264,192,67234,1,0,0:0:0:0:
136,320,67431,6,0,P|56:248|56:152,1,170
376,320,67825,2,0,P|456:248|456:152,1,170
368,64,68219,1,0,0:0:0:0:
240,320,68416,1,0,0:0:0:0:
128,56,68613,1,0,0:0:0:0:
64,320,68810,1,0,0:0:0:0:
56,152,69007,6,0,L|232:48,1,170
328,184,69401,2,0,L|480:80,1,170
424,336,69795,1,0,0:0:0:0:
56,48,69992,1,0,0:0:0:0:
424,336,70189,1,0,0:0:0:0:
56,48,70386,1,0,0:0:0:0:
56,176,70583,6,0,L|56:352,1,170
56,346,70977,1,0,0:0:0:0:
56,346,71174,1,0,0:0:0:0:
456,176,71371,2,0,L|456:352,1,170
456,346,71765,1,0,0:0:0:0:
456,346,71962,1,0,0:0:0:0:
320,328,72159,5,0,0:0:0:0:
80,152,72356,1,0,0:0:0:0:
376,72,72553,1,0,0:0:0:0:
320,336,72750,1,0,0:0:0:0:
72,304,72947,1,0,0:0:0:0:
456,248,73144,1,0,0:0:0:0:
72,208,73341,1,0,0:0:0:0:
456,152,73538,1,0,0:0:0:0:
256,48,73734,5,0,0:0:0:0:
256,232,73931,1,0,0:0:0:0:
256,136,74128,1,0,0:0:0:0:
256,336,74325,1,0,0:0:0:0:
144,328,74522,2,0,B|40:256|40:256|40:176,1,170
40,136,74916,2,0,P|168:64|392:56,1,340
357,48,75507,5,0,0:0:0:0:
464,224,75704,1,0,0:0:0:0:
64,336,75901,1,0,0:0:0:0:
256,48,76098,1,0,0:0:0:0:
256,48,76295,1,0,0:0:0:0:
256,48,76492,2,0,L|256:256,1,170
104,296,77083,6,0,L|16:360,1,85
408,296,77477,2,0,L|496:360,1,85
256,192,77871,1,0,0:0:0:0:
256,192,78068,2,0,B|184:280|184:280|112:224,1,170
64,128,78659,1,0,0:0:0:0:
104,80,78757,1,0,0:0:0:0:
160,48,78856,2,0,P|248:56|328:112,1,170
360,144,79447,1,0,0:0:0:0:
392,192,79545,1,0,0:0:0:0:
408,240,79644,2,0,P|376:328|288:352,1,170
309,354,80235,5,0,0:0:0:0:
56,336,80432,1,0,0:0:0:0:
56,336,80629,1,0,0:0:0:0:
464,48,80826,1,0,0:0:0:0:
48,344,81023,1,0,0:0:0:0:
256,192,81220,2,0,B|352:256|352:256|288:216,1,170
305,227,81810,5,0,0:0:0:0:
168,104,82007,1,0,0:0:0:0:
168,104,82204,1,0,0:0:0:0:
400,320,82401,1,0,0:0:0:0:
400,320,82598,1,0,0:0:0:0:
400,320,82795,2,0,B|344:272|344:272|256:208,1,170
72,328,83386,5,0,0:0:0:0:
368,216,83583,1,0,0:0:0:0:
72,48,83780,1,0,0:0:0:0:
320,336,83977,2,0,L|232:256,1,85
72,48,84371,2,0,L|192:176,1,170
144,328,84962,5,0,0:0:0:0:
280,304,85159,2,0,P|352:256|368:224,1,85
162,125,85553,2,0,P|192:96|232:80,1,85
232,79,85947,1,0,0:0:0:0:
448,336,86341,5,0,0:0:0:0:
40,344,86538,1,0,0:0:0:0:
472,40,86735,1,0,0:0:0:0:
56,56,86932,1,0,0:0:0:0:
472,40,87129,1,0,0:0:0:0:
40,344,87326,1,0,0:0:0:0:
256,200,87523,1,0,0:0:0:0:
256,200,87917,6,0,L|248:224,1,14.1666666666667
256,200,88311,2,0,L|256:224,4,14.1666666666667
256,64,88869,2,0,L|256:88,3,14.1666666666667
64,328,89270,6,0,P|136:320|176:296,1,85
208,312,89663,2,0,L|312:312,1,85
360,312,90056,2,0,P|408:336|472:344,1,85
456,56,90450,1,0,0:0:0:0:
312,224,90647,1,0,0:0:0:0:
152,48,90843,6,0,L|64:136,1,85
96,264,91237,2,0,L|184:344,1,85
344,336,91630,2,0,L|432:264,1,85
432,96,92024,2,0,L|336:24,1,85
96,48,92417,5,0,0:0:0:0:
128,328,92614,1,0,0:0:0:0:
432,128,92810,1,0,0:0:0:0:
96,48,93007,1,0,0:0:0:0:
192,144,93204,1,0,0:0:0:0:
256,192,93401,1,0,0:0:0:0:
464,352,93597,2,0,L|464:168,1,170
464,182,94188,5,0,0:0:0:0:
384,64,94384,2,0,L|312:160,1,85
240,184,94778,2,0,L|152:112,1,85
40,280,95171,2,0,L|128:344,1,85
352,336,95565,6,0,L|432:272,1,85
56,128,95958,2,0,L|152:56,1,85
432,240,96351,2,0,L|360:304,1,85
80,336,96745,2,0,L|176:264,1,85
336,128,97138,6,0,L|440:56,1,85
56,48,97532,2,0,L|136:128,1,85
48,200,97925,1,0,0:0:0:0:
112,288,98122,1,0,0:0:0:0:
224,328,98319,1,0,0:0:0:0:
376,344,98515,1,0,0:0:0:0:
448,184,98712,6,0,L|424:136,1,42.5
288,56,99106,1,0,0:0:0:0:
208,224,99302,1,0,0:0:0:0:
72,336,99499,1,0,0:0:0:0:
112,80,99696,1,0,0:0:0:0:
240,184,99892,2,0,P|192:224|136:224,1,85
64,328,100286,6,0,L|152:328,1,85
472,328,100679,2,0,L|360:328,1,85
112,240,101073,1,0,0:0:0:0:
376,240,101270,1,0,0:0:0:0:
56,240,101466,2,0,L|168:240,1,85
416,240,101860,6,0,L|304:240,1,85
72,56,102253,1,0,0:0:0:0:
336,320,102450,1,0,0:0:0:0:
64,312,102647,2,0,L|160:248,1,85
184,224,103040,2,0,L|360:112,1,170
464,336,103630,5,0,0:0:0:0:
56,328,103827,1,0,0:0:0:0:
48,48,104024,1,0,0:0:0:0:
464,336,104220,1,0,0:0:0:0:
56,328,104417,1,0,0:0:0:0:
256,192,104614,1,0,0:0:0:0:
72,200,105007,6,0,P|120:256|144:264,1,85
208,304,105401,2,0,L|296:224,1,85
448,72,105794,2,0,L|368:152,1,85
80,64,106188,2,0,L|168:144,1,85
56,336,106581,5,0,0:0:0:0:
56,336,106778,1,0,0:0:0:0:
256,184,106974,1,0,0:0:0:0:
256,184,107171,1,0,0:0:0:0:
472,40,107368,1,0,0:0:0:0:
256,344,107565,1,0,0:0:0:0:
40,40,107761,1,0,0:0:0:0:
456,336,107958,6,0,L|400:280,2,70.8333333333333
368,248,108810,1,0,0:0:0:0:
320,208,109007,2,0,L|264:168,1,56.6666666666667
256,192,109451,5,0,0:0:0:0:
256,192,109832,1,0,0:0:0:0:
256,192,110213,2,0,L|152:192,2,85
256,192,110975,5,0,0:0:0:0:
256,192,111165,1,0,0:0:0:0:
256,192,111356,2,0,P|368:192|416:256,1,170
328,336,111927,1,0,0:0:0:0:
168,200,112118,1,0,0:0:0:0:
96,56,112499,6,0,L|104:64,1,10.625
80,224,112973,5,0,0:0:0:0:
200,328,113169,1,0,0:0:0:0:
352,192,113366,1,0,0:0:0:0:
112,64,113563,2,0,L|240:200,1,170
264,240,114153,2,0,L|360:168,1,85
432,48,114546,5,0,0:0:0:0:
360,344,114743,1,0,0:0:0:0:
304,48,114940,1,0,0:0:0:0:
232,344,115136,1,0,0:0:0:0:
104,320,115333,2,0,P|64:272|64:240,1,85
56,192,115727,2,0,B|152:152|152:152|200:128|200:128|168:144,1,170
136,176,116317,5,0,0:0:0:0:
160,240,116513,2,0,B|224:288|224:288|320:240,1,170
360,216,117104,1,0,0:0:0:0:
392,160,117300,2,0,B|400:96|400:96|312:48|312:48|280:80,1,170
308,51,117891,5,0,0:0:0:0:
56,208,118087,1,0,0:0:0:0:
56,208,118284,1,0,0:0:0:0:
216,288,118481,2,0,P|256:280|296:304,2,85
40,128,119268,6,0,L|112:64,1,85
392,48,119661,1,0,0:0:0:0:
88,320,119858,1,0,0:0:0:0:
440,328,120054,1,0,0:0:0:0:
120,64,120251,1,0,0:0:0:0:
120,64,120448,2,0,P|104:128|176:192,1,170
192,256,121038,5,0,0:0:0:0:
456,208,121235,1,0,0:0:0:0:
280,336,121432,1,0,0:0:0:0:
248,128,121628,1,0,0:0:0:0:
432,328,121825,1,0,0:0:0:0:
432,328,122022,2,0,P|368:248|272:232,1,170
96,320,122612,5,0,0:0:0:0:
112,64,122809,1,0,0:0:0:0:
352,216,123005,1,0,0:0:0:0:
320,48,123202,2,0,L|248:144,1,85
64,312,123595,2,0,L|240:312,1,170
408,336,124186,5,0,0:0:0:0:
80,232,124382,1,0,0:0:0:0:
448,208,124579,1,0,0:0:0:0:
48,152,124776,1,0,0:0:0:0:
448,104,124973,1,0,0:0:0:0:
48,48,125169,1,0,0:0:0:0:
328,64,125563,5,0,0:0:0:0:
152,328,125759,1,0,0:0:0:0:
464,296,125956,1,0,0:0:0:0:
128,88,126153,1,0,0:0:0:0:
280,336,126350,1,0,0:0:0:0:
432,80,126546,1,0,0:0:0:0:
304,56,126743,2,0,L|160:192,1,170
180,172,127333,5,0,0:0:0:0:
64,328,127530,1,0,0:0:0:0:
64,328,127727,1,0,0:0:0:0:
448,328,127923,1,0,0:0:0:0:
64,328,128120,1,0,0:0:0:0:
448,328,128317,1,0,0:0:0:0:
312,168,128710,6,0,P|280:120|248:112,1,85
192,264,129104,2,0,P|160:216|128:208,1,85
56,48,129497,1,0,0:0:0:0:
280,272,129694,1,0,0:0:0:0:
344,232,129891,2,0,P|432:184|448:104,1,170
408,48,130481,5,0,0:0:0:0:
304,64,130677,2,0,L|176:200,1,170
64,336,131268,1,0,0:0:0:0:
56,48,131464,1,0,0:0:0:0:
56,232,131858,6,0,L|136:304,1,85
344,192,132251,2,0,L|416:256,1,85
256,344,132645,1,0,0:0:0:0:
256,344,132841,1,0,0:0:0:0:
256,344,133038,2,0,L|256:152,1,170
104,248,133628,5,0,0:0:0:0:
264,48,133825,1,0,0:0:0:0:
424,248,134022,1,0,0:0:0:0:
264,48,134218,1,0,0:0:0:0:
104,248,134415,1,0,0:0:0:0:
264,48,134612,2,0,L|264:224,1,170
264,336,135202,5,0,0:0:0:0:
136,288,135399,2,0,L|64:208,1,85
120,56,135792,1,0,0:0:0:0:
256,192,135989,1,0,0:0:0:0:
328,320,136186,2,0,P|408:240|424:176,1,170
416,48,136776,5,0,0:0:0:0:
64,328,136973,1,0,0:0:0:0:
48,48,137169,1,0,0:0:0:0:
472,344,137366,1,4,0:0:0:0:
464,56,137563,1,4,0:0:0:0:
256,200,137759,1,4,0:0:0:0:
