osu file format v14

[General]
AudioFilename: audio.mp3
AudioLeadIn: 0
PreviewTime: 109451
Countdown: 0
SampleSet: Normal
StackLeniency: 0.7
Mode: 0
LetterboxInBreaks: 0
WidescreenStoryboard: 1

[Editor]
Bookmarks: 24571,37356
DistanceSpacing: 1.2
BeatDivisor: 4
GridSize: 8
TimelineZoom: 1

[Metadata]
Title:gang poem compilation
TitleUnicode:gang poem compilation
Artist:singapore
ArtistUnicode:singapore
Creator:Histoire
Version:369
Source:15
Tags:emilia P4ndemonium wailord2700 Elegant Loli Soba Noodles apl- techno trance hokkien chinese salakau Antares Ride On A Meteorite Nick Skitz Atlantis (Deep Blue)
BeatmapID:4336977
BeatmapSetID:670479

[Difficulty]
HPDrainRate:5
CircleSize:4
OverallDifficulty:6
ApproachRate:9
SliderMultiplier:1.4
SliderTickRate:1

[Events]
//Background and Video events
0,0,"AU AU SALAKAYU.jpg",0,0
//Break Periods
//Storyboard Layer 0 (Background)
//Storyboard Layer 1 (Fail)
//Storyboard Layer 2 (Pass)
//Storyboard Layer 3 (Foreground)
//Storyboard Layer 4 (Overlay)
//Storyboard Sound Samples

[TimingPoints]
555.15451371161,428.571428571429,4,1,0,100,1,0
24555,428.571428571429,4,1,0,100,1,0
24555,-10,4,1,0,100,0,0
26269,426.287744227353,4,1,0,100,1,0
61295,461.538461538462,4,1,0,100,1,0
65856,393.947683207361,4,1,0,100,1,0
89270,393.44262295082,4,1,0,100,1,0
109403,381,4,1,0,100,1,0
112959,393.44262295082,4,1,0,100,1,0

[HitObjects]
112,132,555,6,0,L|182:135,1,70
48,266,983,2,0,P|41:231|45:197,1,70
140,227,1412,1,0,0:0:0:0:
97,337,1626,1,0,0:0:0:0:
253,318,1840,2,0,L|153:314,1,70
346,340,2269,6,0,P|347:305|336:272,1,70
159,225,2698,2,0,L|268:228,1,105
269,237,3126,2,0,L|268:157,1,70
327,289,3555,2,0,P|280:312|229:303,1,105
212,301,3983,6,0,P|172:307|145:328,1,70
60,207,4412,2,0,L|62:294,1,70
158,195,4840,2,0,L|162:86,1,105
148,82,5269,6,0,P|182:74|217:79,1,70
290,139,5698,2,0,L|426:137,1,105
416,138,6126,5,0,0:0:0:0:
349,226,6340,1,0,0:0:0:0:
482,305,6555,2,0,L|399:300,1,70
355,234,6983,1,0,0:0:0:0:
376,370,7198,1,0,0:0:0:0:
267,257,7412,6,0,P|264:222|275:189,1,70
307,345,7840,2,0,L|220:340,1,70
78,283,8269,2,0,P|129:288|171:259,1,105
173,233,8698,2,0,P|215:261|266:256,1,105
286,232,9126,6,0,L|283:156,1,70
377,120,9555,2,0,L|374:189,1,70
429,251,9983,1,0,0:0:0:0:
332,308,10198,1,0,0:0:0:0:
433,263,10412,1,0,0:0:0:0:
272,247,10626,1,0,0:0:0:0:
137,331,10840,6,0,L|67:327,1,70
216,302,11269,2,0,P|220:336|212:370,1,70
108,255,11698,2,0,L|111:185,1,70
44,301,12126,2,0,P|85:331|136:330,1,105
145,325,12555,6,0,L|248:328,1,70
370,313,12983,2,0,L|300:310,1,70
300,310,13305,1,0,0:0:0:0:
300,310,13412,1,0,0:0:0:0:
435,359,13626,1,0,0:0:0:0:
339,233,13840,2,0,P|343:199|361:169,1,70
424,232,14269,5,0,0:0:0:0:
261,211,14483,1,0,0:0:0:0:
358,99,14698,2,0,L|361:181,1,70
272,216,15126,1,0,0:0:0:0:
410,236,15340,1,0,0:0:0:0:
282,332,15555,2,0,L|285:227,1,105
275,242,15983,6,0,P|247:263|212:268,1,70
133,176,16412,2,0,L|136:84,1,70
57,215,16840,1,0,0:0:0:0:
216,189,17055,1,0,0:0:0:0:
224,188,17483,1,0,0:0:0:0:
322,232,17698,6,0,L|320:312,1,70
508,293,18126,2,0,P|463:266|411:267,1,105
417,274,18555,2,0,L|415:204,1,70
309,221,18983,2,0,L|310:151,1,70
115,215,19412,5,0,0:0:0:0:
226,188,19626,1,0,0:0:0:0:
88,187,19840,1,0,0:0:0:0:
222,200,20055,1,0,0:0:0:0:
153,365,20269,5,0,0:0:0:0:
142,269,20483,1,0,0:0:0:0:
242,216,20698,1,0,0:0:0:0:
253,120,20912,1,0,0:0:0:0:
115,70,21126,6,0,L|121:149,1,70
95,273,21555,2,0,P|144:277|175:261,1,70
113,149,21983,1,0,0:0:0:0:
220,213,22198,1,0,0:0:0:0:
259,90,22412,1,0,0:0:0:0:
133,152,22626,1,0,0:0:0:0:
299,237,22840,6,0,P|300:203|289:170,1,70
158,291,23269,2,0,L|240:293,1,70
365,350,23698,2,0,L|283:352,1,70
441,304,24126,2,0,P|451:337|450:371,1,70
41,86,25198,2,0,B|64:59|123:80|117:151|65:157|65:157|122:173|116:242|78:282|29:269|-4:226|-4:226,1,350
264,72,25412,2,0,B|141:121|122:288|213:276|291:273|305:231|347:116|144:89|141:198|218:276,1,437.5
360,258,25626,2,0,B|483:209|502:42|411:54|332:56|319:99|277:214|480:241|483:132|406:54,1,437.5
12,344,25840,2,0,P|169:331|386:342,1,350
452,355,26055,6,0,B|457:292|439:221|439:221|408:225|381:233|381:233|412:188|420:119|420:119|461:161|484:218|484:218|459:220|439:221|439:221|457:292|450:365,1,612.5
449,360,26269,6,0,L|359:355,1,70
363,364,26588,2,0,P|370:313|345:268,1,105
240,235,27121,2,0,L|167:236,1,70
155,225,27441,2,0,L|164:336,1,105
102,147,27974,2,0,P|145:133|188:141,1,70
182,147,28293,2,0,P|195:98|240:74,1,105
339,110,28826,2,0,L|428:114,1,70
286,210,29253,2,0,L|375:206,1,70
405,316,29679,6,0,L|316:312,1,70
329,325,29999,2,0,L|224:329,1,105
108,282,30531,2,0,P|105:247|113:213,1,70
130,204,30851,2,0,L|234:208,1,105
399,141,31384,2,0,L|304:145,1,70
316,158,31704,2,0,P|292:103|302:61,1,105
390,56,32237,5,0,0:0:0:0:
221,37,32450,1,0,0:0:0:0:
404,41,32663,1,0,0:0:0:0:
207,36,32876,1,0,0:0:0:0:
271,105,33089,6,0,L|266:188,1,70
256,193,33409,2,0,P|307:193|350:222,1,105
148,210,33942,2,0,P|146:175|156:141,1,70
180,129,34261,2,0,L|66:115,1,105
57,274,34794,6,0,L|145:272,1,70
140,258,35114,2,0,P|156:307|144:357,1,105
250,305,35647,6,0,L|320:307,1,70
339,315,35967,1,0,0:0:0:0:
358,323,36073,2,0,L|349:203,1,105
332,206,36499,6,0,P|378:217|415:209,1,70
414,198,36819,2,0,L|423:78,1,105
300,4,37352,2,0,L|305:73,1,70
315,92,37672,1,0,0:0:0:0:
325,110,37778,2,0,L|198:100,1,105
202,112,38205,6,0,P|193:145|200:179,1,70
215,195,38524,2,0,L|110:203,1,105
155,384,39057,2,0,P|163:344|157:303,1,70
153,302,39377,1,0,0:0:0:0:
141,293,39483,2,0,L|226:286,1,70
287,339,39910,6,0,L|372:346,1,70
378,360,40229,2,0,L|366:233,1,105
417,93,40762,2,0,L|411:175,1,70
438,185,41082,2,0,L|309:177,1,105
286,341,41615,2,0,P|298:308|299:273,1,70
287,255,41935,2,0,L|182:261,1,105
140,333,42467,5,0,0:0:0:0:
149,177,42681,1,0,0:0:0:0:
61,355,42894,1,0,0:0:0:0:
70,199,43107,1,0,0:0:0:0:
144,338,43320,5,0,0:0:0:0:
246,372,43533,1,0,0:0:0:0:
246,372,43640,1,0,0:0:0:0:
246,372,43746,1,0,0:0:0:0:
135,333,43959,1,0,0:0:0:0:
304,303,44173,6,0,L|295:217,1,70
294,212,44492,1,0,0:0:0:0:
290,191,44599,2,0,P|324:182|359:186,1,70
473,327,45025,2,0,P|438:327|408:309,1,70
395,292,45345,1,0,0:0:0:0:
389,271,45451,2,0,L|382:346,1,70
276,304,45878,5,0,0:0:0:0:
156,320,46091,1,0,0:0:0:0:
266,291,46304,1,0,0:0:0:0:
94,263,46517,1,0,0:0:0:0:
214,220,46730,6,0,L|220:133,1,70
207,132,47050,1,0,0:0:0:0:
195,114,47157,1,0,0:0:0:0:
122,179,47370,1,0,0:0:0:0:
312,196,47583,2,0,L|306:109,1,70
306,105,47903,1,0,0:0:0:0:
304,83,48009,1,0,0:0:0:0:
421,150,48222,1,0,0:0:0:0:
450,266,48435,6,0,P|415:270|381:261,1,70
361,255,48755,1,0,0:0:0:0:
341,247,48862,2,0,P|306:242|272:251,1,70
206,309,49288,5,0,0:0:0:0:
305,354,49501,1,0,0:0:0:0:
108,357,49714,1,0,0:0:0:0:
223,326,49927,1,0,0:0:0:0:
45,195,50141,6,0,L|48:271,1,70
38,280,50460,2,0,L|150:274,1,105
309,324,50993,2,0,L|221:319,1,70
214,333,51313,2,0,P|233:283|211:211,1,105
156,159,51846,6,0,L|73:165,1,70
57,153,52165,2,0,P|51:103|83:63,1,105
193,49,52698,6,0,L|284:57,1,70
283,50,53018,1,0,0:0:0:0:
303,45,53125,2,0,L|296:129,1,70
404,164,53551,6,0,L|398:94,1,70
409,76,53871,1,0,0:0:0:0:
420,58,53977,1,0,0:0:0:0:
490,121,54190,1,0,0:0:0:0:
434,241,54403,6,0,P|399:245|365:235,1,70
347,225,54723,1,0,0:0:0:0:
335,207,54830,2,0,L|342:116,1,70
222,185,55256,6,0,L|227:254,1,70
239,272,55576,1,0,0:0:0:0:
251,288,55682,1,0,0:0:0:0:
131,225,55895,1,0,0:0:0:0:
43,347,56109,6,0,L|48:277,1,70
64,290,56428,1,0,0:0:0:0:
80,303,56535,1,0,0:0:0:0:
26,194,56748,1,0,0:0:0:0:
89,106,56961,6,0,P|144:103|168:114,1,70
149,119,57281,2,0,L|138:229,1,105
242,263,57814,2,0,L|233:176,1,70
229,185,58134,2,0,P|277:166|326:182,1,105
376,270,58666,6,0,L|371:354,1,70
372,346,58986,1,0,0:0:0:0:
372,352,59093,1,0,0:0:0:0:
455,302,59306,1,0,0:0:0:0:
290,304,59519,5,0,0:0:0:0:
463,271,59732,1,0,0:0:0:0:
245,228,59945,5,0,0:0:0:0:
399,236,60158,1,0,0:0:0:0:
236,206,60372,5,0,0:0:0:0:
392,214,61295,6,0,L|396:274,1,35
316,252,61525,2,0,L|312:312,1,35
242,200,61756,2,0,L|240:166,2,35
180,252,62102,1,0,0:0:0:0:
104,222,62218,6,0,L|109:158,1,35
29,264,62448,2,0,L|24:200,1,35
106,298,62679,2,0,L|103:332,1,35
181,340,62910,2,0,L|183:374,1,35
261,320,63141,6,0,L|263:285,1,35
344,348,63371,2,0,L|341:313,1,35
429,294,63602,6,0,L|427:340,1,35
433,212,63833,1,0,0:0:0:0:
425,204,65856,6,0,L|422:124,1,70
339,137,66249,1,0,0:0:0:0:
501,155,66446,1,0,0:0:0:0:
426,39,66643,5,0,0:0:0:0:
332,152,66840,1,0,0:0:0:0:
243,64,67037,2,0,L|159:67,1,70
95,176,67431,5,0,0:0:0:0:
195,148,67628,1,0,0:0:0:0:
28,129,67825,2,0,P|15:162|16:196,1,70
193,239,68219,2,0,L|186:155,1,70
128,333,68613,2,0,P|178:338|227:309,1,105
223,312,69007,5,0,0:0:0:0:
389,327,69204,1,0,0:0:0:0:
241,298,69401,2,0,L|236:198,1,70
359,216,69795,5,0,0:0:0:0:
170,187,69992,1,0,0:0:0:0:
297,149,70189,2,0,L|302:49,1,70
182,182,70583,5,0,0:0:0:0:
376,122,70780,1,0,0:0:0:0:
218,63,70977,1,0,0:0:0:0:
270,252,71174,1,0,0:0:0:0:
90,185,71371,5,0,0:0:0:0:
281,168,71568,1,0,0:0:0:0:
177,330,71765,2,0,P|211:340|245:334,1,70
367,235,72159,6,0,L|362:149,1,70
464,210,72553,1,0,0:0:0:0:
398,347,72750,1,0,0:0:0:0:
215,295,72947,2,0,P|248:282|283:284,1,70
120,349,73341,2,0,L|129:217,1,105
132,236,73734,6,0,P|97:228|64:236,1,70
36,344,74128,1,0,0:0:0:0:
201,310,74325,1,0,0:0:0:0:
151,148,74522,2,0,L|220:153,1,70
129,127,74916,2,0,L|135:251,1,105
114,243,75310,5,0,0:0:0:0:
310,263,75507,1,0,0:0:0:0:
117,253,75704,1,0,0:0:0:0:
313,273,75901,1,0,0:0:0:0:
120,263,76098,1,0,0:0:0:0:
316,283,76295,1,0,0:0:0:0:
51,342,76492,5,0,0:0:0:0:
214,299,76689,1,0,0:0:0:0:
81,186,76886,6,0,P|115:177|150:183,1,70
225,290,77280,2,0,L|225:387,1,70
294,226,77674,1,0,0:0:0:0:
131,329,77871,1,0,0:0:0:0:
326,308,78068,2,0,L|395:309,1,70
438,197,78462,5,0,0:0:0:0:
461,353,78659,1,0,0:0:0:0:
479,122,78856,2,0,P|428:114|381:134,1,105
366,152,79250,6,0,L|281:150,1,70
148,243,79644,2,0,L|285:238,1,105
241,257,80038,6,0,P|235:291|240:325,1,70
339,327,80432,1,0,0:0:0:0:
153,363,80629,1,0,0:0:0:0:
336,310,80826,1,0,0:0:0:0:
132,276,81022,1,0,0:0:0:0:
289,171,81219,2,0,L|293:250,1,70
406,217,81613,5,0,0:0:0:0:
325,89,81810,1,0,0:0:0:0:
457,43,82007,2,0,P|463:77|458:111,1,70
307,100,82401,1,0,0:0:0:0:
424,222,82598,1,0,0:0:0:0:
457,43,82795,2,0,P|463:77|458:111,1,70
331,183,83189,6,0,L|254:191,1,70
173,117,83583,1,0,0:0:0:0:
335,169,83780,1,0,0:0:0:0:
236,271,83977,1,0,0:0:0:0:
262,108,84174,1,0,0:0:0:0:
269,350,84371,2,0,P|234:354|200:346,1,70
128,235,84765,5,0,0:0:0:0:
245,264,84962,1,0,0:0:0:0:
371,208,85159,1,0,0:0:0:0:
225,244,85356,1,0,0:0:0:0:
300,108,85553,6,0,L|296:194,1,70
403,332,85947,2,0,L|396:227,1,105
388,216,86341,6,0,L|465:222,1,70
296,303,86735,1,0,0:0:0:0:
470,306,86932,1,0,0:0:0:0:
198,211,87129,1,0,0:0:0:0:
372,208,87326,1,0,0:0:0:0:
118,311,87523,5,0,0:0:0:0:
292,314,87720,1,0,0:0:0:0:
203,137,87917,5,0,0:0:0:0:
210,132,89270,6,0,L|286:134,1,70
180,217,89663,2,0,L|256:215,1,70
238,297,90056,1,0,0:0:0:0:
375,284,90253,1,0,0:0:0:0:
265,370,90450,2,0,P|230:374|197:364,1,70
155,229,90843,6,0,L|157:136,1,70
67,260,91237,2,0,L|65:167,1,70
205,323,91630,1,0,0:0:0:0:
243,197,91827,1,0,0:0:0:0:
348,283,92024,2,0,P|283:279|256:294,1,70
386,363,92417,5,0,0:0:0:0:
365,197,92614,1,0,0:0:0:0:
507,267,92810,2,0,L|432:261,1,70
491,164,93204,5,0,0:0:0:0:
382,186,93401,1,0,0:0:0:0:
330,83,93597,2,0,P|364:73|399:74,1,70
270,237,93991,6,0,L|271:141,1,70
181,203,94384,1,0,0:0:0:0:
356,210,94581,1,0,0:0:0:0:
291,321,94778,2,0,P|256:321|224:308,1,70
170,210,95171,2,0,L|172:134,1,70
242,77,95565,6,0,P|301:84|340:141,1,105
353,128,95958,2,0,P|412:121|451:64,1,105
453,69,96351,2,0,L|460:156,1,70
424,341,96745,2,0,L|429:223,1,105
436,228,97138,6,0,P|401:223|367:231,1,70
321,326,97532,2,0,L|197:320,1,105
192,338,97925,2,0,P|203:304|202:269,1,70
104,209,98319,2,0,L|23:213,1,70
94,108,98712,6,0,L|170:114,1,70
15,136,99106,1,0,0:0:0:0:
101,29,99302,1,0,0:0:0:0:
180,103,99499,2,0,L|174:179,1,70
277,272,99892,2,0,L|268:167,1,105
266,151,100286,6,0,P|301:159|335:153,1,70
451,119,100679,2,0,L|449:200,1,70
361,70,101073,1,0,0:0:0:0:
441,199,101270,1,0,0:0:0:0:
260,229,101466,2,0,L|264:145,1,70
173,245,101860,5,0,0:0:0:0:
349,237,102056,1,0,0:0:0:0:
105,286,102253,1,0,0:0:0:0:
281,294,102449,1,0,0:0:0:0:
26,317,102647,6,0,P|20:282|27:248,1,70
120,213,103040,2,0,L|244:222,1,105
235,226,103433,5,0,0:0:0:0:
53,112,103630,1,0,0:0:0:0:
134,312,103827,1,0,0:0:0:0:
186,103,104024,1,0,0:0:0:0:
21,241,104220,5,0,0:0:0:0:
196,126,104417,1,0,0:0:0:0:
367,224,104614,2,0,L|364:293,1,70
460,384,105007,5,0,0:0:0:0:
446,268,105204,1,0,0:0:0:0:
277,339,105401,1,0,0:0:0:0:
454,369,105597,1,0,0:0:0:0:
301,261,105794,6,0,P|245:263|213:287,1,70
434,283,106188,2,0,L|427:186,1,70
450,93,106581,5,0,0:0:0:0:
411,203,106778,1,0,0:0:0:0:
307,110,106974,1,0,0:0:0:0:
428,101,107171,1,0,0:0:0:0:
353,275,107368,1,0,0:0:0:0:
324,126,107565,1,0,0:0:0:0:
496,232,107761,2,0,L|398:227,1,70
420,235,109403,5,0,0:0:0:0:
420,235,109784,1,0,0:0:0:0:
420,235,110165,1,0,0:0:0:0:
420,235,110355,1,0,0:0:0:0:
420,235,110546,1,0,0:0:0:0:
427,246,110927,5,0,0:0:0:0:
419,162,111117,1,0,0:0:0:0:
412,78,111308,1,0,0:0:0:0:
441,60,111689,5,0,0:0:0:0:
432,167,111880,1,0,0:0:0:0:
421,275,112070,1,0,0:0:0:0:
431,285,112959,6,0,L|354:283,1,70
288,342,113352,1,0,0:0:0:0:
325,194,113549,1,0,0:0:0:0:
315,190,113942,5,0,0:0:0:0:
278,338,114139,1,0,0:0:0:0:
269,334,114532,6,0,L|181:335,1,70
97,265,114926,2,0,P|93:230|104:197,1,70
190,246,115319,1,0,0:0:0:0:
9,183,115516,1,0,0:0:0:0:
151,98,115713,2,0,L|233:104,1,70
335,69,116106,6,0,L|332:153,1,70
481,210,116499,2,0,P|431:195|381:210,1,105
373,232,116893,2,0,L|378:311,1,70
266,377,117286,2,0,L|270:253,1,105
277,261,117680,6,0,P|219:248|190:258,1,70
72,329,118073,2,0,P|106:330|139:317,1,70
8,184,118467,2,0,L|3:265,1,70
134,219,118860,2,0,L|127:114,1,105
117,102,119254,6,0,L|216:110,1,70
339,60,119647,2,0,L|240:68,1,70
408,184,120040,2,0,P|414:149|408:115,1,70
346,271,120434,2,0,L|462:281,1,105
467,266,120827,6,0,L|466:362,1,70
402,130,121221,2,0,L|403:226,1,70
482,84,121614,1,0,0:0:0:0:
308,142,121811,1,0,0:0:0:0:
467,71,122008,1,0,0:0:0:0:
347,65,122204,1,0,0:0:0:0:
339,216,122401,6,0,L|335:300,1,70
228,174,122795,2,0,L|232:258,1,70
322,200,123188,1,0,0:0:0:0:
138,221,123385,1,0,0:0:0:0:
254,330,123581,2,0,L|257:260,1,70
345,186,123975,5,0,0:0:0:0:
358,310,124172,1,0,0:0:0:0:
433,129,124368,1,0,0:0:0:0:
420,253,124565,1,0,0:0:0:0:
265,169,124762,2,0,L|273:250,1,70
171,353,125155,2,0,L|179:221,1,105
189,241,125549,6,0,P|155:230|120:229,1,70
57,298,125942,2,0,L|61:373,1,70
131,220,126336,2,0,L|134:150,1,70
76,56,126729,2,0,P|128:65|174:42,1,105
186,34,127122,6,0,L|265:41,1,70
219,129,127516,2,0,L|298:122,1,70
173,210,127909,2,0,L|252:217,1,70
333,295,128303,2,0,L|207:305,1,105
213,294,128696,6,0,P|211:328|221:362,1,70
402,307,129090,2,0,P|393:257|352:226,1,105
334,222,129483,2,0,L|437:212,1,70
242,134,129877,2,0,L|360:137,1,105
362,139,130270,5,0,0:0:0:0:
274,57,130467,1,0,0:0:0:0:
275,220,130663,2,0,L|157:223,1,105
157,234,131057,2,0,P|165:199|161:165,1,70
71,117,131450,2,0,L|-12:122,1,70
61,319,131844,5,0,0:0:0:0:
68,197,132040,1,0,0:0:0:0:
204,357,132237,1,0,0:0:0:0:
197,235,132433,1,0,0:0:0:0:
76,317,132631,5,0,0:0:0:0:
82,199,132827,1,0,0:0:0:0:
88,81,133024,1,0,0:0:0:0:
192,144,133221,1,0,0:0:0:0:
311,109,133418,6,0,P|318:142|314:177,1,70
167,61,133811,2,0,L|251:56,1,70
381,200,134204,2,0,L|297:195,1,70
455,146,134598,2,0,L|462:274,1,105
477,269,134991,6,0,L|475:342,1,70
365,246,135385,2,0,L|367:319,1,70
383,115,135778,1,0,0:0:0:0:
271,260,135975,1,0,0:0:0:0:
228,176,136172,2,0,P|269:167|311:177,1,70
173,267,136565,5,0,0:0:0:0:
259,93,136762,1,0,0:0:0:0:
406,258,136959,5,0,0:0:0:0:
190,246,137155,1,0,0:0:0:0:
209,30,137352,5,0,0:0:0:0:
381,242,137549,1,0,0:0:0:0:
99,359,137745,1,0,0:0:0:0:
