osu file format v14

[General]
AudioFilename: audio.mp3
AudioLeadIn: 0
PreviewTime: -1
Countdown: 1
SampleSet: Normal
StackLeniency: 0.7
Mode: 0
LetterboxInBreaks: 0
WidescreenStoryboard: 1

[Editor]
Bookmarks: 24571,37356
DistanceSpacing: 0.3
BeatDivisor: 4
GridSize: 8
TimelineZoom: 1

[Metadata]
Title:gang poem compilation
TitleUnicode:gang poem compilation
Artist:singapore
ArtistUnicode:singapore
Creator:Histoire
Version:18 DIVINE dragon WINDS clan
Source:15
Tags:emilia P4ndemonium wailord2700 Elegant Loli Soba Noodles apl- techno trance hokkien chinese salakau Antares Ride On A Meteorite Nick Skitz Atlantis (Deep Blue)
BeatmapID:1418137
BeatmapSetID:670479

[Difficulty]
HPDrainRate:7
CircleSize:4.4
OverallDifficulty:7
ApproachRate:9
SliderMultiplier:1.9
SliderTickRate:1

[Events]
//Background and Video events
0,0,"AU AU SALAKAYU.jpg",0,0
//Break Periods
//Storyboard Layer 0 (Background)
//Storyboard Layer 1 (Fail)
//Storyboard Layer 2 (Pass)
//Storyboard Layer 3 (Foreground)
//Storyboard Layer 4 (Overlay)
//Storyboard Sound Samples

[TimingPoints]
555.15451371161,428.571428571429,4,1,0,100,1,0
24983,-66.6666666666667,4,1,0,100,0,0
26269,426.287744227353,4,1,0,100,1,0
61295,461.538461538462,4,1,0,100,1,0
65856,393.947683207361,4,1,0,100,1,0
89270,393.44262295082,4,1,0,100,1,0
109403,381,4,1,0,100,1,0
112959,393.44262295082,4,1,0,100,1,0

[HitObjects]
189,166,555,5,0,0:0:0:0:
173,264,769,1,0,0:0:0:0:
346,118,983,1,0,0:0:0:0:
330,216,1197,1,0,0:0:0:0:
121,130,1412,2,0,P|160:95|236:109,1,95
343,206,1840,2,0,L|324:350,1,142.5
335,369,2269,5,0,0:0:0:0:
216,222,2483,1,0,0:0:0:0:
405,138,2698,2,0,P|432:194|415:246,1,95
206,230,3126,1,0,0:0:0:0:
308,64,3340,1,0,0:0:0:0:
127,2,3555,2,0,L|135:159,1,142.5
143,163,3983,6,0,P|83:137|33:145,1,95
13,332,4412,1,0,0:0:0:0:
124,316,4626,1,0,0:0:0:0:
280,373,4840,2,0,L|266:195,1,142.5
252,213,5269,2,0,P|304:207|336:163,1,95
133,46,5698,6,0,P|119:119|184:197,1,142.5
167,197,6126,2,0,P|118:172|54:195,1,95
81,366,6555,1,0,0:0:0:0:
109,259,6769,1,0,0:0:0:0:
256,141,6983,1,0,0:0:0:0:
228,34,7197,1,0,0:0:0:0:
36,185,7412,5,0,0:0:0:0:
169,172,7626,1,0,0:0:0:0:
313,276,7840,1,0,0:0:0:0:
446,263,8054,1,0,0:0:0:0:
317,72,8269,2,0,P|267:131|291:203,1,142.5
290,201,8698,2,0,P|245:178|216:177,1,47.5
127,106,8912,2,0,P|81:119|53:141,1,47.5
161,332,9126,5,0,0:0:0:0:
175,220,9340,1,0,0:0:0:0:
0,384,9555,1,0,0:0:0:0:
14,272,9769,1,0,0:0:0:0:
94,145,9983,1,0,0:0:0:0:
80,33,10197,1,0,0:0:0:0:
92,25,10305,1,0,0:0:0:0:
105,21,10412,2,0,P|163:26|193:75,1,95
212,122,10733,1,0,0:0:0:0:
218,134,10840,5,0,0:0:0:0:
349,122,11055,1,0,0:0:0:0:
151,255,11269,1,0,0:0:0:0:
282,267,11484,1,0,0:0:0:0:
75,158,11698,1,0,0:0:0:0:
206,146,11913,1,0,0:0:0:0:
219,149,12019,1,0,0:0:0:0:
232,152,12126,2,0,P|253:94|177:33,1,142.5
181,32,12555,6,0,L|306:21,1,95
379,131,12983,2,0,P|456:127|487:88,1,95
476,107,13305,1,0,0:0:0:0:
482,94,13412,2,0,L|472:203,1,95
427,256,13733,1,0,0:0:0:0:
420,268,13840,2,0,L|432:369,1,95
325,193,14269,5,0,0:0:0:0:
341,66,14483,1,0,0:0:0:0:
155,262,14698,1,0,0:0:0:0:
171,135,14912,1,0,0:0:0:0:
237,308,15126,1,0,0:0:0:0:
63,367,15340,1,0,0:0:0:0:
288,369,15555,2,0,P|316:321|275:233,1,142.5
263,236,15983,5,0,0:0:0:0:
410,327,16198,1,0,0:0:0:0:
171,258,16412,1,0,0:0:0:0:
327,116,16626,1,0,0:0:0:0:
270,377,16840,1,0,0:0:0:0:
274,49,17055,2,0,P|340:33|412:109,1,142.5
407,152,17483,1,0,0:0:0:0:
148,342,17698,6,0,L|164:202,1,95
146,32,18126,2,0,P|62:37|39:124,1,142.5
11,106,18555,2,0,P|72:117|106:156,1,95
99,151,18876,1,0,0:0:0:0:
100,165,18983,2,0,L|217:144,1,95
367,239,19412,5,0,0:0:0:0:
411,103,19626,1,0,0:0:0:0:
313,294,19840,2,0,P|386:312|441:246,1,142.5
441,250,20269,1,0,0:0:0:0:
233,344,20483,1,0,0:0:0:0:
219,340,20590,1,0,0:0:0:0:
204,338,20698,2,0,P|164:346|138:363,1,47.5
85,234,20912,2,0,P|44:275|30:301,1,47.5
13,349,21126,5,0,0:0:0:0:
61,145,21340,1,0,0:0:0:0:
214,243,21555,1,0,0:0:0:0:
56,134,21769,1,0,0:0:0:0:
193,319,21983,2,0,P|247:314|287:264,1,95
295,204,22305,1,0,0:0:0:0:
285,193,22412,2,0,L|298:85,1,95
214,243,22840,5,0,0:0:0:0:
398,124,23055,1,0,0:0:0:0:
475,291,23269,1,0,0:0:0:0:
398,109,23483,1,0,0:0:0:0:
364,348,23698,2,0,P|309:313|302:265,1,95
271,224,24019,1,0,0:0:0:0:
259,215,24126,2,0,L|368:203,1,95
203,263,24983,6,0,B|232:307|229:371|171:426|84:424|51:374|9:291|67:239|107:224|140:227|140:227|150:153|150:153|108:148|108:148|161:92|161:92|196:158|196:158|156:154,1,712.500027179719
97,27,26269,6,0,L|196:20,1,95
291,83,26695,1,0,0:0:0:0:
427,14,26908,1,0,0:0:0:0:
440,9,27015,1,0,0:0:0:0:
452,3,27121,2,0,L|442:106,1,95
433,308,27547,2,0,P|366:298|309:359,1,142.5
321,368,27974,5,0,0:0:0:0:
162,338,28187,1,0,0:0:0:0:
179,167,28400,1,0,0:0:0:0:
20,197,28613,1,0,0:0:0:0:
20,197,28720,1,0,0:0:0:0:
20,197,28826,2,0,L|34:335,1,95
256,147,29253,2,0,P|210:96|123:115,1,142.5
121,93,29679,6,0,P|90:148|99:205,1,95
285,220,30105,2,0,L|453:209,1,142.5
447,228,30531,2,0,L|460:123,1,95
238,12,30958,2,0,B|244:113|244:113|229:159,1,142.5
169,108,31384,5,0,0:0:0:0:
395,251,31597,1,0,0:0:0:0:
98,369,31810,2,0,P|61:328|87:237,1,142.5
130,301,32237,1,0,0:0:0:0:
62,27,32450,1,0,0:0:0:0:
289,171,32663,2,0,L|275:286,1,95
254,336,32983,1,0,0:0:0:0:
261,347,33089,6,0,P|326:347|358:298,1,95
431,157,33515,2,0,P|476:160|520:212,1,95
419,371,33942,1,0,0:0:0:0:
308,228,34155,1,0,0:0:0:0:
415,35,34368,2,0,L|230:28,1,142.5
205,60,34794,6,0,P|146:49|117:3,1,95
3,199,35221,1,0,0:0:0:0:
255,154,35434,1,0,0:0:0:0:
204,358,35647,2,0,P|237:313|234:258,1,95
234,261,35967,1,0,0:0:0:0:
229,247,36073,1,0,0:0:0:0:
27,259,36286,2,0,L|41:311,1,47.5
67,378,36499,5,0,0:0:0:0:
105,243,36713,1,0,0:0:0:0:
245,140,36926,1,0,0:0:0:0:
207,5,37140,1,0,0:0:0:0:
22,158,37352,2,0,P|80:162|121:122,1,95
295,32,37778,2,0,P|349:33|407:108,1,142.5
413,115,38205,6,0,P|372:120|338:134,1,47.5
73,47,38418,2,0,P|119:52|150:66,1,47.5
459,187,38631,2,0,P|418:192|384:206,1,47.5
35,119,38844,2,0,P|81:124|112:138,1,47.5
311,359,39057,2,0,L|322:237,1,95
211,51,39483,2,0,P|202:106|271:88,1,142.5
276,85,39910,5,0,0:0:0:0:
425,102,40123,1,0,0:0:0:0:
249,224,40336,1,0,0:0:0:0:
316,17,40549,1,0,0:0:0:0:
163,183,40762,2,0,P|153:225|160:258,1,47.5
335,265,40975,2,0,P|345:223|338:190,1,47.5
271,301,41189,2,0,L|436:293,1,142.5
441,304,41615,5,0,0:0:0:0:
239,373,41828,1,0,0:0:0:0:
409,141,42041,1,0,0:0:0:0:
473,382,42254,1,0,0:0:0:0:
486,96,42467,1,0,0:0:0:0:
305,234,42681,1,0,0:0:0:0:
258,12,42894,2,0,L|362:21,1,95
366,15,43213,1,0,0:0:0:0:
379,10,43320,6,0,P|357:77|371:121,1,95
479,310,43746,2,0,P|501:243|487:199,1,95
491,207,44066,1,0,0:0:0:0:
483,194,44173,1,0,0:0:0:0:
334,383,44386,1,0,0:0:0:0:
214,184,44599,2,0,L|46:202,1,142.5
45,211,45025,6,0,P|62:171|64:140,1,47.5
193,65,45238,2,0,P|186:29|172:0,1,47.5
133,326,45451,2,0,P|137:281|119:247,1,47.5
58,77,45665,2,0,P|25:54|-10:51,1,47.5
67,365,45878,2,0,L|196:351,1,95
353,228,46304,2,0,P|408:232|453:283,1,95
465,326,46624,1,0,0:0:0:0:
469,339,46730,5,0,0:0:0:0:
392,140,46943,1,0,0:0:0:0:
243,257,47157,1,0,0:0:0:0:
470,126,47370,1,0,0:0:0:0:
256,7,47583,2,0,L|268:112,1,95
236,330,48009,2,0,P|189:307|183:209,1,142.5
189,205,48435,6,0,P|126:231|80:221,1,95
88,221,48755,1,0,0:0:0:0:
77,211,48862,2,0,L|85:97,1,95
74,45,49181,1,0,0:0:0:0:
67,32,49288,1,0,0:0:0:0:
189,42,49501,1,0,0:0:0:0:
311,153,49714,1,0,0:0:0:0:
433,143,49927,1,0,0:0:0:0:
234,108,50141,6,0,L|219:224,1,95
337,368,50567,2,0,P|383:346|401:296,1,95
146,179,50993,1,0,0:0:0:0:
173,374,51206,1,0,0:0:0:0:
235,189,51419,2,0,L|247:94,1,95
53,384,51846,5,0,0:0:0:0:
185,358,52059,1,0,0:0:0:0:
317,224,52272,1,0,0:0:0:0:
449,250,52485,1,0,0:0:0:0:
294,384,52698,2,0,P|255:336|264:280,1,95
258,291,53018,1,0,0:0:0:0:
264,278,53125,2,0,L|142:290,1,95
367,148,53551,5,0,0:0:0:0:
351,355,53764,1,0,0:0:0:0:
364,360,53871,1,0,0:0:0:0:
378,361,53977,2,0,P|436:333|444:280,1,95
421,235,54297,1,0,0:0:0:0:
410,225,54403,2,0,L|518:235,1,95
504,233,54723,1,0,0:0:0:0:
504,233,54830,1,0,0:0:0:0:
274,322,55043,2,0,L|281:253,1,47.5
228,151,55256,6,0,P|159:160|126:206,1,95
135,188,55576,1,0,0:0:0:0:
134,202,55682,2,0,L|118:99,1,95
264,10,56109,2,0,P|256:59|230:93,1,47.5
44,109,56322,2,0,P|56:70|71:49,1,47.5
194,241,56535,2,0,P|145:275|86:256,1,95
277,127,56961,6,0,L|387:134,1,95
443,165,57281,2,0,P|490:133|493:42,1,142.5
430,22,57707,1,0,0:0:0:0:
421,10,57814,2,0,L|303:18,1,95
256,55,58134,2,0,P|192:60|141:2,1,142.5
11,170,58666,6,0,P|78:174|112:210,1,95
116,261,58986,2,0,L|131:110,1,142.5
204,228,59519,1,0,0:0:0:0:
308,202,59732,1,0,0:0:0:0:
388,79,59945,1,0,0:0:0:0:
492,105,60158,1,0,0:0:0:0:
373,347,60372,6,0,P|329:307|327:260,1,95
196,78,61295,6,0,L|188:132,1,31.6666666666667
122,50,61448,2,0,L|114:104,2,31.6666666666667
42,151,61756,6,0,L|47:207,1,47.5
124,171,61987,2,0,L|129:227,1,47.5
84,319,62218,2,0,L|79:375,1,47.5
167,302,62449,2,0,L|162:358,1,47.5
257,234,62679,6,0,L|261:343,1,95
329,378,63025,1,0,0:0:0:0:
396,273,63141,6,0,L|388:333,1,47.5
479,268,63371,2,0,L|471:328,1,47.5
255,153,63679,6,0,P|298:131|330:135,1,63.3333333333333
480,39,64525,6,0,L|355:37,1,95
358,26,64871,2,0,P|310:43|293:67,1,47.5
250,96,65102,2,0,L|125:94,1,95
128,83,65448,2,0,P|80:100|63:124,1,47.5
332,372,65856,5,0,0:0:0:0:
168,182,66052,1,0,0:0:0:0:
400,109,66249,1,0,0:0:0:0:
106,265,66446,1,0,0:0:0:0:
287,0,66643,2,0,P|329:6|379:52,1,95
55,324,67037,2,0,L|68:163,1,142.5
49,162,67431,5,0,0:0:0:0:
408,239,67628,1,0,0:0:0:0:
161,43,67825,1,0,0:0:0:0:
20,384,68022,1,0,0:0:0:0:
232,95,68219,2,0,P|246:40|231:-8,1,95
237,289,68613,2,0,P|298:273|375:335,1,142.5
374,337,69007,5,0,0:0:0:0:
3,236,69204,1,0,0:0:0:0:
378,347,69401,1,0,0:0:0:0:
7,246,69598,1,0,0:0:0:0:
382,357,69795,1,0,0:0:0:0:
11,256,69992,1,0,0:0:0:0:
386,367,70189,2,0,L|398:204,1,142.5
399,203,70583,5,0,0:0:0:0:
117,378,70780,1,0,0:0:0:0:
215,34,70977,1,0,0:0:0:0:
470,246,71174,1,0,0:0:0:0:
112,68,71371,1,0,0:0:0:0:
423,8,71568,1,0,0:0:0:0:
382,378,71765,2,0,P|311:374|269:283,1,142.5
269,298,72159,5,0,0:0:0:0:
3,254,72356,1,0,0:0:0:0:
298,90,72553,1,0,0:0:0:0:
192,375,72750,1,0,0:0:0:0:
135,20,72947,2,0,P|204:22|248:66,1,95
88,305,73341,2,0,P|41:268|49:165,1,142.5
47,168,73734,5,0,0:0:0:0:
358,293,73931,1,0,0:0:0:0:
179,83,74128,1,0,0:0:0:0:
104,377,74325,1,0,0:0:0:0:
106,36,74522,1,0,0:0:0:0:
282,285,74719,1,0,0:0:0:0:
477,32,74916,2,0,L|305:25,1,142.5
307,38,75310,5,0,0:0:0:0:
246,373,75507,1,0,0:0:0:0:
299,31,75704,1,0,0:0:0:0:
238,366,75901,1,0,0:0:0:0:
299,31,76098,1,0,0:0:0:0:
291,24,76295,1,0,0:0:0:0:
238,366,76492,2,0,L|60:350,1,142.5
76,357,76886,5,0,0:0:0:0:
307,213,77083,1,0,0:0:0:0:
157,66,77280,1,0,0:0:0:0:
426,221,77477,1,0,0:0:0:0:
83,139,77674,2,0,L|94:268,1,95
377,113,78068,2,0,P|314:27|251:32,1,142.5
258,31,78462,5,0,0:0:0:0:
350,357,78659,1,0,0:0:0:0:
13,107,78856,2,0,L|191:109,1,142.5
181,109,79250,1,0,0:0:0:0:
52,360,79447,1,0,0:0:0:0:
258,31,79644,2,0,P|289:105|260:187,1,142.5
208,202,80038,6,0,P|270:182|327:198,1,95
504,341,80432,1,0,0:0:0:0:
228,285,80629,1,0,0:0:0:0:
392,98,80826,2,0,L|398:0,1,95
313,358,81219,2,0,P|385:348|423:254,1,142.5
426,265,81613,5,0,0:0:0:0:
129,366,81810,1,0,0:0:0:0:
116,62,82007,2,0,L|265:75,1,142.5
286,78,82401,1,0,0:0:0:0:
48,258,82598,1,0,0:0:0:0:
360,368,82795,2,0,P|359:223|342:191,1,142.5
351,207,83189,5,0,0:0:0:0:
99,373,83386,1,0,0:0:0:0:
445,299,83583,1,0,0:0:0:0:
253,42,83780,1,0,0:0:0:0:
51,289,83977,2,0,L|166:303,1,95
410,70,84371,2,0,P|334:72|292:159,1,142.5
291,147,84765,5,0,0:0:0:0:
482,360,84962,1,0,0:0:0:0:
106,208,85159,1,0,0:0:0:0:
427,138,85356,1,0,0:0:0:0:
98,215,85553,1,0,0:0:0:0:
419,145,85750,1,0,0:0:0:0:
161,163,85947,2,0,P|144:60|116:16,1,142.5
106,18,86341,5,0,0:0:0:0:
314,293,86538,1,0,0:0:0:0:
3,143,86735,1,0,0:0:0:0:
367,51,86932,1,0,0:0:0:0:
152,381,87129,1,0,0:0:0:0:
273,0,87326,1,0,0:0:0:0:
511,345,87523,2,0,L|406:338,1,95
143,301,87917,6,0,P|86:325|73:335,1,47.5
256,192,88311,12,0,88458,0:0:0:0:
256,192,88852,12,0,88877,0:0:0:0:
310,301,89270,5,0,0:0:0:0:
331,182,89466,1,0,0:0:0:0:
201,130,89663,1,0,0:0:0:0:
180,11,89859,1,0,0:0:0:0:
115,249,90056,2,0,P|159:245|200:200,1,95
294,99,90450,2,0,L|449:113,1,142.5
463,116,90843,5,0,0:0:0:0:
284,198,91040,1,0,0:0:0:0:
375,37,91237,1,0,0:0:0:0:
421,247,91433,1,0,0:0:0:0:
275,174,91630,1,0,0:0:0:0:
229,384,91826,1,0,0:0:0:0:
472,315,92024,2,0,P|503:266|461:170,1,142.5
464,176,92417,5,0,0:0:0:0:
324,141,92614,1,0,0:0:0:0:
253,294,92810,1,0,0:0:0:0:
113,329,93007,1,0,0:0:0:0:
318,130,93204,1,0,0:0:0:0:
458,165,93401,1,0,0:0:0:0:
276,382,93597,2,0,L|287:215,1,142.5
279,211,93991,5,0,0:0:0:0:
394,336,94188,1,0,0:0:0:0:
178,244,94384,1,0,0:0:0:0:
360,71,94581,1,0,0:0:0:0:
116,190,94778,2,0,P|95:240|109:293,1,95
262,113,95171,2,0,L|108:104,1,142.5
31,69,95565,6,0,P|95:82|146:6,1,142.5
232,0,95958,2,0,P|296:-13|347:63,1,142.5
353,122,96351,1,0,0:0:0:0:
505,29,96548,1,0,0:0:0:0:
311,207,96745,2,0,L|297:373,1,142.5
311,380,97138,5,0,0:0:0:0:
150,237,97335,1,0,0:0:0:0:
406,155,97532,2,0,P|434:219|410:281,1,95
227,304,97925,1,0,0:0:0:0:
322,132,98122,1,0,0:0:0:0:
197,6,98319,2,0,L|202:165,1,142.5
212,172,98712,6,0,P|153:138|94:163,1,95
128,382,99106,1,0,0:0:0:0:
149,214,99302,1,0,0:0:0:0:
316,176,99499,1,0,0:0:0:0:
295,8,99695,1,0,0:0:0:0:
275,249,99892,2,0,P|329:258|397:187,1,142.5
397,182,100286,5,0,0:0:0:0:
372,345,100483,1,0,0:0:0:0:
512,375,100679,1,0,0:0:0:0:
487,212,100876,1,0,0:0:0:0:
286,366,101073,2,0,L|388:356,1,95
179,332,101466,2,0,L|19:322,1,142.5
12,332,101860,5,0,0:0:0:0:
144,181,102056,1,0,0:0:0:0:
257,374,102253,1,0,0:0:0:0:
145,162,102450,1,0,0:0:0:0:
239,9,102647,2,0,P|264:69|244:113,1,95
46,273,103040,2,0,L|62:103,1,142.5
43,118,103433,6,0,P|89:111|116:89,1,47.5
392,5,103630,2,0,P|376:58|358:79,1,47.5
146,356,103827,2,0,P|169:303|171:277,1,47.5
161,57,104024,2,0,P|142:23|109:0,1,47.5
256,337,104220,2,0,P|290:372|323:383,1,47.5
46,231,104417,2,0,P|25:277|19:309,1,47.5
505,53,104614,2,0,L|454:47,1,47.5
134,247,105007,5,0,0:0:0:0:
283,274,105204,1,0,0:0:0:0:
360,149,105401,1,0,0:0:0:0:
509,122,105598,1,0,0:0:0:0:
267,88,105794,2,0,L|273:196,1,95
378,381,106188,2,0,P|432:343|425:241,1,142.5
433,253,106581,5,0,0:0:0:0:
143,333,106778,1,0,0:0:0:0:
181,91,106974,1,0,0:0:0:0:
240,378,107171,1,0,0:0:0:0:
242,17,107368,1,0,0:0:0:0:
71,343,107565,1,0,0:0:0:0:
475,227,107761,1,0,0:0:0:0:
433,293,107909,6,0,L|419:165,1,118.75
405,161,108253,2,0,P|458:132|510:144,1,95
512,149,108548,2,0,L|499:44,1,95
473,215,108942,1,0,0:0:0:0:
26,153,109138,1,0,0:0:0:0:
297,379,109403,6,0,L|290:284,1,95
388,167,109784,2,0,P|437:173|476:212,1,95
213,249,110165,1,0,0:0:0:0:
325,217,110355,1,0,0:0:0:0:
63,176,110546,2,0,L|166:185,1,95
4,233,110927,5,0,0:0:0:0:
110,85,111117,1,0,0:0:0:0:
6,16,111308,2,0,P|-1:59|18:125,1,95
115,292,111689,1,0,0:0:0:0:
193,106,111879,1,0,0:0:0:0:
0,238,112070,1,0,0:0:0:0:
505,272,112546,2,0,L|450:267,1,47.5
410,277,112959,6,0,L|516:271,1,95
341,351,113352,1,0,0:0:0:0:
304,157,113549,2,0,P|361:165|401:219,1,95
334,363,113942,1,0,0:0:0:0:
170,190,114139,2,0,P|202:136|250:121,1,95
136,372,114532,5,0,0:0:0:0:
86,211,114729,1,0,0:0:0:0:
137,383,114926,1,0,0:0:0:0:
254,268,115122,1,0,0:0:0:0:
0,306,115319,2,0,L|118:314,1,95
298,341,115713,2,0,P|333:292|293:197,1,142.5
295,199,116106,6,0,P|351:197|391:163,1,95
206,7,116499,2,0,L|198:167,1,142.5
197,182,116893,1,0,0:0:0:0:
46,66,117090,1,0,0:0:0:0:
285,44,117286,2,0,L|442:33,1,142.5
446,32,117680,5,0,0:0:0:0:
318,178,117877,1,0,0:0:0:0:
465,30,118073,1,0,0:0:0:0:
491,246,118270,1,0,0:0:0:0:
251,220,118467,2,0,P|238:182|239:158,1,47.5
158,200,118663,2,0,P|166:152|178:129,1,47.5
89,131,118860,2,0,P|115:94|135:79,1,47.5
324,366,119254,5,0,0:0:0:0:
307,353,119352,2,0,L|178:368,1,95
142,336,119647,2,0,P|117:288|131:239,1,95
251,181,120040,1,0,0:0:0:0:
55,330,120237,1,0,0:0:0:0:
173,133,120434,2,0,L|330:142,1,142.5
348,145,120827,5,0,0:0:0:0:
161,233,121024,1,0,0:0:0:0:
272,42,121221,1,0,0:0:0:0:
332,302,121418,1,0,0:0:0:0:
99,290,121614,2,0,P|78:242|93:186,1,95
402,338,122008,2,0,L|218:349,1,142.5
237,358,122401,5,0,0:0:0:0:
329,151,122598,1,0,0:0:0:0:
212,372,122795,1,0,0:0:0:0:
67,230,122991,1,0,0:0:0:0:
232,57,123188,2,0,L|223:185,1,95
408,271,123581,2,0,P|457:221|436:119,1,142.5
477,132,123975,6,0,P|402:122|372:87,1,95
288,234,124368,1,0,0:0:0:0:
331,44,124565,1,0,0:0:0:0:
198,222,124762,2,0,L|206:328,1,95
143,36,125155,2,0,L|128:197,1,142.5
115,197,125549,5,0,0:0:0:0:
297,119,125745,1,0,0:0:0:0:
52,74,125942,2,0,L|61:138,1,47.5
83,346,126139,1,0,0:0:0:0:
303,216,126336,2,0,P|235:195|191:215,1,95
345,381,126729,1,0,0:0:0:0:
356,360,126827,1,0,0:0:0:0:
362,337,126925,1,0,0:0:0:0:
362,313,127024,1,0,0:0:0:0:
356,291,127122,5,0,0:0:0:0:
175,361,127319,1,0,0:0:0:0:
445,289,127516,1,0,0:0:0:0:
325,97,127713,1,0,0:0:0:0:
192,283,127909,2,0,L|304:304,1,95
358,16,128303,2,0,P|282:19|234:98,1,142.5
233,91,128696,5,0,0:0:0:0:
476,53,128893,1,0,0:0:0:0:
279,201,129090,2,0,L|122:187,1,142.5
114,202,129483,1,0,0:0:0:0:
245,368,129680,1,0,0:0:0:0:
351,120,129877,2,0,P|400:143|423:228,1,142.5
417,248,130270,5,0,0:0:0:0:
132,61,130467,1,0,0:0:0:0:
507,2,130663,2,0,L|495:156,1,142.5
493,179,131057,1,0,0:0:0:0:
205,8,131254,1,0,0:0:0:0:
45,348,131450,2,0,L|219:325,1,142.5
212,338,131844,5,0,0:0:0:0:
114,129,132040,1,0,0:0:0:0:
224,346,132237,1,0,0:0:0:0:
126,137,132433,1,0,0:0:0:0:
270,21,132631,1,0,0:0:0:0:
163,227,132827,1,0,0:0:0:0:
6,51,133024,2,0,L|165:57,1,142.5
170,71,133418,5,0,0:0:0:0:
406,39,133614,1,0,0:0:0:0:
251,4,133811,2,0,L|245:125,1,95
278,321,134204,1,0,0:0:0:0:
407,155,134401,1,0,0:0:0:0:
98,80,134598,2,0,P|66:141|84:232,1,142.5
92,236,134991,5,0,0:0:0:0:
312,183,135188,1,0,0:0:0:0:
187,48,135385,1,0,0:0:0:0:
103,320,135581,1,0,0:0:0:0:
374,236,135778,2,0,P|391:185|369:128,1,95
86,328,136172,1,0,0:0:0:0:
109,329,136270,1,0,0:0:0:0:
133,331,136368,1,0,0:0:0:0:
157,332,136467,1,0,0:0:0:0:
180,334,136565,6,0,L|247:340,1,47.5
21,241,136762,2,0,L|111:228,1,47.5
304,363,136959,2,0,P|352:348|366:336,1,47.5
138,110,137155,2,0,P|157:144|179:157,1,47.5
279,0,137352,1,0,0:0:0:0:
107,354,137549,1,0,0:0:0:0:
508,231,137745,1,0,0:0:0:0:
