osu file format v14

[General]
AudioFilename: audio.mp3
AudioLeadIn: 0
PreviewTime: 533750
Countdown: 0
SampleSet: Normal
StackLeniency: 0.7
Mode: 1
LetterboxInBreaks: 0
WidescreenStoryboard: 0

[Editor]
DistanceSpacing: 1
BeatDivisor: 16
GridSize: 32
TimelineZoom: 3.2

[Metadata]
Title:Nanairo no Nico Nico Douga
TitleUnicode:七色のニコニコ動画
Artist:simo
ArtistUnicode:しも
Creator:maziari1105
Version:All-Star
Source:
Tags:niconico 7colors Medley Marathon Synthesizer Piano
BeatmapID:1309324
BeatmapSetID:620973

[Difficulty]
HPDrainRate:3.5
CircleSize:7
OverallDifficulty:7
ApproachRate:7
SliderMultiplier:1.4
SliderTickRate:1

[Events]
//Background and Video events
0,0,"bg.jpg",0,0
//Break Periods
//Storyboard Layer 0 (Background)
//Storyboard Layer 1 (Fail)
//Storyboard Layer 2 (Pass)
//Storyboard Layer 3 (Foreground)
//Storyboard Sound Samples

[TimingPoints]
107,328.767123287671,4,1,0,80,1,0
10586,-100,4,1,0,100,0,0
189476,331.95020746888,4,1,0,100,1,0
189600,-100,4,1,0,70,0,0
210720,335.664335664336,4,1,0,55,1,0
221461,334.728033472803,4,1,0,55,1,0
232172,340.425531914894,4,1,0,55,1,0
234895,328.317373461012,4,1,0,55,1,0
255907,327.421555252387,4,1,0,55,1,0
266384,326.086956521739,4,1,0,70,1,0
271560,-100,4,1,0,85,0,0
274169,-100,4,1,0,100,0,0
274210,324.324324324324,4,1,0,100,1,0
276804,320.855614973262,4,1,0,100,1,1
299905,-100,4,1,0,100,0,0
397445,326.086956521739,4,1,0,100,1,0
397445,-99.009900990099,4,1,0,100,0,0
397730,-100,4,1,0,70,0,0
414401,351.906158357771,4,1,0,70,1,0
420031,326.086956521739,4,1,0,70,1,0
427816,-100,4,1,0,85,0,0
427857,322.58064516129,4,1,0,85,1,0
429107,-100,4,1,0,100,0,0
429147,314.13612565445,4,1,0,100,1,0
430403,-100,4,1,0,100,0,1
450508,315.789473684211,4,1,0,100,1,0
460613,317.460317460317,4,1,0,100,1,0
470771,313.31592689295,4,1,0,100,1,0
490823,315.789473684211,4,1,0,100,1,1
511033,-100,4,1,0,100,0,0
523625,-100,4,1,0,90,0,0
533730,-100,4,1,0,100,0,0
533770,-100,4,1,0,100,0,1
553980,-100,4,1,0,100,0,0
565783,-100,4,1,0,85,0,0
584888,-100,4,1,0,85,0,0
588086,-100,4,1,0,85,0,1
608296,-100,4,1,0,85,0,0
641099,-100,4,1,0,70,0,0
641138,317.460317460317,4,1,0,70,1,0
643677,400,4,1,0,70,1,0
643677,-90.9090909090909,4,1,0,70,0,0
645277,576.923076923077,4,1,0,70,1,0
645277,-66.6666666666667,4,1,0,70,0,0
647512,-50,4,1,0,60,0,0
647584,1052.63157894737,4,1,0,60,1,0
647584,-50,4,1,0,60,0,0
647781,-50,4,1,0,35,0,0
651662,-100,4,1,0,70,0,0
651794,571.700809909481,4,1,0,70,1,0
656296,-100,4,1,0,100,0,0
656367,292.682926829268,4,1,0,100,1,1
656367,-100,4,1,0,100,0,1
678720,-100,4,1,0,45,0,1
679196,-100,4,1,0,40,0,1
679781,-100,4,1,0,35,0,1
680367,-100,4,1,0,25,0,1
682415,-100,4,1,0,20,0,0

[HitObjects]
256,192,107,5,2,0:0:0:0:
256,192,764,1,2,0:0:0:0:
256,192,1422,1,2,0:0:0:0:
256,192,1915,1,2,0:0:0:0:
256,192,2079,1,2,0:0:0:0:
256,192,2572,1,2,0:0:0:0:
256,192,2737,1,2,0:0:0:0:
256,192,3065,1,2,0:0:0:0:
256,192,3230,1,2,0:0:0:0:
256,192,3559,1,2,0:0:0:0:
256,192,3723,1,2,0:0:0:0:
256,192,3887,1,2,0:0:0:0:
256,192,5202,1,2,0:0:0:0:
256,192,5367,1,2,0:0:0:0:
256,192,6024,1,2,0:0:0:0:
256,192,6682,1,2,0:0:0:0:
256,192,7175,1,2,0:0:0:0:
256,192,7339,1,2,0:0:0:0:
256,192,7997,1,2,0:0:0:0:
256,192,9148,1,2,0:0:0:0:
256,192,9312,1,2,0:0:0:0:
256,192,9641,1,2,0:0:0:0:
256,192,9970,1,2,0:0:0:0:
256,192,10298,1,2,0:0:0:0:
256,192,10627,1,4,0:0:0:0:
256,192,10791,1,0,0:0:0:0:
256,192,10956,1,2,0:0:0:0:
256,192,11285,1,0,0:0:0:0:
256,192,11613,1,2,0:0:0:0:
256,192,11778,1,2,0:0:0:0:
256,192,11942,1,0,0:0:0:0:
256,192,12106,1,2,0:0:0:0:
256,192,12271,1,2,0:0:0:0:
256,192,12600,1,0,0:0:0:0:
256,192,12764,1,0,0:0:0:0:
256,192,12928,1,2,0:0:0:0:
256,192,13093,1,2,0:0:0:0:
256,192,13175,1,2,0:0:0:0:
256,192,13257,1,0,0:0:0:0:
256,192,13586,1,2,0:0:0:0:
256,192,13915,1,0,0:0:0:0:
256,192,14079,1,0,0:0:0:0:
256,192,14243,1,2,0:0:0:0:
256,192,14572,1,0,0:0:0:0:
256,192,14737,1,0,0:0:0:0:
256,192,14819,1,0,0:0:0:0:
256,192,14901,1,2,0:0:0:0:
256,192,15230,1,0,0:0:0:0:
256,192,15394,1,2,0:0:0:0:
256,192,15559,1,0,0:0:0:0:
256,192,15723,1,2,0:0:0:0:
256,192,15805,1,2,0:0:0:0:
256,192,15887,1,0,0:0:0:0:
256,192,16052,1,0,0:0:0:0:
256,192,16216,1,2,0:0:0:0:
256,192,16380,1,0,0:0:0:0:
256,192,16545,1,0,0:0:0:0:
256,192,16709,1,0,0:0:0:0:
256,192,16874,1,2,0:0:0:0:
256,192,16956,1,2,0:0:0:0:
256,192,17038,1,2,0:0:0:0:
256,192,17120,1,2,0:0:0:0:
256,192,17202,1,0,0:0:0:0:
256,192,17367,1,2,0:0:0:0:
256,192,17531,1,2,0:0:0:0:
256,192,17696,1,0,0:0:0:0:
256,192,17778,1,0,0:0:0:0:
256,192,17860,1,2,0:0:0:0:
256,192,17942,1,2,0:0:0:0:
256,192,18024,1,0,0:0:0:0:
256,192,18106,1,0,0:0:0:0:
256,192,18189,1,2,0:0:0:0:
256,192,18271,1,0,0:0:0:0:
256,192,18353,1,0,0:0:0:0:
256,192,18435,1,0,0:0:0:0:
256,192,18517,1,2,0:0:0:0:
256,192,18572,1,2,0:0:0:0:
256,192,18627,1,2,0:0:0:0:
256,192,18682,1,0,0:0:0:0:
256,192,18764,1,0,0:0:0:0:
256,192,18846,1,2,0:0:0:0:
256,192,19011,1,0,0:0:0:0:
256,192,19065,1,0,0:0:0:0:
256,192,19120,1,0,0:0:0:0:
256,192,19175,1,2,0:0:0:0:
256,192,19257,1,2,0:0:0:0:
256,192,19339,1,0,0:0:0:0:
256,192,19504,1,0,0:0:0:0:
256,192,19668,1,2,0:0:0:0:
256,192,19997,1,0,0:0:0:0:
256,192,20161,1,2,0:0:0:0:
256,192,20243,1,2,0:0:0:0:
256,192,20326,1,0,0:0:0:0:
256,192,20408,1,2,0:0:0:0:
256,192,20490,1,0,0:0:0:0:
256,192,20572,1,0,0:0:0:0:
256,192,20654,1,0,0:0:0:0:
256,192,20737,1,0,0:0:0:0:
256,192,20819,1,2,0:0:0:0:
256,192,20901,1,2,0:0:0:0:
256,192,20983,1,2,0:0:0:0:
256,192,21065,1,2,0:0:0:0:
256,192,21148,1,0,0:0:0:0:
256,192,21476,1,2,0:0:0:0:
256,192,21641,1,0,0:0:0:0:
256,192,21723,1,0,0:0:0:0:
256,192,21805,1,0,0:0:0:0:
256,192,21970,1,0,0:0:0:0:
256,192,22134,1,2,0:0:0:0:
256,192,22298,1,2,0:0:0:0:
256,192,22463,1,0,0:0:0:0:
256,192,22791,1,2,0:0:0:0:
256,192,22956,1,0,0:0:0:0:
256,192,23038,1,0,0:0:0:0:
256,192,23120,1,2,0:0:0:0:
256,192,23202,1,2,0:0:0:0:
256,192,23285,1,0,0:0:0:0:
256,192,23449,1,2,0:0:0:0:
256,192,23778,1,0,0:0:0:0:
256,192,23942,1,0,0:0:0:0:
256,192,24106,1,2,0:0:0:0:
256,192,24271,1,2,0:0:0:0:
256,192,24353,1,2,0:0:0:0:
256,192,24435,1,0,0:0:0:0:
256,192,24600,1,0,0:0:0:0:
256,192,24682,1,0,0:0:0:0:
256,192,24764,1,2,0:0:0:0:
256,192,24928,1,2,0:0:0:0:
256,192,25093,1,0,0:0:0:0:
256,192,25257,1,0,0:0:0:0:
256,192,25422,1,2,0:0:0:0:
256,192,25586,1,2,0:0:0:0:
256,192,25668,1,2,0:0:0:0:
256,192,25750,1,0,0:0:0:0:
256,192,25833,1,0,0:0:0:0:
256,192,25997,1,0,0:0:0:0:
256,192,26079,1,2,0:0:0:0:
256,192,26243,1,0,0:0:0:0:
256,192,26326,1,0,0:0:0:0:
256,192,26408,1,0,0:0:0:0:
256,192,26737,1,2,0:0:0:0:
256,192,26901,1,2,0:0:0:0:
256,192,26983,1,2,0:0:0:0:
256,192,27065,1,0,0:0:0:0:
256,192,27148,1,0,0:0:0:0:
256,192,27230,1,0,0:0:0:0:
256,192,27394,1,2,0:0:0:0:
256,192,27559,1,0,0:0:0:0:
256,192,27723,1,0,0:0:0:0:
256,192,28052,1,2,0:0:0:0:
256,192,28216,1,2,0:0:0:0:
256,192,28298,1,2,0:0:0:0:
256,192,28380,1,0,0:0:0:0:
256,192,28463,1,0,0:0:0:0:
256,192,28545,1,2,0:0:0:0:
256,192,28627,1,0,0:0:0:0:
256,192,28709,1,2,0:0:0:0:
256,192,28874,1,2,0:0:0:0:
256,192,29038,1,0,0:0:0:0:
256,192,29202,1,0,0:0:0:0:
256,192,29367,1,2,0:0:0:0:
256,192,29696,1,0,0:0:0:0:
256,192,29860,1,2,0:0:0:0:
256,192,29942,1,2,0:0:0:0:
256,192,30024,1,2,0:0:0:0:
256,192,30189,1,2,0:0:0:0:
256,192,30353,1,0,0:0:0:0:
256,192,30435,1,0,0:0:0:0:
256,192,30517,1,0,0:0:0:0:
256,192,30600,1,0,0:0:0:0:
256,192,30682,1,2,0:0:0:0:
256,192,30764,1,0,0:0:0:0:
256,192,30846,1,2,0:0:0:0:
256,192,30928,1,2,0:0:0:0:
256,192,31011,1,0,0:0:0:0:
256,192,31175,1,0,0:0:0:0:
256,192,31230,1,0,0:0:0:0:
256,192,31285,1,0,0:0:0:0:
256,192,31339,1,2,0:0:0:0:
256,192,31504,1,2,0:0:0:0:
256,192,31668,1,4,0:0:0:0:
256,192,31997,1,2,0:0:0:0:
256,192,32161,1,0,0:0:0:0:
256,192,32243,1,0,0:0:0:0:
256,192,32326,1,0,0:0:0:0:
256,192,32490,1,0,0:0:0:0:
256,192,32654,1,2,0:0:0:0:
256,192,32819,1,0,0:0:0:0:
256,192,33148,1,0,0:0:0:0:
256,192,33312,1,2,0:0:0:0:
256,192,33476,1,0,0:0:0:0:
256,192,33559,1,0,0:0:0:0:
256,192,33641,1,2,0:0:0:0:
256,192,33723,1,2,0:0:0:0:
256,192,33805,1,0,0:0:0:0:
256,192,33970,1,2,0:0:0:0:
256,192,34298,1,0,0:0:0:0:
256,192,34463,1,0,0:0:0:0:
256,192,34627,1,2,0:0:0:0:
256,192,34791,1,2,0:0:0:0:
256,192,34874,1,2,0:0:0:0:
256,192,34956,1,0,0:0:0:0:
256,192,35120,1,0,0:0:0:0:
256,192,35202,1,0,0:0:0:0:
256,192,35285,1,2,0:0:0:0:
256,192,35449,1,2,0:0:0:0:
256,192,35613,1,0,0:0:0:0:
256,192,35778,1,0,0:0:0:0:
256,192,35942,1,2,0:0:0:0:
256,192,36106,1,2,0:0:0:0:
256,192,36189,1,2,0:0:0:0:
256,192,36271,1,0,0:0:0:0:
256,192,36353,1,0,0:0:0:0:
256,192,36517,1,0,0:0:0:0:
256,192,36600,1,2,0:0:0:0:
256,192,36764,1,0,0:0:0:0:
256,192,36846,1,0,0:0:0:0:
256,192,36928,1,0,0:0:0:0:
256,192,37257,1,2,0:0:0:0:
256,192,37422,1,2,0:0:0:0:
256,192,37504,1,2,0:0:0:0:
256,192,37586,1,0,0:0:0:0:
256,192,37668,1,0,0:0:0:0:
256,192,37750,1,0,0:0:0:0:
256,192,37915,1,2,0:0:0:0:
256,192,38079,1,0,0:0:0:0:
256,192,38243,1,0,0:0:0:0:
256,192,38572,1,2,0:0:0:0:
256,192,38737,1,2,0:0:0:0:
256,192,38819,1,2,0:0:0:0:
256,192,38901,1,0,0:0:0:0:
256,192,38983,1,0,0:0:0:0:
256,192,39065,1,2,0:0:0:0:
256,192,39148,1,0,0:0:0:0:
256,192,39230,1,2,0:0:0:0:
256,192,39394,1,2,0:0:0:0:
256,192,39559,1,0,0:0:0:0:
256,192,39723,1,0,0:0:0:0:
256,192,39805,1,2,0:0:0:0:
256,192,40052,1,2,0:0:0:0:
256,192,40216,1,0,0:0:0:0:
256,192,40380,1,2,0:0:0:0:
256,192,40463,1,0,0:0:0:0:
256,192,40709,1,0,0:0:0:0:
256,192,40791,1,2,0:0:0:0:
256,192,40874,1,0,0:0:0:0:
256,192,41038,1,2,0:0:0:0:
256,192,41120,1,2,0:0:0:0:
256,192,41202,1,0,0:0:0:0:
256,192,41285,1,2,0:0:0:0:
256,192,41449,1,2,0:0:0:0:
256,192,41531,1,0,0:0:0:0:
256,192,41696,1,0,0:0:0:0:
256,192,41778,1,0,0:0:0:0:
256,192,41860,1,2,0:0:0:0:
256,192,41942,1,0,0:0:0:0:
256,192,42024,1,2,0:0:0:0:
256,192,42106,1,2,0:0:0:0:
256,192,42189,1,0,0:0:0:0:
256,192,42435,1,0,0:0:0:0:
256,192,42517,1,2,0:0:0:0:
256,192,42682,1,2,0:0:0:0:
256,192,42764,1,2,0:0:0:0:
256,192,42846,1,0,0:0:0:0:
256,192,43011,1,0,0:0:0:0:
256,192,43175,1,2,0:0:0:0:
256,192,43339,1,0,0:0:0:0:
256,192,43668,1,0,0:0:0:0:
256,192,43833,1,2,0:0:0:0:
256,192,43997,1,0,0:0:0:0:
256,192,44079,1,0,0:0:0:0:
256,192,44161,1,2,0:0:0:0:
256,192,44326,1,0,0:0:0:0:
256,192,44490,1,2,0:0:0:0:
256,192,44654,1,2,0:0:0:0:
256,192,44737,1,2,0:0:0:0:
256,192,44819,1,0,0:0:0:0:
256,192,44901,1,0,0:0:0:0:
256,192,45065,1,0,0:0:0:0:
256,192,45148,1,2,0:0:0:0:
256,192,45312,1,2,0:0:0:0:
256,192,45394,1,2,0:0:0:0:
256,192,45476,1,0,0:0:0:0:
256,192,45641,1,0,0:0:0:0:
256,192,45805,1,2,0:0:0:0:
256,192,45970,1,0,0:0:0:0:
256,192,46298,1,0,0:0:0:0:
256,192,46463,1,2,0:0:0:0:
256,192,46627,1,0,0:0:0:0:
256,192,46709,1,2,0:0:0:0:
256,192,46791,1,0,0:0:0:0:
256,192,46874,1,0,0:0:0:0:
256,192,46956,1,2,0:0:0:0:
256,192,47038,1,0,0:0:0:0:
256,192,47120,1,2,0:0:0:0:
256,192,47285,1,2,0:0:0:0:
256,192,47367,1,2,0:0:0:0:
256,192,47449,1,0,0:0:0:0:
256,192,47778,1,2,0:0:0:0:
256,192,47942,1,2,0:0:0:0:
256,192,48106,1,0,0:0:0:0:
256,192,48271,1,0,0:0:0:0:
256,192,48435,1,2,0:0:0:0:
256,192,48600,1,0,0:0:0:0:
256,192,48682,1,0,0:0:0:0:
256,192,48764,1,0,0:0:0:0:
256,192,48928,1,2,0:0:0:0:
256,192,49093,1,2,0:0:0:0:
256,192,49257,1,0,0:0:0:0:
256,192,49339,1,2,0:0:0:0:
256,192,49422,1,0,0:0:0:0:
256,192,49504,1,0,0:0:0:0:
256,192,49586,1,0,0:0:0:0:
256,192,49750,1,2,0:0:0:0:
256,192,50079,1,0,0:0:0:0:
256,192,50243,1,0,0:0:0:0:
256,192,50408,1,2,0:0:0:0:
256,192,50572,1,0,0:0:0:0:
256,192,50654,1,2,0:0:0:0:
256,192,50737,1,0,0:0:0:0:
256,192,50901,1,2,0:0:0:0:
256,192,50983,1,2,0:0:0:0:
256,192,51065,1,0,0:0:0:0:
256,192,51148,1,2,0:0:0:0:
256,192,51230,1,2,0:0:0:0:
256,192,51312,1,2,0:0:0:0:
256,192,51394,1,0,0:0:0:0:
256,192,51476,1,0,0:0:0:0:
256,192,51641,1,0,0:0:0:0:
256,192,51723,1,2,0:0:0:0:
256,192,51805,1,2,0:0:0:0:
256,192,51970,1,2,0:0:0:0:
256,192,52052,1,0,0:0:0:0:
256,192,52134,1,0,0:0:0:0:
256,192,52216,1,0,0:0:0:0:
256,192,52298,1,2,0:0:0:0:
256,192,52380,1,0,0:0:0:0:
256,192,52463,1,0,0:0:0:0:
256,192,52545,1,2,0:0:0:0:
256,192,52627,1,2,0:0:0:0:
256,192,52709,1,0,0:0:0:0:
256,192,52956,1,0,0:0:0:0:
256,192,53038,1,2,0:0:0:0:
256,192,53202,1,2,0:0:0:0:
256,192,53285,1,2,0:0:0:0:
256,192,53367,1,0,0:0:0:0:
256,192,53531,1,0,0:0:0:0:
256,192,53696,1,2,0:0:0:0:
256,192,53860,1,0,0:0:0:0:
256,192,54189,1,0,0:0:0:0:
256,192,54353,1,2,0:0:0:0:
256,192,54517,1,0,0:0:0:0:
256,192,54600,1,0,0:0:0:0:
256,192,54682,1,2,0:0:0:0:
256,192,54846,1,0,0:0:0:0:
256,192,55011,1,2,0:0:0:0:
256,192,55175,1,2,0:0:0:0:
256,192,55257,1,2,0:0:0:0:
256,192,55339,1,0,0:0:0:0:
256,192,55422,1,0,0:0:0:0:
256,192,55586,1,0,0:0:0:0:
256,192,55668,1,2,0:0:0:0:
256,192,55833,1,2,0:0:0:0:
256,192,55915,1,2,0:0:0:0:
256,192,55997,1,0,0:0:0:0:
256,192,56161,1,0,0:0:0:0:
256,192,56326,1,2,0:0:0:0:
256,192,56490,1,0,0:0:0:0:
256,192,56819,1,0,0:0:0:0:
256,192,56983,1,2,0:0:0:0:
256,192,57148,1,0,0:0:0:0:
256,192,57230,1,2,0:0:0:0:
256,192,57312,1,0,0:0:0:0:
256,192,57394,1,0,0:0:0:0:
256,192,57476,1,2,0:0:0:0:
256,192,57559,1,0,0:0:0:0:
256,192,57641,1,2,0:0:0:0:
256,192,57805,1,2,0:0:0:0:
256,192,57887,1,2,0:0:0:0:
256,192,57970,1,0,0:0:0:0:
256,192,58216,1,0,0:0:0:0:
256,192,58463,1,6,0:0:0:0:
256,192,58709,1,2,0:0:0:0:
256,192,58791,1,0,0:0:0:0:
256,192,58956,1,2,0:0:0:0:
256,192,59120,1,2,0:0:0:0:
256,192,59202,1,2,0:0:0:0:
256,192,59285,1,0,0:0:0:0:
256,192,59531,1,0,0:0:0:0:
256,192,59778,1,6,0:0:0:0:
256,192,60024,1,2,0:0:0:0:
256,192,60106,1,0,0:0:0:0:
256,192,60271,1,2,0:0:0:0:
256,192,60435,1,0,0:0:0:0:
256,192,60517,1,0,0:0:0:0:
256,192,60600,1,0,0:0:0:0:
256,192,60764,1,0,0:0:0:0:
256,192,60928,1,2,0:0:0:0:
256,192,61093,1,0,0:0:0:0:
256,192,61257,1,2,0:0:0:0:
256,192,61339,1,2,0:0:0:0:
256,192,61422,1,0,0:0:0:0:
256,192,61476,1,0,0:0:0:0:
256,192,61531,1,0,0:0:0:0:
256,192,61586,1,2,0:0:0:0:
256,192,61668,1,2,0:0:0:0:
256,192,61750,1,0,0:0:0:0:
256,192,61833,1,2,0:0:0:0:
256,192,61915,1,0,0:0:0:0:
256,192,62079,1,2,0:0:0:0:
256,192,62243,1,2,0:0:0:0:
256,192,62408,1,2,0:0:0:0:
256,192,62572,1,0,0:0:0:0:
256,192,62737,1,2,0:0:0:0:
256,192,62819,1,0,0:0:0:0:
256,192,63065,1,0,0:0:0:0:
256,192,63230,1,0,0:0:0:0:
256,192,63394,1,2,0:0:0:0:
256,192,63476,1,2,0:0:0:0:
256,192,63559,1,2,0:0:0:0:
256,192,63723,1,0,0:0:0:0:
256,192,63887,1,2,0:0:0:0:
256,192,64052,1,0,0:0:0:0:
256,192,64134,1,0,0:0:0:0:
256,192,64216,1,2,0:0:0:0:
256,192,64545,1,0,0:0:0:0:
256,192,64709,1,2,0:0:0:0:
256,192,64791,1,0,0:0:0:0:
256,192,64874,1,2,0:0:0:0:
256,192,65038,1,2,0:0:0:0:
256,192,65202,1,0,0:0:0:0:
256,192,65285,1,2,0:0:0:0:
256,192,65449,1,2,0:0:0:0:
256,192,65531,1,0,0:0:0:0:
256,192,65696,1,2,0:0:0:0:
256,192,65778,1,2,0:0:0:0:
256,192,65860,1,0,0:0:0:0:
256,192,66024,1,2,0:0:0:0:
256,192,66106,1,2,0:0:0:0:
256,192,66189,1,2,0:0:0:0:
256,192,66353,1,0,0:0:0:0:
256,192,66517,1,2,0:0:0:0:
256,192,66682,1,0,0:0:0:0:
256,192,66764,1,0,0:0:0:0:
256,192,66846,1,2,0:0:0:0:
256,192,67175,1,0,0:0:0:0:
256,192,67339,1,2,0:0:0:0:
256,192,67422,1,0,0:0:0:0:
256,192,67504,1,2,0:0:0:0:
256,192,67668,1,2,0:0:0:0:
256,192,67833,1,0,0:0:0:0:
256,192,67915,1,2,0:0:0:0:
256,192,68079,1,2,0:0:0:0:
256,192,68161,1,0,0:0:0:0:
256,192,68243,1,0,0:0:0:0:
256,192,68326,1,2,0:0:0:0:
256,192,68408,1,2,0:0:0:0:
256,192,68490,1,0,0:0:0:0:
256,192,68654,1,2,0:0:0:0:
256,192,68737,1,2,0:0:0:0:
256,192,68819,1,2,0:0:0:0:
256,192,68983,1,0,0:0:0:0:
256,192,69148,1,2,0:0:0:0:
256,192,69312,1,0,0:0:0:0:
256,192,69394,1,0,0:0:0:0:
256,192,69476,1,2,0:0:0:0:
256,192,69805,1,0,0:0:0:0:
256,192,69970,1,2,0:0:0:0:
256,192,70052,1,0,0:0:0:0:
256,192,70134,1,2,0:0:0:0:
256,192,70298,1,2,0:0:0:0:
256,192,70463,1,0,0:0:0:0:
256,192,70545,1,0,0:0:0:0:
256,192,70627,1,2,0:0:0:0:
256,192,70709,1,0,0:0:0:0:
256,192,70791,1,0,0:0:0:0:
256,192,70874,1,2,0:0:0:0:
256,192,70956,1,2,0:0:0:0:
256,192,71038,1,2,0:0:0:0:
256,192,71120,1,0,0:0:0:0:
256,192,71449,1,2,0:0:0:0:
256,192,71613,1,2,0:0:0:0:
256,192,71778,1,4,0:0:0:0:
256,192,72024,1,0,0:0:0:0:
256,192,72106,1,2,0:0:0:0:
256,192,72271,1,2,0:0:0:0:
256,192,72435,1,4,0:0:0:0:
256,192,72600,1,2,0:0:0:0:
256,192,72764,1,2,0:0:0:0:
256,192,72846,1,2,0:0:0:0:
256,192,73011,1,2,0:0:0:0:
256,192,73093,1,0,0:0:0:0:
256,192,73175,1,0,0:0:0:0:
256,192,73257,1,2,0:0:0:0:
256,192,73339,1,2,0:0:0:0:
256,192,73422,1,0,0:0:0:0:
256,192,73476,1,0,0:0:0:0:
256,192,73531,1,0,0:0:0:0:
256,192,73586,1,2,0:0:0:0:
256,192,73668,1,2,0:0:0:0:
256,192,73750,1,0,0:0:0:0:
256,192,73997,1,0,0:0:0:0:
256,192,74079,1,2,0:0:0:0:
256,192,74161,1,2,0:0:0:0:
256,192,74243,1,0,0:0:0:0:
256,192,74326,1,2,0:0:0:0:
256,192,74408,1,0,0:0:0:0:
256,192,74654,1,0,0:0:0:0:
256,192,74737,1,2,0:0:0:0:
256,192,74901,1,0,0:0:0:0:
256,192,74983,1,2,0:0:0:0:
256,192,75065,1,0,0:0:0:0:
256,192,75230,1,0,0:0:0:0:
256,192,75394,1,2,0:0:0:0:
256,192,75559,1,0,0:0:0:0:
256,192,75641,1,2,0:0:0:0:
256,192,75805,1,2,0:0:0:0:
256,192,75887,1,0,0:0:0:0:
256,192,75970,1,0,0:0:0:0:
256,192,76052,1,2,0:0:0:0:
256,192,76216,1,0,0:0:0:0:
256,192,76380,1,0,0:0:0:0:
256,192,76545,1,2,0:0:0:0:
256,192,76627,1,0,0:0:0:0:
256,192,76709,1,2,0:0:0:0:
256,192,76791,1,2,0:0:0:0:
256,192,76874,1,0,0:0:0:0:
256,192,76956,1,2,0:0:0:0:
256,192,77038,1,0,0:0:0:0:
256,192,77202,1,0,0:0:0:0:
256,192,77285,1,2,0:0:0:0:
256,192,77449,1,0,0:0:0:0:
256,192,77531,1,2,0:0:0:0:
256,192,77613,1,2,0:0:0:0:
256,192,77696,1,0,0:0:0:0:
256,192,77860,1,0,0:0:0:0:
256,192,77942,1,0,0:0:0:0:
256,192,78024,1,2,0:0:0:0:
256,192,78189,1,2,0:0:0:0:
256,192,78353,1,0,0:0:0:0:
256,192,78517,1,2,0:0:0:0:
256,192,78600,1,0,0:0:0:0:
256,192,78682,1,2,0:0:0:0:
256,192,79011,1,0,0:0:0:0:
256,192,79175,1,2,0:0:0:0:
256,192,79257,1,0,0:0:0:0:
256,192,79339,1,2,0:0:0:0:
256,192,79422,1,2,0:0:0:0:
256,192,79504,1,0,0:0:0:0:
256,192,79586,1,2,0:0:0:0:
256,192,79668,1,0,0:0:0:0:
256,192,79833,1,0,0:0:0:0:
256,192,79997,1,2,0:0:0:0:
256,192,80079,1,0,0:0:0:0:
256,192,80161,1,2,0:0:0:0:
256,192,80243,1,2,0:0:0:0:
256,192,80326,1,0,0:0:0:0:
256,192,80490,1,0,0:0:0:0:
256,192,80654,1,2,0:0:0:0:
256,192,80737,1,2,0:0:0:0:
256,192,80819,1,0,0:0:0:0:
256,192,80901,1,0,0:0:0:0:
256,192,80983,1,2,0:0:0:0:
256,192,81148,1,0,0:0:0:0:
256,192,81230,1,0,0:0:0:0:
256,192,81312,1,2,0:0:0:0:
256,192,81476,1,0,0:0:0:0:
256,192,81641,1,0,0:0:0:0:
256,192,81805,1,2,0:0:0:0:
256,192,81887,1,0,0:0:0:0:
256,192,81970,1,0,0:0:0:0:
256,192,82052,1,2,0:0:0:0:
256,192,82134,1,0,0:0:0:0:
256,192,82216,1,2,0:0:0:0:
256,192,82298,1,0,0:0:0:0:
256,192,82463,1,0,0:0:0:0:
256,192,82627,1,2,0:0:0:0:
256,192,82709,1,2,0:0:0:0:
256,192,82791,1,0,0:0:0:0:
256,192,82874,1,2,0:0:0:0:
256,192,82956,1,0,0:0:0:0:
256,192,83120,1,2,0:0:0:0:
256,192,83285,1,0,0:0:0:0:
256,192,83449,1,2,0:0:0:0:
256,192,83613,1,2,0:0:0:0:
256,192,83942,1,6,0:0:0:0:
256,192,84271,1,0,0:0:0:0:
256,192,84435,1,0,0:0:0:0:
256,192,84600,1,2,0:0:0:0:
256,192,84764,1,0,0:0:0:0:
256,192,84846,1,2,0:0:0:0:
256,192,84928,1,0,0:0:0:0:
256,192,85093,1,0,0:0:0:0:
256,192,85257,1,2,0:0:0:0:
256,192,85422,1,2,0:0:0:0:
256,192,85504,1,2,0:0:0:0:
256,192,85586,1,0,0:0:0:0:
256,192,85668,1,0,0:0:0:0:
256,192,85833,1,0,0:0:0:0:
256,192,85915,1,2,0:0:0:0:
256,192,86079,1,0,0:0:0:0:
256,192,86161,1,2,0:0:0:0:
256,192,86243,1,0,0:0:0:0:
256,192,86326,1,2,0:0:0:0:
256,192,86408,1,0,0:0:0:0:
256,192,86572,1,2,0:0:0:0:
256,192,86901,1,0,0:0:0:0:
256,192,87065,1,2,0:0:0:0:
256,192,87230,1,2,0:0:0:0:
256,192,87394,1,0,0:0:0:0:
256,192,87476,1,2,0:0:0:0:
256,192,87559,1,0,0:0:0:0:
256,192,87723,1,2,0:0:0:0:
256,192,87887,1,2,0:0:0:0:
256,192,88052,1,2,0:0:0:0:
256,192,88134,1,2,0:0:0:0:
256,192,88216,1,0,0:0:0:0:
256,192,88298,1,2,0:0:0:0:
256,192,88463,1,0,0:0:0:0:
256,192,88545,1,2,0:0:0:0:
256,192,88709,1,2,0:0:0:0:
256,192,88791,1,2,0:0:0:0:
256,192,88874,1,0,0:0:0:0:
256,192,88956,1,2,0:0:0:0:
256,192,89038,1,0,0:0:0:0:
256,192,89202,1,2,0:0:0:0:
256,192,89367,1,0,0:0:0:0:
256,192,89449,1,0,0:0:0:0:
256,192,89531,1,0,0:0:0:0:
256,192,89778,1,0,0:0:0:0:
256,192,89860,1,2,0:0:0:0:
256,192,90024,1,2,0:0:0:0:
256,192,90106,1,2,0:0:0:0:
256,192,90189,1,0,0:0:0:0:
256,192,90353,1,0,0:0:0:0:
256,192,90517,1,2,0:0:0:0:
256,192,90682,1,2,0:0:0:0:
256,192,90846,1,0,0:0:0:0:
256,192,90928,1,0,0:0:0:0:
256,192,91093,1,0,0:0:0:0:
256,192,91175,1,2,0:0:0:0:
256,192,91339,1,2,0:0:0:0:
256,192,91422,1,2,0:0:0:0:
256,192,91504,1,0,0:0:0:0:
256,192,91586,1,2,0:0:0:0:
256,192,91668,1,0,0:0:0:0:
256,192,91833,1,2,0:0:0:0:
256,192,91997,1,0,0:0:0:0:
256,192,92161,1,2,0:0:0:0:
256,192,92243,1,2,0:0:0:0:
256,192,92408,1,2,0:0:0:0:
256,192,92490,1,0,0:0:0:0:
256,192,92654,1,2,0:0:0:0:
256,192,92819,1,0,0:0:0:0:
256,192,92983,1,0,0:0:0:0:
256,192,93148,1,2,0:0:0:0:
256,192,93312,1,2,0:0:0:0:
256,192,93394,1,2,0:0:0:0:
256,192,93476,1,0,0:0:0:0:
256,192,93641,1,0,0:0:0:0:
256,192,93805,1,2,0:0:0:0:
256,192,93887,1,2,0:0:0:0:
256,192,93970,1,0,0:0:0:0:
256,192,94052,1,2,0:0:0:0:
256,192,94134,1,2,0:0:0:0:
256,192,94463,1,0,0:0:0:0:
256,192,94545,1,2,0:0:0:0:
256,192,94627,1,0,0:0:0:0:
256,192,94709,1,0,0:0:0:0:
256,192,94791,1,0,0:0:0:0:
256,192,94956,1,2,0:0:0:0:
256,192,95038,1,2,0:0:0:0:
256,192,95120,1,0,0:0:0:0:
256,192,95285,1,0,0:0:0:0:
256,192,95367,1,0,0:0:0:0:
256,192,95449,1,2,0:0:0:0:
256,192,95613,1,0,0:0:0:0:
256,192,95696,1,2,0:0:0:0:
256,192,95778,1,2,0:0:0:0:
256,192,96106,1,0,0:0:0:0:
256,192,96271,1,2,0:0:0:0:
256,192,96353,1,2,0:0:0:0:
256,192,96435,1,0,0:0:0:0:
256,192,96600,1,0,0:0:0:0:
256,192,96682,1,2,0:0:0:0:
256,192,96764,1,0,0:0:0:0:
256,192,96928,1,2,0:0:0:0:
256,192,97093,1,0,0:0:0:0:
256,192,97422,1,0,0:0:0:0:
256,192,97586,1,2,0:0:0:0:
256,192,97668,1,2,0:0:0:0:
256,192,97750,1,0,0:0:0:0:
256,192,97915,1,0,0:0:0:0:
256,192,97997,1,0,0:0:0:0:
256,192,98079,1,2,0:0:0:0:
256,192,98243,1,0,0:0:0:0:
256,192,98326,1,2,0:0:0:0:
256,192,98408,1,2,0:0:0:0:
256,192,98572,1,0,0:0:0:0:
256,192,98737,1,0,0:0:0:0:
256,192,98901,1,2,0:0:0:0:
256,192,98983,1,0,0:0:0:0:
256,192,99065,1,2,0:0:0:0:
256,192,99230,1,0,0:0:0:0:
256,192,99312,1,2,0:0:0:0:
256,192,99394,1,0,0:0:0:0:
256,192,99559,1,2,0:0:0:0:
256,192,99723,1,0,0:0:0:0:
256,192,99805,1,0,0:0:0:0:
256,192,99887,1,2,0:0:0:0:
256,192,99970,1,2,0:0:0:0:
256,192,100052,1,0,0:0:0:0:
256,192,100298,1,0,0:0:0:0:
256,192,100380,1,2,0:0:0:0:
256,192,100545,1,0,0:0:0:0:
256,192,100709,1,0,0:0:0:0:
256,192,100791,1,2,0:0:0:0:
256,192,100874,1,0,0:0:0:0:
256,192,101038,1,2,0:0:0:0:
256,192,101202,1,2,0:0:0:0:
256,192,101285,1,2,0:0:0:0:
256,192,101367,1,0,0:0:0:0:
256,192,101531,1,0,0:0:0:0:
256,192,101696,1,2,0:0:0:0:
256,192,101860,1,0,0:0:0:0:
256,192,101942,1,0,0:0:0:0:
256,192,102024,1,2,0:0:0:0:
256,192,102189,1,2,0:0:0:0:
256,192,102353,1,2,0:0:0:0:
256,192,102435,1,2,0:0:0:0:
256,192,102517,1,0,0:0:0:0:
256,192,102600,1,2,0:0:0:0:
256,192,102682,1,0,0:0:0:0:
256,192,102764,1,0,0:0:0:0:
256,192,102928,1,0,0:0:0:0:
256,192,103011,1,2,0:0:0:0:
256,192,103175,1,2,0:0:0:0:
256,192,103339,1,0,0:0:0:0:
256,192,103504,1,2,0:0:0:0:
256,192,103586,1,0,0:0:0:0:
256,192,103668,1,2,0:0:0:0:
256,192,103833,1,2,0:0:0:0:
256,192,103997,1,0,0:0:0:0:
256,192,104079,1,0,0:0:0:0:
256,192,104243,1,2,0:0:0:0:
256,192,104326,1,0,0:0:0:0:
256,192,104408,1,0,0:0:0:0:
256,192,104572,1,2,0:0:0:0:
256,192,104654,1,0,0:0:0:0:
256,192,104819,1,0,0:0:0:0:
256,192,104874,1,0,0:0:0:0:
256,192,104928,1,0,0:0:0:0:
256,192,104983,1,2,0:0:0:0:
256,192,105065,1,2,0:0:0:0:
256,192,105148,1,2,0:0:0:0:
256,192,105230,1,2,0:0:0:0:
256,192,105312,1,0,0:0:0:0:
256,192,105641,1,0,0:0:0:0:
256,192,105970,1,0,0:0:0:0:
256,192,106298,1,0,0:0:0:0:
256,192,106463,1,2,0:0:0:0:
256,192,106545,1,2,0:0:0:0:
256,192,106627,1,0,0:0:0:0:
256,192,106956,1,0,0:0:0:0:
256,192,107120,1,2,0:0:0:0:
256,192,107202,1,2,0:0:0:0:
256,192,107285,1,0,0:0:0:0:
256,192,107613,1,0,0:0:0:0:
256,192,107778,1,2,0:0:0:0:
256,192,107942,1,0,0:0:0:0:
256,192,108271,1,0,0:0:0:0:
256,192,108600,1,0,0:0:0:0:
256,192,108928,1,0,0:0:0:0:
256,192,109093,1,2,0:0:0:0:
256,192,109175,1,2,0:0:0:0:
256,192,109257,1,0,0:0:0:0:
256,192,109586,1,0,0:0:0:0:
256,192,109750,1,2,0:0:0:0:
256,192,109833,1,0,0:0:0:0:
256,192,109915,1,0,0:0:0:0:
256,192,110079,1,2,0:0:0:0:
256,192,110243,1,0,0:0:0:0:
256,192,110408,1,2,0:0:0:0:
256,192,110572,1,0,0:0:0:0:
256,192,110901,1,0,0:0:0:0:
256,192,111065,1,2,0:0:0:0:
256,192,111230,1,0,0:0:0:0:
256,192,111559,1,0,0:0:0:0:
256,192,111723,1,2,0:0:0:0:
256,192,111805,1,2,0:0:0:0:
256,192,111887,1,0,0:0:0:0:
256,192,112216,1,0,0:0:0:0:
256,192,112380,1,2,0:0:0:0:
256,192,112463,1,2,0:0:0:0:
256,192,112545,1,0,0:0:0:0:
256,192,112709,1,2,0:0:0:0:
256,192,112874,1,0,0:0:0:0:
256,192,113038,1,2,0:0:0:0:
256,192,113202,1,0,0:0:0:0:
256,192,113367,1,0,0:0:0:0:
256,192,113531,1,2,0:0:0:0:
256,192,113860,1,0,0:0:0:0:
256,192,114024,1,0,0:0:0:0:
256,192,114106,1,0,0:0:0:0:
256,192,114189,1,2,0:0:0:0:
256,192,114517,1,0,0:0:0:0:
256,192,114682,1,0,0:0:0:0:
256,192,114764,1,2,0:0:0:0:
256,192,114928,1,0,0:0:0:0:
256,192,115011,1,2,0:0:0:0:
256,192,115093,1,2,0:0:0:0:
256,192,115175,1,0,0:0:0:0:
256,192,115339,1,2,0:0:0:0:
256,192,115422,1,0,0:0:0:0:
256,192,115504,1,2,0:0:0:0:
256,192,115668,1,2,0:0:0:0:
256,192,115833,1,0,0:0:0:0:
256,192,116161,1,2,0:0:0:0:
256,192,116326,1,0,0:0:0:0:
256,192,116408,1,0,0:0:0:0:
256,192,116490,1,0,0:0:0:0:
256,192,116654,1,0,0:0:0:0:
256,192,116819,1,2,0:0:0:0:
256,192,116983,1,2,0:0:0:0:
256,192,117065,1,2,0:0:0:0:
256,192,117148,1,0,0:0:0:0:
256,192,117312,1,0,0:0:0:0:
256,192,117476,1,2,0:0:0:0:
256,192,117641,1,2,0:0:0:0:
256,192,117723,1,2,0:0:0:0:
256,192,117805,1,0,0:0:0:0:
256,192,117887,1,2,0:0:0:0:
256,192,117970,1,2,0:0:0:0:
256,192,118134,1,2,0:0:0:0:
256,192,118298,1,0,0:0:0:0:
256,192,118380,1,2,0:0:0:0:
256,192,118463,1,0,0:0:0:0:
256,192,118627,1,0,0:0:0:0:
256,192,118791,1,2,0:0:0:0:
256,192,118956,1,0,0:0:0:0:
256,192,119038,1,2,0:0:0:0:
256,192,119202,1,0,0:0:0:0:
256,192,119285,1,2,0:0:0:0:
256,192,119367,1,0,0:0:0:0:
256,192,119449,1,2,0:0:0:0:
256,192,119531,1,2,0:0:0:0:
256,192,119613,1,2,0:0:0:0:
256,192,119696,1,2,0:0:0:0:
256,192,119778,1,0,0:0:0:0:
256,192,119942,1,0,0:0:0:0:
256,192,120106,1,2,0:0:0:0:
256,192,120189,1,2,0:0:0:0:
256,192,120353,1,2,0:0:0:0:
256,192,120435,1,0,0:0:0:0:
256,192,120600,1,0,0:0:0:0:
256,192,120764,1,2,0:0:0:0:
256,192,120928,1,0,0:0:0:0:
256,192,121093,1,0,0:0:0:0:
256,192,121422,1,2,0:0:0:0:
256,192,121586,1,0,0:0:0:0:
256,192,121668,1,0,0:0:0:0:
256,192,121750,1,0,0:0:0:0:
256,192,121915,1,2,0:0:0:0:
256,192,122079,1,0,0:0:0:0:
256,192,122161,1,0,0:0:0:0:
256,192,122243,1,2,0:0:0:0:
256,192,122326,1,2,0:0:0:0:
256,192,122408,1,0,0:0:0:0:
256,192,122572,1,0,0:0:0:0:
256,192,122654,1,0,0:0:0:0:
256,192,122737,1,2,0:0:0:0:
256,192,122901,1,2,0:0:0:0:
256,192,122983,1,0,0:0:0:0:
256,192,123148,1,2,0:0:0:0:
256,192,123230,1,0,0:0:0:0:
256,192,123312,1,0,0:0:0:0:
256,192,123394,1,2,0:0:0:0:
256,192,123476,1,0,0:0:0:0:
256,192,123641,1,0,0:0:0:0:
256,192,123723,1,0,0:0:0:0:
256,192,123887,1,2,0:0:0:0:
256,192,123970,1,2,0:0:0:0:
256,192,124052,1,2,0:0:0:0:
256,192,124216,1,4,0:0:0:0:
256,192,124545,1,2,0:0:0:0:
256,192,124627,1,2,0:0:0:0:
256,192,124709,1,0,0:0:0:0:
256,192,124791,1,0,0:0:0:0:
256,192,124874,1,2,0:0:0:0:
256,192,124956,1,0,0:0:0:0:
256,192,125038,1,0,0:0:0:0:
256,192,125202,1,2,0:0:0:0:
256,192,125367,1,2,0:0:0:0:
256,192,125449,1,2,0:0:0:0:
256,192,125531,1,0,0:0:0:0:
256,192,125613,1,2,0:0:0:0:
256,192,125696,1,2,0:0:0:0:
256,192,125860,1,0,0:0:0:0:
256,192,126024,1,2,0:0:0:0:
256,192,126106,1,2,0:0:0:0:
256,192,126189,1,0,0:0:0:0:
256,192,126271,1,2,0:0:0:0:
256,192,126353,1,0,0:0:0:0:
256,192,126600,1,0,0:0:0:0:
256,192,126682,1,2,0:0:0:0:
256,192,126846,1,0,0:0:0:0:
256,192,126928,1,0,0:0:0:0:
256,192,127011,1,2,0:0:0:0:
256,192,127093,1,2,0:0:0:0:
256,192,127175,1,0,0:0:0:0:
256,192,127339,1,2,0:0:0:0:
256,192,127504,1,2,0:0:0:0:
256,192,127586,1,2,0:0:0:0:
256,192,127668,1,0,0:0:0:0:
256,192,127833,1,2,0:0:0:0:
256,192,127915,1,0,0:0:0:0:
256,192,127997,1,2,0:0:0:0:
256,192,128161,1,0,0:0:0:0:
256,192,128408,1,2,0:0:0:0:
256,192,128490,1,0,0:0:0:0:
256,192,128654,1,2,0:0:0:0:
256,192,128819,1,0,0:0:0:0:
256,192,128901,1,2,0:0:0:0:
256,192,128983,1,0,0:0:0:0:
256,192,129065,1,0,0:0:0:0:
256,192,129230,1,0,0:0:0:0:
256,192,129312,1,2,0:0:0:0:
256,192,129476,1,0,0:0:0:0:
256,192,129641,1,2,0:0:0:0:
256,192,129723,1,2,0:0:0:0:
256,192,129805,1,0,0:0:0:0:
256,192,129970,1,2,0:0:0:0:
256,192,130134,1,0,0:0:0:0:
256,192,130216,1,0,0:0:0:0:
256,192,130298,1,0,0:0:0:0:
256,192,130463,1,2,0:0:0:0:
256,192,130545,1,0,0:0:0:0:
256,192,130627,1,2,0:0:0:0:
256,192,130791,1,0,0:0:0:0:
256,192,130956,1,2,0:0:0:0:
256,192,131038,1,0,0:0:0:0:
256,192,131120,1,0,0:0:0:0:
256,192,131202,1,0,0:0:0:0:
256,192,131285,1,2,0:0:0:0:
256,192,131367,1,2,0:0:0:0:
256,192,131531,1,2,0:0:0:0:
256,192,131613,1,0,0:0:0:0:
256,192,131860,1,0,0:0:0:0:
256,192,131942,1,2,0:0:0:0:
256,192,132106,1,0,0:0:0:0:
256,192,132189,1,0,0:0:0:0:
256,192,132271,1,2,0:0:0:0:
256,192,132353,1,2,0:0:0:0:
256,192,132435,1,0,0:0:0:0:
256,192,132600,1,2,0:0:0:0:
256,192,132764,1,2,0:0:0:0:
256,192,132846,1,2,0:0:0:0:
256,192,132928,1,0,0:0:0:0:
256,192,133093,1,2,0:0:0:0:
256,192,133175,1,0,0:0:0:0:
256,192,133257,1,2,0:0:0:0:
256,192,133422,1,0,0:0:0:0:
256,192,133668,1,2,0:0:0:0:
256,192,133750,1,0,0:0:0:0:
256,192,133915,1,2,0:0:0:0:
256,192,134079,1,0,0:0:0:0:
256,192,134161,1,2,0:0:0:0:
256,192,134243,1,0,0:0:0:0:
256,192,134408,1,0,0:0:0:0:
256,192,134490,1,0,0:0:0:0:
256,192,134572,1,2,0:0:0:0:
256,192,134737,1,0,0:0:0:0:
256,192,134983,1,0,0:0:0:0:
256,192,135065,1,2,0:0:0:0:
256,192,135230,1,2,0:0:0:0:
256,192,135312,1,0,0:0:0:0:
256,192,135394,1,0,0:0:0:0:
256,192,135476,1,2,0:0:0:0:
256,192,135559,1,0,0:0:0:0:
256,192,135723,1,0,0:0:0:0:
256,192,135887,1,2,0:0:0:0:
256,192,136052,1,0,0:0:0:0:
256,192,136134,1,0,0:0:0:0:
256,192,136216,1,2,0:0:0:0:
256,192,136380,1,0,0:0:0:0:
256,192,136545,1,2,0:0:0:0:
256,192,136627,1,2,0:0:0:0:
256,192,136709,1,0,0:0:0:0:
256,192,136791,1,2,0:0:0:0:
256,192,136874,1,0,0:0:0:0:
256,192,137038,1,0,0:0:0:0:
256,192,137120,1,0,0:0:0:0:
256,192,137202,1,2,0:0:0:0:
256,192,137367,1,2,0:0:0:0:
256,192,137449,1,2,0:0:0:0:
256,192,137531,1,0,0:0:0:0:
256,192,137696,1,0,0:0:0:0:
256,192,137860,1,2,0:0:0:0:
256,192,138024,1,2,0:0:0:0:
256,192,138106,1,2,0:0:0:0:
256,192,138189,1,0,0:0:0:0:
256,192,138353,1,0,0:0:0:0:
256,192,138435,1,0,0:0:0:0:
256,192,138517,1,2,0:0:0:0:
256,192,138682,1,0,0:0:0:0:
256,192,138764,1,2,0:0:0:0:
256,192,138846,1,0,0:0:0:0:
256,192,139011,1,0,0:0:0:0:
256,192,139175,1,2,0:0:0:0:
256,192,139257,1,2,0:0:0:0:
256,192,139339,1,2,0:0:0:0:
256,192,139422,1,2,0:0:0:0:
256,192,139504,1,0,0:0:0:0:
256,192,139668,1,2,0:0:0:0:
256,192,139997,1,2,0:0:0:0:
256,192,140161,1,0,0:0:0:0:
256,192,140326,1,0,0:0:0:0:
256,192,140490,1,2,0:0:0:0:
256,192,140654,1,0,0:0:0:0:
256,192,140737,1,0,0:0:0:0:
256,192,140819,1,2,0:0:0:0:
256,192,140983,1,0,0:0:0:0:
256,192,141312,1,2,0:0:0:0:
256,192,141394,1,2,0:0:0:0:
256,192,141476,1,0,0:0:0:0:
256,192,141641,1,0,0:0:0:0:
256,192,141805,1,2,0:0:0:0:
256,192,141970,1,2,0:0:0:0:
256,192,142052,1,2,0:0:0:0:
256,192,142134,1,0,0:0:0:0:
256,192,142298,1,0,0:0:0:0:
256,192,142463,1,2,0:0:0:0:
256,192,142627,1,0,0:0:0:0:
256,192,142791,1,2,0:0:0:0:
256,192,142874,1,2,0:0:0:0:
256,192,142956,1,0,0:0:0:0:
256,192,143120,1,2,0:0:0:0:
256,192,143202,1,2,0:0:0:0:
256,192,143367,1,2,0:0:0:0:
256,192,143449,1,0,0:0:0:0:
256,192,143613,1,0,0:0:0:0:
256,192,143696,1,0,0:0:0:0:
256,192,143778,1,2,0:0:0:0:
256,192,143942,1,2,0:0:0:0:
256,192,144106,1,0,0:0:0:0:
256,192,144189,1,2,0:0:0:0:
256,192,144271,1,0,0:0:0:0:
256,192,144435,1,2,0:0:0:0:
256,192,144600,1,2,0:0:0:0:
256,192,144682,1,2,0:0:0:0:
256,192,144764,1,0,0:0:0:0:
256,192,144928,1,0,0:0:0:0:
256,192,145093,1,2,0:0:0:0:
256,192,145257,1,0,0:0:0:0:
256,192,145422,1,2,0:0:0:0:
256,192,145504,1,2,0:0:0:0:
256,192,145750,1,2,0:0:0:0:
256,192,145915,1,0,0:0:0:0:
256,192,145997,1,2,0:0:0:0:
256,192,146079,1,0,0:0:0:0:
256,192,146243,1,2,0:0:0:0:
256,192,146408,1,0,0:0:0:0:
256,192,146572,1,2,0:0:0:0:
256,192,146654,1,2,0:0:0:0:
256,192,146737,1,0,0:0:0:0:
256,192,146901,1,2,0:0:0:0:
256,192,146983,1,2,0:0:0:0:
256,192,147065,1,2,0:0:0:0:
256,192,147230,1,2,0:0:0:0:
256,192,147394,1,0,0:0:0:0:
256,192,147723,1,2,0:0:0:0:
256,192,147970,1,2,0:0:0:0:
256,192,148052,1,0,0:0:0:0:
256,192,148216,1,0,0:0:0:0:
256,192,148380,1,2,0:0:0:0:
256,192,148545,1,0,0:0:0:0:
256,192,148874,1,0,0:0:0:0:
256,192,149038,1,2,0:0:0:0:
256,192,149202,1,0,0:0:0:0:
256,192,149285,1,2,0:0:0:0:
256,192,149367,1,0,0:0:0:0:
256,192,149531,1,0,0:0:0:0:
256,192,149696,1,2,0:0:0:0:
256,192,149860,1,2,0:0:0:0:
256,192,149942,1,2,0:0:0:0:
256,192,150024,1,0,0:0:0:0:
256,192,150271,1,0,0:0:0:0:
256,192,150353,1,2,0:0:0:0:
256,192,150517,1,2,0:0:0:0:
256,192,150600,1,0,0:0:0:0:
256,192,150682,1,0,0:0:0:0:
256,192,150846,1,0,0:0:0:0:
256,192,151011,1,2,0:0:0:0:
256,192,151175,1,0,0:0:0:0:
256,192,151504,1,0,0:0:0:0:
256,192,151668,1,0,0:0:0:0:
256,192,151833,1,2,0:0:0:0:
256,192,152161,1,0,0:0:0:0:
256,192,152326,1,2,0:0:0:0:
256,192,152490,1,2,0:0:0:0:
256,192,152572,1,2,0:0:0:0:
256,192,152654,1,0,0:0:0:0:
256,192,152819,1,2,0:0:0:0:
256,192,152983,1,0,0:0:0:0:
256,192,153230,1,2,0:0:0:0:
256,192,153312,1,2,0:0:0:0:
256,192,153476,1,0,0:0:0:0:
256,192,153641,1,2,0:0:0:0:
256,192,153723,1,2,0:0:0:0:
256,192,153805,1,2,0:0:0:0:
256,192,153970,1,0,0:0:0:0:
256,192,154216,1,2,0:0:0:0:
256,192,154298,1,2,0:0:0:0:
256,192,154463,1,0,0:0:0:0:
256,192,154627,1,2,0:0:0:0:
256,192,154791,1,2,0:0:0:0:
256,192,154874,1,2,0:0:0:0:
256,192,154956,1,0,0:0:0:0:
256,192,155120,1,2,0:0:0:0:
256,192,155285,1,0,0:0:0:0:
256,192,155449,1,0,0:0:0:0:
256,192,155531,1,0,0:0:0:0:
256,192,155613,1,2,0:0:0:0:
256,192,155778,1,0,0:0:0:0:
256,192,155942,1,0,0:0:0:0:
256,192,156024,1,0,0:0:0:0:
256,192,156106,1,2,0:0:0:0:
256,192,156271,1,0,0:0:0:0:
256,192,156435,1,2,0:0:0:0:
256,192,156517,1,2,0:0:0:0:
256,192,156600,1,0,0:0:0:0:
256,192,156682,1,0,0:0:0:0:
256,192,156764,1,2,0:0:0:0:
256,192,156928,1,2,0:0:0:0:
256,192,157011,1,0,0:0:0:0:
256,192,157093,1,2,0:0:0:0:
256,192,157422,1,0,0:0:0:0:
256,192,157586,1,2,0:0:0:0:
256,192,157750,1,0,0:0:0:0:
256,192,157915,1,4,0:0:0:0:
256,192,158408,1,0,0:0:0:0:
256,192,158572,1,2,0:0:0:0:
256,192,158654,1,2,0:0:0:0:
256,192,158737,1,0,0:0:0:0:
256,192,158819,1,0,0:0:0:0:
256,192,158901,1,2,0:0:0:0:
256,192,159230,1,4,0:0:0:0:
256,192,159559,1,0,0:0:0:0:
256,192,159723,1,2,0:0:0:0:
256,192,159887,1,0,0:0:0:0:
256,192,160052,1,0,0:0:0:0:
256,192,160216,1,2,0:0:0:0:
256,192,160298,1,2,0:0:0:0:
256,192,160380,1,0,0:0:0:0:
256,192,160545,1,4,0:0:0:0:
256,192,161038,1,0,0:0:0:0:
256,192,161202,1,2,0:0:0:0:
256,192,161367,1,0,0:0:0:0:
256,192,161449,1,0,0:0:0:0:
256,192,161531,1,2,0:0:0:0:
256,192,161860,1,4,0:0:0:0:
256,192,162024,1,2,0:0:0:0:
256,192,162106,1,2,0:0:0:0:
256,192,162189,1,2,0:0:0:0:
256,192,162353,1,2,0:0:0:0:
256,192,162517,1,0,0:0:0:0:
256,192,162682,1,2,0:0:0:0:
256,192,162846,1,0,0:0:0:0:
256,192,163011,1,0,0:0:0:0:
256,192,163175,1,4,0:0:0:0:
256,192,163668,1,0,0:0:0:0:
256,192,163833,1,2,0:0:0:0:
256,192,164326,1,2,0:0:0:0:
256,192,164408,1,2,0:0:0:0:
256,192,164490,1,0,0:0:0:0:
256,192,164654,1,2,0:0:0:0:
256,192,164819,1,0,0:0:0:0:
256,192,165148,1,2,0:0:0:0:
256,192,165394,1,0,0:0:0:0:
256,192,165476,1,2,0:0:0:0:
256,192,165641,1,2,0:0:0:0:
256,192,165723,1,2,0:0:0:0:
256,192,165805,1,0,0:0:0:0:
256,192,165970,1,0,0:0:0:0:
256,192,166134,1,2,0:0:0:0:
256,192,166298,1,0,0:0:0:0:
256,192,166380,1,0,0:0:0:0:
256,192,166463,1,2,0:0:0:0:
256,192,166627,1,0,0:0:0:0:
256,192,166791,1,2,0:0:0:0:
256,192,166956,1,2,0:0:0:0:
256,192,167038,1,2,0:0:0:0:
256,192,167120,1,0,0:0:0:0:
256,192,167449,1,0,0:0:0:0:
256,192,167613,1,2,0:0:0:0:
256,192,167778,1,0,0:0:0:0:
256,192,167860,1,0,0:0:0:0:
256,192,167942,1,2,0:0:0:0:
256,192,168024,1,0,0:0:0:0:
256,192,168106,1,2,0:0:0:0:
256,192,168189,1,2,0:0:0:0:
256,192,168271,1,2,0:0:0:0:
256,192,168353,1,2,0:0:0:0:
256,192,168435,1,0,0:0:0:0:
256,192,168682,1,0,0:0:0:0:
256,192,168764,1,2,0:0:0:0:
256,192,168928,1,2,0:0:0:0:
256,192,169175,1,2,0:0:0:0:
256,192,169257,1,0,0:0:0:0:
256,192,169422,1,2,0:0:0:0:
256,192,169586,1,0,0:0:0:0:
256,192,169750,1,0,0:0:0:0:
256,192,169915,1,2,0:0:0:0:
256,192,169997,1,0,0:0:0:0:
256,192,170079,1,2,0:0:0:0:
256,192,170243,1,0,0:0:0:0:
256,192,170490,1,2,0:0:0:0:
256,192,170572,1,0,0:0:0:0:
256,192,170737,1,2,0:0:0:0:
256,192,170901,1,2,0:0:0:0:
256,192,170983,1,2,0:0:0:0:
256,192,171065,1,0,0:0:0:0:
256,192,171230,1,0,0:0:0:0:
256,192,171394,1,2,0:0:0:0:
256,192,171559,1,2,0:0:0:0:
256,192,171641,1,2,0:0:0:0:
256,192,171805,1,2,0:0:0:0:
256,192,171887,1,0,0:0:0:0:
256,192,171970,1,0,0:0:0:0:
256,192,172052,1,2,0:0:0:0:
256,192,172216,1,0,0:0:0:0:
256,192,172298,1,2,0:0:0:0:
256,192,172380,1,0,0:0:0:0:
256,192,172545,1,0,0:0:0:0:
256,192,172709,1,2,0:0:0:0:
256,192,172874,1,2,0:0:0:0:
256,192,172956,1,2,0:0:0:0:
256,192,173120,1,2,0:0:0:0:
256,192,173202,1,0,0:0:0:0:
256,192,173285,1,0,0:0:0:0:
256,192,173367,1,2,0:0:0:0:
256,192,173449,1,0,0:0:0:0:
256,192,173613,1,2,0:0:0:0:
256,192,173696,1,0,0:0:0:0:
256,192,173942,1,0,0:0:0:0:
256,192,174024,1,2,0:0:0:0:
256,192,174189,1,2,0:0:0:0:
256,192,174435,1,2,0:0:0:0:
256,192,174517,1,0,0:0:0:0:
256,192,174682,1,2,0:0:0:0:
256,192,174846,1,0,0:0:0:0:
256,192,175011,1,0,0:0:0:0:
256,192,175175,1,2,0:0:0:0:
256,192,175257,1,0,0:0:0:0:
256,192,175339,1,2,0:0:0:0:
256,192,175504,1,0,0:0:0:0:
256,192,175750,1,2,0:0:0:0:
256,192,175833,1,0,0:0:0:0:
256,192,175997,1,2,0:0:0:0:
256,192,176161,1,2,0:0:0:0:
256,192,176243,1,2,0:0:0:0:
256,192,176326,1,0,0:0:0:0:
256,192,176490,1,0,0:0:0:0:
256,192,176654,1,2,0:0:0:0:
256,192,176819,1,2,0:0:0:0:
256,192,176901,1,2,0:0:0:0:
256,192,177065,1,2,0:0:0:0:
256,192,177148,1,0,0:0:0:0:
256,192,177230,1,0,0:0:0:0:
256,192,177312,1,2,0:0:0:0:
256,192,177476,1,0,0:0:0:0:
256,192,177559,1,2,0:0:0:0:
256,192,177641,1,0,0:0:0:0:
256,192,177805,1,0,0:0:0:0:
256,192,177970,1,2,0:0:0:0:
256,192,178134,1,2,0:0:0:0:
256,192,178216,1,2,0:0:0:0:
256,192,178380,1,2,0:0:0:0:
256,192,178463,1,0,0:0:0:0:
256,192,178545,1,0,0:0:0:0:
256,192,178627,1,2,0:0:0:0:
256,192,178709,1,0,0:0:0:0:
256,192,178874,1,0,0:0:0:0:
256,192,178956,1,2,0:0:0:0:
256,192,179202,1,0,0:0:0:0:
256,192,179285,1,2,0:0:0:0:
256,192,179449,1,0,0:0:0:0:
256,192,179696,1,2,0:0:0:0:
256,192,179778,1,0,0:0:0:0:
256,192,179942,1,2,0:0:0:0:
256,192,180024,1,0,0:0:0:0:
256,192,180106,1,2,0:0:0:0:
256,192,180189,1,2,0:0:0:0:
256,192,180271,1,0,0:0:0:0:
256,192,180435,1,2,0:0:0:0:
256,192,180600,1,2,0:0:0:0:
256,192,180764,1,0,0:0:0:0:
256,192,181011,1,2,0:0:0:0:
256,192,181093,1,0,0:0:0:0:
256,192,181257,1,2,0:0:0:0:
256,192,181339,1,0,0:0:0:0:
256,192,181422,1,2,0:0:0:0:
256,192,181504,1,2,0:0:0:0:
256,192,181586,1,0,0:0:0:0:
256,192,181833,1,0,0:0:0:0:
256,192,181915,1,2,0:0:0:0:
256,192,182079,1,0,0:0:0:0:
256,192,182326,1,2,0:0:0:0:
256,192,182408,1,0,0:0:0:0:
256,192,182572,1,2,0:0:0:0:
256,192,182737,1,0,0:0:0:0:
256,192,182819,1,2,0:0:0:0:
256,192,182901,1,0,0:0:0:0:
256,192,183065,1,0,0:0:0:0:
256,192,183230,1,2,0:0:0:0:
256,192,183394,1,0,0:0:0:0:
256,192,183476,1,2,0:0:0:0:
256,192,183559,1,2,0:0:0:0:
256,192,183641,1,2,0:0:0:0:
256,192,183723,1,0,0:0:0:0:
256,192,183887,1,2,0:0:0:0:
256,192,183970,1,0,0:0:0:0:
256,192,184052,1,2,0:0:0:0:
256,192,184134,1,2,0:0:0:0:
256,192,184216,1,0,0:0:0:0:
256,192,184463,1,0,0:0:0:0:
256,192,184545,1,2,0:0:0:0:
256,192,184709,1,0,0:0:0:0:
256,192,185038,1,0,0:0:0:0:
256,192,185202,1,2,0:0:0:0:
256,192,185285,1,2,0:0:0:0:
256,192,185367,1,0,0:0:0:0:
256,192,185449,1,2,0:0:0:0:
256,192,185531,1,0,0:0:0:0:
256,192,185696,1,2,0:0:0:0:
256,192,185860,1,2,0:0:0:0:
256,192,186024,1,0,0:0:0:0:
256,192,186353,1,0,0:0:0:0:
256,192,186517,1,2,0:0:0:0:
256,192,186600,1,0,0:0:0:0:
256,192,186846,1,0,0:0:0:0:
256,192,187175,1,2,0:0:0:0:
256,192,187668,1,0,0:0:0:0:
256,192,187833,1,2,0:0:0:0:
256,192,187997,1,2,0:0:0:0:
256,192,188079,1,2,0:0:0:0:
256,192,188161,1,0,0:0:0:0:
256,192,188326,1,0,0:0:0:0:
256,192,188408,1,2,0:0:0:0:
256,192,188572,1,0,0:0:0:0:
256,192,188654,1,2,0:0:0:0:
256,192,188737,1,2,0:0:0:0:
256,192,188819,1,0,0:0:0:0:
256,192,188901,1,2,0:0:0:0:
256,192,188983,1,2,0:0:0:0:
256,192,189065,1,0,0:0:0:0:
256,192,189148,1,2,0:0:0:0:
256,192,189230,1,2,0:0:0:0:
256,192,189312,1,0,0:0:0:0:
256,192,189367,1,2,0:0:0:0:
256,192,189422,1,2,0:0:0:0:
256,192,189476,1,0,0:0:0:0:
256,192,189641,1,2,0:0:0:0:
256,192,189724,1,2,0:0:0:0:
256,192,189973,1,2,0:0:0:0:
256,192,190139,1,2,0:0:0:0:
256,192,190305,1,2,0:0:0:0:
256,192,190471,1,2,0:0:0:0:
256,192,190803,1,2,0:0:0:0:
256,192,190969,1,2,0:0:0:0:
256,192,191052,1,2,0:0:0:0:
256,192,191301,1,2,0:0:0:0:
256,192,191467,1,2,0:0:0:0:
256,192,191633,1,2,0:0:0:0:
256,192,191799,1,2,0:0:0:0:
256,192,192131,1,2,0:0:0:0:
256,192,192297,1,2,0:0:0:0:
256,192,192380,1,2,0:0:0:0:
256,192,192629,1,2,0:0:0:0:
256,192,192795,1,2,0:0:0:0:
256,192,192961,1,2,0:0:0:0:
256,192,193127,1,2,0:0:0:0:
256,192,193459,1,2,0:0:0:0:
256,192,193625,1,2,0:0:0:0:
256,192,193708,1,2,0:0:0:0:
256,192,193957,1,2,0:0:0:0:
256,192,194123,1,2,0:0:0:0:
256,192,194289,1,2,0:0:0:0:
256,192,194455,1,2,0:0:0:0:
256,192,194787,1,2,0:0:0:0:
256,192,195036,1,2,0:0:0:0:
256,192,195285,1,2,0:0:0:0:
256,192,195451,1,2,0:0:0:0:
256,192,195617,1,2,0:0:0:0:
256,192,195783,1,2,0:0:0:0:
256,192,196115,1,2,0:0:0:0:
256,192,196363,1,2,0:0:0:0:
256,192,196612,1,2,0:0:0:0:
256,192,196778,1,2,0:0:0:0:
256,192,196944,1,2,0:0:0:0:
256,192,197110,1,2,0:0:0:0:
256,192,197442,1,2,0:0:0:0:
256,192,197691,1,2,0:0:0:0:
256,192,197940,1,2,0:0:0:0:
256,192,198106,1,2,0:0:0:0:
256,192,198272,1,2,0:0:0:0:
256,192,198438,1,2,0:0:0:0:
256,192,198770,1,2,0:0:0:0:
256,192,199019,1,2,0:0:0:0:
256,192,199268,1,2,0:0:0:0:
256,192,199434,1,2,0:0:0:0:
256,192,199600,1,2,0:0:0:0:
256,192,199766,1,2,0:0:0:0:
256,192,200098,1,2,0:0:0:0:
256,192,202090,1,2,0:0:0:0:
256,192,202754,1,0,0:0:0:0:
256,192,204081,1,2,0:0:0:0:
256,192,205409,1,2,0:0:0:0:
256,192,207401,1,2,0:0:0:0:
256,192,208065,1,0,0:0:0:0:
256,192,209393,1,0,0:0:0:0:
256,192,210720,1,0,0:0:0:0:
256,192,210887,1,2,0:0:0:0:
256,192,211055,1,2,0:0:0:0:
256,192,211223,1,2,0:0:0:0:
256,192,211726,1,2,0:0:0:0:
256,192,212230,1,2,0:0:0:0:
256,192,212733,1,0,0:0:0:0:
256,192,213069,1,0,0:0:0:0:
256,192,213405,1,0,0:0:0:0:
256,192,213573,1,2,0:0:0:0:
256,192,213740,1,2,0:0:0:0:
256,192,213908,1,2,0:0:0:0:
256,192,214244,1,2,0:0:0:0:
256,192,214747,1,2,0:0:0:0:
256,192,215083,1,2,0:0:0:0:
256,192,215419,1,0,0:0:0:0:
256,192,215754,1,0,0:0:0:0:
256,192,216090,1,2,0:0:0:0:
256,192,216258,1,2,0:0:0:0:
256,192,216426,1,2,0:0:0:0:
256,192,216594,1,0,0:0:0:0:
256,192,217433,1,0,0:0:0:0:
256,192,217601,1,2,0:0:0:0:
256,192,217768,1,2,0:0:0:0:
256,192,217936,1,0,0:0:0:0:
256,192,218775,1,0,0:0:0:0:
256,192,218943,1,2,0:0:0:0:
256,192,219111,1,2,0:0:0:0:
256,192,219279,1,2,0:0:0:0:
256,192,219615,1,2,0:0:0:0:
256,192,219950,1,2,0:0:0:0:
256,192,220118,1,0,0:0:0:0:
256,192,220622,1,2,0:0:0:0:
256,192,221461,1,0,0:0:0:0:
256,192,221628,1,2,0:0:0:0:
256,192,221795,1,2,0:0:0:0:
256,192,221963,1,2,0:0:0:0:
256,192,222799,1,2,0:0:0:0:
256,192,224138,1,0,0:0:0:0:
256,192,224306,1,0,0:0:0:0:
256,192,224473,1,2,0:0:0:0:
256,192,224640,1,2,0:0:0:0:
256,192,225477,1,2,0:0:0:0:
256,192,226816,1,2,0:0:0:0:
256,192,227318,1,2,0:0:0:0:
256,192,228155,1,0,0:0:0:0:
256,192,228657,1,2,0:0:0:0:
256,192,229494,1,2,0:0:0:0:
256,192,229829,1,2,0:0:0:0:
256,192,230163,1,0,0:0:0:0:
256,192,230498,1,2,0:0:0:0:
256,192,230833,1,0,0:0:0:0:
256,192,231502,1,0,0:0:0:0:
256,192,232172,1,0,0:0:0:0:
256,192,232682,1,2,0:0:0:0:
256,192,233533,1,0,0:0:0:0:
256,192,233703,1,0,0:0:0:0:
256,192,233874,1,0,0:0:0:0:
256,192,234044,1,2,0:0:0:0:
256,192,234895,1,0,0:0:0:0:
256,192,235387,1,2,0:0:0:0:
256,192,235715,1,2,0:0:0:0:
256,192,235879,1,2,0:0:0:0:
256,192,236536,1,2,0:0:0:0:
256,192,236864,1,2,0:0:0:0:
256,192,237193,1,2,0:0:0:0:
256,192,237521,1,0,0:0:0:0:
256,192,237849,1,2,0:0:0:0:
256,192,238014,1,2,0:0:0:0:
256,192,238342,1,2,0:0:0:0:
256,192,238506,1,2,0:0:0:0:
256,192,238834,1,0,0:0:0:0:
256,192,238998,1,0,0:0:0:0:
256,192,239327,1,2,0:0:0:0:
256,192,239819,1,2,0:0:0:0:
256,192,239983,1,2,0:0:0:0:
256,192,240148,1,0,0:0:0:0:
256,192,240640,1,2,0:0:0:0:
256,192,240968,1,2,0:0:0:0:
256,192,241133,1,2,0:0:0:0:
256,192,241789,1,0,0:0:0:0:
256,192,242117,1,2,0:0:0:0:
256,192,242446,1,2,0:0:0:0:
256,192,242774,1,0,0:0:0:0:
256,192,243267,1,2,0:0:0:0:
256,192,243759,1,2,0:0:0:0:
256,192,244908,1,2,0:0:0:0:
256,192,245072,1,2,0:0:0:0:
256,192,245236,1,2,0:0:0:0:
256,192,245401,1,0,0:0:0:0:
256,192,245729,1,2,0:0:0:0:
256,192,245893,1,2,0:0:0:0:
256,192,246221,1,2,0:0:0:0:
256,192,246386,1,0,0:0:0:0:
256,192,247042,1,2,0:0:0:0:
256,192,247371,1,2,0:0:0:0:
256,192,247535,1,2,0:0:0:0:
256,192,248027,1,0,0:0:0:0:
256,192,248356,1,2,0:0:0:0:
256,192,248520,1,2,0:0:0:0:
256,192,248848,1,2,0:0:0:0:
256,192,249012,1,0,0:0:0:0:
256,192,250325,1,2,0:0:0:0:
256,192,250490,1,2,0:0:0:0:
256,192,250654,1,0,0:0:0:0:
256,192,251146,1,2,0:0:0:0:
256,192,251475,1,2,0:0:0:0:
256,192,251639,1,2,0:0:0:0:
256,192,252952,1,2,0:0:0:0:
256,192,253116,1,2,0:0:0:0:
256,192,253280,1,0,0:0:0:0:
256,192,253773,1,2,0:0:0:0:
256,192,254101,1,2,0:0:0:0:
256,192,254265,1,0,0:0:0:0:
256,192,254922,1,2,0:0:0:0:
256,192,255250,1,2,0:0:0:0:
256,192,255578,1,2,0:0:0:0:
256,192,255907,1,2,0:0:0:0:
256,192,256398,1,2,0:0:0:0:
256,192,256889,1,2,0:0:0:0:
256,192,257052,1,2,0:0:0:0:
256,192,257216,1,2,0:0:0:0:
256,192,257544,1,2,0:0:0:0:
256,192,257871,1,2,0:0:0:0:
256,192,258198,1,2,0:0:0:0:
256,192,258362,1,2,0:0:0:0:
256,192,258526,1,2,0:0:0:0:
256,192,259017,1,2,0:0:0:0:
256,192,259344,1,2,0:0:0:0:
256,192,259508,1,2,0:0:0:0:
256,192,259836,1,2,0:0:0:0:
256,192,260163,1,2,0:0:0:0:
256,192,260490,1,2,0:0:0:0:
256,192,260818,1,2,0:0:0:0:
256,192,261145,1,2,0:0:0:0:
256,192,261800,1,2,0:0:0:0:
256,192,262128,1,2,0:0:0:0:
256,192,262455,1,2,0:0:0:0:
256,192,262946,1,2,0:0:0:0:
256,192,263437,1,2,0:0:0:0:
256,192,263765,1,2,0:0:0:0:
256,192,264092,1,2,0:0:0:0:
256,192,264419,1,2,0:0:0:0:
256,192,264747,1,2,0:0:0:0:
256,192,264911,1,2,0:0:0:0:
256,192,265402,1,2,0:0:0:0:
256,192,265729,1,2,0:0:0:0:
256,192,266057,1,2,0:0:0:0:
256,192,266384,1,0,0:0:0:0:
256,192,266873,1,2,0:0:0:0:
256,192,267362,1,0,0:0:0:0:
256,192,267525,1,0,0:0:0:0:
256,192,267688,1,2,0:0:0:0:
256,192,268014,1,2,0:0:0:0:
256,192,268340,1,2,0:0:0:0:
256,192,268666,1,0,0:0:0:0:
256,192,268829,1,0,0:0:0:0:
256,192,268992,1,2,0:0:0:0:
256,192,269481,1,2,0:0:0:0:
256,192,269807,1,2,0:0:0:0:
256,192,269970,1,2,0:0:0:0:
256,192,270297,1,0,0:0:0:0:
256,192,270623,1,0,0:0:0:0:
256,192,270949,1,0,0:0:0:0:
256,192,271275,1,0,0:0:0:0:
256,192,271601,1,2,0:0:0:0:
256,192,272253,1,0,0:0:0:0:
256,192,272579,1,2,0:0:0:0:
256,192,272905,1,0,0:0:0:0:
256,192,273394,1,2,0:0:0:0:
256,192,273884,1,2,0:0:0:0:
256,192,274210,1,4,0:0:0:0:
256,192,274372,1,0,0:0:0:0:
256,192,274453,1,0,0:0:0:0:
256,192,274534,1,2,0:0:0:0:
256,192,274696,1,2,0:0:0:0:
256,192,274858,1,4,0:0:0:0:
256,192,275020,1,0,0:0:0:0:
256,192,275101,1,0,0:0:0:0:
256,192,275182,1,2,0:0:0:0:
256,192,275345,1,0,0:0:0:0:
256,192,275507,1,0,0:0:0:0:
256,192,275588,1,2,0:0:0:0:
256,192,275669,1,0,0:0:0:0:
256,192,275750,1,0,0:0:0:0:
256,192,275831,1,2,0:0:0:0:
256,192,275912,1,0,0:0:0:0:
256,192,275993,1,2,0:0:0:0:
256,192,276074,1,2,0:0:0:0:
256,192,276155,1,0,0:0:0:0:
256,192,276210,1,0,0:0:0:0:
256,192,276264,1,0,0:0:0:0:
256,192,276318,1,2,0:0:0:0:
256,192,276399,1,2,0:0:0:0:
256,192,276480,1,0,0:0:0:0:
256,192,276534,1,2,0:0:0:0:
256,192,276588,1,2,0:0:0:0:
256,192,276642,1,0,0:0:0:0:
256,192,276723,1,2,0:0:0:0:
256,192,276804,1,0,0:0:0:0:
256,192,277124,1,2,0:0:0:0:
256,192,277205,1,2,0:0:0:0:
256,192,277365,1,2,0:0:0:0:
256,192,277445,1,0,0:0:0:0:
256,192,277606,1,0,0:0:0:0:
256,192,277766,1,2,0:0:0:0:
256,192,277926,1,0,0:0:0:0:
256,192,278087,1,0,0:0:0:0:
256,192,278247,1,2,0:0:0:0:
256,192,278408,1,2,0:0:0:0:
256,192,278488,1,2,0:0:0:0:
256,192,278648,1,2,0:0:0:0:
256,192,278729,1,0,0:0:0:0:
256,192,278889,1,0,0:0:0:0:
256,192,279049,1,2,0:0:0:0:
256,192,279130,1,0,0:0:0:0:
256,192,279210,1,2,0:0:0:0:
256,192,279290,1,2,0:0:0:0:
256,192,279370,1,0,0:0:0:0:
256,192,279691,1,2,0:0:0:0:
256,192,279771,1,2,0:0:0:0:
256,192,279932,1,2,0:0:0:0:
256,192,280012,1,0,0:0:0:0:
256,192,280172,1,0,0:0:0:0:
256,192,280333,1,2,0:0:0:0:
256,192,280493,1,0,0:0:0:0:
256,192,280574,1,2,0:0:0:0:
256,192,280654,1,0,0:0:0:0:
256,192,280734,1,0,0:0:0:0:
256,192,280814,1,0,0:0:0:0:
256,192,280894,1,0,0:0:0:0:
256,192,280975,1,2,0:0:0:0:
256,192,281135,1,2,0:0:0:0:
256,192,281295,1,0,0:0:0:0:
256,192,281456,1,2,0:0:0:0:
256,192,281536,1,2,0:0:0:0:
256,192,281616,1,0,0:0:0:0:
256,192,281777,1,2,0:0:0:0:
256,192,281857,1,2,0:0:0:0:
256,192,281937,1,0,0:0:0:0:
256,192,282258,1,2,0:0:0:0:
256,192,282338,1,2,0:0:0:0:
256,192,282499,1,2,0:0:0:0:
256,192,282579,1,0,0:0:0:0:
256,192,282739,1,0,0:0:0:0:
256,192,282900,1,2,0:0:0:0:
256,192,283060,1,0,0:0:0:0:
256,192,283221,1,0,0:0:0:0:
256,192,283381,1,2,0:0:0:0:
256,192,283541,1,2,0:0:0:0:
256,192,283622,1,2,0:0:0:0:
256,192,283702,1,2,0:0:0:0:
256,192,283782,1,2,0:0:0:0:
256,192,283862,1,0,0:0:0:0:
256,192,284023,1,0,0:0:0:0:
256,192,284183,1,2,0:0:0:0:
256,192,284344,1,2,0:0:0:0:
256,192,284424,1,2,0:0:0:0:
256,192,284504,1,0,0:0:0:0:
256,192,284664,1,0,0:0:0:0:
256,192,284825,1,2,0:0:0:0:
256,192,284985,1,0,0:0:0:0:
256,192,285066,1,2,0:0:0:0:
256,192,285146,1,0,0:0:0:0:
256,192,285306,1,0,0:0:0:0:
256,192,285467,1,2,0:0:0:0:
256,192,285627,1,0,0:0:0:0:
256,192,285707,1,0,0:0:0:0:
256,192,285787,1,0,0:0:0:0:
256,192,285948,1,0,0:0:0:0:
256,192,286001,1,0,0:0:0:0:
256,192,286055,1,0,0:0:0:0:
256,192,286108,1,2,0:0:0:0:
256,192,286269,1,2,0:0:0:0:
256,192,286349,1,2,0:0:0:0:
256,192,286429,1,0,0:0:0:0:
256,192,286590,1,0,0:0:0:0:
256,192,286643,1,0,0:0:0:0:
256,192,286697,1,0,0:0:0:0:
256,192,286750,1,2,0:0:0:0:
256,192,286910,1,2,0:0:0:0:
256,192,287071,1,4,0:0:0:0:
256,192,287392,1,2,0:0:0:0:
256,192,287472,1,2,0:0:0:0:
256,192,287632,1,2,0:0:0:0:
256,192,287713,1,0,0:0:0:0:
256,192,287793,1,0,0:0:0:0:
256,192,287873,1,2,0:0:0:0:
256,192,288033,1,0,0:0:0:0:
256,192,288194,1,2,0:0:0:0:
256,192,288354,1,0,0:0:0:0:
256,192,288515,1,2,0:0:0:0:
256,192,288675,1,2,0:0:0:0:
256,192,288755,1,2,0:0:0:0:
256,192,288916,1,2,0:0:0:0:
256,192,288996,1,0,0:0:0:0:
256,192,289076,1,0,0:0:0:0:
256,192,289156,1,2,0:0:0:0:
256,192,289237,1,2,0:0:0:0:
256,192,289317,1,0,0:0:0:0:
256,192,289477,1,2,0:0:0:0:
256,192,289558,1,2,0:0:0:0:
256,192,289638,1,0,0:0:0:0:
256,192,289959,1,2,0:0:0:0:
256,192,290039,1,2,0:0:0:0:
256,192,290199,1,2,0:0:0:0:
256,192,290279,1,0,0:0:0:0:
256,192,290360,1,0,0:0:0:0:
256,192,290440,1,2,0:0:0:0:
256,192,290520,1,0,0:0:0:0:
256,192,290600,1,2,0:0:0:0:
256,192,290761,1,2,0:0:0:0:
256,192,290841,1,2,0:0:0:0:
256,192,290921,1,0,0:0:0:0:
256,192,291001,1,0,0:0:0:0:
256,192,291082,1,0,0:0:0:0:
256,192,291162,1,0,0:0:0:0:
256,192,291242,1,2,0:0:0:0:
256,192,291402,1,2,0:0:0:0:
256,192,291563,1,0,0:0:0:0:
256,192,291643,1,0,0:0:0:0:
256,192,291723,1,2,0:0:0:0:
256,192,291804,1,0,0:0:0:0:
256,192,291884,1,0,0:0:0:0:
256,192,291964,1,2,0:0:0:0:
256,192,292044,1,2,0:0:0:0:
256,192,292124,1,2,0:0:0:0:
256,192,292205,1,0,0:0:0:0:
256,192,292525,1,2,0:0:0:0:
256,192,292606,1,2,0:0:0:0:
256,192,292766,1,2,0:0:0:0:
256,192,292846,1,0,0:0:0:0:
256,192,292926,1,0,0:0:0:0:
256,192,293007,1,2,0:0:0:0:
256,192,293167,1,0,0:0:0:0:
256,192,293328,1,2,0:0:0:0:
256,192,293408,1,2,0:0:0:0:
256,192,293488,1,0,0:0:0:0:
256,192,293568,1,0,0:0:0:0:
256,192,293648,1,2,0:0:0:0:
256,192,293809,1,2,0:0:0:0:
256,192,293889,1,2,0:0:0:0:
256,192,293969,1,2,0:0:0:0:
256,192,294049,1,2,0:0:0:0:
256,192,294130,1,0,0:0:0:0:
256,192,294290,1,0,0:0:0:0:
256,192,294451,1,2,0:0:0:0:
256,192,294611,1,0,0:0:0:0:
256,192,294691,1,2,0:0:0:0:
256,192,294771,1,0,0:0:0:0:
256,192,294852,1,0,0:0:0:0:
256,192,295012,1,0,0:0:0:0:
256,192,295092,1,2,0:0:0:0:
256,192,295253,1,2,0:0:0:0:
256,192,295333,1,2,0:0:0:0:
256,192,295413,1,0,0:0:0:0:
256,192,295493,1,2,0:0:0:0:
256,192,295574,1,0,0:0:0:0:
256,192,295734,1,2,0:0:0:0:
256,192,295894,1,0,0:0:0:0:
256,192,295975,1,0,0:0:0:0:
256,192,296055,1,0,0:0:0:0:
256,192,296215,1,2,0:0:0:0:
256,192,296295,1,2,0:0:0:0:
256,192,296376,1,0,0:0:0:0:
256,192,296456,1,0,0:0:0:0:
256,192,296536,1,2,0:0:0:0:
256,192,296616,1,0,0:0:0:0:
256,192,296697,1,2,0:0:0:0:
256,192,296777,1,2,0:0:0:0:
256,192,296857,1,0,0:0:0:0:
256,192,296937,1,0,0:0:0:0:
256,192,297017,1,2,0:0:0:0:
256,192,297178,1,2,0:0:0:0:
256,192,297338,1,4,0:0:0:0:
256,192,297820,1,2,0:0:0:0:
256,192,297900,1,2,0:0:0:0:
256,192,297980,1,0,0:0:0:0:
256,192,298461,1,0,0:0:0:0:
256,192,298541,1,2,0:0:0:0:
256,192,298622,1,0,0:0:0:0:
256,192,298702,1,0,0:0:0:0:
256,192,298782,1,2,0:0:0:0:
256,192,298862,1,0,0:0:0:0:
256,192,298943,1,2,0:0:0:0:
256,192,299023,1,2,0:0:0:0:
256,192,299103,1,0,0:0:0:0:
256,192,299183,1,2,0:0:0:0:
256,192,299263,1,0,0:0:0:0:
256,192,299344,1,2,0:0:0:0:
256,192,299424,1,0,0:0:0:0:
256,192,299504,1,0,0:0:0:0:
256,192,299584,1,2,0:0:0:0:
256,192,299638,1,2,0:0:0:0:
256,192,299691,1,2,0:0:0:0:
256,192,299745,1,0,0:0:0:0:
256,192,299825,1,2,0:0:0:0:
256,192,299905,1,0,0:0:0:0:
256,192,300066,1,2,0:0:0:0:
256,192,300146,1,2,0:0:0:0:
256,192,300226,1,0,0:0:0:0:
256,192,300386,1,0,0:0:0:0:
256,192,300467,1,0,0:0:0:0:
256,192,300547,1,2,0:0:0:0:
256,192,300868,1,0,0:0:0:0:
256,192,301028,1,2,0:0:0:0:
256,192,301189,1,0,0:0:0:0:
256,192,301349,1,2,0:0:0:0:
256,192,301509,1,2,0:0:0:0:
256,192,301670,1,0,0:0:0:0:
256,192,301750,1,2,0:0:0:0:
256,192,301830,1,0,0:0:0:0:
256,192,302151,1,2,0:0:0:0:
256,192,302312,1,2,0:0:0:0:
256,192,302472,1,0,0:0:0:0:
256,192,302632,1,2,0:0:0:0:
256,192,302713,1,2,0:0:0:0:
256,192,302793,1,0,0:0:0:0:
256,192,302953,1,0,0:0:0:0:
256,192,303033,1,0,0:0:0:0:
256,192,303114,1,2,0:0:0:0:
256,192,303274,1,0,0:0:0:0:
256,192,303354,1,2,0:0:0:0:
256,192,303435,1,0,0:0:0:0:
256,192,303595,1,2,0:0:0:0:
256,192,303675,1,2,0:0:0:0:
256,192,303755,1,2,0:0:0:0:
256,192,304076,1,0,0:0:0:0:
256,192,304237,1,2,0:0:0:0:
256,192,304397,1,0,0:0:0:0:
256,192,304477,1,0,0:0:0:0:
256,192,304558,1,2,0:0:0:0:
256,192,304638,1,2,0:0:0:0:
256,192,304718,1,0,0:0:0:0:
256,192,304878,1,2,0:0:0:0:
256,192,305039,1,0,0:0:0:0:
256,192,305360,1,2,0:0:0:0:
256,192,305520,1,2,0:0:0:0:
256,192,305681,1,0,0:0:0:0:
256,192,305841,1,0,0:0:0:0:
256,192,306001,1,2,0:0:0:0:
256,192,306162,1,0,0:0:0:0:
256,192,306242,1,2,0:0:0:0:
256,192,306322,1,0,0:0:0:0:
256,192,306483,1,2,0:0:0:0:
256,192,306643,1,2,0:0:0:0:
256,192,306804,1,0,0:0:0:0:
256,192,306884,1,2,0:0:0:0:
256,192,306964,1,0,0:0:0:0:
256,192,307285,1,2,0:0:0:0:
256,192,307445,1,2,0:0:0:0:
256,192,307525,1,2,0:0:0:0:
256,192,307606,1,0,0:0:0:0:
256,192,307846,1,0,0:0:0:0:
256,192,307926,1,2,0:0:0:0:
256,192,308087,1,2,0:0:0:0:
256,192,308167,1,2,0:0:0:0:
256,192,308247,1,0,0:0:0:0:
256,192,308408,1,0,0:0:0:0:
256,192,308568,1,2,0:0:0:0:
256,192,308729,1,0,0:0:0:0:
256,192,309049,1,0,0:0:0:0:
256,192,309210,1,2,0:0:0:0:
256,192,309290,1,2,0:0:0:0:
256,192,309370,1,0,0:0:0:0:
256,192,309451,1,2,0:0:0:0:
256,192,309691,1,0,0:0:0:0:
256,192,309852,1,0,0:0:0:0:
256,192,310012,1,2,0:0:0:0:
256,192,310172,1,4,0:0:0:0:
256,192,310654,1,0,0:0:0:0:
256,192,310734,1,0,0:0:0:0:
256,192,310814,1,2,0:0:0:0:
256,192,311135,1,0,0:0:0:0:
256,192,311295,1,2,0:0:0:0:
256,192,311456,1,0,0:0:0:0:
256,192,311616,1,0,0:0:0:0:
256,192,311937,1,0,0:0:0:0:
256,192,312098,1,2,0:0:0:0:
256,192,312258,1,0,0:0:0:0:
256,192,312739,1,0,0:0:0:0:
256,192,313221,1,0,0:0:0:0:
256,192,313301,1,0,0:0:0:0:
256,192,313381,1,2,0:0:0:0:
256,192,313541,1,0,0:0:0:0:
256,192,313702,1,2,0:0:0:0:
256,192,314023,1,0,0:0:0:0:
256,192,314504,1,0,0:0:0:0:
256,192,314664,1,2,0:0:0:0:
256,192,314825,1,0,0:0:0:0:
256,192,314905,1,0,0:0:0:0:
256,192,314985,1,2,0:0:0:0:
256,192,315146,1,4,0:0:0:0:
256,192,315467,1,0,0:0:0:0:
256,192,315627,1,2,0:0:0:0:
256,192,315868,1,2,0:0:0:0:
256,192,315948,1,0,0:0:0:0:
256,192,316108,1,0,0:0:0:0:
256,192,316269,1,2,0:0:0:0:
256,192,316429,1,0,0:0:0:0:
256,192,316750,1,0,0:0:0:0:
256,192,316910,1,2,0:0:0:0:
256,192,317071,1,0,0:0:0:0:
256,192,317151,1,0,0:0:0:0:
256,192,317231,1,2,0:0:0:0:
256,192,317392,1,0,0:0:0:0:
256,192,317472,1,2,0:0:0:0:
256,192,317552,1,0,0:0:0:0:
256,192,318033,1,2,0:0:0:0:
256,192,318194,1,2,0:0:0:0:
256,192,318274,1,2,0:0:0:0:
256,192,318354,1,0,0:0:0:0:
256,192,318435,1,0,0:0:0:0:
256,192,318515,1,2,0:0:0:0:
256,192,318675,1,0,0:0:0:0:
256,192,318836,1,2,0:0:0:0:
256,192,318996,1,0,0:0:0:0:
256,192,319036,1,2,0:0:0:0:
256,192,319076,1,2,0:0:0:0:
256,192,319317,1,2,0:0:0:0:
256,192,319477,1,0,0:0:0:0:
256,192,319638,1,2,0:0:0:0:
256,192,319691,1,2,0:0:0:0:
256,192,319745,1,2,0:0:0:0:
256,192,319798,1,0,0:0:0:0:
256,192,319959,1,0,0:0:0:0:
256,192,320039,1,0,0:0:0:0:
256,192,320119,1,2,0:0:0:0:
256,192,320199,1,0,0:0:0:0:
256,192,320279,1,2,0:0:0:0:
256,192,320360,1,2,0:0:0:0:
256,192,320440,1,0,0:0:0:0:
256,192,320761,1,2,0:0:0:0:
256,192,320921,1,2,0:0:0:0:
256,192,321082,1,0,0:0:0:0:
256,192,321162,1,2,0:0:0:0:
256,192,321322,1,2,0:0:0:0:
256,192,321402,1,0,0:0:0:0:
256,192,321563,1,2,0:0:0:0:
256,192,321723,1,0,0:0:0:0:
256,192,321804,1,0,0:0:0:0:
256,192,321884,1,2,0:0:0:0:
256,192,321964,1,0,0:0:0:0:
256,192,322044,1,2,0:0:0:0:
256,192,322205,1,2,0:0:0:0:
256,192,322285,1,2,0:0:0:0:
256,192,322365,1,0,0:0:0:0:
256,192,322445,1,2,0:0:0:0:
256,192,322606,1,2,0:0:0:0:
256,192,322686,1,0,0:0:0:0:
256,192,322846,1,2,0:0:0:0:
256,192,322926,1,2,0:0:0:0:
256,192,323007,1,0,0:0:0:0:
256,192,323167,1,0,0:0:0:0:
256,192,323328,1,2,0:0:0:0:
256,192,323488,1,0,0:0:0:0:
256,192,323568,1,2,0:0:0:0:
256,192,323648,1,0,0:0:0:0:
256,192,323809,1,2,0:0:0:0:
256,192,323969,1,2,0:0:0:0:
256,192,324049,1,2,0:0:0:0:
256,192,324130,1,2,0:0:0:0:
256,192,324210,1,2,0:0:0:0:
256,192,324290,1,0,0:0:0:0:
256,192,324451,1,0,0:0:0:0:
256,192,324504,1,2,0:0:0:0:
256,192,324558,1,2,0:0:0:0:
256,192,324611,1,0,0:0:0:0:
256,192,324771,1,2,0:0:0:0:
256,192,324932,1,0,0:0:0:0:
256,192,325012,1,2,0:0:0:0:
256,192,325092,1,0,0:0:0:0:
256,192,325253,1,2,0:0:0:0:
256,192,325333,1,2,0:0:0:0:
256,192,325413,1,0,0:0:0:0:
256,192,325493,1,2,0:0:0:0:
256,192,325574,1,0,0:0:0:0:
256,192,325894,1,2,0:0:0:0:
256,192,326055,1,2,0:0:0:0:
256,192,326215,1,0,0:0:0:0:
256,192,326295,1,2,0:0:0:0:
256,192,326456,1,2,0:0:0:0:
256,192,326536,1,0,0:0:0:0:
256,192,326697,1,2,0:0:0:0:
256,192,326857,1,0,0:0:0:0:
256,192,326937,1,0,0:0:0:0:
256,192,327017,1,2,0:0:0:0:
256,192,327098,1,0,0:0:0:0:
256,192,327178,1,2,0:0:0:0:
256,192,327338,1,2,0:0:0:0:
256,192,327418,1,2,0:0:0:0:
256,192,327499,1,0,0:0:0:0:
256,192,327659,1,0,0:0:0:0:
256,192,327820,1,2,0:0:0:0:
256,192,327980,1,0,0:0:0:0:
256,192,328060,1,0,0:0:0:0:
256,192,328140,1,0,0:0:0:0:
256,192,328301,1,2,0:0:0:0:
256,192,328461,1,2,0:0:0:0:
256,192,328622,1,0,0:0:0:0:
256,192,328702,1,0,0:0:0:0:
256,192,328782,1,0,0:0:0:0:
256,192,328943,1,2,0:0:0:0:
256,192,329103,1,2,0:0:0:0:
256,192,329263,1,0,0:0:0:0:
256,192,329344,1,2,0:0:0:0:
256,192,329424,1,0,0:0:0:0:
256,192,329584,1,0,0:0:0:0:
256,192,329745,1,2,0:0:0:0:
256,192,329825,1,2,0:0:0:0:
256,192,329905,1,0,0:0:0:0:
256,192,329985,1,2,0:0:0:0:
256,192,330066,1,0,0:0:0:0:
256,192,330226,1,2,0:0:0:0:
256,192,330306,1,2,0:0:0:0:
256,192,330386,1,0,0:0:0:0:
256,192,330467,1,2,0:0:0:0:
256,192,330627,1,0,0:0:0:0:
256,192,330707,1,0,0:0:0:0:
256,192,330948,1,0,0:0:0:0:
256,192,331189,1,0,0:0:0:0:
256,192,331269,1,2,0:0:0:0:
256,192,331349,1,2,0:0:0:0:
256,192,331429,1,2,0:0:0:0:
256,192,331509,1,0,0:0:0:0:
256,192,331670,1,0,0:0:0:0:
256,192,331991,1,4,0:0:0:0:
256,192,332151,1,4,0:0:0:0:
256,192,332312,1,4,0:0:0:0:
256,192,333274,1,0,0:0:0:0:
256,192,333435,1,0,0:0:0:0:
256,192,333595,1,2,0:0:0:0:
256,192,333836,1,2,0:0:0:0:
256,192,333916,1,0,0:0:0:0:
256,192,334076,1,0,0:0:0:0:
256,192,334237,1,2,0:0:0:0:
256,192,334397,1,0,0:0:0:0:
256,192,334718,1,0,0:0:0:0:
256,192,334878,1,2,0:0:0:0:
256,192,335039,1,0,0:0:0:0:
256,192,335119,1,0,0:0:0:0:
256,192,335199,1,2,0:0:0:0:
256,192,335360,1,0,0:0:0:0:
256,192,335520,1,2,0:0:0:0:
256,192,335681,1,2,0:0:0:0:
256,192,335841,1,0,0:0:0:0:
256,192,336082,1,0,0:0:0:0:
256,192,336162,1,2,0:0:0:0:
256,192,336322,1,2,0:0:0:0:
256,192,336402,1,2,0:0:0:0:
256,192,336483,1,0,0:0:0:0:
256,192,336643,1,0,0:0:0:0:
256,192,336804,1,2,0:0:0:0:
256,192,336964,1,0,0:0:0:0:
256,192,337044,1,2,0:0:0:0:
256,192,337205,1,2,0:0:0:0:
256,192,337285,1,0,0:0:0:0:
256,192,337445,1,2,0:0:0:0:
256,192,337606,1,2,0:0:0:0:
256,192,337686,1,2,0:0:0:0:
256,192,337766,1,0,0:0:0:0:
256,192,337846,1,0,0:0:0:0:
256,192,337926,1,2,0:0:0:0:
256,192,338007,1,0,0:0:0:0:
256,192,338087,1,2,0:0:0:0:
256,192,338408,1,0,0:0:0:0:
256,192,338568,1,0,0:0:0:0:
256,192,338729,1,2,0:0:0:0:
256,192,338969,1,2,0:0:0:0:
256,192,339049,1,0,0:0:0:0:
256,192,339210,1,0,0:0:0:0:
256,192,339370,1,2,0:0:0:0:
256,192,339531,1,0,0:0:0:0:
256,192,339852,1,0,0:0:0:0:
256,192,340012,1,2,0:0:0:0:
256,192,340172,1,0,0:0:0:0:
256,192,340253,1,0,0:0:0:0:
256,192,340333,1,2,0:0:0:0:
256,192,340493,1,0,0:0:0:0:
256,192,340654,1,2,0:0:0:0:
256,192,340814,1,2,0:0:0:0:
256,192,340975,1,0,0:0:0:0:
256,192,341215,1,0,0:0:0:0:
256,192,341295,1,2,0:0:0:0:
256,192,341456,1,2,0:0:0:0:
256,192,341536,1,2,0:0:0:0:
256,192,341616,1,0,0:0:0:0:
256,192,341777,1,0,0:0:0:0:
256,192,341937,1,2,0:0:0:0:
256,192,342098,1,0,0:0:0:0:
256,192,342178,1,0,0:0:0:0:
256,192,342258,1,2,0:0:0:0:
256,192,342338,1,0,0:0:0:0:
256,192,342418,1,0,0:0:0:0:
256,192,342499,1,0,0:0:0:0:
256,192,342579,1,2,0:0:0:0:
256,192,342739,1,2,0:0:0:0:
256,192,342820,1,2,0:0:0:0:
256,192,342900,1,0,0:0:0:0:
256,192,342980,1,0,0:0:0:0:
256,192,343060,1,2,0:0:0:0:
256,192,343140,1,0,0:0:0:0:
256,192,343221,1,2,0:0:0:0:
256,192,343541,1,4,0:0:0:0:
256,192,343782,1,0,0:0:0:0:
256,192,343862,1,2,0:0:0:0:
256,192,343943,1,2,0:0:0:0:
256,192,344023,1,0,0:0:0:0:
256,192,344183,1,2,0:0:0:0:
256,192,344344,1,0,0:0:0:0:
256,192,344424,1,0,0:0:0:0:
256,192,344504,1,2,0:0:0:0:
256,192,344584,1,0,0:0:0:0:
256,192,344664,1,2,0:0:0:0:
256,192,344745,1,2,0:0:0:0:
256,192,344825,1,0,0:0:0:0:
256,192,344985,1,2,0:0:0:0:
256,192,345066,1,0,0:0:0:0:
256,192,345146,1,0,0:0:0:0:
256,192,345226,1,0,0:0:0:0:
256,192,345306,1,2,0:0:0:0:
256,192,345386,1,2,0:0:0:0:
256,192,345467,1,0,0:0:0:0:
256,192,345627,1,0,0:0:0:0:
256,192,345787,1,2,0:0:0:0:
256,192,345948,1,0,0:0:0:0:
256,192,346028,1,2,0:0:0:0:
256,192,346189,1,2,0:0:0:0:
256,192,346269,1,0,0:0:0:0:
256,192,346429,1,2,0:0:0:0:
256,192,346590,1,0,0:0:0:0:
256,192,346670,1,2,0:0:0:0:
256,192,346830,1,2,0:0:0:0:
256,192,346910,1,0,0:0:0:0:
256,192,347071,1,2,0:0:0:0:
256,192,347231,1,0,0:0:0:0:
256,192,347312,1,2,0:0:0:0:
256,192,347472,1,2,0:0:0:0:
256,192,347552,1,0,0:0:0:0:
256,192,347632,1,0,0:0:0:0:
256,192,347713,1,2,0:0:0:0:
256,192,347873,1,2,0:0:0:0:
256,192,348033,1,0,0:0:0:0:
256,192,348194,1,2,0:0:0:0:
256,192,348274,1,2,0:0:0:0:
256,192,348354,1,0,0:0:0:0:
256,192,348435,1,2,0:0:0:0:
256,192,348515,1,2,0:0:0:0:
256,192,348595,1,2,0:0:0:0:
256,192,348675,1,0,0:0:0:0:
256,192,348996,1,0,0:0:0:0:
256,192,349156,1,2,0:0:0:0:
256,192,349317,1,0,0:0:0:0:
256,192,349370,1,2,0:0:0:0:
256,192,349424,1,2,0:0:0:0:
256,192,349477,1,0,0:0:0:0:
256,192,349638,1,2,0:0:0:0:
256,192,349798,1,0,0:0:0:0:
256,192,350119,1,0,0:0:0:0:
256,192,350279,1,2,0:0:0:0:
256,192,350333,1,2,0:0:0:0:
256,192,350386,1,2,0:0:0:0:
256,192,350440,1,0,0:0:0:0:
256,192,350520,1,0,0:0:0:0:
256,192,350600,1,2,0:0:0:0:
256,192,350654,1,2,0:0:0:0:
256,192,350707,1,2,0:0:0:0:
256,192,350761,1,0,0:0:0:0:
256,192,350841,1,0,0:0:0:0:
256,192,350921,1,2,0:0:0:0:
256,192,351082,1,2,0:0:0:0:
256,192,351242,1,0,0:0:0:0:
256,192,351402,1,2,0:0:0:0:
256,192,351483,1,0,0:0:0:0:
256,192,351563,1,2,0:0:0:0:
256,192,351723,1,0,0:0:0:0:
256,192,351884,1,2,0:0:0:0:
256,192,351964,1,0,0:0:0:0:
256,192,352044,1,2,0:0:0:0:
256,192,352205,1,0,0:0:0:0:
256,192,352365,1,2,0:0:0:0:
256,192,352445,1,0,0:0:0:0:
256,192,352525,1,2,0:0:0:0:
256,192,352686,1,0,0:0:0:0:
256,192,352846,1,2,0:0:0:0:
256,192,353167,1,4,0:0:0:0:
256,192,353488,1,4,0:0:0:0:
256,192,353809,1,0,0:0:0:0:
256,192,353969,1,2,0:0:0:0:
256,192,354049,1,2,0:0:0:0:
256,192,354130,1,2,0:0:0:0:
256,192,354290,1,2,0:0:0:0:
256,192,354370,1,2,0:0:0:0:
256,192,354451,1,2,0:0:0:0:
256,192,354611,1,2,0:0:0:0:
256,192,354691,1,2,0:0:0:0:
256,192,354771,1,2,0:0:0:0:
256,192,354932,1,2,0:0:0:0:
256,192,355012,1,2,0:0:0:0:
256,192,355092,1,0,0:0:0:0:
256,192,355253,1,2,0:0:0:0:
256,192,355413,1,2,0:0:0:0:
256,192,355574,1,0,0:0:0:0:
256,192,355654,1,2,0:0:0:0:
256,192,355734,1,0,0:0:0:0:
256,192,356055,1,2,0:0:0:0:
256,192,356215,1,2,0:0:0:0:
256,192,356295,1,2,0:0:0:0:
256,192,356376,1,0,0:0:0:0:
256,192,356536,1,2,0:0:0:0:
256,192,356616,1,2,0:0:0:0:
256,192,356697,1,2,0:0:0:0:
256,192,356857,1,2,0:0:0:0:
256,192,356937,1,2,0:0:0:0:
256,192,357017,1,2,0:0:0:0:
256,192,357178,1,2,0:0:0:0:
256,192,357258,1,2,0:0:0:0:
256,192,357338,1,0,0:0:0:0:
256,192,357418,1,0,0:0:0:0:
256,192,357499,1,2,0:0:0:0:
256,192,357579,1,0,0:0:0:0:
256,192,357659,1,2,0:0:0:0:
256,192,357980,1,2,0:0:0:0:
256,192,358301,1,0,0:0:0:0:
256,192,358461,1,2,0:0:0:0:
256,192,358622,1,0,0:0:0:0:
256,192,358782,1,2,0:0:0:0:
256,192,358862,1,2,0:0:0:0:
256,192,358943,1,0,0:0:0:0:
256,192,359263,1,2,0:0:0:0:
256,192,359344,1,0,0:0:0:0:
256,192,359424,1,2,0:0:0:0:
256,192,359504,1,0,0:0:0:0:
256,192,359584,1,2,0:0:0:0:
256,192,359745,1,0,0:0:0:0:
256,192,359905,1,2,0:0:0:0:
256,192,360066,1,2,0:0:0:0:
256,192,360146,1,2,0:0:0:0:
256,192,360226,1,0,0:0:0:0:
256,192,360386,1,2,0:0:0:0:
256,192,360547,1,0,0:0:0:0:
256,192,360627,1,2,0:0:0:0:
256,192,360707,1,0,0:0:0:0:
256,192,360787,1,2,0:0:0:0:
256,192,360868,1,0,0:0:0:0:
256,192,361028,1,0,0:0:0:0:
256,192,361189,1,2,0:0:0:0:
256,192,361349,1,2,0:0:0:0:
256,192,361429,1,2,0:0:0:0:
256,192,361509,1,0,0:0:0:0:
256,192,361830,1,2,0:0:0:0:
256,192,362151,1,0,0:0:0:0:
256,192,362231,1,0,0:0:0:0:
256,192,362312,1,2,0:0:0:0:
256,192,362392,1,0,0:0:0:0:
256,192,362472,1,2,0:0:0:0:
256,192,362552,1,2,0:0:0:0:
256,192,362632,1,2,0:0:0:0:
256,192,362713,1,2,0:0:0:0:
256,192,362793,1,0,0:0:0:0:
256,192,362953,1,2,0:0:0:0:
256,192,363114,1,2,0:0:0:0:
256,192,363274,1,0,0:0:0:0:
256,192,363435,1,2,0:0:0:0:
256,192,363541,1,0,0:0:0:0:
256,192,363648,1,0,0:0:0:0:
256,192,363755,1,2,0:0:0:0:
256,192,363862,1,2,0:0:0:0:
256,192,363969,1,2,0:0:0:0:
256,192,364076,1,0,0:0:0:0:
256,192,364317,1,0,0:0:0:0:
256,192,364397,1,2,0:0:0:0:
256,192,364558,1,0,0:0:0:0:
256,192,364638,1,0,0:0:0:0:
256,192,364718,1,2,0:0:0:0:
256,192,364798,1,0,0:0:0:0:
256,192,364959,1,0,0:0:0:0:
256,192,365039,1,2,0:0:0:0:
256,192,365199,1,2,0:0:0:0:
256,192,365279,1,2,0:0:0:0:
256,192,365360,1,0,0:0:0:0:
256,192,365520,1,2,0:0:0:0:
256,192,365681,1,2,0:0:0:0:
256,192,365841,1,0,0:0:0:0:
256,192,365921,1,2,0:0:0:0:
256,192,366001,1,0,0:0:0:0:
256,192,366082,1,0,0:0:0:0:
256,192,366162,1,0,0:0:0:0:
256,192,366322,1,2,0:0:0:0:
256,192,366483,1,0,0:0:0:0:
256,192,366563,1,2,0:0:0:0:
256,192,366643,1,0,0:0:0:0:
256,192,366884,1,0,0:0:0:0:
256,192,366964,1,2,0:0:0:0:
256,192,367124,1,0,0:0:0:0:
256,192,367205,1,0,0:0:0:0:
256,192,367285,1,2,0:0:0:0:
256,192,367365,1,0,0:0:0:0:
256,192,367525,1,0,0:0:0:0:
256,192,367606,1,2,0:0:0:0:
256,192,367766,1,2,0:0:0:0:
256,192,367846,1,2,0:0:0:0:
256,192,367926,1,0,0:0:0:0:
256,192,368007,1,2,0:0:0:0:
256,192,368087,1,0,0:0:0:0:
256,192,368167,1,0,0:0:0:0:
256,192,368247,1,2,0:0:0:0:
256,192,368328,1,0,0:0:0:0:
256,192,368408,1,2,0:0:0:0:
256,192,368488,1,2,0:0:0:0:
256,192,368568,1,0,0:0:0:0:
256,192,368622,1,0,0:0:0:0:
256,192,368675,1,0,0:0:0:0:
256,192,368729,1,2,0:0:0:0:
256,192,368809,1,2,0:0:0:0:
256,192,368889,1,0,0:0:0:0:
256,192,368943,1,2,0:0:0:0:
256,192,368996,1,2,0:0:0:0:
256,192,369049,1,0,0:0:0:0:
256,192,369130,1,2,0:0:0:0:
256,192,369210,1,0,0:0:0:0:
256,192,369451,1,0,0:0:0:0:
256,192,369531,1,2,0:0:0:0:
256,192,369691,1,2,0:0:0:0:
256,192,369852,1,0,0:0:0:0:
256,192,369932,1,0,0:0:0:0:
256,192,370092,1,0,0:0:0:0:
256,192,370172,1,2,0:0:0:0:
256,192,370333,1,2,0:0:0:0:
256,192,370413,1,2,0:0:0:0:
256,192,370493,1,0,0:0:0:0:
256,192,370574,1,0,0:0:0:0:
256,192,370654,1,2,0:0:0:0:
256,192,370734,1,0,0:0:0:0:
256,192,370814,1,2,0:0:0:0:
256,192,370975,1,2,0:0:0:0:
256,192,371055,1,2,0:0:0:0:
256,192,371135,1,0,0:0:0:0:
256,192,371215,1,0,0:0:0:0:
256,192,371376,1,0,0:0:0:0:
256,192,371456,1,2,0:0:0:0:
256,192,371616,1,0,0:0:0:0:
256,192,371697,1,2,0:0:0:0:
256,192,371777,1,0,0:0:0:0:
256,192,372017,1,0,0:0:0:0:
256,192,372098,1,2,0:0:0:0:
256,192,372258,1,2,0:0:0:0:
256,192,372418,1,0,0:0:0:0:
256,192,372579,1,2,0:0:0:0:
256,192,372659,1,2,0:0:0:0:
256,192,372739,1,0,0:0:0:0:
256,192,372820,1,2,0:0:0:0:
256,192,372900,1,0,0:0:0:0:
256,192,372980,1,0,0:0:0:0:
256,192,373060,1,2,0:0:0:0:
256,192,373114,1,2,0:0:0:0:
256,192,373167,1,2,0:0:0:0:
256,192,373221,1,0,0:0:0:0:
256,192,373301,1,0,0:0:0:0:
256,192,373381,1,2,0:0:0:0:
256,192,373541,1,2,0:0:0:0:
256,192,373622,1,2,0:0:0:0:
256,192,373702,1,0,0:0:0:0:
256,192,373782,1,2,0:0:0:0:
256,192,373862,1,2,0:0:0:0:
256,192,373943,1,0,0:0:0:0:
256,192,374023,1,2,0:0:0:0:
256,192,374103,1,2,0:0:0:0:
256,192,374183,1,0,0:0:0:0:
256,192,374263,1,2,0:0:0:0:
256,192,374344,1,0,0:0:0:0:
256,192,374584,1,0,0:0:0:0:
256,192,374664,1,2,0:0:0:0:
256,192,374825,1,2,0:0:0:0:
256,192,374905,1,2,0:0:0:0:
256,192,374985,1,0,0:0:0:0:
256,192,375066,1,2,0:0:0:0:
256,192,375226,1,0,0:0:0:0:
256,192,375306,1,2,0:0:0:0:
256,192,375386,1,2,0:0:0:0:
256,192,375467,1,0,0:0:0:0:
256,192,375547,1,2,0:0:0:0:
256,192,375627,1,0,0:0:0:0:
256,192,376108,1,2,0:0:0:0:
256,192,376189,1,0,0:0:0:0:
256,192,376269,1,2,0:0:0:0:
256,192,376349,1,2,0:0:0:0:
256,192,376429,1,0,0:0:0:0:
256,192,376509,1,0,0:0:0:0:
256,192,376590,1,2,0:0:0:0:
256,192,376750,1,2,0:0:0:0:
256,192,376830,1,2,0:0:0:0:
256,192,376910,1,0,0:0:0:0:
256,192,377231,1,2,0:0:0:0:
256,192,377392,1,0,0:0:0:0:
256,192,377472,1,0,0:0:0:0:
256,192,377552,1,0,0:0:0:0:
256,192,377713,1,0,0:0:0:0:
256,192,377873,1,2,0:0:0:0:
256,192,378033,1,2,0:0:0:0:
256,192,378114,1,2,0:0:0:0:
256,192,378194,1,0,0:0:0:0:
256,192,378354,1,2,0:0:0:0:
256,192,378515,1,2,0:0:0:0:
256,192,378675,1,0,0:0:0:0:
256,192,378755,1,2,0:0:0:0:
256,192,378836,1,0,0:0:0:0:
256,192,378916,1,0,0:0:0:0:
256,192,378996,1,0,0:0:0:0:
256,192,379156,1,2,0:0:0:0:
256,192,379317,1,2,0:0:0:0:
256,192,379397,1,2,0:0:0:0:
256,192,379477,1,0,0:0:0:0:
256,192,379638,1,0,0:0:0:0:
256,192,379798,1,2,0:0:0:0:
256,192,379959,1,0,0:0:0:0:
256,192,380039,1,0,0:0:0:0:
256,192,380119,1,2,0:0:0:0:
256,192,380279,1,0,0:0:0:0:
256,192,380440,1,2,0:0:0:0:
256,192,380520,1,0,0:0:0:0:
256,192,380600,1,2,0:0:0:0:
256,192,380681,1,2,0:0:0:0:
256,192,380761,1,0,0:0:0:0:
256,192,380921,1,0,0:0:0:0:
256,192,381082,1,2,0:0:0:0:
256,192,381242,1,0,0:0:0:0:
256,192,381322,1,2,0:0:0:0:
256,192,381402,1,0,0:0:0:0:
256,192,381563,1,2,0:0:0:0:
256,192,381643,1,2,0:0:0:0:
256,192,381723,1,0,0:0:0:0:
256,192,381804,1,2,0:0:0:0:
256,192,381884,1,2,0:0:0:0:
256,192,381964,1,2,0:0:0:0:
256,192,382044,1,0,0:0:0:0:
256,192,382365,1,2,0:0:0:0:
256,192,382525,1,0,0:0:0:0:
256,192,382606,1,0,0:0:0:0:
256,192,382686,1,0,0:0:0:0:
256,192,382846,1,0,0:0:0:0:
256,192,383007,1,2,0:0:0:0:
256,192,383167,1,2,0:0:0:0:
256,192,383247,1,2,0:0:0:0:
256,192,383328,1,0,0:0:0:0:
256,192,383488,1,2,0:0:0:0:
256,192,383648,1,2,0:0:0:0:
256,192,383809,1,0,0:0:0:0:
256,192,383889,1,2,0:0:0:0:
256,192,383969,1,0,0:0:0:0:
256,192,384049,1,0,0:0:0:0:
256,192,384130,1,0,0:0:0:0:
256,192,384290,1,2,0:0:0:0:
256,192,384451,1,2,0:0:0:0:
256,192,384531,1,2,0:0:0:0:
256,192,384611,1,0,0:0:0:0:
256,192,384691,1,0,0:0:0:0:
256,192,384771,1,2,0:0:0:0:
256,192,384932,1,2,0:0:0:0:
256,192,385012,1,2,0:0:0:0:
256,192,385092,1,0,0:0:0:0:
256,192,385172,1,2,0:0:0:0:
256,192,385253,1,0,0:0:0:0:
256,192,385333,1,0,0:0:0:0:
256,192,385413,1,2,0:0:0:0:
256,192,385493,1,0,0:0:0:0:
256,192,385574,1,2,0:0:0:0:
256,192,385734,1,0,0:0:0:0:
256,192,385814,1,0,0:0:0:0:
256,192,385894,1,0,0:0:0:0:
256,192,386055,1,0,0:0:0:0:
256,192,386215,1,2,0:0:0:0:
256,192,386376,1,0,0:0:0:0:
256,192,386536,1,2,0:0:0:0:
256,192,386697,1,0,0:0:0:0:
256,192,386777,1,0,0:0:0:0:
256,192,386857,1,2,0:0:0:0:
256,192,386937,1,2,0:0:0:0:
256,192,387017,1,0,0:0:0:0:
256,192,387098,1,2,0:0:0:0:
256,192,387178,1,0,0:0:0:0:
256,192,387499,1,2,0:0:0:0:
256,192,387659,1,0,0:0:0:0:
256,192,387739,1,2,0:0:0:0:
256,192,387820,1,0,0:0:0:0:
256,192,387980,1,0,0:0:0:0:
256,192,388140,1,0,0:0:0:0:
256,192,388194,1,2,0:0:0:0:
256,192,388247,1,2,0:0:0:0:
256,192,388301,1,0,0:0:0:0:
256,192,388381,1,2,0:0:0:0:
256,192,388461,1,0,0:0:0:0:
256,192,388622,1,2,0:0:0:0:
256,192,388782,1,2,0:0:0:0:
256,192,388943,1,0,0:0:0:0:
256,192,389263,1,0,0:0:0:0:
256,192,389424,1,2,0:0:0:0:
256,192,389584,1,2,0:0:0:0:
256,192,389664,1,2,0:0:0:0:
256,192,389745,1,0,0:0:0:0:
256,192,389905,1,0,0:0:0:0:
256,192,390066,1,2,0:0:0:0:
256,192,390226,1,0,0:0:0:0:
256,192,390306,1,0,0:0:0:0:
256,192,390386,1,2,0:0:0:0:
256,192,390547,1,0,0:0:0:0:
256,192,390707,1,2,0:0:0:0:
256,192,390761,1,2,0:0:0:0:
256,192,390814,1,2,0:0:0:0:
256,192,390868,1,0,0:0:0:0:
256,192,390948,1,2,0:0:0:0:
256,192,391028,1,0,0:0:0:0:
256,192,391189,1,0,0:0:0:0:
256,192,391349,1,2,0:0:0:0:
256,192,391509,1,2,0:0:0:0:
256,192,391590,1,0,0:0:0:0:
256,192,391750,1,2,0:0:0:0:
256,192,391830,1,0,0:0:0:0:
256,192,391910,1,0,0:0:0:0:
256,192,391991,1,2,0:0:0:0:
256,192,392151,1,0,0:0:0:0:
256,192,392231,1,2,0:0:0:0:
256,192,392312,1,0,0:0:0:0:
256,192,392632,1,2,0:0:0:0:
256,192,392793,1,0,0:0:0:0:
256,192,392873,1,2,0:0:0:0:
256,192,392953,1,0,0:0:0:0:
256,192,393114,1,0,0:0:0:0:
256,192,393274,1,2,0:0:0:0:
256,192,393435,1,2,0:0:0:0:
256,192,393515,1,2,0:0:0:0:
256,192,393595,1,0,0:0:0:0:
256,192,393755,1,0,0:0:0:0:
256,192,393916,1,2,0:0:0:0:
256,192,393996,1,0,0:0:0:0:
256,192,394156,1,2,0:0:0:0:
256,192,394237,1,0,0:0:0:0:
256,192,394317,1,2,0:0:0:0:
256,192,394397,1,2,0:0:0:0:
256,192,394477,1,0,0:0:0:0:
256,192,394638,1,2,0:0:0:0:
256,192,394718,1,0,0:0:0:0:
256,192,394798,1,2,0:0:0:0:
256,192,394878,1,0,0:0:0:0:
256,192,394959,1,0,0:0:0:0:
256,192,395039,1,2,0:0:0:0:
256,192,395119,1,0,0:0:0:0:
256,192,395199,1,0,0:0:0:0:
256,192,395360,1,2,0:0:0:0:
256,192,395413,1,2,0:0:0:0:
256,192,395467,1,2,0:0:0:0:
256,192,395520,1,0,0:0:0:0:
256,192,395600,1,0,0:0:0:0:
256,192,395681,1,2,0:0:0:0:
256,192,395761,1,0,0:0:0:0:
256,192,395841,1,0,0:0:0:0:
256,192,396001,1,2,0:0:0:0:
256,192,396055,1,2,0:0:0:0:
256,192,396108,1,2,0:0:0:0:
256,192,396162,1,0,0:0:0:0:
256,192,396242,1,0,0:0:0:0:
256,192,396322,1,2,0:0:0:0:
256,192,396402,1,0,0:0:0:0:
256,192,396483,1,2,0:0:0:0:
256,192,396563,1,2,0:0:0:0:
256,192,396643,1,0,0:0:0:0:
256,192,396697,1,2,0:0:0:0:
256,192,396750,1,2,0:0:0:0:
256,192,396804,1,0,0:0:0:0:
256,192,396884,1,2,0:0:0:0:
256,192,396964,1,0,0:0:0:0:
256,192,397044,1,0,0:0:0:0:
256,192,397124,1,2,0:0:0:0:
256,192,397205,1,0,0:0:0:0:
256,192,397285,1,2,0:0:0:0:
256,192,397365,1,2,0:0:0:0:
256,192,397445,1,0,0:0:0:0:
256,192,397771,1,2,0:0:0:0:
256,192,398260,1,2,0:0:0:0:
256,192,398749,1,2,0:0:0:0:
256,192,399238,1,2,0:0:0:0:
256,192,399727,1,2,0:0:0:0:
256,192,400053,1,2,0:0:0:0:
256,192,400379,1,2,0:0:0:0:
256,192,400868,1,2,0:0:0:0:
256,192,401358,1,2,0:0:0:0:
256,192,401684,1,2,0:0:0:0:
256,192,401847,1,2,0:0:0:0:
256,192,402336,1,2,0:0:0:0:
256,192,402662,1,2,0:0:0:0:
256,192,402825,1,2,0:0:0:0:
256,192,403151,1,2,0:0:0:0:
256,192,403477,1,2,0:0:0:0:
256,192,403966,1,2,0:0:0:0:
256,192,404455,1,2,0:0:0:0:
256,192,404945,1,2,0:0:0:0:
256,192,405271,1,2,0:0:0:0:
256,192,405434,1,2,0:0:0:0:
256,192,405760,1,2,0:0:0:0:
256,192,406086,1,2,0:0:0:0:
256,192,406249,1,2,0:0:0:0:
256,192,406575,1,2,0:0:0:0:
256,192,407064,1,2,0:0:0:0:
256,192,407227,1,2,0:0:0:0:
256,192,407553,1,2,0:0:0:0:
256,192,407879,1,2,0:0:0:0:
256,192,408205,1,2,0:0:0:0:
256,192,408368,1,2,0:0:0:0:
256,192,408858,1,2,0:0:0:0:
256,192,409184,1,2,0:0:0:0:
256,192,409510,1,2,0:0:0:0:
256,192,409673,1,2,0:0:0:0:
256,192,410162,1,2,0:0:0:0:
256,192,410488,1,2,0:0:0:0:
256,192,410814,1,2,0:0:0:0:
256,192,410977,1,2,0:0:0:0:
256,192,411466,1,2,0:0:0:0:
256,192,411792,1,2,0:0:0:0:
256,192,412118,1,2,0:0:0:0:
256,192,412445,1,2,0:0:0:0:
256,192,412771,1,2,0:0:0:0:
256,192,413097,1,2,0:0:0:0:
256,192,413423,1,2,0:0:0:0:
256,192,413586,1,2,0:0:0:0:
256,192,413749,1,2,0:0:0:0:
256,192,414075,1,2,0:0:0:0:
256,192,414401,1,2,0:0:0:0:
256,192,417216,1,2,0:0:0:0:
256,192,420031,1,0,0:0:0:0:
256,192,420357,1,0,0:0:0:0:
256,192,420683,1,0,0:0:0:0:
256,192,421172,1,2,0:0:0:0:
256,192,421498,1,2,0:0:0:0:
256,192,421824,1,2,0:0:0:0:
256,192,421987,1,2,0:0:0:0:
256,192,422639,1,0,0:0:0:0:
256,192,422965,1,0,0:0:0:0:
256,192,423291,1,0,0:0:0:0:
256,192,423781,1,2,0:0:0:0:
256,192,424107,1,2,0:0:0:0:
256,192,424433,1,2,0:0:0:0:
256,192,424596,1,2,0:0:0:0:
256,192,425248,1,0,0:0:0:0:
256,192,425574,1,0,0:0:0:0:
256,192,425900,1,0,0:0:0:0:
256,192,426389,1,2,0:0:0:0:
256,192,426715,1,2,0:0:0:0:
256,192,427041,1,2,0:0:0:0:
256,192,427204,1,2,0:0:0:0:
256,192,427857,1,2,0:0:0:0:
256,192,428179,1,0,0:0:0:0:
256,192,428502,1,2,0:0:0:0:
256,192,428824,1,0,0:0:0:0:
256,192,428986,1,2,0:0:0:0:
256,192,429147,1,0,0:0:0:0:
256,192,429225,1,0,0:0:0:0:
256,192,429304,1,2,0:0:0:0:
256,192,429382,1,0,0:0:0:0:
256,192,429461,1,2,0:0:0:0:
256,192,429539,1,2,0:0:0:0:
256,192,429618,1,0,0:0:0:0:
256,192,429696,1,2,0:0:0:0:
256,192,429775,1,0,0:0:0:0:
256,192,429853,1,0,0:0:0:0:
256,192,429932,1,2,0:0:0:0:
256,192,430010,1,0,0:0:0:0:
256,192,430089,1,2,0:0:0:0:
256,192,430246,1,2,0:0:0:0:
256,192,430403,1,0,0:0:0:0:
256,192,430560,1,0,0:0:0:0:
256,192,430717,1,2,0:0:0:0:
256,192,430874,1,0,0:0:0:0:
256,192,431031,1,0,0:0:0:0:
256,192,431188,1,0,0:0:0:0:
256,192,431345,1,2,0:0:0:0:
256,192,431503,1,2,0:0:0:0:
256,192,431581,1,2,0:0:0:0:
256,192,431660,1,0,0:0:0:0:
256,192,431974,1,2,0:0:0:0:
256,192,432131,1,2,0:0:0:0:
256,192,432288,1,0,0:0:0:0:
256,192,432445,1,0,0:0:0:0:
256,192,432602,1,2,0:0:0:0:
256,192,432916,1,0,0:0:0:0:
256,192,433230,1,2,0:0:0:0:
256,192,433387,1,0,0:0:0:0:
256,192,433466,1,2,0:0:0:0:
256,192,433544,1,0,0:0:0:0:
256,192,433701,1,0,0:0:0:0:
256,192,433859,1,2,0:0:0:0:
256,192,434016,1,2,0:0:0:0:
256,192,434173,1,0,0:0:0:0:
256,192,434487,1,2,0:0:0:0:
256,192,434644,1,2,0:0:0:0:
256,192,434722,1,2,0:0:0:0:
256,192,434801,1,0,0:0:0:0:
256,192,434879,1,2,0:0:0:0:
256,192,434958,1,0,0:0:0:0:
256,192,435115,1,2,0:0:0:0:
256,192,435272,1,0,0:0:0:0:
256,192,435351,1,0,0:0:0:0:
256,192,435429,1,0,0:0:0:0:
256,192,435586,1,0,0:0:0:0:
256,192,435743,1,2,0:0:0:0:
256,192,435900,1,0,0:0:0:0:
256,192,436057,1,0,0:0:0:0:
256,192,436215,1,0,0:0:0:0:
256,192,436372,1,2,0:0:0:0:
256,192,436529,1,2,0:0:0:0:
256,192,436607,1,2,0:0:0:0:
256,192,436686,1,0,0:0:0:0:
256,192,436895,1,0,0:0:0:0:
256,192,437105,1,0,0:0:0:0:
256,192,437314,1,2,0:0:0:0:
256,192,437419,1,2,0:0:0:0:
256,192,437523,1,0,0:0:0:0:
256,192,437628,1,2,0:0:0:0:
256,192,437733,1,2,0:0:0:0:
256,192,437838,1,2,0:0:0:0:
256,192,437942,1,0,0:0:0:0:
256,192,438099,1,0,0:0:0:0:
256,192,438256,1,2,0:0:0:0:
256,192,438571,1,0,0:0:0:0:
256,192,438728,1,0,0:0:0:0:
256,192,438806,1,0,0:0:0:0:
256,192,438885,1,2,0:0:0:0:
256,192,439042,1,0,0:0:0:0:
256,192,439199,1,2,0:0:0:0:
256,192,439356,1,0,0:0:0:0:
256,192,439434,1,2,0:0:0:0:
256,192,439513,1,0,0:0:0:0:
256,192,439670,1,4,0:0:0:0:
256,192,439984,1,2,0:0:0:0:
256,192,440141,1,0,0:0:0:0:
256,192,440220,1,0,0:0:0:0:
256,192,440298,1,2,0:0:0:0:
256,192,440377,1,2,0:0:0:0:
256,192,440455,1,0,0:0:0:0:
256,192,440770,1,2,0:0:0:0:
256,192,440927,1,0,0:0:0:0:
256,192,441005,1,2,0:0:0:0:
256,192,441084,1,0,0:0:0:0:
256,192,441241,1,0,0:0:0:0:
256,192,441398,1,2,0:0:0:0:
256,192,441555,1,2,0:0:0:0:
256,192,441633,1,2,0:0:0:0:
256,192,441712,1,0,0:0:0:0:
256,192,441790,1,0,0:0:0:0:
256,192,441869,1,0,0:0:0:0:
256,192,442026,1,2,0:0:0:0:
256,192,442183,1,0,0:0:0:0:
256,192,442262,1,2,0:0:0:0:
256,192,442340,1,0,0:0:0:0:
256,192,442419,1,0,0:0:0:0:
256,192,442497,1,0,0:0:0:0:
256,192,442654,1,2,0:0:0:0:
256,192,442890,1,2,0:0:0:0:
256,192,442968,1,0,0:0:0:0:
256,192,443126,1,0,0:0:0:0:
256,192,443283,1,2,0:0:0:0:
256,192,443440,1,2,0:0:0:0:
256,192,443518,1,2,0:0:0:0:
256,192,443597,1,0,0:0:0:0:
256,192,443754,1,0,0:0:0:0:
256,192,443911,1,2,0:0:0:0:
256,192,444068,1,0,0:0:0:0:
256,192,444147,1,2,0:0:0:0:
256,192,444225,1,0,0:0:0:0:
256,192,444382,1,0,0:0:0:0:
256,192,444461,1,0,0:0:0:0:
256,192,444539,1,2,0:0:0:0:
256,192,444696,1,4,0:0:0:0:
256,192,445010,1,0,0:0:0:0:
256,192,445089,1,0,0:0:0:0:
256,192,445167,1,2,0:0:0:0:
256,192,445246,1,0,0:0:0:0:
256,192,445325,1,2,0:0:0:0:
256,192,445403,1,2,0:0:0:0:
256,192,445482,1,0,0:0:0:0:
256,192,445796,1,2,0:0:0:0:
256,192,445953,1,0,0:0:0:0:
256,192,446031,1,2,0:0:0:0:
256,192,446110,1,0,0:0:0:0:
256,192,446267,1,0,0:0:0:0:
256,192,446424,1,2,0:0:0:0:
256,192,446581,1,2,0:0:0:0:
256,192,446660,1,2,0:0:0:0:
256,192,446738,1,0,0:0:0:0:
256,192,446817,1,0,0:0:0:0:
256,192,446895,1,0,0:0:0:0:
256,192,447052,1,2,0:0:0:0:
256,192,447209,1,0,0:0:0:0:
256,192,447288,1,2,0:0:0:0:
256,192,447366,1,0,0:0:0:0:
256,192,447445,1,0,0:0:0:0:
256,192,447523,1,0,0:0:0:0:
256,192,447681,1,2,0:0:0:0:
256,192,447838,1,2,0:0:0:0:
256,192,447916,1,2,0:0:0:0:
256,192,447995,1,0,0:0:0:0:
256,192,448152,1,2,0:0:0:0:
256,192,448230,1,2,0:0:0:0:
256,192,448309,1,0,0:0:0:0:
256,192,448466,1,2,0:0:0:0:
256,192,448544,1,2,0:0:0:0:
256,192,448623,1,0,0:0:0:0:
256,192,448780,1,2,0:0:0:0:
256,192,448937,1,0,0:0:0:0:
256,192,449094,1,0,0:0:0:0:
256,192,449251,1,6,0:0:0:0:
256,192,449408,1,6,0:0:0:0:
256,192,449722,1,2,0:0:0:0:
256,192,449801,1,2,0:0:0:0:
256,192,449879,1,0,0:0:0:0:
256,192,449958,1,0,0:0:0:0:
256,192,450115,1,0,0:0:0:0:
256,192,450194,1,2,0:0:0:0:
256,192,450351,1,2,0:0:0:0:
256,192,450429,1,2,0:0:0:0:
256,192,450508,1,0,0:0:0:0:
256,192,450823,1,2,0:0:0:0:
256,192,450981,1,0,0:0:0:0:
256,192,451060,1,2,0:0:0:0:
256,192,451139,1,0,0:0:0:0:
256,192,451297,1,0,0:0:0:0:
256,192,451455,1,2,0:0:0:0:
256,192,451613,1,0,0:0:0:0:
256,192,451929,1,0,0:0:0:0:
256,192,452086,1,2,0:0:0:0:
256,192,452244,1,0,0:0:0:0:
256,192,452323,1,2,0:0:0:0:
256,192,452402,1,0,0:0:0:0:
256,192,452481,1,0,0:0:0:0:
256,192,452560,1,0,0:0:0:0:
256,192,452718,1,2,0:0:0:0:
256,192,452876,1,2,0:0:0:0:
256,192,453034,1,0,0:0:0:0:
256,192,453192,1,0,0:0:0:0:
256,192,453350,1,2,0:0:0:0:
256,192,453586,1,2,0:0:0:0:
256,192,453665,1,0,0:0:0:0:
256,192,453823,1,0,0:0:0:0:
256,192,453981,1,2,0:0:0:0:
256,192,454034,1,2,0:0:0:0:
256,192,454086,1,2,0:0:0:0:
256,192,454139,1,0,0:0:0:0:
256,192,454455,1,0,0:0:0:0:
256,192,454534,1,0,0:0:0:0:
256,192,454613,1,2,0:0:0:0:
256,192,454771,1,0,0:0:0:0:
256,192,454850,1,2,0:0:0:0:
256,192,454929,1,0,0:0:0:0:
256,192,455086,1,0,0:0:0:0:
256,192,455244,1,2,0:0:0:0:
256,192,455402,1,2,0:0:0:0:
256,192,455481,1,2,0:0:0:0:
256,192,455560,1,0,0:0:0:0:
256,192,455876,1,2,0:0:0:0:
256,192,456034,1,0,0:0:0:0:
256,192,456113,1,2,0:0:0:0:
256,192,456192,1,0,0:0:0:0:
256,192,456350,1,0,0:0:0:0:
256,192,456508,1,2,0:0:0:0:
256,192,456665,1,0,0:0:0:0:
256,192,456981,1,0,0:0:0:0:
256,192,457139,1,2,0:0:0:0:
256,192,457297,1,0,0:0:0:0:
256,192,457376,1,2,0:0:0:0:
256,192,457455,1,0,0:0:0:0:
256,192,457534,1,0,0:0:0:0:
256,192,457613,1,0,0:0:0:0:
256,192,457771,1,2,0:0:0:0:
256,192,457929,1,2,0:0:0:0:
256,192,458008,1,2,0:0:0:0:
256,192,458086,1,0,0:0:0:0:
256,192,458244,1,0,0:0:0:0:
256,192,458402,1,2,0:0:0:0:
256,192,458481,1,2,0:0:0:0:
256,192,458639,1,2,0:0:0:0:
256,192,458718,1,0,0:0:0:0:
256,192,458876,1,0,0:0:0:0:
256,192,459034,1,2,0:0:0:0:
256,192,459113,1,2,0:0:0:0:
256,192,459192,1,0,0:0:0:0:
256,192,459271,1,2,0:0:0:0:
256,192,459350,1,0,0:0:0:0:
256,192,459508,1,0,0:0:0:0:
256,192,459586,1,0,0:0:0:0:
256,192,459665,1,2,0:0:0:0:
256,192,459823,1,0,0:0:0:0:
256,192,459902,1,2,0:0:0:0:
256,192,459981,1,0,0:0:0:0:
256,192,460139,1,2,0:0:0:0:
256,192,460297,1,0,0:0:0:0:
256,192,460376,1,0,0:0:0:0:
256,192,460455,1,2,0:0:0:0:
256,192,460534,1,2,0:0:0:0:
256,192,460613,1,0,0:0:0:0:
256,192,460930,1,2,0:0:0:0:
256,192,461168,1,2,0:0:0:0:
256,192,461247,1,0,0:0:0:0:
256,192,461406,1,0,0:0:0:0:
256,192,461565,1,2,0:0:0:0:
256,192,461724,1,2,0:0:0:0:
256,192,461882,1,0,0:0:0:0:
256,192,462041,1,2,0:0:0:0:
256,192,462200,1,2,0:0:0:0:
256,192,462359,1,0,0:0:0:0:
256,192,462438,1,0,0:0:0:0:
256,192,462517,1,2,0:0:0:0:
256,192,462597,1,0,0:0:0:0:
256,192,462676,1,0,0:0:0:0:
256,192,462835,1,2,0:0:0:0:
256,192,462914,1,2,0:0:0:0:
256,192,462993,1,0,0:0:0:0:
256,192,463073,1,2,0:0:0:0:
256,192,463152,1,0,0:0:0:0:
256,192,463311,1,0,0:0:0:0:
256,192,463470,1,2,0:0:0:0:
256,192,463708,1,2,0:0:0:0:
256,192,463787,1,0,0:0:0:0:
256,192,463946,1,0,0:0:0:0:
256,192,464105,1,2,0:0:0:0:
256,192,464263,1,0,0:0:0:0:
256,192,464343,1,0,0:0:0:0:
256,192,464422,1,0,0:0:0:0:
256,192,464581,1,0,0:0:0:0:
256,192,464739,1,2,0:0:0:0:
256,192,464898,1,2,0:0:0:0:
256,192,464978,1,2,0:0:0:0:
256,192,465057,1,0,0:0:0:0:
256,192,465216,1,2,0:0:0:0:
256,192,465374,1,0,0:0:0:0:
256,192,465533,1,2,0:0:0:0:
256,192,465613,1,2,0:0:0:0:
256,192,465692,1,0,0:0:0:0:
256,192,465851,1,0,0:0:0:0:
256,192,466009,1,2,0:0:0:0:
256,192,466168,1,0,0:0:0:0:
256,192,466486,1,0,0:0:0:0:
256,192,466644,1,2,0:0:0:0:
256,192,466962,1,0,0:0:0:0:
256,192,467120,1,2,0:0:0:0:
256,192,467279,1,2,0:0:0:0:
256,192,467438,1,0,0:0:0:0:
256,192,467517,1,0,0:0:0:0:
256,192,467597,1,2,0:0:0:0:
256,192,467676,1,0,0:0:0:0:
256,192,467755,1,0,0:0:0:0:
256,192,467914,1,2,0:0:0:0:
256,192,467993,1,2,0:0:0:0:
256,192,468073,1,0,0:0:0:0:
256,192,468152,1,2,0:0:0:0:
256,192,468232,1,0,0:0:0:0:
256,192,468390,1,0,0:0:0:0:
256,192,468549,1,2,0:0:0:0:
256,192,468787,1,2,0:0:0:0:
256,192,468866,1,0,0:0:0:0:
256,192,469025,1,0,0:0:0:0:
256,192,469184,1,2,0:0:0:0:
256,192,469343,1,0,0:0:0:0:
256,192,469422,1,0,0:0:0:0:
256,192,469501,1,0,0:0:0:0:
256,192,469660,1,0,0:0:0:0:
256,192,469739,1,2,0:0:0:0:
256,192,469819,1,0,0:0:0:0:
256,192,469978,1,2,0:0:0:0:
256,192,470057,1,2,0:0:0:0:
256,192,470136,1,0,0:0:0:0:
256,192,470216,1,0,0:0:0:0:
256,192,470295,1,2,0:0:0:0:
256,192,470374,1,0,0:0:0:0:
256,192,470454,1,2,0:0:0:0:
256,192,470533,1,2,0:0:0:0:
256,192,470613,1,0,0:0:0:0:
256,192,470692,1,2,0:0:0:0:
256,192,470771,1,0,0:0:0:0:
256,192,470927,1,2,0:0:0:0:
256,192,471084,1,0,0:0:0:0:
256,192,471162,1,0,0:0:0:0:
256,192,471240,1,2,0:0:0:0:
256,192,471397,1,0,0:0:0:0:
256,192,471554,1,2,0:0:0:0:
256,192,471632,1,2,0:0:0:0:
256,192,471710,1,0,0:0:0:0:
256,192,471867,1,2,0:0:0:0:
256,192,472024,1,0,0:0:0:0:
256,192,472102,1,0,0:0:0:0:
256,192,472180,1,2,0:0:0:0:
256,192,472259,1,2,0:0:0:0:
256,192,472337,1,0,0:0:0:0:
256,192,472494,1,2,0:0:0:0:
256,192,472650,1,0,0:0:0:0:
256,192,472729,1,2,0:0:0:0:
256,192,472885,1,2,0:0:0:0:
256,192,472964,1,0,0:0:0:0:
256,192,473120,1,2,0:0:0:0:
256,192,473277,1,0,0:0:0:0:
256,192,473434,1,2,0:0:0:0:
256,192,473590,1,0,0:0:0:0:
256,192,473669,1,0,0:0:0:0:
256,192,473747,1,2,0:0:0:0:
256,192,473904,1,0,0:0:0:0:
256,192,474060,1,2,0:0:0:0:
256,192,474139,1,2,0:0:0:0:
256,192,474217,1,0,0:0:0:0:
256,192,474374,1,2,0:0:0:0:
256,192,474530,1,0,0:0:0:0:
256,192,474609,1,0,0:0:0:0:
256,192,474687,1,2,0:0:0:0:
256,192,474765,1,0,0:0:0:0:
256,192,474844,1,0,0:0:0:0:
256,192,474922,1,0,0:0:0:0:
256,192,475000,1,2,0:0:0:0:
256,192,475157,1,0,0:0:0:0:
256,192,475314,1,2,0:0:0:0:
256,192,475392,1,2,0:0:0:0:
256,192,475470,1,0,0:0:0:0:
256,192,475627,1,2,0:0:0:0:
256,192,475705,1,0,0:0:0:0:
256,192,475784,1,0,0:0:0:0:
256,192,475940,1,2,0:0:0:0:
256,192,476097,1,0,0:0:0:0:
256,192,476175,1,0,0:0:0:0:
256,192,476254,1,2,0:0:0:0:
256,192,476332,1,0,0:0:0:0:
256,192,476489,1,0,0:0:0:0:
256,192,476567,1,2,0:0:0:0:
256,192,476724,1,0,0:0:0:0:
256,192,476880,1,2,0:0:0:0:
256,192,476958,1,2,0:0:0:0:
256,192,477037,1,0,0:0:0:0:
256,192,477193,1,2,0:0:0:0:
256,192,477350,1,0,0:0:0:0:
256,192,477428,1,0,0:0:0:0:
256,192,477507,1,2,0:0:0:0:
256,192,477663,1,0,0:0:0:0:
256,192,477742,1,2,0:0:0:0:
256,192,477898,1,2,0:0:0:0:
256,192,477977,1,0,0:0:0:0:
256,192,478133,1,2,0:0:0:0:
256,192,478290,1,0,0:0:0:0:
256,192,478447,1,2,0:0:0:0:
256,192,478525,1,2,0:0:0:0:
256,192,478603,1,0,0:0:0:0:
256,192,478760,1,2,0:0:0:0:
256,192,478838,1,0,0:0:0:0:
256,192,478917,1,0,0:0:0:0:
256,192,479073,1,2,0:0:0:0:
256,192,479152,1,2,0:0:0:0:
256,192,479230,1,0,0:0:0:0:
256,192,479308,1,2,0:0:0:0:
256,192,479387,1,2,0:0:0:0:
256,192,479465,1,2,0:0:0:0:
256,192,479543,1,0,0:0:0:0:
256,192,479700,1,0,0:0:0:0:
256,192,479778,1,2,0:0:0:0:
256,192,479857,1,0,0:0:0:0:
256,192,480013,1,2,0:0:0:0:
256,192,480170,1,0,0:0:0:0:
256,192,480248,1,0,0:0:0:0:
256,192,480327,1,2,0:0:0:0:
256,192,480405,1,0,0:0:0:0:
256,192,480483,1,2,0:0:0:0:
256,192,480562,1,2,0:0:0:0:
256,192,480640,1,2,0:0:0:0:
256,192,480718,1,2,0:0:0:0:
256,192,480797,1,0,0:0:0:0:
256,192,480953,1,2,0:0:0:0:
256,192,481110,1,0,0:0:0:0:
256,192,481188,1,0,0:0:0:0:
256,192,481267,1,2,0:0:0:0:
256,192,481423,1,0,0:0:0:0:
256,192,481580,1,2,0:0:0:0:
256,192,481658,1,2,0:0:0:0:
256,192,481737,1,0,0:0:0:0:
256,192,481893,1,2,0:0:0:0:
256,192,482050,1,0,0:0:0:0:
256,192,482128,1,0,0:0:0:0:
256,192,482207,1,2,0:0:0:0:
256,192,482285,1,2,0:0:0:0:
256,192,482363,1,0,0:0:0:0:
256,192,482520,1,2,0:0:0:0:
256,192,482677,1,0,0:0:0:0:
256,192,482755,1,2,0:0:0:0:
256,192,482911,1,2,0:0:0:0:
256,192,482990,1,0,0:0:0:0:
256,192,483146,1,2,0:0:0:0:
256,192,483303,1,0,0:0:0:0:
256,192,483460,1,2,0:0:0:0:
256,192,483616,1,0,0:0:0:0:
256,192,483695,1,0,0:0:0:0:
256,192,483773,1,2,0:0:0:0:
256,192,483930,1,0,0:0:0:0:
256,192,484086,1,2,0:0:0:0:
256,192,484165,1,2,0:0:0:0:
256,192,484243,1,0,0:0:0:0:
256,192,484400,1,2,0:0:0:0:
256,192,484556,1,0,0:0:0:0:
256,192,484635,1,0,0:0:0:0:
256,192,484713,1,2,0:0:0:0:
256,192,484791,1,0,0:0:0:0:
256,192,484870,1,0,0:0:0:0:
256,192,484948,1,0,0:0:0:0:
256,192,485026,1,2,0:0:0:0:
256,192,485183,1,0,0:0:0:0:
256,192,485340,1,6,0:0:0:0:
256,192,485496,1,6,0:0:0:0:
256,192,485810,1,2,0:0:0:0:
256,192,485966,1,0,0:0:0:0:
256,192,486045,1,0,0:0:0:0:
256,192,486123,1,2,0:0:0:0:
256,192,486280,1,0,0:0:0:0:
256,192,486436,1,2,0:0:0:0:
256,192,486593,1,0,0:0:0:0:
256,192,486671,1,0,0:0:0:0:
256,192,486750,1,2,0:0:0:0:
256,192,486828,1,0,0:0:0:0:
256,192,486906,1,0,0:0:0:0:
256,192,486985,1,0,0:0:0:0:
256,192,487063,1,2,0:0:0:0:
256,192,487220,1,0,0:0:0:0:
256,192,487298,1,0,0:0:0:0:
256,192,487376,1,2,0:0:0:0:
256,192,487455,1,2,0:0:0:0:
256,192,487611,1,2,0:0:0:0:
256,192,487690,1,0,0:0:0:0:
256,192,487846,1,2,0:0:0:0:
256,192,488003,1,2,0:0:0:0:
256,192,488081,1,2,0:0:0:0:
256,192,488160,1,2,0:0:0:0:
256,192,488238,1,2,0:0:0:0:
256,192,488316,1,0,0:0:0:0:
256,192,488473,1,2,0:0:0:0:
256,192,488551,1,2,0:0:0:0:
256,192,488630,1,0,0:0:0:0:
256,192,488786,1,2,0:0:0:0:
256,192,488943,1,0,0:0:0:0:
256,192,489099,1,2,0:0:0:0:
256,192,489178,1,0,0:0:0:0:
256,192,489256,1,0,0:0:0:0:
256,192,489413,1,2,0:0:0:0:
256,192,489569,1,0,0:0:0:0:
256,192,489648,1,2,0:0:0:0:
256,192,489726,1,0,0:0:0:0:
256,192,489804,1,0,0:0:0:0:
256,192,489883,1,2,0:0:0:0:
256,192,489961,1,0,0:0:0:0:
256,192,490039,1,2,0:0:0:0:
256,192,490118,1,2,0:0:0:0:
256,192,490196,1,0,0:0:0:0:
256,192,490274,1,2,0:0:0:0:
256,192,490353,1,0,0:0:0:0:
256,192,490431,1,0,0:0:0:0:
256,192,490509,1,2,0:0:0:0:
256,192,490588,1,2,0:0:0:0:
256,192,490666,1,0,0:0:0:0:
256,192,490744,1,2,0:0:0:0:
256,192,490823,1,0,0:0:0:0:
256,192,490980,1,0,0:0:0:0:
256,192,491059,1,0,0:0:0:0:
256,192,491217,1,2,0:0:0:0:
256,192,491296,1,0,0:0:0:0:
256,192,491454,1,0,0:0:0:0:
256,192,491612,1,0,0:0:0:0:
256,192,491691,1,2,0:0:0:0:
256,192,491849,1,0,0:0:0:0:
256,192,491928,1,0,0:0:0:0:
256,192,492007,1,2,0:0:0:0:
256,192,492086,1,0,0:0:0:0:
256,192,492244,1,0,0:0:0:0:
256,192,492323,1,2,0:0:0:0:
256,192,492480,1,0,0:0:0:0:
256,192,492559,1,2,0:0:0:0:
256,192,492638,1,2,0:0:0:0:
256,192,492717,1,0,0:0:0:0:
256,192,492875,1,2,0:0:0:0:
256,192,492954,1,0,0:0:0:0:
256,192,493033,1,2,0:0:0:0:
256,192,493112,1,0,0:0:0:0:
256,192,493191,1,2,0:0:0:0:
256,192,493270,1,2,0:0:0:0:
256,192,493349,1,0,0:0:0:0:
256,192,493428,1,0,0:0:0:0:
256,192,493507,1,2,0:0:0:0:
256,192,493586,1,0,0:0:0:0:
256,192,493744,1,0,0:0:0:0:
256,192,493823,1,2,0:0:0:0:
256,192,493980,1,0,0:0:0:0:
256,192,494138,1,0,0:0:0:0:
256,192,494217,1,0,0:0:0:0:
256,192,494375,1,0,0:0:0:0:
256,192,494454,1,2,0:0:0:0:
256,192,494533,1,2,0:0:0:0:
256,192,494612,1,0,0:0:0:0:
256,192,494691,1,0,0:0:0:0:
256,192,494770,1,2,0:0:0:0:
256,192,494849,1,0,0:0:0:0:
256,192,495007,1,2,0:0:0:0:
256,192,495086,1,0,0:0:0:0:
256,192,495244,1,0,0:0:0:0:
256,192,495401,1,2,0:0:0:0:
256,192,495480,1,2,0:0:0:0:
256,192,495559,1,0,0:0:0:0:
256,192,495638,1,2,0:0:0:0:
256,192,495717,1,0,0:0:0:0:
256,192,495796,1,2,0:0:0:0:
256,192,495875,1,0,0:0:0:0:
256,192,496033,1,0,0:0:0:0:
256,192,496112,1,0,0:0:0:0:
256,192,496270,1,2,0:0:0:0:
256,192,496349,1,0,0:0:0:0:
256,192,496507,1,0,0:0:0:0:
256,192,496665,1,2,0:0:0:0:
256,192,496744,1,0,0:0:0:0:
256,192,496901,1,2,0:0:0:0:
256,192,496980,1,2,0:0:0:0:
256,192,497059,1,2,0:0:0:0:
256,192,497138,1,0,0:0:0:0:
256,192,497296,1,0,0:0:0:0:
256,192,497375,1,2,0:0:0:0:
256,192,497533,1,0,0:0:0:0:
256,192,497612,1,2,0:0:0:0:
256,192,497691,1,2,0:0:0:0:
256,192,497770,1,0,0:0:0:0:
256,192,497928,1,2,0:0:0:0:
256,192,498007,1,2,0:0:0:0:
256,192,498086,1,0,0:0:0:0:
256,192,498165,1,2,0:0:0:0:
256,192,498244,1,0,0:0:0:0:
256,192,498323,1,0,0:0:0:0:
256,192,498401,1,2,0:0:0:0:
256,192,498559,1,2,0:0:0:0:
256,192,498638,1,2,0:0:0:0:
256,192,498717,1,0,0:0:0:0:
256,192,498796,1,0,0:0:0:0:
256,192,498875,1,2,0:0:0:0:
256,192,499033,1,0,0:0:0:0:
256,192,499191,1,2,0:0:0:0:
256,192,499270,1,2,0:0:0:0:
256,192,499428,1,0,0:0:0:0:
256,192,499507,1,2,0:0:0:0:
256,192,499586,1,2,0:0:0:0:
256,192,499665,1,0,0:0:0:0:
256,192,499823,1,0,0:0:0:0:
256,192,499901,1,0,0:0:0:0:
256,192,499980,1,2,0:0:0:0:
256,192,500059,1,0,0:0:0:0:
256,192,500138,1,2,0:0:0:0:
256,192,500296,1,0,0:0:0:0:
256,192,500375,1,0,0:0:0:0:
256,192,500454,1,2,0:0:0:0:
256,192,500533,1,0,0:0:0:0:
256,192,500612,1,2,0:0:0:0:
256,192,500691,1,2,0:0:0:0:
256,192,500770,1,0,0:0:0:0:
256,192,500849,1,2,0:0:0:0:
256,192,500928,1,0,0:0:0:0:
256,192,501086,1,0,0:0:0:0:
256,192,501165,1,2,0:0:0:0:
256,192,501244,1,0,0:0:0:0:
256,192,501323,1,0,0:0:0:0:
256,192,501401,1,2,0:0:0:0:
256,192,501559,1,0,0:0:0:0:
256,192,501717,1,0,0:0:0:0:
256,192,501796,1,0,0:0:0:0:
256,192,501875,1,2,0:0:0:0:
256,192,501954,1,0,0:0:0:0:
256,192,502033,1,2,0:0:0:0:
256,192,502112,1,2,0:0:0:0:
256,192,502191,1,0,0:0:0:0:
256,192,502349,1,2,0:0:0:0:
256,192,502428,1,2,0:0:0:0:
256,192,502507,1,0,0:0:0:0:
256,192,502586,1,2,0:0:0:0:
256,192,502665,1,0,0:0:0:0:
256,192,502823,1,2,0:0:0:0:
256,192,502980,1,2,0:0:0:0:
256,192,503059,1,2,0:0:0:0:
256,192,503138,1,0,0:0:0:0:
256,192,503217,1,0,0:0:0:0:
256,192,503296,1,2,0:0:0:0:
256,192,503375,1,0,0:0:0:0:
256,192,503454,1,0,0:0:0:0:
256,192,503612,1,2,0:0:0:0:
256,192,503691,1,2,0:0:0:0:
256,192,503770,1,0,0:0:0:0:
256,192,503849,1,0,0:0:0:0:
256,192,503928,1,2,0:0:0:0:
256,192,504086,1,0,0:0:0:0:
256,192,504244,1,2,0:0:0:0:
256,192,504323,1,0,0:0:0:0:
256,192,504401,1,2,0:0:0:0:
256,192,504480,1,2,0:0:0:0:
256,192,504559,1,0,0:0:0:0:
256,192,504638,1,2,0:0:0:0:
256,192,504717,1,0,0:0:0:0:
256,192,504796,1,0,0:0:0:0:
256,192,504875,1,2,0:0:0:0:
256,192,505033,1,0,0:0:0:0:
256,192,505191,1,2,0:0:0:0:
256,192,505244,1,2,0:0:0:0:
256,192,505296,1,2,0:0:0:0:
256,192,505349,1,0,0:0:0:0:
256,192,505507,1,0,0:0:0:0:
256,192,505559,1,0,0:0:0:0:
256,192,505612,1,0,0:0:0:0:
256,192,505665,1,2,0:0:0:0:
256,192,505823,1,2,0:0:0:0:
256,192,505980,1,0,0:0:0:0:
256,192,506138,1,2,0:0:0:0:
256,192,506296,1,0,0:0:0:0:
256,192,506454,1,2,0:0:0:0:
256,192,506533,1,2,0:0:0:0:
256,192,506612,1,0,0:0:0:0:
256,192,506691,1,2,0:0:0:0:
256,192,506849,1,2,0:0:0:0:
256,192,506928,1,0,0:0:0:0:
256,192,507007,1,2,0:0:0:0:
256,192,507165,1,2,0:0:0:0:
256,192,507244,1,0,0:0:0:0:
256,192,507323,1,2,0:0:0:0:
256,192,507401,1,2,0:0:0:0:
256,192,507480,1,2,0:0:0:0:
256,192,507559,1,0,0:0:0:0:
256,192,507717,1,2,0:0:0:0:
256,192,507875,1,0,0:0:0:0:
256,192,508033,1,2,0:0:0:0:
256,192,508112,1,0,0:0:0:0:
256,192,508270,1,0,0:0:0:0:
256,192,508349,1,2,0:0:0:0:
256,192,508428,1,2,0:0:0:0:
256,192,508507,1,0,0:0:0:0:
256,192,508559,1,0,0:0:0:0:
256,192,508612,1,0,0:0:0:0:
256,192,508665,1,2,0:0:0:0:
256,192,508744,1,2,0:0:0:0:
256,192,508823,1,0,0:0:0:0:
256,192,508901,1,2,0:0:0:0:
256,192,508980,1,2,0:0:0:0:
256,192,509059,1,0,0:0:0:0:
256,192,509138,1,2,0:0:0:0:
256,192,509217,1,2,0:0:0:0:
256,192,509296,1,0,0:0:0:0:
256,192,509375,1,2,0:0:0:0:
256,192,509454,1,0,0:0:0:0:
256,192,509533,1,0,0:0:0:0:
256,192,509612,1,2,0:0:0:0:
256,192,509691,1,2,0:0:0:0:
256,192,509770,1,0,0:0:0:0:
256,192,509928,1,2,0:0:0:0:
256,192,510086,1,0,0:0:0:0:
256,192,510244,1,0,0:0:0:0:
256,192,510323,1,0,0:0:0:0:
256,192,510401,1,2,0:0:0:0:
256,192,510717,1,2,0:0:0:0:
256,192,510796,1,2,0:0:0:0:
256,192,510875,1,2,0:0:0:0:
256,192,510954,1,2,0:0:0:0:
256,192,511033,1,0,0:0:0:0:
256,192,511191,1,0,0:0:0:0:
256,192,511349,1,2,0:0:0:0:
256,192,511507,1,0,0:0:0:0:
256,192,511823,1,0,0:0:0:0:
256,192,511980,1,2,0:0:0:0:
256,192,512138,1,2,0:0:0:0:
256,192,512296,1,0,0:0:0:0:
256,192,512454,1,0,0:0:0:0:
256,192,512612,1,2,0:0:0:0:
256,192,512770,1,0,0:0:0:0:
256,192,512928,1,0,0:0:0:0:
256,192,513086,1,2,0:0:0:0:
256,192,513244,1,2,0:0:0:0:
256,192,513401,1,0,0:0:0:0:
256,192,513480,1,0,0:0:0:0:
256,192,513559,1,0,0:0:0:0:
256,192,513717,1,0,0:0:0:0:
256,192,513875,1,2,0:0:0:0:
256,192,514033,1,0,0:0:0:0:
256,192,514349,1,0,0:0:0:0:
256,192,514507,1,2,0:0:0:0:
256,192,514665,1,2,0:0:0:0:
256,192,514823,1,0,0:0:0:0:
256,192,514980,1,0,0:0:0:0:
256,192,515138,1,2,0:0:0:0:
256,192,515296,1,2,0:0:0:0:
256,192,515454,1,0,0:0:0:0:
256,192,515612,1,2,0:0:0:0:
256,192,515770,1,2,0:0:0:0:
256,192,515928,1,2,0:0:0:0:
256,192,516007,1,2,0:0:0:0:
256,192,516086,1,0,0:0:0:0:
256,192,516244,1,0,0:0:0:0:
256,192,516323,1,0,0:0:0:0:
256,192,516401,1,2,0:0:0:0:
256,192,516559,1,0,0:0:0:0:
256,192,516875,1,0,0:0:0:0:
256,192,517033,1,2,0:0:0:0:
256,192,517191,1,2,0:0:0:0:
256,192,517349,1,0,0:0:0:0:
256,192,517507,1,0,0:0:0:0:
256,192,517665,1,2,0:0:0:0:
256,192,517823,1,0,0:0:0:0:
256,192,517980,1,0,0:0:0:0:
256,192,518138,1,2,0:0:0:0:
256,192,518296,1,2,0:0:0:0:
256,192,518454,1,0,0:0:0:0:
256,192,518533,1,0,0:0:0:0:
256,192,518612,1,0,0:0:0:0:
256,192,518849,1,0,0:0:0:0:
256,192,518928,1,2,0:0:0:0:
256,192,519086,1,0,0:0:0:0:
256,192,519165,1,0,0:0:0:0:
256,192,519323,1,2,0:0:0:0:
256,192,519401,1,0,0:0:0:0:
256,192,519559,1,2,0:0:0:0:
256,192,519717,1,2,0:0:0:0:
256,192,519796,1,2,0:0:0:0:
256,192,519875,1,0,0:0:0:0:
256,192,520033,1,2,0:0:0:0:
256,192,520112,1,0,0:0:0:0:
256,192,520349,1,0,0:0:0:0:
256,192,520428,1,2,0:0:0:0:
256,192,520507,1,2,0:0:0:0:
256,192,520586,1,2,0:0:0:0:
256,192,520665,1,0,0:0:0:0:
256,192,520823,1,2,0:0:0:0:
256,192,520980,1,2,0:0:0:0:
256,192,521059,1,2,0:0:0:0:
256,192,521138,1,0,0:0:0:0:
256,192,521217,1,0,0:0:0:0:
256,192,521375,1,0,0:0:0:0:
256,192,521454,1,2,0:0:0:0:
256,192,521612,1,0,0:0:0:0:
256,192,521849,1,2,0:0:0:0:
256,192,521928,1,0,0:0:0:0:
256,192,522086,1,2,0:0:0:0:
256,192,522244,1,0,0:0:0:0:
256,192,522323,1,0,0:0:0:0:
256,192,522401,1,2,0:0:0:0:
256,192,522480,1,0,0:0:0:0:
256,192,522559,1,0,0:0:0:0:
256,192,522638,1,2,0:0:0:0:
256,192,522717,1,0,0:0:0:0:
256,192,522796,1,0,0:0:0:0:
256,192,522875,1,2,0:0:0:0:
256,192,523191,1,0,0:0:0:0:
256,192,523349,1,6,0:0:0:0:
256,192,523665,1,0,0:0:0:0:
256,192,523823,1,2,0:0:0:0:
256,192,523901,1,0,0:0:0:0:
256,192,523980,1,2,0:0:0:0:
256,192,524138,1,0,0:0:0:0:
256,192,524296,1,2,0:0:0:0:
256,192,524454,1,0,0:0:0:0:
256,192,524612,1,2,0:0:0:0:
256,192,524770,1,2,0:0:0:0:
256,192,524928,1,0,0:0:0:0:
256,192,525086,1,0,0:0:0:0:
256,192,525165,1,0,0:0:0:0:
256,192,525244,1,2,0:0:0:0:
256,192,525401,1,2,0:0:0:0:
256,192,525480,1,2,0:0:0:0:
256,192,525559,1,0,0:0:0:0:
256,192,525638,1,2,0:0:0:0:
256,192,525717,1,0,0:0:0:0:
256,192,525796,1,0,0:0:0:0:
256,192,525875,1,2,0:0:0:0:
256,192,526033,1,2,0:0:0:0:
256,192,526112,1,2,0:0:0:0:
256,192,526191,1,0,0:0:0:0:
256,192,526270,1,0,0:0:0:0:
256,192,526349,1,0,0:0:0:0:
256,192,526428,1,0,0:0:0:0:
256,192,526507,1,2,0:0:0:0:
256,192,526665,1,0,0:0:0:0:
256,192,526823,1,2,0:0:0:0:
256,192,526980,1,0,0:0:0:0:
256,192,527059,1,0,0:0:0:0:
256,192,527138,1,2,0:0:0:0:
256,192,527296,1,0,0:0:0:0:
256,192,527375,1,0,0:0:0:0:
256,192,527533,1,2,0:0:0:0:
256,192,527612,1,0,0:0:0:0:
256,192,527691,1,0,0:0:0:0:
256,192,527770,1,2,0:0:0:0:
256,192,527928,1,2,0:0:0:0:
256,192,528086,1,0,0:0:0:0:
256,192,528244,1,0,0:0:0:0:
256,192,528401,1,2,0:0:0:0:
256,192,528559,1,2,0:0:0:0:
256,192,528717,1,0,0:0:0:0:
256,192,528875,1,0,0:0:0:0:
256,192,528954,1,0,0:0:0:0:
256,192,529033,1,2,0:0:0:0:
256,192,529112,1,2,0:0:0:0:
256,192,529191,1,0,0:0:0:0:
256,192,529270,1,2,0:0:0:0:
256,192,529349,1,0,0:0:0:0:
256,192,529428,1,0,0:0:0:0:
256,192,529507,1,2,0:0:0:0:
256,192,529586,1,0,0:0:0:0:
256,192,529665,1,2,0:0:0:0:
256,192,529823,1,0,0:0:0:0:
256,192,529901,1,2,0:0:0:0:
256,192,529980,1,0,0:0:0:0:
256,192,530138,1,0,0:0:0:0:
256,192,530217,1,0,0:0:0:0:
256,192,530296,1,2,0:0:0:0:
256,192,530454,1,0,0:0:0:0:
256,192,530533,1,2,0:0:0:0:
256,192,530691,1,2,0:0:0:0:
256,192,530770,1,0,0:0:0:0:
256,192,530849,1,0,0:0:0:0:
256,192,530928,1,2,0:0:0:0:
256,192,531007,1,0,0:0:0:0:
256,192,531086,1,2,0:0:0:0:
256,192,531165,1,2,0:0:0:0:
256,192,531244,1,0,0:0:0:0:
256,192,531401,1,2,0:0:0:0:
256,192,531480,1,0,0:0:0:0:
256,192,531559,1,2,0:0:0:0:
256,192,531717,1,0,0:0:0:0:
256,192,531875,1,2,0:0:0:0:
256,192,531954,1,2,0:0:0:0:
256,192,532033,1,0,0:0:0:0:
256,192,532112,1,2,0:0:0:0:
256,192,532191,1,0,0:0:0:0:
256,192,532349,1,2,0:0:0:0:
256,192,532507,1,0,0:0:0:0:
256,192,532665,1,0,0:0:0:0:
256,192,532744,1,0,0:0:0:0:
256,192,532823,1,0,0:0:0:0:
256,192,532980,1,0,0:0:0:0:
256,192,533138,1,2,0:0:0:0:
256,192,533217,1,0,0:0:0:0:
256,192,533296,1,0,0:0:0:0:
256,192,533375,1,2,0:0:0:0:
256,192,533454,1,0,0:0:0:0:
256,192,533533,1,0,0:0:0:0:
256,192,533612,1,2,0:0:0:0:
256,192,533691,1,2,0:0:0:0:
256,192,533770,1,0,0:0:0:0:
256,192,533928,1,0,0:0:0:0:
256,192,534086,1,2,0:0:0:0:
256,192,534244,1,0,0:0:0:0:
256,192,534323,1,0,0:0:0:0:
256,192,534401,1,2,0:0:0:0:
256,192,534480,1,0,0:0:0:0:
256,192,534559,1,0,0:0:0:0:
256,192,534638,1,2,0:0:0:0:
256,192,534796,1,0,0:0:0:0:
256,192,534875,1,2,0:0:0:0:
256,192,534954,1,2,0:0:0:0:
256,192,535033,1,0,0:0:0:0:
256,192,535112,1,2,0:0:0:0:
256,192,535191,1,0,0:0:0:0:
256,192,535349,1,2,0:0:0:0:
256,192,535507,1,2,0:0:0:0:
256,192,535586,1,2,0:0:0:0:
256,192,535665,1,0,0:0:0:0:
256,192,535744,1,0,0:0:0:0:
256,192,535823,1,2,0:0:0:0:
256,192,535901,1,2,0:0:0:0:
256,192,536059,1,2,0:0:0:0:
256,192,536138,1,0,0:0:0:0:
256,192,536217,1,0,0:0:0:0:
256,192,536296,1,2,0:0:0:0:
256,192,536349,1,2,0:0:0:0:
256,192,536401,1,2,0:0:0:0:
256,192,536454,1,0,0:0:0:0:
256,192,536533,1,0,0:0:0:0:
256,192,536612,1,2,0:0:0:0:
256,192,536770,1,0,0:0:0:0:
256,192,536849,1,0,0:0:0:0:
256,192,536928,1,2,0:0:0:0:
256,192,537007,1,2,0:0:0:0:
256,192,537086,1,2,0:0:0:0:
256,192,537165,1,0,0:0:0:0:
256,192,537244,1,2,0:0:0:0:
256,192,537401,1,2,0:0:0:0:
256,192,537559,1,0,0:0:0:0:
256,192,537638,1,2,0:0:0:0:
256,192,537717,1,0,0:0:0:0:
256,192,537796,1,0,0:0:0:0:
256,192,537875,1,2,0:0:0:0:
256,192,538033,1,0,0:0:0:0:
256,192,538191,1,0,0:0:0:0:
256,192,538270,1,2,0:0:0:0:
256,192,538349,1,0,0:0:0:0:
256,192,538507,1,2,0:0:0:0:
256,192,538586,1,0,0:0:0:0:
256,192,538665,1,2,0:0:0:0:
256,192,538744,1,2,0:0:0:0:
256,192,538823,1,0,0:0:0:0:
256,192,538901,1,2,0:0:0:0:
256,192,538980,1,0,0:0:0:0:
256,192,539059,1,0,0:0:0:0:
256,192,539138,1,2,0:0:0:0:
256,192,539296,1,0,0:0:0:0:
256,192,539375,1,0,0:0:0:0:
256,192,539454,1,2,0:0:0:0:
256,192,539533,1,0,0:0:0:0:
256,192,539612,1,0,0:0:0:0:
256,192,539691,1,2,0:0:0:0:
256,192,539849,1,0,0:0:0:0:
256,192,539928,1,2,0:0:0:0:
256,192,540007,1,2,0:0:0:0:
256,192,540086,1,0,0:0:0:0:
256,192,540165,1,0,0:0:0:0:
256,192,540244,1,2,0:0:0:0:
256,192,540323,1,0,0:0:0:0:
256,192,540401,1,2,0:0:0:0:
256,192,540559,1,2,0:0:0:0:
256,192,540638,1,2,0:0:0:0:
256,192,540717,1,0,0:0:0:0:
256,192,540796,1,0,0:0:0:0:
256,192,540875,1,2,0:0:0:0:
256,192,540954,1,2,0:0:0:0:
256,192,541112,1,2,0:0:0:0:
256,192,541191,1,0,0:0:0:0:
256,192,541270,1,0,0:0:0:0:
256,192,541349,1,2,0:0:0:0:
256,192,541401,1,2,0:0:0:0:
256,192,541454,1,2,0:0:0:0:
256,192,541507,1,0,0:0:0:0:
256,192,541586,1,0,0:0:0:0:
256,192,541665,1,2,0:0:0:0:
256,192,541823,1,0,0:0:0:0:
256,192,541901,1,0,0:0:0:0:
256,192,541980,1,2,0:0:0:0:
256,192,542059,1,2,0:0:0:0:
256,192,542138,1,2,0:0:0:0:
256,192,542217,1,0,0:0:0:0:
256,192,542296,1,2,0:0:0:0:
256,192,542454,1,2,0:0:0:0:
256,192,542533,1,2,0:0:0:0:
256,192,542612,1,0,0:0:0:0:
256,192,542770,1,0,0:0:0:0:
256,192,542928,1,2,0:0:0:0:
256,192,543086,1,0,0:0:0:0:
256,192,543244,1,2,0:0:0:0:
256,192,543323,1,0,0:0:0:0:
256,192,543401,1,2,0:0:0:0:
256,192,543480,1,2,0:0:0:0:
256,192,543559,1,0,0:0:0:0:
256,192,543638,1,2,0:0:0:0:
256,192,543717,1,2,0:0:0:0:
256,192,543796,1,2,0:0:0:0:
256,192,543875,1,0,0:0:0:0:
256,192,544033,1,0,0:0:0:0:
256,192,544191,1,2,0:0:0:0:
256,192,544349,1,2,0:0:0:0:
256,192,544428,1,2,0:0:0:0:
256,192,544507,1,0,0:0:0:0:
256,192,544586,1,2,0:0:0:0:
256,192,544744,1,0,0:0:0:0:
256,192,544823,1,2,0:0:0:0:
256,192,544980,1,2,0:0:0:0:
256,192,545059,1,2,0:0:0:0:
256,192,545138,1,0,0:0:0:0:
256,192,545217,1,0,0:0:0:0:
256,192,545296,1,2,0:0:0:0:
256,192,545375,1,0,0:0:0:0:
256,192,545454,1,2,0:0:0:0:
256,192,545533,1,2,0:0:0:0:
256,192,545612,1,0,0:0:0:0:
256,192,545691,1,2,0:0:0:0:
256,192,545770,1,0,0:0:0:0:
256,192,545928,1,2,0:0:0:0:
256,192,546007,1,0,0:0:0:0:
256,192,546086,1,0,0:0:0:0:
256,192,546165,1,2,0:0:0:0:
256,192,546244,1,0,0:0:0:0:
256,192,546323,1,0,0:0:0:0:
256,192,546401,1,2,0:0:0:0:
256,192,546559,1,0,0:0:0:0:
256,192,546638,1,0,0:0:0:0:
256,192,546717,1,2,0:0:0:0:
256,192,546875,1,2,0:0:0:0:
256,192,546954,1,2,0:0:0:0:
256,192,547033,1,0,0:0:0:0:
256,192,547112,1,2,0:0:0:0:
256,192,547270,1,0,0:0:0:0:
256,192,547349,1,2,0:0:0:0:
256,192,547507,1,2,0:0:0:0:
256,192,547586,1,2,0:0:0:0:
256,192,547665,1,0,0:0:0:0:
256,192,547744,1,0,0:0:0:0:
256,192,547823,1,2,0:0:0:0:
256,192,547901,1,0,0:0:0:0:
256,192,547980,1,0,0:0:0:0:
256,192,548059,1,2,0:0:0:0:
256,192,548138,1,0,0:0:0:0:
256,192,548217,1,0,0:0:0:0:
256,192,548296,1,2,0:0:0:0:
256,192,548454,1,0,0:0:0:0:
256,192,548612,1,2,0:0:0:0:
256,192,548770,1,2,0:0:0:0:
256,192,548928,1,0,0:0:0:0:
256,192,549007,1,2,0:0:0:0:
256,192,549086,1,0,0:0:0:0:
256,192,549165,1,0,0:0:0:0:
256,192,549244,1,2,0:0:0:0:
256,192,549401,1,2,0:0:0:0:
256,192,549480,1,2,0:0:0:0:
256,192,549559,1,0,0:0:0:0:
256,192,549638,1,2,0:0:0:0:
256,192,549796,1,0,0:0:0:0:
256,192,549875,1,2,0:0:0:0:
256,192,550033,1,2,0:0:0:0:
256,192,550112,1,2,0:0:0:0:
256,192,550191,1,0,0:0:0:0:
256,192,550270,1,0,0:0:0:0:
256,192,550428,1,0,0:0:0:0:
256,192,550507,1,2,0:0:0:0:
256,192,550665,1,2,0:0:0:0:
256,192,550744,1,2,0:0:0:0:
256,192,550823,1,0,0:0:0:0:
256,192,550901,1,2,0:0:0:0:
256,192,550980,1,2,0:0:0:0:
256,192,551059,1,0,0:0:0:0:
256,192,551138,1,2,0:0:0:0:
256,192,551296,1,2,0:0:0:0:
256,192,551375,1,2,0:0:0:0:
256,192,551454,1,0,0:0:0:0:
256,192,551612,1,0,0:0:0:0:
256,192,551770,1,2,0:0:0:0:
256,192,551928,1,0,0:0:0:0:
256,192,552086,1,0,0:0:0:0:
256,192,552165,1,2,0:0:0:0:
256,192,552244,1,0,0:0:0:0:
256,192,552401,1,2,0:0:0:0:
256,192,552559,1,2,0:0:0:0:
256,192,552638,1,2,0:0:0:0:
256,192,552717,1,0,0:0:0:0:
256,192,552796,1,0,0:0:0:0:
256,192,552875,1,2,0:0:0:0:
256,192,552954,1,0,0:0:0:0:
256,192,553033,1,2,0:0:0:0:
256,192,553349,1,6,0:0:0:0:
256,192,553586,1,6,0:0:0:0:
256,192,553823,1,6,0:0:0:0:
256,192,553980,1,0,0:0:0:0:
256,192,554296,1,2,0:0:0:0:
256,192,554454,1,0,0:0:0:0:
256,192,554770,1,0,0:0:0:0:
256,192,554928,1,2,0:0:0:0:
256,192,555086,1,0,0:0:0:0:
256,192,555244,1,2,0:0:0:0:
256,192,555559,1,2,0:0:0:0:
256,192,555717,1,0,0:0:0:0:
256,192,556033,1,0,0:0:0:0:
256,192,556191,1,2,0:0:0:0:
256,192,556349,1,2,0:0:0:0:
256,192,556507,1,0,0:0:0:0:
256,192,556823,1,2,0:0:0:0:
256,192,556980,1,2,0:0:0:0:
256,192,557296,1,2,0:0:0:0:
256,192,557454,1,2,0:0:0:0:
256,192,557612,1,0,0:0:0:0:
256,192,557770,1,2,0:0:0:0:
256,192,558086,1,2,0:0:0:0:
256,192,558244,1,2,0:0:0:0:
256,192,558559,1,2,0:0:0:0:
256,192,558717,1,2,0:0:0:0:
256,192,558875,1,2,0:0:0:0:
256,192,559033,1,0,0:0:0:0:
256,192,559349,1,2,0:0:0:0:
256,192,559665,1,0,0:0:0:0:
256,192,559980,1,2,0:0:0:0:
256,192,560296,1,0,0:0:0:0:
256,192,560612,1,2,0:0:0:0:
256,192,560770,1,2,0:0:0:0:
256,192,560849,1,2,0:0:0:0:
256,192,560928,1,0,0:0:0:0:
256,192,561086,1,0,0:0:0:0:
256,192,561244,1,2,0:0:0:0:
256,192,561401,1,0,0:0:0:0:
256,192,561559,1,0,0:0:0:0:
256,192,561717,1,0,0:0:0:0:
256,192,561875,1,2,0:0:0:0:
256,192,562033,1,0,0:0:0:0:
256,192,562112,1,2,0:0:0:0:
256,192,562191,1,0,0:0:0:0:
256,192,562349,1,0,0:0:0:0:
256,192,562507,1,2,0:0:0:0:
256,192,562665,1,0,0:0:0:0:
256,192,562823,1,0,0:0:0:0:
256,192,562901,1,0,0:0:0:0:
256,192,562980,1,0,0:0:0:0:
256,192,563059,1,0,0:0:0:0:
256,192,563138,1,2,0:0:0:0:
256,192,563217,1,0,0:0:0:0:
256,192,563296,1,0,0:0:0:0:
256,192,563375,1,0,0:0:0:0:
256,192,563454,1,2,0:0:0:0:
256,192,563533,1,2,0:0:0:0:
256,192,563612,1,0,0:0:0:0:
256,192,563691,1,2,0:0:0:0:
256,192,563770,1,0,0:0:0:0:
256,192,563849,1,0,0:0:0:0:
256,192,563928,1,2,0:0:0:0:
256,192,564007,1,0,0:0:0:0:
256,192,564086,1,2,0:0:0:0:
256,192,564165,1,2,0:0:0:0:
256,192,564244,1,2,0:0:0:0:
256,192,564323,1,0,0:0:0:0:
256,192,564401,1,2,0:0:0:0:
256,192,564480,1,2,0:0:0:0:
256,192,564559,1,0,0:0:0:0:
256,192,564638,1,0,0:0:0:0:
256,192,564717,1,2,0:0:0:0:
256,192,564796,1,0,0:0:0:0:
256,192,564875,1,2,0:0:0:0:
256,192,564954,1,2,0:0:0:0:
256,192,565033,1,0,0:0:0:0:
256,192,565112,1,0,0:0:0:0:
256,192,565191,1,2,0:0:0:0:
256,192,565270,1,0,0:0:0:0:
256,192,565349,1,0,0:0:0:0:
256,192,565823,1,2,0:0:0:0:
256,192,566296,1,2,0:0:0:0:
256,192,566612,1,0,0:0:0:0:
256,192,567244,1,0,0:0:0:0:
256,192,567875,1,2,0:0:0:0:
256,192,568191,1,0,0:0:0:0:
256,192,568507,1,0,0:0:0:0:
256,192,568823,1,2,0:0:0:0:
256,192,568980,1,2,0:0:0:0:
256,192,569138,1,2,0:0:0:0:
256,192,569770,1,2,0:0:0:0:
256,192,569928,1,2,0:0:0:0:
256,192,570244,1,2,0:0:0:0:
256,192,570401,1,0,0:0:0:0:
256,192,570559,1,0,0:0:0:0:
256,192,570717,1,2,0:0:0:0:
256,192,570875,1,0,0:0:0:0:
256,192,571191,1,0,0:0:0:0:
256,192,571349,1,2,0:0:0:0:
256,192,571507,1,2,0:0:0:0:
256,192,571665,1,0,0:0:0:0:
256,192,572296,1,2,0:0:0:0:
256,192,572612,1,2,0:0:0:0:
256,192,572928,1,0,0:0:0:0:
256,192,573086,1,0,0:0:0:0:
256,192,573244,1,2,0:0:0:0:
256,192,573401,1,2,0:0:0:0:
256,192,573559,1,0,0:0:0:0:
256,192,573717,1,0,0:0:0:0:
256,192,573875,1,2,0:0:0:0:
256,192,574191,1,2,0:0:0:0:
256,192,574507,1,2,0:0:0:0:
256,192,574823,1,2,0:0:0:0:
256,192,575296,1,0,0:0:0:0:
256,192,575375,1,0,0:0:0:0:
256,192,575454,1,2,0:0:0:0:
256,192,576244,1,2,0:0:0:0:
256,192,576559,1,2,0:0:0:0:
256,192,576717,1,0,0:0:0:0:
256,192,577033,1,2,0:0:0:0:
256,192,577349,1,0,0:0:0:0:
256,192,577507,1,2,0:0:0:0:
256,192,577823,1,2,0:0:0:0:
256,192,577980,1,0,0:0:0:0:
256,192,578217,1,2,0:0:0:0:
256,192,578454,1,0,0:0:0:0:
256,192,578770,1,2,0:0:0:0:
256,192,579007,1,2,0:0:0:0:
256,192,579244,1,0,0:0:0:0:
256,192,579480,1,2,0:0:0:0:
256,192,579717,1,0,0:0:0:0:
256,192,579875,1,2,0:0:0:0:
256,192,580191,1,0,0:0:0:0:
256,192,580349,1,0,0:0:0:0:
256,192,580507,1,2,0:0:0:0:
256,192,580665,1,2,0:0:0:0:
256,192,580823,1,0,0:0:0:0:
256,192,580980,1,0,0:0:0:0:
256,192,581138,1,2,0:0:0:0:
256,192,581454,1,2,0:0:0:0:
256,192,581770,1,0,0:0:0:0:
256,192,581928,1,2,0:0:0:0:
256,192,582086,1,2,0:0:0:0:
256,192,582244,1,2,0:0:0:0:
256,192,582401,1,0,0:0:0:0:
256,192,583033,1,2,0:0:0:0:
256,192,583507,1,2,0:0:0:0:
256,192,583980,1,2,0:0:0:0:
256,192,584454,1,2,0:0:0:0:
256,192,584928,1,0,0:0:0:0:
256,192,585086,1,2,0:0:0:0:
256,192,585165,1,2,0:0:0:0:
256,192,585244,1,0,0:0:0:0:
256,192,585401,1,2,0:0:0:0:
256,192,585480,1,2,0:0:0:0:
256,192,585559,1,0,0:0:0:0:
256,192,585717,1,0,0:0:0:0:
256,192,585796,1,0,0:0:0:0:
256,192,585875,1,2,0:0:0:0:
256,192,586033,1,0,0:0:0:0:
256,192,586191,1,0,0:0:0:0:
256,192,586270,1,2,0:0:0:0:
256,192,586349,1,0,0:0:0:0:
256,192,586507,1,2,0:0:0:0:
256,192,586586,1,2,0:0:0:0:
256,192,586665,1,0,0:0:0:0:
256,192,586744,1,2,0:0:0:0:
256,192,586823,1,0,0:0:0:0:
256,192,586980,1,2,0:0:0:0:
256,192,587059,1,2,0:0:0:0:
256,192,587138,1,0,0:0:0:0:
256,192,587217,1,0,0:0:0:0:
256,192,587296,1,2,0:0:0:0:
256,192,587454,1,0,0:0:0:0:
256,192,587533,1,0,0:0:0:0:
256,192,587612,1,2,0:0:0:0:
256,192,587691,1,0,0:0:0:0:
256,192,587770,1,2,0:0:0:0:
256,192,587849,1,2,0:0:0:0:
256,192,587928,1,2,0:0:0:0:
256,192,588007,1,2,0:0:0:0:
256,192,588086,1,0,0:0:0:0:
256,192,588401,1,2,0:0:0:0:
256,192,588559,1,2,0:0:0:0:
256,192,588638,1,2,0:0:0:0:
256,192,588717,1,0,0:0:0:0:
256,192,588875,1,0,0:0:0:0:
256,192,589033,1,2,0:0:0:0:
256,192,589349,1,0,0:0:0:0:
256,192,589428,1,0,0:0:0:0:
256,192,589586,1,0,0:0:0:0:
256,192,589665,1,2,0:0:0:0:
256,192,589823,1,2,0:0:0:0:
256,192,589980,1,0,0:0:0:0:
256,192,590138,1,0,0:0:0:0:
256,192,590296,1,2,0:0:0:0:
256,192,590612,1,0,0:0:0:0:
256,192,590691,1,2,0:0:0:0:
256,192,590770,1,0,0:0:0:0:
256,192,590849,1,0,0:0:0:0:
256,192,590928,1,2,0:0:0:0:
256,192,591086,1,2,0:0:0:0:
256,192,591244,1,0,0:0:0:0:
256,192,591401,1,0,0:0:0:0:
256,192,591480,1,0,0:0:0:0:
256,192,591559,1,2,0:0:0:0:
256,192,591875,1,0,0:0:0:0:
256,192,592033,1,0,0:0:0:0:
256,192,592191,1,2,0:0:0:0:
256,192,592349,1,2,0:0:0:0:
256,192,592507,1,0,0:0:0:0:
256,192,592823,1,2,0:0:0:0:
256,192,592901,1,2,0:0:0:0:
256,192,592980,1,0,0:0:0:0:
256,192,593059,1,2,0:0:0:0:
256,192,593138,1,0,0:0:0:0:
256,192,593454,1,2,0:0:0:0:
256,192,593691,1,2,0:0:0:0:
256,192,593770,1,0,0:0:0:0:
256,192,593928,1,2,0:0:0:0:
256,192,594086,1,0,0:0:0:0:
256,192,594165,1,0,0:0:0:0:
256,192,594244,1,2,0:0:0:0:
256,192,594401,1,0,0:0:0:0:
256,192,594559,1,0,0:0:0:0:
256,192,594717,1,2,0:0:0:0:
256,192,594875,1,0,0:0:0:0:
256,192,594954,1,2,0:0:0:0:
256,192,595033,1,0,0:0:0:0:
256,192,595191,1,0,0:0:0:0:
256,192,595349,1,2,0:0:0:0:
256,192,595507,1,2,0:0:0:0:
256,192,595665,1,0,0:0:0:0:
256,192,595744,1,2,0:0:0:0:
256,192,595823,1,2,0:0:0:0:
256,192,595901,1,0,0:0:0:0:
256,192,595980,1,2,0:0:0:0:
256,192,596138,1,2,0:0:0:0:
256,192,596217,1,2,0:0:0:0:
256,192,596296,1,0,0:0:0:0:
256,192,596375,1,0,0:0:0:0:
256,192,596533,1,0,0:0:0:0:
256,192,596612,1,2,0:0:0:0:
256,192,596770,1,2,0:0:0:0:
256,192,596928,1,0,0:0:0:0:
256,192,597086,1,0,0:0:0:0:
256,192,597244,1,2,0:0:0:0:
256,192,597401,1,2,0:0:0:0:
256,192,597559,1,0,0:0:0:0:
256,192,597638,1,0,0:0:0:0:
256,192,597717,1,2,0:0:0:0:
256,192,597796,1,0,0:0:0:0:
256,192,597875,1,2,0:0:0:0:
256,192,597954,1,2,0:0:0:0:
256,192,598033,1,2,0:0:0:0:
256,192,598112,1,2,0:0:0:0:
256,192,598191,1,0,0:0:0:0:
256,192,598507,1,2,0:0:0:0:
256,192,598665,1,0,0:0:0:0:
256,192,598744,1,2,0:0:0:0:
256,192,598823,1,0,0:0:0:0:
256,192,598980,1,0,0:0:0:0:
256,192,599138,1,2,0:0:0:0:
256,192,599296,1,2,0:0:0:0:
256,192,599375,1,2,0:0:0:0:
256,192,599454,1,0,0:0:0:0:
256,192,599533,1,0,0:0:0:0:
256,192,599691,1,0,0:0:0:0:
256,192,599770,1,2,0:0:0:0:
256,192,599928,1,2,0:0:0:0:
256,192,600086,1,0,0:0:0:0:
256,192,600401,1,2,0:0:0:0:
256,192,600559,1,2,0:0:0:0:
256,192,600717,1,0,0:0:0:0:
256,192,600954,1,0,0:0:0:0:
256,192,601033,1,2,0:0:0:0:
256,192,601191,1,2,0:0:0:0:
256,192,601349,1,0,0:0:0:0:
256,192,601428,1,2,0:0:0:0:
256,192,601507,1,0,0:0:0:0:
256,192,601665,1,2,0:0:0:0:
256,192,601823,1,2,0:0:0:0:
256,192,601980,1,0,0:0:0:0:
256,192,602138,1,2,0:0:0:0:
256,192,602454,1,2,0:0:0:0:
256,192,602533,1,2,0:0:0:0:
256,192,602612,1,0,0:0:0:0:
256,192,602770,1,2,0:0:0:0:
256,192,602928,1,0,0:0:0:0:
256,192,603086,1,2,0:0:0:0:
256,192,603244,1,0,0:0:0:0:
256,192,603559,1,2,0:0:0:0:
256,192,603717,1,2,0:0:0:0:
256,192,603875,1,0,0:0:0:0:
256,192,604033,1,2,0:0:0:0:
256,192,604349,1,2,0:0:0:0:
256,192,604428,1,2,0:0:0:0:
256,192,604507,1,0,0:0:0:0:
256,192,604665,1,0,0:0:0:0:
256,192,604823,1,2,0:0:0:0:
256,192,604980,1,0,0:0:0:0:
256,192,605138,1,0,0:0:0:0:
256,192,605217,1,2,0:0:0:0:
256,192,605296,1,0,0:0:0:0:
256,192,605454,1,2,0:0:0:0:
256,192,605533,1,0,0:0:0:0:
256,192,605612,1,2,0:0:0:0:
256,192,605691,1,2,0:0:0:0:
256,192,605770,1,0,0:0:0:0:
256,192,605849,1,2,0:0:0:0:
256,192,605928,1,0,0:0:0:0:
256,192,606086,1,2,0:0:0:0:
256,192,606244,1,0,0:0:0:0:
256,192,606323,1,2,0:0:0:0:
256,192,606559,1,0,0:0:0:0:
256,192,606638,1,0,0:0:0:0:
256,192,606717,1,2,0:0:0:0:
256,192,606875,1,0,0:0:0:0:
256,192,606954,1,2,0:0:0:0:
256,192,607033,1,0,0:0:0:0:
256,192,607191,1,0,0:0:0:0:
256,192,607349,1,2,0:0:0:0:
256,192,607428,1,0,0:0:0:0:
256,192,607507,1,2,0:0:0:0:
256,192,607586,1,2,0:0:0:0:
256,192,607665,1,0,0:0:0:0:
256,192,607823,1,0,0:0:0:0:
256,192,607901,1,0,0:0:0:0:
256,192,607980,1,2,0:0:0:0:
256,192,608059,1,2,0:0:0:0:
256,192,608138,1,0,0:0:0:0:
256,192,608191,1,2,0:0:0:0:
256,192,608244,1,2,0:0:0:0:
256,192,608296,1,0,0:0:0:0:
256,192,608612,1,2,0:0:0:0:
256,192,608928,1,0,0:0:0:0:
256,192,609086,1,0,0:0:0:0:
256,192,609244,1,2,0:0:0:0:
256,192,609559,1,0,0:0:0:0:
256,192,609717,1,0,0:0:0:0:
256,192,609875,1,2,0:0:0:0:
256,192,610112,1,2,0:0:0:0:
256,192,610191,1,0,0:0:0:0:
256,192,610349,1,0,0:0:0:0:
256,192,610507,1,2,0:0:0:0:
256,192,610665,1,0,0:0:0:0:
256,192,610744,1,0,0:0:0:0:
256,192,610823,1,0,0:0:0:0:
256,192,611138,1,2,0:0:0:0:
256,192,611454,1,0,0:0:0:0:
256,192,611612,1,0,0:0:0:0:
256,192,611770,1,2,0:0:0:0:
256,192,612086,1,0,0:0:0:0:
256,192,612244,1,0,0:0:0:0:
256,192,612401,1,2,0:0:0:0:
256,192,612559,1,0,0:0:0:0:
256,192,612638,1,2,0:0:0:0:
256,192,612717,1,0,0:0:0:0:
256,192,612875,1,0,0:0:0:0:
256,192,613033,1,2,0:0:0:0:
256,192,613191,1,2,0:0:0:0:
256,192,613270,1,2,0:0:0:0:
256,192,613349,1,0,0:0:0:0:
256,192,613665,1,2,0:0:0:0:
256,192,613823,1,2,0:0:0:0:
256,192,613980,1,0,0:0:0:0:
256,192,614138,1,0,0:0:0:0:
256,192,614296,1,2,0:0:0:0:
256,192,614612,1,0,0:0:0:0:
256,192,614770,1,0,0:0:0:0:
256,192,614928,1,2,0:0:0:0:
256,192,615165,1,2,0:0:0:0:
256,192,615244,1,0,0:0:0:0:
256,192,615401,1,0,0:0:0:0:
256,192,615559,1,2,0:0:0:0:
256,192,615717,1,0,0:0:0:0:
256,192,615796,1,0,0:0:0:0:
256,192,615875,1,0,0:0:0:0:
256,192,616033,1,2,0:0:0:0:
256,192,616191,1,0,0:0:0:0:
256,192,616349,1,2,0:0:0:0:
256,192,616428,1,2,0:0:0:0:
256,192,616507,1,0,0:0:0:0:
256,192,616665,1,0,0:0:0:0:
256,192,616823,1,2,0:0:0:0:
256,192,616980,1,0,0:0:0:0:
256,192,617138,1,2,0:0:0:0:
256,192,617296,1,0,0:0:0:0:
256,192,617454,1,2,0:0:0:0:
256,192,617612,1,0,0:0:0:0:
256,192,617691,1,2,0:0:0:0:
256,192,617770,1,0,0:0:0:0:
256,192,617928,1,0,0:0:0:0:
256,192,618086,1,2,0:0:0:0:
256,192,618401,1,4,0:0:0:0:
256,192,618717,1,2,0:0:0:0:
256,192,619033,1,0,0:0:0:0:
256,192,619191,1,0,0:0:0:0:
256,192,619349,1,2,0:0:0:0:
256,192,619665,1,0,0:0:0:0:
256,192,619823,1,0,0:0:0:0:
256,192,619980,1,2,0:0:0:0:
256,192,620217,1,2,0:0:0:0:
256,192,620296,1,0,0:0:0:0:
256,192,620454,1,0,0:0:0:0:
256,192,620612,1,2,0:0:0:0:
256,192,620770,1,0,0:0:0:0:
256,192,620849,1,0,0:0:0:0:
256,192,620928,1,0,0:0:0:0:
256,192,621244,1,2,0:0:0:0:
256,192,621559,1,0,0:0:0:0:
256,192,621717,1,0,0:0:0:0:
256,192,621875,1,2,0:0:0:0:
256,192,622191,1,0,0:0:0:0:
256,192,622349,1,0,0:0:0:0:
256,192,622507,1,2,0:0:0:0:
256,192,622665,1,0,0:0:0:0:
256,192,622744,1,2,0:0:0:0:
256,192,622823,1,0,0:0:0:0:
256,192,622980,1,0,0:0:0:0:
256,192,623138,1,2,0:0:0:0:
256,192,623296,1,2,0:0:0:0:
256,192,623375,1,2,0:0:0:0:
256,192,623454,1,0,0:0:0:0:
256,192,623770,1,2,0:0:0:0:
256,192,623928,1,2,0:0:0:0:
256,192,624086,1,0,0:0:0:0:
256,192,624244,1,0,0:0:0:0:
256,192,624401,1,2,0:0:0:0:
256,192,624717,1,0,0:0:0:0:
256,192,624875,1,0,0:0:0:0:
256,192,625033,1,2,0:0:0:0:
256,192,625270,1,2,0:0:0:0:
256,192,625349,1,0,0:0:0:0:
256,192,625507,1,0,0:0:0:0:
256,192,625665,1,2,0:0:0:0:
256,192,625823,1,0,0:0:0:0:
256,192,625901,1,0,0:0:0:0:
256,192,625980,1,2,0:0:0:0:
256,192,626138,1,0,0:0:0:0:
256,192,626296,1,2,0:0:0:0:
256,192,626454,1,0,0:0:0:0:
256,192,626533,1,0,0:0:0:0:
256,192,626612,1,2,0:0:0:0:
256,192,626770,1,0,0:0:0:0:
256,192,626849,1,0,0:0:0:0:
256,192,626928,1,2,0:0:0:0:
256,192,627007,1,0,0:0:0:0:
256,192,627086,1,0,0:0:0:0:
256,192,627165,1,0,0:0:0:0:
256,192,627244,1,2,0:0:0:0:
256,192,627323,1,2,0:0:0:0:
256,192,627401,1,2,0:0:0:0:
256,192,627480,1,2,0:0:0:0:
256,192,627559,1,0,0:0:0:0:
256,192,627638,1,0,0:0:0:0:
256,192,627717,1,0,0:0:0:0:
256,192,627796,1,0,0:0:0:0:
256,192,627875,1,2,0:0:0:0:
256,192,627954,1,0,0:0:0:0:
256,192,628033,1,0,0:0:0:0:
256,192,628112,1,0,0:0:0:0:
256,192,628191,1,2,0:0:0:0:
256,192,628270,1,2,0:0:0:0:
256,192,628349,1,0,0:0:0:0:
256,192,628428,1,2,0:0:0:0:
256,192,628507,1,0,0:0:0:0:
256,192,629612,1,0,0:0:0:0:
256,192,629691,1,0,0:0:0:0:
256,192,629770,1,2,0:0:0:0:
256,192,630086,1,0,0:0:0:0:
256,192,630244,1,0,0:0:0:0:
256,192,630559,1,2,0:0:0:0:
256,192,630717,1,0,0:0:0:0:
256,192,631033,1,4,0:0:0:0:
256,192,632296,1,0,0:0:0:0:
256,192,632454,1,2,0:0:0:0:
256,192,632533,1,2,0:0:0:0:
256,192,632612,1,2,0:0:0:0:
256,192,632770,1,2,0:0:0:0:
256,192,632928,1,0,0:0:0:0:
256,192,633086,1,2,0:0:0:0:
256,192,633244,1,0,0:0:0:0:
256,192,633559,1,4,0:0:0:0:
256,192,634033,1,2,0:0:0:0:
256,192,634349,1,0,0:0:0:0:
256,192,634507,1,0,0:0:0:0:
256,192,634823,1,2,0:0:0:0:
256,192,634980,1,0,0:0:0:0:
256,192,635296,1,0,0:0:0:0:
256,192,635454,1,2,0:0:0:0:
256,192,635612,1,2,0:0:0:0:
256,192,635770,1,0,0:0:0:0:
256,192,635928,1,2,0:0:0:0:
256,192,636086,1,4,0:0:0:0:
256,192,636875,1,0,0:0:0:0:
256,192,637191,1,2,0:0:0:0:
256,192,637349,1,0,0:0:0:0:
256,192,637507,1,0,0:0:0:0:
256,192,637823,1,2,0:0:0:0:
256,192,637980,1,0,0:0:0:0:
256,192,638138,1,0,0:0:0:0:
256,192,638296,1,2,0:0:0:0:
256,192,638612,1,4,0:0:0:0:
256,192,639454,1,2,0:0:0:0:
256,192,639559,1,2,0:0:0:0:
256,192,639770,1,2,0:0:0:0:
256,192,639875,1,0,0:0:0:0:
256,192,640191,1,2,0:0:0:0:
256,192,641138,1,2,0:0:0:0:
256,192,643042,1,2,0:0:0:0:
256,192,643677,1,2,0:0:0:0:
256,192,645277,1,2,0:0:0:0:
256,192,647584,1,0,0:0:0:0:
256,192,647847,8,0,650741,0:0:0:0:
256,192,651794,5,2,0:0:0:0:
256,192,656367,1,2,0:0:0:0:
256,192,656659,1,2,0:0:0:0:
256,192,656952,1,2,0:0:0:0:
256,192,657098,1,0,0:0:0:0:
256,192,657171,1,0,0:0:0:0:
256,192,657245,1,2,0:0:0:0:
256,192,657537,1,4,0:0:0:0:
256,192,657830,1,2,0:0:0:0:
256,192,657976,1,2,0:0:0:0:
256,192,658269,1,0,0:0:0:0:
256,192,658415,1,2,0:0:0:0:
256,192,658708,1,4,0:0:0:0:
256,192,659001,1,2,0:0:0:0:
256,192,659147,1,2,0:0:0:0:
256,192,659440,1,0,0:0:0:0:
256,192,659586,1,2,0:0:0:0:
256,192,659732,1,2,0:0:0:0:
256,192,659879,1,4,0:0:0:0:
256,192,660318,1,0,0:0:0:0:
256,192,660464,1,2,0:0:0:0:
256,192,660610,1,0,0:0:0:0:
256,192,660903,1,4,0:0:0:0:
256,192,661196,1,0,0:0:0:0:
256,192,661342,1,2,0:0:0:0:
256,192,661415,1,2,0:0:0:0:
256,192,661488,1,0,0:0:0:0:
256,192,661562,1,0,0:0:0:0:
256,192,661635,1,2,0:0:0:0:
256,192,661708,1,0,0:0:0:0:
256,192,661781,1,0,0:0:0:0:
256,192,661854,1,0,0:0:0:0:
256,192,661927,1,2,0:0:0:0:
256,192,662074,1,2,0:0:0:0:
256,192,662220,1,0,0:0:0:0:
256,192,662367,1,0,0:0:0:0:
256,192,662659,1,0,0:0:0:0:
256,192,662806,1,2,0:0:0:0:
256,192,663098,1,0,0:0:0:0:
256,192,663245,1,0,0:0:0:0:
256,192,663391,1,0,0:0:0:0:
256,192,663537,1,2,0:0:0:0:
256,192,663684,1,0,0:0:0:0:
256,192,663830,1,0,0:0:0:0:
256,192,663976,1,2,0:0:0:0:
256,192,664269,1,0,0:0:0:0:
256,192,664415,1,0,0:0:0:0:
256,192,664562,1,2,0:0:0:0:
256,192,664854,1,2,0:0:0:0:
256,192,665001,1,0,0:0:0:0:
256,192,665147,1,2,0:0:0:0:
256,192,665293,1,0,0:0:0:0:
256,192,665440,1,2,0:0:0:0:
256,192,665586,1,0,0:0:0:0:
256,192,665659,1,0,0:0:0:0:
256,192,665732,1,2,0:0:0:0:
256,192,665806,1,2,0:0:0:0:
256,192,665879,1,0,0:0:0:0:
256,192,666025,1,2,0:0:0:0:
256,192,666171,1,0,0:0:0:0:
256,192,666464,1,0,0:0:0:0:
256,192,666610,1,2,0:0:0:0:
256,192,666684,1,2,0:0:0:0:
256,192,666757,1,2,0:0:0:0:
256,192,666830,1,2,0:0:0:0:
256,192,666903,1,0,0:0:0:0:
256,192,667196,1,2,0:0:0:0:
256,192,667488,1,0,0:0:0:0:
256,192,667635,1,0,0:0:0:0:
256,192,667781,1,2,0:0:0:0:
256,192,668074,1,0,0:0:0:0:
256,192,668367,1,2,0:0:0:0:
256,192,668513,1,0,0:0:0:0:
256,192,668806,1,0,0:0:0:0:
256,192,668952,1,2,0:0:0:0:
256,192,669098,1,2,0:0:0:0:
256,192,669245,1,0,0:0:0:0:
256,192,669537,1,2,0:0:0:0:
256,192,669684,1,2,0:0:0:0:
256,192,669830,1,0,0:0:0:0:
256,192,669976,1,2,0:0:0:0:
256,192,670123,1,2,0:0:0:0:
256,192,670269,1,0,0:0:0:0:
256,192,670562,1,0,0:0:0:0:
256,192,670635,1,0,0:0:0:0:
256,192,670708,1,2,0:0:0:0:
256,192,670854,1,0,0:0:0:0:
256,192,671147,1,0,0:0:0:0:
256,192,671293,1,2,0:0:0:0:
256,192,671440,1,0,0:0:0:0:
256,192,671513,1,2,0:0:0:0:
256,192,671586,1,0,0:0:0:0:
256,192,671879,1,2,0:0:0:0:
256,192,672171,1,0,0:0:0:0:
256,192,672318,1,0,0:0:0:0:
256,192,672464,1,2,0:0:0:0:
256,192,672757,1,0,0:0:0:0:
256,192,672903,1,2,0:0:0:0:
256,192,672976,1,2,0:0:0:0:
256,192,673049,1,2,0:0:0:0:
256,192,673196,1,2,0:0:0:0:
256,192,673342,1,0,0:0:0:0:
256,192,673415,1,2,0:0:0:0:
256,192,673488,1,0,0:0:0:0:
256,192,673635,1,2,0:0:0:0:
256,192,673708,1,2,0:0:0:0:
256,192,673781,1,0,0:0:0:0:
256,192,673854,1,0,0:0:0:0:
256,192,673927,1,2,0:0:0:0:
256,192,674220,1,2,0:0:0:0:
256,192,674367,1,0,0:0:0:0:
256,192,674440,1,0,0:0:0:0:
256,192,674513,1,2,0:0:0:0:
256,192,674659,1,0,0:0:0:0:
256,192,674806,1,2,0:0:0:0:
256,192,674952,1,0,0:0:0:0:
256,192,675098,1,2,0:0:0:0:
256,192,675391,1,2,0:0:0:0:
256,192,675537,1,0,0:0:0:0:
256,192,675610,1,0,0:0:0:0:
256,192,675684,1,2,0:0:0:0:
256,192,675830,1,0,0:0:0:0:
256,192,675903,1,0,0:0:0:0:
256,192,675976,1,2,0:0:0:0:
256,192,676049,1,0,0:0:0:0:
256,192,676123,1,0,0:0:0:0:
256,192,676196,1,0,0:0:0:0:
256,192,676269,1,2,0:0:0:0:
256,192,676415,1,0,0:0:0:0:
256,192,676562,1,2,0:0:0:0:
256,192,676708,1,0,0:0:0:0:
256,192,676781,1,0,0:0:0:0:
256,192,676854,1,2,0:0:0:0:
256,192,677001,1,0,0:0:0:0:
256,192,677147,1,2,0:0:0:0:
256,192,677293,1,0,0:0:0:0:
256,192,677367,1,0,0:0:0:0:
256,192,677440,1,2,0:0:0:0:
256,192,677586,1,2,0:0:0:0:
256,192,677732,1,0,0:0:0:0:
256,192,677879,1,0,0:0:0:0:
256,192,677952,1,0,0:0:0:0:
256,192,678025,1,2,0:0:0:0:
256,192,678171,1,2,0:0:0:0:
256,192,678245,1,2,0:0:0:0:
256,192,678318,1,2,0:0:0:0:
256,192,678464,1,2,0:0:0:0:
256,192,678610,1,4,0:0:0:0:
256,192,678757,8,0,682123,0:0:0:0:
