osu file format v14

[General]
AudioFilename: audio.ogg
AudioLeadIn: 0
PreviewTime: 176827
Countdown: 0
SampleSet: Drum
StackLeniency: 0.7
Mode: 0
LetterboxInBreaks: 0
EpilepsyWarning: 1
WidescreenStoryboard: 1

[Editor]
Bookmarks: 11390,140390,156390,225390
DistanceSpacing: 1.1
BeatDivisor: 4
GridSize: 16
TimelineZoom: 1.7

[Metadata]
Title:Q
TitleUnicode:Q
Artist:siinamota feat. Kagamine Rin
ArtistUnicode:椎名もた feat. 鏡音リン
Creator:Ryuusei Aika
Version:SupaV's Hard
Source:
Tags:SupaV Pigeons Arsalan Shiny Braixen Calvaria Shiina Mota ぽわぽわP PowapowaP PWPWP アルターワー・セツナポップ Alterour Setsuna Pop japanese rock j-rock jrock vocaloid ボーカロイド ボカロ
BeatmapID:4432653
BeatmapSetID:2084482

[Difficulty]
HPDrainRate:4
CircleSize:3.8
OverallDifficulty:6
ApproachRate:8
SliderMultiplier:1.1
SliderTickRate:1

[Events]
//Background and Video events
0,0,"bg.jpg",0,0
//Break Periods
2,140390,155640
//Storyboard Layer 0 (Background)
//Storyboard Layer 1 (Fail)
//Storyboard Layer 2 (Pass)
//Storyboard Layer 3 (Foreground)
//Storyboard Layer 4 (Overlay)
//Storyboard Sound Samples

[TimingPoints]
390,250,4,3,0,70,1,0
11390,-166.666666666667,4,3,0,70,0,0
12390,-100,4,3,0,70,0,0
28390,-142.857142857143,4,3,0,60,0,0
44390,-125,4,3,0,60,0,0
51890,-125,4,3,0,70,0,0
52390,-100,4,3,0,70,0,0
67390,-166.666666666667,4,3,0,70,0,0
68390,-100,4,3,0,70,0,0
80390,-125,4,3,0,70,0,0
82390,-100,4,3,0,70,0,0
84390,-142.857142857143,4,3,0,60,0,0
100390,-125,4,3,0,60,0,0
107890,-125,4,3,0,70,0,0
108390,-100,4,3,0,70,0,0
123390,-166.666666666667,4,3,0,70,0,0
124390,-100,4,3,0,70,0,0
136390,-125,4,3,0,70,0,0
138390,-100,4,3,0,70,0,0
140515,-100,4,3,0,60,0,0
156390,-142.857142857143,4,3,0,70,0,0
171390,-100,4,3,0,80,0,0
172890,-100,4,3,0,70,0,0
173015,-100,4,3,0,60,0,0
176827,-100,4,3,0,100,0,0
177390,-100,4,3,0,80,0,0
192390,-166.666666666667,4,3,0,80,0,0
193390,-100,4,3,0,80,0,0
205390,-125,4,3,0,80,0,0
207390,-100,4,3,0,80,0,0
209452,-100,4,3,0,70,0,0
225390,-100,4,3,0,60,0,0

[Colours]
Combo1 : 168,159,134
Combo2 : 192,192,192

[HitObjects]
256,158,11390,6,0,L|256:232,3,65.9999999999999,4|4|4|4,0:2|0:2|0:2|0:2,0:0:0:0:
198,317,12390,6,0,P|148:338|95:327,1,110,4|8,1:0|1:3,0:0:0:0:
5,273,12890,1,2,1:2:0:0:
5,273,13015,1,2,1:2:0:0:
27,165,13265,2,0,P|85:157|143:149,1,110,8|2,1:3|1:2,0:0:0:0:
182,120,13640,2,0,P|240:128|299:136,1,110,8|2,1:3|1:2,0:0:0:0:
342,111,14015,1,2,1:2:0:0:
342,111,14140,1,8,1:3:0:0:
424,184,14390,5,2,1:2:0:0:
366,277,14640,1,8,1:3:0:0:
268,238,14890,1,2,1:2:0:0:
268,238,15015,2,0,P|261:189|250:110,2,110,2|8|2,1:2|1:3|1:2,0:0:0:0:
232,280,15640,2,0,P|186:300|124:285,1,110,8|2,1:3|1:2,0:0:0:0:
85,264,16015,1,2,1:2:0:0:
85,264,16140,1,8,1:3:0:0:
0,193,16390,6,0,P|5:137|14:73,1,110,6|8,1:2|1:3,0:0:0:0:
88,5,16890,1,2,1:2:0:0:
88,5,17015,1,2,1:2:0:0:
189,47,17265,2,0,P|240:25|305:42,1,110,8|2,1:3|1:2,0:0:0:0:
334,70,17640,2,0,P|326:124|321:179,1,110,8|2,1:3|1:2,0:0:0:0:
290,225,18015,1,2,1:2:0:0:
290,225,18140,1,8,1:3:0:0:
345,320,18390,5,2,1:2:0:0:
254,383,18640,1,8,1:3:0:0:
159,336,18890,1,2,1:2:0:0:
159,336,19015,2,0,P|100:345|41:353,2,110,2|8|2,1:2|1:3|1:2,0:0:0:0:
197,297,19640,2,0,P|209:245|182:192,1,110,8|2,1:3|1:2,0:0:0:0:
147,164,20015,1,2,1:2:0:0:
147,164,20140,1,8,1:3:0:0:
39,186,20390,6,0,P|33:239|26:295,1,110,4|8,1:0|1:3,0:0:0:0:
100,383,20890,1,2,1:2:0:0:
100,383,21015,1,2,1:2:0:0:
197,332,21265,2,0,P|245:315|318:336,1,110,8|2,1:3|1:2,0:0:0:0:
346,358,21640,2,0,P|394:375|467:354,1,110,8|2,1:3|1:2,0:0:0:0:
499,335,22015,1,2,1:2:0:0:
499,335,22140,1,8,1:3:0:0:
510,225,22390,5,2,1:2:0:0:
411,175,22640,1,8,1:3:0:0:
330,249,22890,1,2,1:2:0:0:
330,249,23015,2,0,P|339:308|347:367,2,110,2|8|2,1:2|1:3|1:2,0:0:0:0:
291,209,23640,2,0,P|300:150|308:91,1,110,8|2,1:3|1:2,0:0:0:0:
339,57,24015,1,2,1:2:0:0:
339,57,24140,1,8,1:3:0:0:
244,1,24390,6,0,P|191:22|125:5,1,110,6|8,1:2|1:3,0:0:0:0:
46,67,24890,1,2,1:2:0:0:
46,67,25015,1,2,1:2:0:0:
81,170,25265,2,0,P|72:221|63:280,1,110,8|2,1:3|1:2,0:0:0:0:
85,328,25640,2,0,P|135:348|188:340,1,110,8|2,1:3|1:2,0:0:0:0:
238,314,26015,1,2,1:2:0:0:
238,314,26140,1,8,1:3:0:0:
325,381,26390,5,2,1:2:0:0:
408,308,26640,1,8,1:3:0:0:
334,233,26890,1,2,1:2:0:0:
334,233,27015,2,0,P|275:224|216:216,2,110,2|8|2,1:2|1:3|1:2,0:0:0:0:
367,189,27640,2,0,P|381:140|348:76,1,110,8|2,1:3|1:2,0:0:0:0:
373,36,28015,1,2,1:2:0:0:
373,36,28140,1,8,1:3:0:0:
474,0,28390,6,0,P|479:38|487:92,1,76.9999976501466,4|8,1:0|1:2,0:0:0:0:
512,128,28765,1,8,1:2:0:0:
512,128,28890,1,2,0:0:0:0:
445,213,29140,1,8,1:2:0:0:
445,213,29265,2,0,P|404:220|364:225,1,76.9999999999999,2|0,0:0|0:0,0:0:0:0:
325,256,29640,2,0,P|304:253|280:250,1,38.5,8|8,1:2|1:2,0:0:0:0:
236,230,29890,1,2,0:0:0:0:
159,306,30140,1,8,1:2:0:0:
59,265,30390,6,0,P|53:225|46:175,1,76.9999999999999,2|8,1:2|1:2,0:0:0:0:
19,149,30765,1,8,1:2:0:0:
19,149,30890,1,2,0:0:0:0:
59,51,31140,1,8,1:2:0:0:
59,51,31265,2,0,P|92:37|148:45,1,76.9999976501466,2|0,0:0|0:0,0:0:0:0:
165,82,31640,2,0,L|170:123,1,38.5,8|8,1:2|1:2,0:0:0:0:
157,173,31890,1,2,0:0:0:0:
231,250,32140,1,8,1:2:0:0:
185,347,32390,6,0,P|148:352|102:358,1,76.9999999999999,2|8,1:2|1:2,0:0:0:0:
60,375,32765,1,8,1:2:0:0:
60,375,32890,2,0,P|40:342|45:295,1,76.9999976501466,2|8,0:0|1:2,0:0:0:0:
66,256,33265,1,0,0:0:0:0:
37,152,33515,2,0,L|-5:159,2,38.5,2|8|8,0:0|1:2|1:2,0:0:0:0:
77,116,33890,1,2,0:0:0:0:
162,181,34140,1,8,1:2:0:0:
256,129,34390,6,0,P|287:117|344:126,1,76.9999976501466,2|8,1:2|1:2,0:0:0:0:
378,153,34765,1,8,1:2:0:0:
378,153,34890,2,0,L|385:207,2,38.5,2|2|8,0:0|1:2|1:2,0:0:0:0:
418,116,35265,1,0,0:0:0:0:
505,179,35515,2,0,P|519:218|506:264,1,76.9999999999999,2|8,0:0|1:2,0:0:0:0:
485,299,35890,1,2,0:0:0:0:
390,246,36140,1,8,1:2:0:0:
301,307,36390,6,0,P|261:313|210:321,1,76.9999999999999,6|8,1:2|1:2,0:0:0:0:
185,355,36765,2,0,L|137:346,1,38.5,8|2,1:2|0:0,0:0:0:0:
101,376,37015,1,2,1:2:0:0:
11,316,37265,1,2,0:0:0:0:
65,223,37515,2,0,P|92:226|122:230,2,38.5,2|8|8,0:0|1:2|1:2,0:0:0:0:
26,184,37890,2,0,P|22:159|20:143,1,38.5,2|2,0:0|1:2,0:0:0:0:
1,95,38140,1,8,1:2:0:0:
68,10,38390,6,0,P|103:-3|141:2,1,76.9999999999999,2|8,1:2|1:2,0:0:0:0:
181,38,38765,2,0,L|175:90,1,38.4999988250733,8|2,1:2|0:0,0:0:0:0:
146,121,39015,1,2,1:2:0:0:
205,210,39265,1,2,0:0:0:0:
133,290,39515,2,0,L|79:298,2,38.5,2|8|8,0:0|1:2|1:2,0:0:0:0:
174,324,39890,2,0,L|214:330,1,38.4999988250733,2|2,0:0|1:2,0:0:0:0:
249,368,40140,1,8,1:2:0:0:
349,330,40390,6,0,L|343:278,1,38.5,2|0,1:2|0:0,0:0:0:0:
376,247,40640,2,0,L|382:195,1,38.5,8|8,1:2|1:2,0:0:0:0:
365,161,40890,1,2,0:0:0:0:
365,161,41015,1,2,1:2:0:0:
300,74,41265,1,2,0:0:0:0:
386,9,41515,2,0,P|421:3|461:21,1,76.9999976501466,2|8,0:0|1:2,0:0:0:0:
496,56,41890,2,0,L|490:109,1,38.4999988250733,2|2,0:0|1:2,0:0:0:0:
510,144,42140,1,8,1:2:0:0:
451,234,42390,6,0,L|398:240,1,38.4999988250733,2|0,1:2|0:0,0:0:0:0:
371,272,42640,2,0,L|318:266,1,38.4999988250733,8|8,1:2|1:2,0:0:0:0:
298,310,42890,1,2,0:0:0:0:
298,310,43015,2,0,L|291:357,2,38.5,2|8|0,1:2|1:2|0:0,0:0:0:0:
210,247,43515,2,0,L|215:207,2,38.5,2|8|8,0:0|1:2|1:2,0:0:0:0:
173,286,43890,2,0,L|178:324,1,38.5,2|2,0:0|1:2,0:0:0:0:
152,371,44140,1,8,1:2:0:0:
47,383,44390,6,0,P|26:349|32:301,1,88,2|8,1:2|3:2,0:0:0:0:
56,256,44765,2,0,P|69:217|49:168,1,88,8|2,3:2|1:2,0:0:0:0:
16,136,45140,1,8,1:2:0:0:
64,42,45390,2,0,P|102:37|159:30,1,88,2|8,1:2|1:2,0:0:0:0:
198,4,45765,1,8,1:2:0:0:
198,4,45890,2,0,P|236:9|293:16,1,88,0|8,0:0|1:2,0:0:0:0:
363,86,46390,6,0,P|405:80|461:72,1,88,2|8,1:2|1:2,0:0:0:0:
496,98,46765,2,0,P|517:138|503:195,1,88,8|2,1:2|1:2,0:0:0:0:
481,222,47140,1,8,1:2:0:0:
377,200,47390,2,0,P|335:194|279:186,1,88,2|8,1:2|1:2,0:0:0:0:
247,165,47765,1,8,1:2:0:0:
247,165,47890,2,0,P|198:172|156:178,1,88,0|8,0:0|1:2,0:0:0:0:
70,234,48390,6,0,P|52:271|66:330,1,88,6|8,1:2|1:2,0:0:0:0:
97,350,48765,2,0,P|139:356|195:364,1,88,8|2,1:2|1:2,0:0:0:0:
233,382,49140,1,8,1:2:0:0:
331,344,49390,2,0,P|379:340|437:333,1,88,2|8,1:2|1:2,0:0:0:0:
474,345,49765,1,8,1:2:0:0:
474,345,49890,2,0,P|489:302|473:257,1,88,0|8,0:0|1:2,0:0:0:0:
511,163,50390,1,6,1:2:0:0:
511,163,51890,6,2,B|469:138|469:138|481:48,1,132,2|0,0:1|0:0,0:1:0:0:
452,1,52390,6,0,P|398:11|343:19,1,110,4|8,1:0|1:3,0:0:0:0:
292,52,52765,2,0,P|237:42|153:33,1,110,2|2,1:2|1:2,0:0:0:0:
131,2,53140,1,8,1:3:0:0:
36,77,53390,1,2,1:2:0:0:
57,196,53640,1,8,1:3:0:0:
169,241,53890,1,2,1:2:0:0:
260,162,54140,1,8,1:3:0:0:
369,212,54390,5,2,1:2:0:0:
461,133,54640,1,8,1:3:0:0:
461,133,54765,2,0,P|452:79|443:4,2,110,2|2|0,1:2|1:2|1:0,0:0:0:0:
512,166,55390,2,0,P|504:217|493:280,1,110,2|8,1:2|1:3,0:0:0:0:
402,354,55890,2,0,B|365:386|365:386|231:339,1,165,0|0,1:0|0:0,0:0:0:0:
196,362,56390,6,0,P|168:315|178:259,1,110,6|8,1:2|1:3,0:0:0:0:
215,215,56765,2,0,P|232:164|209:104,1,110,2|2,1:2|1:2,0:0:0:0:
223,52,57140,1,8,1:3:0:0:
332,0,57390,1,2,1:2:0:0:
416,86,57640,1,8,1:3:0:0:
348,186,57890,1,2,1:2:0:0:
423,280,58140,1,8,1:3:0:0:
342,370,58390,6,0,P|287:377|232:384,1,110,2|8,1:2|1:3,0:0:0:0:
177,359,58765,1,2,1:2:0:0:
232,251,59015,2,0,P|247:205|217:136,1,110,2|0,1:2|1:0,0:0:0:0:
182,108,59390,2,0,P|130:115|66:124,1,110,2|8,1:2|1:3,0:0:0:0:
1,220,59890,2,0,B|29:276|29:276|140:296,1,165
169,339,60390,6,0,P|229:328|283:322,1,110,4|8,1:0|1:3,0:0:0:0:
336,305,60765,2,0,P|396:316|450:322,1,110,2|2,1:2|1:2,0:0:0:0:
498,293,61140,1,8,1:3:0:0:
445,184,61390,1,2,1:2:0:0:
504,78,61640,1,8,1:3:0:0:
410,0,61890,1,2,1:2:0:0:
322,83,62140,1,8,1:3:0:0:
220,17,62390,5,2,1:2:0:0:
120,84,62640,1,8,1:3:0:0:
120,84,62765,2,0,P|71:103|3:90,2,110,2|2|0,1:2|1:2|1:0,0:0:0:0:
170,117,63390,2,0,P|177:168|192:247,1,110,2|8,1:2|1:3,0:0:0:0:
224,340,63890,2,0,B|182:382|182:382|66:363,1,165,0|0,1:0|0:0,0:0:0:0:
17,375,64390,6,0,P|-11:322|7:257,1,110,6|8,1:2|1:3,0:0:0:0:
28,222,64765,2,0,P|47:170|21:111,1,110,2|2,1:2|1:2,0:0:0:0:
0,67,65140,1,8,1:3:0:0:
102,2,65390,1,2,1:2:0:0:
172,100,65640,1,8,1:3:0:0:
109,203,65890,1,0,1:0:0:0:
169,307,66140,1,8,1:3:0:0:
292,290,66390,5,4,1:0:0:0:
292,290,66515,2,0,L|361:297,1,55,8|0,1:3|0:0,0:0:0:0:
404,313,66765,2,0,P|428:258|406:200,1,110,4|4,1:0|1:0,0:0:0:0:
306,159,67265,1,4,1:0:0:0:
306,159,67390,6,0,L|306:85,3,65.9999999999999,4|2|2|2,1:0|0:2|0:2|0:2,0:0:0:0:
395,12,68390,6,0,B|443:7|443:7|441:8|441:8|501:2,3,110,4|8|2|8,1:0|1:3|1:2|1:3,0:0:0:0:
506,122,69390,2,0,B|457:147|457:147|389:129,1,110,2|8,1:2|1:3,0:0:0:0:
348,125,69765,1,0,0:0:0:0:
348,125,69890,2,0,B|299:100|299:100|231:118,1,110,2|8,1:2|1:3,0:0:0:0:
202,155,70265,1,0,0:0:0:0:
202,155,70390,2,0,B|207:209|207:209|206:207|206:207|211:272,3,110,2|8|2|8,1:2|1:3|1:2|1:3,0:0:0:0:
157,370,71390,1,2,1:2:0:0:
52,308,71640,1,8,1:3:0:0:
112,203,71890,1,2,1:2:0:0:
20,123,72140,1,8,1:3:0:0:
96,29,72390,6,0,B|155:23|155:23|153:24|153:24|214:18,3,110,6|8|2|8,1:2|1:3|1:2|1:3,0:0:0:0:
321,1,73390,2,0,B|346:50|346:50|332:103,1,110,2|8,1:2|1:3,0:0:0:0:
305,159,73765,1,0,0:0:0:0:
305,159,73890,2,0,B|280:208|280:208|295:261,1,110,2|8,1:2|1:3,0:0:0:0:
317,317,74265,1,0,0:0:0:0:
317,317,74390,2,0,B|365:322|365:322|363:321|363:321|422:327,3,110,2|8|2|8,1:2|1:3|1:2|1:3,0:0:0:0:
508,241,75390,1,2,1:2:0:0:
417,161,75640,1,8,1:3:0:0:
477,56,75890,1,2,1:2:0:0:
368,1,76140,1,8,1:3:0:0:
268,70,76390,6,0,B|263:123|263:123|264:121|264:121|258:175,3,110,6|8|2|8,1:2|1:3|1:2|1:3,0:0:0:0:
314,282,77390,2,0,B|268:306|268:306|211:293,1,110,2|8,1:2|1:3,0:0:0:0:
159,273,77765,1,0,0:0:0:0:
159,273,77890,2,0,B|106:260|106:260|56:284,1,110,2|8,1:2|1:3,0:0:0:0:
7,258,78265,1,0,0:0:0:0:
7,258,78390,2,0,B|13:205|13:205|12:207|12:207|18:153,3,110,2|8|2|8,1:2|1:3|1:2|1:3,0:0:0:0:
3,32,79390,1,2,1:2:0:0:
120,1,79640,1,8,1:3:0:0:
202,89,79890,1,2,1:2:0:0:
318,56,80140,1,12,1:3:0:0:
398,123,80390,6,0,B|439:200|439:200|417:293,1,176,4|0,1:0|0:0,0:0:0:0:
230,382,81390,2,0,L|213:236,2,132,8|4|4,0:3|0:3|0:3,0:0:0:0:
120,375,82390,6,0,P|64:384|2:353,1,110,4|8,1:0|3:0,0:0:0:0:
4,315,82765,1,8,3:0:0:0:
4,315,82890,2,0,P|10:280|16:245,1,55,8|8,3:0|3:0,0:0:0:0:
3,206,83140,1,8,3:0:0:0:
76,124,83390,6,2,B|80:121|80:121|207:46|342:177|283:286|283:286|258:267,1,385,2|0,0:1|0:0,0:1:0:0:
206,263,84390,6,0,P|164:270|122:276,1,76.9999999999999,4|8,1:0|1:2,0:0:0:0:
82,296,84765,1,8,1:2:0:0:
82,296,84890,2,0,P|64:256|74:208,1,76.9999999999999,0|8,0:0|1:2,0:0:0:0:
152,86,85515,2,0,P|160:48|138:3,1,76.9999976501466,2|8,0:0|1:2,0:0:0:0:
94,3,85890,2,0,P|69:6|41:9,1,38.5,2|2,0:0|1:2,0:0:0:0:
13,42,86140,1,8,1:2:0:0:
46,144,86390,6,0,P|43:164|40:192,2,38.5,2|2|8,1:2|0:0|1:2,0:0:0:0:
88,110,86765,1,8,1:2:0:0:
88,110,86890,2,0,P|127:93|167:101,1,76.9999999999999,2|8,0:0|1:2,0:0:0:0:
207,123,87265,1,2,0:0:0:0:
292,57,87515,2,0,L|284:7,2,38.4999988250733,2|8|8,0:0|1:2|1:2,0:0:0:0:
333,91,87890,2,0,L|328:135,1,38.4999988250733,2|2,0:0|1:2,0:0:0:0:
355,176,88140,1,8,1:2:0:0:
293,264,88390,6,0,L|301:317,1,38.5,2|2,1:2|0:0,0:0:0:0:
331,345,88640,2,0,L|382:353,1,38.4999988250733,8|8,1:2|1:2,0:0:0:0:
417,384,88890,1,2,0:0:0:0:
417,384,89015,1,2,1:2:0:0:
506,323,89265,1,0,0:0:0:0:
440,237,89515,2,0,L|399:243,2,38.5,2|8|8,0:0|1:2|1:2,0:0:0:0:
470,192,89890,2,0,L|476:144,1,38.4999988250733,2|2,0:0|1:2,0:0:0:0:
510,113,90140,1,8,1:2:0:0:
450,22,90390,6,0,P|413:7|364:20,1,76.9999976501466,2|8,1:2|1:2,0:0:0:0:
342,54,90765,2,0,L|336:103,1,38.4999988250733,8|2,1:2|0:0,0:0:0:0:
304,135,91015,1,2,1:2:0:0:
364,224,91265,1,0,0:0:0:0:
301,311,91515,2,0,L|307:358,2,38.5,2|8|8,0:0|1:2|1:2,0:0:0:0:
255,281,91890,2,0,L|216:275,1,38.5,2|2,0:0|1:2,0:0:0:0:
166,295,92140,1,8,1:2:0:0:
69,247,92390,6,0,P|54:211|62:171,1,76.9999976501466,2|8,1:2|1:2,0:0:0:0:
100,136,92765,2,0,L|94:97,1,38.5,8|2,1:2|0:0,0:0:0:0:
72,48,93015,1,2,1:2:0:0:
168,0,93265,1,2,0:0:0:0:
256,62,93515,2,0,L|310:54,2,38.5,2|8|8,0:0|1:2|1:2,0:0:0:0:
224,105,93890,2,0,L|218:146,1,38.5,2|2,0:0|1:2,0:0:0:0:
248,188,94140,1,8,1:2:0:0:
185,275,94390,6,0,P|176:313|192:358,1,76.9999976501466,2|8,1:2|1:2,0:0:0:0:
228,382,94765,2,0,L|266:377,1,38.4999988250733,8|2,1:2|0:0,0:0:0:0:
320,382,95015,1,2,1:2:0:0:
387,297,95265,1,2,0:0:0:0:
310,221,95515,2,0,L|271:225,2,38.5,2|8|8,0:0|1:2|1:2,0:0:0:0:
351,186,95890,2,0,L|391:192,1,38.5,2|2,0:0|1:2,0:0:0:0:
435,164,96140,1,8,1:2:0:0:
511,88,96390,6,0,L|505:44,1,38.5,2|2,1:2|0:0,0:0:0:0:
466,11,96640,2,0,L|422:5,1,38.5,8|8,1:2|1:2,0:0:0:0:
377,5,96890,1,2,0:0:0:0:
377,5,97015,1,2,1:2:0:0:
289,67,97265,1,0,0:0:0:0:
348,156,97515,2,0,L|386:150,2,38.5,2|8|8,0:0|1:2|1:2,0:0:0:0:
311,195,97890,2,0,L|305:233,1,38.5,2|2,0:0|1:2,0:0:0:0:
330,281,98140,1,8,1:2:0:0:
244,346,98390,6,0,L|201:352,1,38.4999988250733,2|0,1:2|0:0,0:0:0:0:
162,384,98640,2,0,L|118:378,1,38.5,8|8,1:2|1:2,0:0:0:0:
80,355,98890,1,2,0:0:0:0:
80,355,99015,2,0,L|33:362,2,38.5,2|8|2,1:2|1:2|0:0,0:0:0:0:
137,263,99515,2,0,L|175:268,2,38.5,2|8|8,0:0|1:2|1:2,0:0:0:0:
91,234,99890,2,0,L|85:193,1,38.5,2|2,0:0|1:2,0:0:0:0:
50,155,100140,1,8,1:2:0:0:
101,63,100390,6,0,P|140:58|197:47,1,88,2|8,1:2|3:2,0:0:0:0:
230,16,100765,2,0,P|273:24|316:29,1,88,8|2,3:2|1:2,0:0:0:0:
364,7,101140,1,8,1:2:0:0:
465,35,101390,2,0,P|484:75|472:131,1,88,2|8,1:2|1:2,0:0:0:0:
456,167,101765,1,8,1:2:0:0:
456,167,101890,2,0,P|418:160|360:151,1,88,0|8,0:0|1:2,0:0:0:0:
270,113,102390,6,0,P|226:119|183:127,1,88,2|8,1:2|1:2,0:0:0:0:
140,159,102765,2,0,P|97:149|53:144,1,88,8|2,1:2|1:2,0:0:0:0:
11,176,103140,1,8,1:2:0:0:
45,275,103390,2,0,P|79:294|140:282,1,88,2|8,1:2|1:2,0:0:0:0:
179,274,103765,1,8,1:2:0:0:
179,274,103890,2,0,P|219:265|267:285,1,88,0|8,0:0|1:2,0:0:0:0:
335,356,104390,6,0,P|378:361|422:367,1,88,6|8,1:2|1:2,0:0:0:0:
472,352,104765,2,0,P|490:309|474:259,1,88,8|2,1:2|1:2,0:0:0:0:
445,231,105140,1,8,1:2:0:0:
494,137,105390,2,0,P|487:93|482:47,1,88,2|8,1:2|1:2,0:0:0:0:
454,10,105765,1,8,1:2:0:0:
454,10,105890,2,0,P|411:3|371:21,1,88,0|8,0:0|1:2,0:0:0:0:
266,2,106390,1,6,1:2:0:0:
266,2,107890,6,2,B|235:41|235:41|255:137,1,132,2|0,0:1|0:0,0:1:0:0:
304,151,108390,6,0,P|358:138|411:169,1,110,4|8,1:0|1:3,0:0:0:0:
456,193,108765,2,0,P|448:247|440:323,1,110,2|2,1:2|1:2,0:0:0:0:
410,354,109140,1,8,1:3:0:0:
291,379,109390,1,2,1:2:0:0:
210,288,109640,1,8,1:3:0:0:
289,196,109890,1,0,1:0:0:0:
212,102,110140,1,8,1:3:0:0:
291,11,110390,5,2,1:2:0:0:
410,49,110640,1,8,1:3:0:0:
410,49,110765,2,0,P|467:37|519:64,2,110,2|2|0,1:2|1:2|1:0,0:0:0:0:
372,96,111390,2,0,P|381:150|390:225,1,110,2|8,1:2|1:3,0:0:0:0:
389,325,111890,2,0,B|339:283|339:283|222:318,1,165,0|0,3:0|0:0,0:0:0:0:
205,358,112390,6,0,P|148:348|91:341,1,110,6|8,1:2|1:3,0:0:0:0:
40,364,112765,2,0,P|13:322|27:248,1,110,2|2,1:2|1:2,0:0:0:0:
56,216,113140,1,8,1:3:0:0:
0,108,113390,1,2,1:2:0:0:
82,19,113640,1,8,1:3:0:0:
191,69,113890,1,0,0:0:0:0:
290,0,114140,1,8,1:3:0:0:
398,53,114390,6,0,P|389:107|383:170,1,110,2|8,1:2|1:3,0:0:0:0:
352,214,114765,1,2,1:2:0:0:
237,173,115015,2,0,P|185:163|129:193,1,110,2|0,1:2|1:0,0:0:0:0:
93,230,115390,2,0,P|102:284|108:347,1,110,2|8,1:2|1:3,0:0:0:0:
225,367,115890,2,0,B|272:340|272:340|260:219,1,165,0|0,1:0|0:0,0:0:0:0:
237,173,116390,6,0,P|231:121|217:43,1,110,4|8,1:0|1:3,0:0:0:0:
253,12,116765,2,0,P|298:-7|371:7,1,110,2|2,1:2|1:2,0:0:0:0:
408,32,117140,1,8,1:3:0:0:
366,145,117390,1,2,1:2:0:0:
460,221,117640,1,8,1:3:0:0:
416,333,117890,1,0,0:0:0:0:
301,294,118140,1,8,1:3:0:0:
217,381,118390,5,2,1:2:0:0:
108,340,118640,1,8,1:3:0:0:
108,340,118765,2,0,P|60:347|-30:359,2,110,2|2|0,1:2|1:2|1:0,0:0:0:0:
145,292,119390,2,0,P|160:240|131:175,1,110,2|8,1:2|1:3,0:0:0:0:
228,102,119890,2,0,B|278:80|278:80|393:99,1,165,0|0,1:0|0:0,0:0:0:0:
446,86,120390,6,0,P|471:131|456:203,1,110,6|8,1:2|1:3,0:0:0:0:
426,234,120765,2,0,P|406:278|429:350,1,110,2|2,1:2|1:2,0:0:0:0:
378,382,121140,1,8,1:3:0:0:
274,318,121390,1,2,1:2:0:0:
321,206,121640,1,8,1:3:0:0:
223,134,121890,1,0,3:0:0:0:
269,22,122140,1,8,1:3:0:0:
383,74,122390,5,4,1:0:0:0:
383,74,122515,2,0,L|445:66,1,55,8|4,1:3|1:0,0:0:0:0:
492,93,122765,2,0,P|519:144|503:204,1,110,4|4,1:0|1:0,0:0:0:0:
424,279,123265,1,4,1:0:0:0:
424,279,123390,6,0,L|424:353,3,65.9999979858399,4|2|2|2,1:0|0:2|0:2|0:2,0:0:0:0:
307,376,124390,6,0,B|252:381|252:381|254:380|254:380|179:386,3,110,4|8|2|8,1:0|1:3|1:2|1:3,0:0:0:0:
80,381,125390,2,0,B|55:332|55:332|73:264,1,110,2|8,1:2|1:3,0:0:0:0:
89,224,125765,1,0,0:0:0:0:
89,224,125890,2,0,B|103:170|103:170|78:121,1,110,2|8,1:2|1:3,0:0:0:0:
55,72,126265,1,0,0:0:0:0:
55,72,126390,2,0,B|109:67|109:67|107:68|107:68|174:61,3,110,2|8|2|8,1:2|1:3|1:2|1:3,0:0:0:0:
265,1,127390,1,2,1:2:0:0:
382,28,127640,1,8,1:3:0:0:
357,146,127890,1,2,1:2:0:0:
237,126,128140,1,8,1:3:0:0:
158,218,128390,6,0,B|164:280|164:280|163:278|163:278|169:333,3,110,6|8|2|8,1:2|1:3|1:2|1:3,0:0:0:0:
283,359,129390,2,0,B|332:384|332:384|400:366,1,110,2|8,1:2|1:3,0:0:0:0:
449,379,129765,1,0,0:0:0:0:
449,379,129890,2,0,B|474:330|474:330|456:262,1,110,2|8,1:2|1:3,0:0:0:0:
427,231,130265,1,0,0:0:0:0:
427,231,130390,2,0,B|432:176|432:176|431:178|431:178|437:119,3,110,2|8|2|8,1:2|1:3|1:2|1:3,0:0:0:0:
358,33,131390,1,2,1:2:0:0:
257,100,131640,1,8,1:3:0:0:
325,199,131890,1,2,1:2:0:0:
234,279,132140,1,8,1:3:0:0:
296,382,132390,6,0,B|350:376|350:376|348:377|348:377|407:371,3,110,6|8|2|8,1:2|1:3|1:2|1:3,0:0:0:0:
499,300,133390,2,0,B|515:247|515:247|490:198,1,110,2|8,1:2|1:3,0:0:0:0:
443,169,133765,1,0,0:0:0:0:
443,169,133890,2,0,B|418:120|418:120|438:57,1,110,2|8,1:2|1:3,0:0:0:0:
406,20,134265,1,0,0:0:0:0:
406,20,134390,2,0,B|347:13|347:13|349:14|349:14|295:8,3,110,2|8|2|8,1:2|1:3|1:2|1:3,0:0:0:0:
190,58,135390,1,2,1:2:0:0:
83,0,135640,1,8,1:3:0:0:
0,88,135890,1,2,1:2:0:0:
102,152,136140,1,12,1:3:0:0:
21,219,136390,6,0,B|5:305|5:305|51:397,1,176,4|0,1:0|0:0,0:0:0:0:
248,327,137390,2,0,L|230:186,2,132,8|4|4,0:3|0:3|0:3,0:0:0:0:
343,381,138390,6,0,P|369:327|357:269,1,110,4|8,1:0|3:0,0:0:0:0:
333,237,138765,1,8,3:0:0:0:
333,237,138890,2,0,P|327:202|321:167,1,55,8|8,3:0|3:0,0:0:0:0:
296,134,139140,1,8,3:0:0:0:
355,41,139390,1,4,1:0:0:0:
257,21,156390,6,0,P|297:8|342:20,1,76.9999976501466,4|2,0:2|0:0,0:0:0:0:
381,32,156765,1,2,0:0:0:0:
508,131,157140,1,2,0:0:0:0:
430,205,157390,2,0,P|385:210|346:213,1,76.9999976501466,4|2,0:3|0:0,0:0:0:0:
309,241,157765,1,2,0:0:0:0:
309,241,157890,2,0,P|265:236|227:232,1,76.9999976501466,0|2,0:0|0:0,0:0:0:0:
129,267,158390,6,0,P|113:304|122:350,1,76.9999976501466,4|2,0:3|0:0,0:0:0:0:
152,380,158765,1,2,0:0:0:0:
301,319,159140,1,2,0:0:0:0:
232,232,159390,2,0,P|226:183|220:142,1,76.9999976501466,4|2,0:3|0:0,0:0:0:0:
258,53,159890,1,0,0:0:0:0:
162,2,160140,1,2,0:0:0:0:
78,70,160390,6,0,P|61:103|71:153,1,76.9999976501466,4|2,0:3|0:0,0:0:0:0:
92,187,160765,1,2,0:0:0:0:
223,281,161140,1,2,0:0:0:0:
150,360,161390,2,0,P|101:366|60:372,1,76.9999976501466,4|2,0:3|0:0,0:0:0:0:
23,380,161765,1,2,0:0:0:0:
23,380,161890,2,0,P|5:340|11:296,1,76.9999976501466,0|2,0:0|0:0,0:0:0:0:
3,199,162390,6,0,P|42:196|93:188,1,76.9999976501466,4|2,0:3|0:0,0:0:0:0:
128,166,162765,1,2,0:0:0:0:
261,256,163140,1,2,0:0:0:0:
361,216,163390,2,0,P|372:182|353:134,1,76.9999976501466,4|2,0:3|0:0,0:0:0:0:
297,56,163890,1,0,0:0:0:0:
389,0,164140,1,2,0:0:0:0:
480,56,164390,6,0,P|484:93|491:143,1,76.9999976501466,4|2,0:3|0:0,0:0:0:0:
510,182,164765,1,2,0:0:0:0:
416,313,165140,1,2,0:0:0:0:
329,249,165390,2,0,P|293:244|249:264,1,76.9999976501466,4|2,0:3|0:0,0:0:0:0:
219,298,165765,1,2,0:0:0:0:
219,298,165890,2,0,P|223:331|229:382,1,76.9999976501466,0|2,0:0|0:0,0:0:0:0:
335,382,166390,6,0,P|370:367|408:372,1,76.9999976501466,4|2,0:3|0:0,0:0:0:0:
461,380,166765,1,2,0:0:0:0:
511,226,167140,1,2,0:0:0:0:
443,141,167390,2,0,P|448:101|454:54,1,76.9999976501466,4|2,0:3|0:0,0:0:0:0:
367,0,167890,1,0,0:0:0:0:
281,66,168140,1,2,0:0:0:0:
352,146,168390,6,0,P|427:136|485:199,2,153.999995300293,4|0|4,0:3|0:0|0:3,0:0:0:0:
260,203,169640,1,2,0:0:0:0:
314,296,169890,2,0,P|308:335|301:388,1,76.9999976501466,0|2,0:0|0:0,0:0:0:0:
195,383,170390,2,0,P|179:350|187:305,1,76.9999976501466,4|2,0:3|0:0,0:0:0:0:
210,263,170765,1,2,0:0:0:0:
136,118,171140,1,2,0:0:0:0:
209,36,171390,6,2,B|214:31|214:31|402:-83|587:117|494:239|494:239|484:184|435:146|435:146|445:193|432:223,1,660,2|2,0:1|0:0,0:1:0:0:
256,192,173140,12,0,176390,2:0:0:0:
256,192,176890,6,2,B|309:228|309:228|275:339,1,165,0|0,0:1|0:0,0:1:0:0:
302,380,177390,6,0,P|347:357|420:374,1,110,4|8,1:0|1:3,0:0:0:0:
462,381,177765,2,0,P|470:326|485:250,1,110,2|2,1:2|1:2,0:0:0:0:
510,220,178140,1,8,1:3:0:0:
434,125,178390,1,2,1:2:0:0:
331,188,178640,1,8,1:3:0:0:
258,90,178890,1,0,1:0:0:0:
157,157,179140,1,8,1:3:0:0:
216,262,179390,5,2,1:2:0:0:
116,329,179640,1,8,1:3:0:0:
116,329,179765,2,0,P|61:323|-6:311,2,110,2|2|0,1:2|1:2|1:0,0:0:0:0:
148,379,180390,2,0,P|202:369|258:362,1,110,2|8,1:2|1:3,0:0:0:0:
375,382,180890,2,0,B|421:346|421:346|377:228,1,165,2|0,3:0|1:0,0:0:0:0:
369,187,181390,6,0,P|321:165|265:185,1,110,6|8,1:2|1:3,0:0:0:0:
225,224,181765,2,0,P|177:246|121:226,1,110,2|2,1:2|1:2,0:0:0:0:
70,202,182140,1,8,1:3:0:0:
1,101,182390,1,2,1:2:0:0:
84,13,182640,1,8,1:3:0:0:
184,79,182890,1,0,1:0:0:0:
277,2,183140,1,8,1:3:0:0:
379,67,183390,6,0,P|400:120|383:178,1,110,2|8,1:2|1:3,0:0:0:0:
353,220,183765,1,2,1:2:0:0:
236,185,184015,2,0,P|184:192|120:201,1,110,2|0,1:2|1:0,0:0:0:0:
67,190,184390,2,0,P|40:238|57:300,1,110,2|8,1:2|1:3,0:0:0:0:
128,382,184890,2,0,B|173:342|173:342|294:362,1,165,0|0,1:0|0:0,0:0:0:0:
329,328,185390,6,0,P|352:278|331:219,1,110,6|8,1:2|1:3,0:0:0:0:
299,179,185765,2,0,P|276:129|297:70,1,110,2|2,1:2|1:2,0:0:0:0:
325,29,186140,1,8,1:3:0:0:
442,1,186390,1,2,1:2:0:0:
504,96,186640,1,8,1:3:0:0:
417,180,186890,1,0,1:0:0:0:
498,269,187140,1,8,1:3:0:0:
409,351,187390,5,2,1:2:0:0:
296,322,187640,1,8,1:3:0:0:
296,322,187765,2,0,P|247:341|179:328,2,110,2|2|0,1:2|1:2|1:0,0:0:0:0:
335,275,188390,2,0,P|325:220|317:166,1,110,2|8,1:2|1:3,0:0:0:0:
273,53,188890,2,0,B|241:13|241:13|122:5,1,165,0|0,1:0|1:0,0:0:0:0:
67,1,189390,6,0,P|36:52|57:119,1,110,6|8,1:2|1:3,0:0:0:0:
75,150,189765,2,0,P|127:153|201:164,1,110,2|2,1:2|1:2,0:0:0:0:
238,132,190140,1,8,1:3:0:0:
330,210,190390,1,2,1:2:0:0:
259,307,190640,1,8,1:3:0:0:
353,382,190890,1,0,1:0:0:0:
421,282,191140,1,8,1:3:0:0:
330,210,191390,5,4,1:0:0:0:
330,210,191515,2,0,L|323:145,1,55,8|4,1:3|1:0,0:0:0:0:
319,94,191765,2,0,P|269:81|208:113,1,110,4|4,1:0|1:0,0:0:0:0:
195,225,192265,1,4,1:0:0:0:
195,225,192390,6,0,L|195:299,3,65.9999999999999,4|2|2|2,1:0|0:2|0:2|0:2,0:0:0:0:
116,382,193390,6,0,B|68:377|68:377|70:378|70:378|10:372,3,110,4|8|2|8,1:0|1:3|1:2|1:3,0:0:0:0:
1,250,194390,2,0,B|50:225|50:225|118:243,1,110,2|8,1:2|1:3,0:0:0:0:
161,270,194765,1,0,0:0:0:0:
161,270,194890,2,0,B|214:284|214:284|263:259,1,110,2|8,1:2|1:3,0:0:0:0:
318,231,195265,1,0,0:0:0:0:
318,231,195390,2,0,B|372:236|372:236|370:235|370:235|435:240,3,110,2|8|2|8,1:2|1:3|1:2|1:3,0:0:0:0:
511,154,196390,1,2,1:2:0:0:
449,50,196640,1,8,1:3:0:0:
340,104,196890,1,2,1:2:0:0:
276,1,197140,1,8,1:3:0:0:
165,49,197390,6,0,B|171:108|171:108|170:106|170:106|176:167,3,110,6|8|2|8,1:2|1:3|1:2|1:3,0:0:0:0:
269,230,198390,2,0,B|294:279|294:279|280:332,1,110,2|8,1:2|1:3,0:0:0:0:
228,361,198765,1,0,0:0:0:0:
228,361,198890,2,0,B|179:386|179:386|126:371,1,110,2|8,1:2|1:3,0:0:0:0:
70,359,199265,1,0,0:0:0:0:
70,359,199390,2,0,B|65:311|65:311|66:313|66:313|60:254,3,110,2|8|2|8,1:2|1:3|1:2|1:3,0:0:0:0:
1,147,200390,1,2,1:2:0:0:
60,41,200640,1,8,1:3:0:0:
170,90,200890,1,2,1:2:0:0:
117,198,201140,1,8,1:3:0:0:
206,279,201390,6,0,B|259:274|259:274|257:275|257:275|314:270,3,110,6|8|2|8,1:2|1:3|1:2|1:3,0:0:0:0:
425,313,202390,2,0,B|448:265|448:265|429:208,1,110,2|8,1:2|1:3,0:0:0:0:
394,168,202765,1,0,0:0:0:0:
394,168,202890,2,0,B|370:122|370:122|383:65,1,110,2|8,1:2|1:3,0:0:0:0:
407,12,203265,1,0,0:0:0:0:
407,12,203390,2,0,B|460:18|460:18|458:17|458:17|512:23,3,110,2|8|2|8,1:2|1:3|1:2|1:3,0:0:0:0:
463,134,204390,1,2,1:2:0:0:
349,91,204640,1,8,1:3:0:0:
304,203,204890,1,2,1:2:0:0:
414,251,205140,1,12,1:3:0:0:
360,341,205390,6,0,B|283:382|283:382|190:360,1,176,4|0,1:0|0:0,0:0:0:0:
16,251,206390,2,0,L|-1:387,2,132,8|4|4,0:3|0:3|0:3,0:0:0:0:
2,141,207390,6,0,P|54:155|107:132,1,110,4|8,1:0|3:0,0:0:0:0:
150,102,207765,1,8,3:0:0:0:
150,102,207890,2,0,L|138:29,1,55,8|8,3:0|3:0,0:0:0:0:
171,2,208140,1,8,3:0:0:0:
275,37,208390,6,0,B|301:37|301:37|320:64|320:64|352:32|352:32|387:65|387:65|411:36|411:36|461:37,1,220,4|2,1:0|0:2,0:0:0:0:
511,268,209390,6,0,P|504:317|495:383,2,110,4|8|2,1:0|1:3|1:2,0:0:0:0:
498,212,210015,1,2,1:2:0:0:
498,212,210140,2,0,L|489:146,1,55,0|8,0:0|1:3,0:0:0:0:
458,105,210390,2,0,P|401:94|351:122,1,110,2|8,0:0|1:3,0:0:0:0:
235,101,210890,2,0,P|178:112|128:84,1,110,2|8,1:2|1:3,0:0:0:0:
17,126,211390,5,2,1:2:0:0:
70,234,211640,1,8,1:3:0:0:
189,202,211890,1,2,1:2:0:0:
189,202,212015,2,0,P|247:209|317:217,1,110,2|8,1:2|1:3,0:0:0:0:
350,184,212390,1,2,0:0:0:0:
443,260,212640,1,8,1:3:0:0:
367,354,212890,1,2,1:2:0:0:
272,277,213140,1,8,1:3:0:0:
350,184,213390,6,0,P|344:131|336:59,2,110,6|8|2,1:2|1:3|1:2,0:0:0:0:
394,233,214015,1,2,1:2:0:0:
394,233,214140,2,0,P|423:237|465:244,1,55,0|8,0:0|1:3,0:0:0:0:
505,219,214390,2,0,P|521:176|497:111,1,110,2|8,0:0|1:3,0:0:0:0:
461,2,214890,2,0,P|405:8|345:13,1,110,2|8,1:2|1:3,0:0:0:0:
236,53,215390,6,0,P|181:45|116:39,2,110,2|8|2,1:2|1:3|1:2,0:0:0:0:
284,97,216015,1,2,1:2:0:0:
284,97,216140,2,0,L|344:92,1,55,0|8,0:0|1:3,0:0:0:0:
388,57,216390,1,2,0:0:0:0:
488,124,216640,2,0,P|511:162|500:239,1,110,8|2,1:3|1:2,0:0:0:0:
477,279,217015,1,2,1:2:0:0:
477,279,217140,1,8,1:3:0:0:
360,245,217390,6,0,P|352:190|342:123,2,110,4|8|2,1:0|1:3|1:2,0:0:0:0:
344,306,218015,1,2,1:2:0:0:
344,306,218140,2,0,L|274:317,1,55,0|8,0:0|1:3,0:0:0:0:
250,360,218390,2,0,P|217:355|133:344,1,110,2|8,0:0|1:3,0:0:0:0:
25,382,218890,2,0,P|4:350|13:268,1,110,2|8,1:2|1:3,0:0:0:0:
73,179,219390,6,0,P|128:187|193:195,2,110,2|8|2,1:2|1:3|1:2,0:0:0:0:
25,149,220015,1,2,1:2:0:0:
25,149,220140,2,0,P|19:119|12:87,1,55,0|8,0:0|1:3,0:0:0:0:
27,35,220390,1,2,0:0:0:0:
143,0,220640,2,0,P|170:52|160:106,1,110,8|2,1:3|1:2,0:0:0:0:
139,158,221015,1,2,1:2:0:0:
139,158,221140,1,8,1:3:0:0:
215,251,221390,6,0,P|265:244|340:235,1,110,6|8,1:2|1:3,0:0:0:0:
449,237,221890,1,2,1:2:0:0:
449,237,222015,2,0,P|475:280|460:347,1,110,2|8,1:2|1:3,0:0:0:0:
427,382,222390,2,0,P|377:375|302:366,1,110,2|8,0:0|1:3,0:0:0:0:
201,334,222890,2,0,P|151:341|76:350,1,110,2|8,1:2|1:3,0:0:0:0:
15,254,223390,5,2,1:2:0:0:
95,163,223640,1,8,1:3:0:0:
205,222,223890,1,2,1:2:0:0:
205,222,224015,2,0,P|258:215|331:206,1,110,2|8,1:2|1:3,0:0:0:0:
364,174,224390,1,2,0:0:0:0:
476,217,224640,2,0,P|501:257|485:337,1,110,8|2,1:3|1:2,0:0:0:0:
485,380,225015,1,2,1:2:0:0:
485,380,225140,1,8,1:3:0:0:
368,345,225390,1,6,1:2:0:0:
