osu file format v14

[General]
AudioFilename: audio.ogg
AudioLeadIn: 0
PreviewTime: 176827
Countdown: 0
SampleSet: Drum
StackLeniency: 0.7
Mode: 0
LetterboxInBreaks: 0
WidescreenStoryboard: 0

[Editor]
DistanceSpacing: 0.9
BeatDivisor: 4
GridSize: 8
TimelineZoom: 1.7

[Metadata]
Title:Q
TitleUnicode:Q
Artist:siinamota feat. Kagamine Rin
ArtistUnicode:椎名もた feat. 鏡音リン
Creator:Ryuusei Aika
Version:Extreme
Source:
Tags:SupaV Pigeons Arsalan Shiny Braixen Calvaria Shiina Mota ぽわぽわP PowapowaP PWPWP アルターワー・セツナポップ Alterour Setsuna Pop japanese rock j-rock jrock vocaloid ボーカロイド ボカロ
BeatmapID:4366245
BeatmapSetID:2084482

[Difficulty]
HPDrainRate:6
CircleSize:4
OverallDifficulty:9
ApproachRate:9.6
SliderMultiplier:2
SliderTickRate:1

[Events]
//Background and Video events
0,0,"bg.jpg",0,0
//Break Periods
//Storyboard Layer 0 (Background)
//Storyboard Layer 1 (Fail)
//Storyboard Layer 2 (Pass)
//Storyboard Layer 3 (Foreground)
//Storyboard Layer 4 (Overlay)
//Storyboard Sound Samples

[TimingPoints]
390,250,4,3,0,70,1,0
11390,-100,4,3,0,70,0,0
28390,-133.333333333333,4,3,0,60,0,0
51890,-256.410256410256,4,3,0,70,0,1
52390,-83.3333333333333,4,3,0,70,0,1
66515,-66.6666666666667,4,3,0,70,0,0
67390,-256.410256410256,4,3,0,70,0,0
68390,-71.9424460431655,4,3,0,70,0,1
80390,-100,4,3,0,70,0,0
83390,-500,4,3,0,70,0,0
84390,-133.333333333333,4,3,0,60,0,0
107890,-256.410256410256,4,3,0,70,0,1
108390,-83.3333333333333,4,3,0,70,0,1
122515,-66.6666666666667,4,3,0,70,0,0
123390,-256.410256410256,4,3,0,70,0,0
124390,-71.9424460431655,4,3,0,70,0,1
136390,-100,4,3,0,70,0,0
140515,-200,4,3,0,60,0,0
156390,-166.666666666667,4,3,0,70,0,0
171390,-142.857142857143,4,3,0,80,0,0
172827,-142.857142857143,4,3,0,5,0,0
172890,-100,4,3,0,70,0,0
173015,-500,4,3,0,60,0,0
176827,-256.410256410256,4,3,0,100,0,1
177327,-256.410256410256,4,3,0,100,0,0
177390,-80,4,3,0,80,0,1
191515,-62.5,4,3,0,80,0,1
192390,-256.410256410256,4,3,0,80,0,0
193390,-71.9424460431655,4,3,0,80,0,1
205390,-95.2380952380952,4,3,0,80,0,0
208390,-200,4,3,0,80,0,0
209390,-83.3333333333333,4,3,0,80,0,1
209452,-83.3333333333333,4,3,0,70,0,1
224640,-90.9090909090909,4,3,0,70,0,0
224890,-100,4,3,0,70,0,0
225140,-111.111111111111,4,3,0,70,0,0
225390,-500,4,3,0,60,0,0

[Colours]
Combo1 : 168,159,134
Combo2 : 192,192,192

[HitObjects]
256,192,11390,5,4,0:2:0:0:
169,342,11640,5,4,0:2:0:0:
169,41,11890,5,4,0:2:0:0:
429,192,12140,5,4,0:2:0:0:
111,266,12390,6,0,P|163:263|211:274,1,100,4|0,1:0|0:0,0:0:0:0:
306,111,12640,2,0,P|254:114|205:103,1,100,8|0,1:3|0:0,0:0:0:0:
446,154,12890,1,2,1:2:0:0:
366,21,13015,2,0,P|348:64|359:164,1,150,2|0,1:2|0:0,0:0:0:0:
359,165,13265,6,0,L|349:264,1,100,8|0,1:3|0:0,0:0:0:0:
182,187,13515,1,2,1:2:0:0:
242,341,13640,2,0,L|252:242,1,100,8|0,1:3|0:0,0:0:0:0:
196,88,13890,5,2,1:2:0:0:
98,166,14015,1,2,1:2:0:0:
152,275,14140,2,0,L|172:393,1,100,8|0,1:3|0:0,0:0:0:0:
45,259,14390,6,0,P|56:194|9:64,2,200,2|8|2,1:2|1:3|1:2,0:0:0:0:
176,158,15015,2,0,P|226:165|274:197,1,100,2|0,1:2|0:0,0:0:0:0:
300,32,15265,6,0,P|214:70|92:51,1,200,8|2,1:3|1:2,0:0:0:0:
437,116,15640,1,8,1:3:0:0:
437,116,15890,5,2,1:2:0:0:
354,206,16015,1,2,1:2:0:0:
451,289,16140,2,0,L|463:190,1,100,8|0,1:3|0:0,0:0:0:0:
349,85,16390,6,0,L|375:315,1,200,6|8,1:2|1:3,0:0:0:0:
88,376,16890,5,2,1:2:0:0:
147,311,17015,2,0,P|197:328|252:321,1,100,2|0,1:2|0:0,0:0:0:0:
218,130,17265,6,0,P|262:163|262:278,1,150,8|0,1:3|0:0,0:0:0:0:
275,252,17515,1,2,1:2:0:0:
165,206,17640,2,0,L|48:197,1,100,8|0,1:3|0:0,0:0:0:0:
197,25,17890,5,2,1:2:0:0:
96,102,18015,1,2,1:2:0:0:
197,25,18140,2,0,P|245:30|304:66,1,100,8|0,1:3|0:0,0:0:0:0:
392,129,18390,6,0,L|382:254,1,100,2|0,1:2|0:0,0:0:0:0:
197,375,18640,2,0,L|204:275,1,100,8|0,1:3|0:0,0:0:0:0:
302,170,18890,1,2,1:2:0:0:
302,170,19015,2,0,P|284:226|293:271,1,100,2|0,1:2|0:0,0:0:0:0:
445,63,19265,6,0,P|485:161|467:253,1,200,8|2,1:3|1:2,0:0:0:0:
295,373,19640,1,8,1:3:0:0:
61,86,19890,5,2,1:2:0:0:
176,143,20015,1,2,1:2:0:0:
71,212,20140,2,0,P|48:258|48:313,1,100,8|0,1:3|0:0,0:0:0:0:
3,147,20390,6,0,P|26:84|22:-2,1,150,4|0,1:0|0:0,0:0:0:0:
23,2,20640,2,0,L|133:11,1,100,8|0,1:3|0:0,0:0:0:0:
302,19,20890,1,2,1:2:0:0:
302,19,21015,2,0,P|255:38|191:30,1,100,2|0,1:2|0:0,0:0:0:0:
311,138,21265,6,0,P|349:227|341:343,1,200,8|2,1:3|1:2,0:0:0:0:
174,357,21640,2,0,P|172:312|195:258,1,100,8|0,1:3|0:0,0:0:0:0:
232,131,21890,5,2,1:2:0:0:
309,232,22015,1,2,1:2:0:0:
410,167,22140,2,0,L|277:146,1,100,8|0,1:3|0:0,0:0:0:0:
77,199,22390,6,0,P|215:230|232:286,2,200,2|8|2,1:2|1:3|1:2,0:0:0:0:
157,86,23015,2,0,L|214:-12,1,100,2|0,1:2|0:0,0:0:0:0:
385,81,23265,6,0,P|320:111|240:94,1,150,8|0,1:3|0:0,0:0:0:0:
245,96,23515,1,2,1:2:0:0:
386,200,23640,2,0,P|428:243|441:295,1,100,8|0,1:3|0:0,0:0:0:0:
253,381,23890,5,2,1:2:0:0:
178,286,24015,1,2,1:2:0:0:
283,201,24140,2,0,L|264:330,1,100,8|0,1:3|0:0,0:0:0:0:
80,344,24390,6,0,P|61:299|61:239,1,100,6|0,1:2|0:0,0:0:0:0:
153,100,24640,2,0,P|172:145|172:205,1,100,8|0,1:3|0:0,0:0:0:0:
5,182,24890,1,2,1:2:0:0:
5,182,25015,1,2,1:2:0:0:
265,117,25265,6,0,P|362:93|483:100,1,200,8|2,1:3|1:2,0:0:0:0:
295,7,25640,2,0,P|246:19|186:15,1,100,8|0,1:3|0:0,0:0:0:0:
386,133,25890,5,2,1:2:0:0:
302,218,26015,1,2,1:2:0:0:
396,300,26140,2,0,P|439:333|504:354,1,100,8|0,1:3|0:0,0:0:0:0:
315,353,26390,6,0,L|158:364,1,150,2|0,1:2|0:0,0:0:0:0:
165,363,26640,2,0,L|181:241,1,100,8|0,1:3|0:0,0:0:0:0:
117,93,26890,1,2,1:2:0:0:
41,245,27015,2,0,L|56:122,1,100,2|0,1:2|0:0,0:0:0:0:
192,6,27265,6,0,P|191:83|225:193,1,150,8|0,1:3|0:0,0:0:0:0:
207,153,27515,1,2,1:2:0:0:
405,50,27640,2,0,P|371:91|361:167,1,100,8|0,1:3|0:0,0:0:0:0:
291,55,27890,5,2,1:2:0:0:
448,126,28015,1,2,1:2:0:0:
299,219,28140,2,0,L|164:238,1,100,8|0,1:3|0:0,0:0:0:0:
80,267,28390,6,0,P|193:293|198:312,1,150.000005722046,4|8,1:0|1:2,0:0:0:0:
216,378,28765,1,8,1:2:0:0:
216,378,28890,1,2,0:0:0:0:
397,292,29140,1,8,1:2:0:0:
397,292,29265,2,0,P|376:207|378:120,1,150.000005722046,2|0,0:0|0:0,0:0:0:0:
429,62,29640,2,0,L|499:5,1,75.0000028610231,8|8,1:2|1:2,0:0:0:0:
429,62,29890,2,0,L|279:81,1,150.000005722046,2|8,0:0|1:2,0:0:0:0:
43,32,30390,6,0,L|20:216,1,150.000005722046,2|8,1:2|1:2,0:0:0:0:
16,255,30765,1,8,1:2:0:0:
16,255,30890,1,2,0:0:0:0:
199,287,31140,1,8,1:2:0:0:
199,287,31265,2,0,P|211:206|169:145,1,150.000005722046,2|0,0:0|0:0,0:0:0:0:
319,198,31640,2,0,L|296:305,1,75.0000028610231,8|8,1:2|1:2,0:0:0:0:
319,198,31890,2,0,L|478:175,1,150.000005722046,2|8,0:0|1:2,0:0:0:0:
129,369,32390,6,0,P|95:306|117:225,1,150.000005722046,2|8,1:2|1:2,0:0:0:0:
111,232,32765,1,8,1:2:0:0:
178,136,32890,2,0,L|196:232,1,75.0000028610231,2|2,0:0|1:2,0:0:0:0:
264,135,33140,2,0,L|250:61,1,75.0000028610231,8|0,1:2|0:0,0:0:0:0:
250,61,33515,5,2,0:0:0:0:
250,61,33640,1,8,1:2:0:0:
250,61,33765,1,8,1:2:0:0:
184,31,33890,1,2,0:0:0:0:
451,118,34140,1,8,1:2:0:0:
328,300,34390,6,0,P|320:225|367:159,1,150.000005722046,2|8,1:2|1:2,0:0:0:0:
358,164,34765,1,8,1:2:0:0:
267,233,34890,2,0,P|238:256|229:292,1,75.0000028610231,2|2,0:0|1:2,0:0:0:0:
133,309,35140,2,0,P|133:271|171:235,1,75.0000028610231,8|0,1:2|0:0,0:0:0:0:
154,242,35515,5,2,0:0:0:0:
33,81,35765,1,8,1:2:0:0:
33,81,35890,1,2,0:0:0:0:
127,164,36140,1,8,1:2:0:0:
282,30,36390,6,0,P|356:44|443:79,1,150.000005722046,6|8,1:2|1:2,0:0:0:0:
489,105,36765,1,8,1:2:0:0:
489,105,36890,1,2,0:0:0:0:
425,141,37015,1,2,1:2:0:0:
256,313,37265,1,2,0:0:0:0:
344,194,37515,6,0,L|426:216,2,75.0000028610231,2|8|8,0:0|1:2|1:2,0:0:0:0:
417,250,37890,2,0,L|499:272,2,75.0000028610231,2|2|8,0:0|1:2|1:2,0:0:0:0:
230,30,38390,6,0,P|156:44|69:79,1,150.000005722046,2|8,1:2|1:2,0:0:0:0:
23,105,38765,1,8,1:2:0:0:
23,105,38890,1,2,0:0:0:0:
87,141,39015,1,2,1:2:0:0:
256,313,39265,1,2,0:0:0:0:
168,194,39515,6,0,L|86:216,2,75.0000028610231,2|8|8,0:0|1:2|1:2,0:0:0:0:
95,250,39890,2,0,L|13:272,2,75.0000028610231,2|2|8,0:0|1:2|1:2,0:0:0:0:
238,59,40390,5,2,1:2:0:0:
231,60,40515,1,0,0:0:0:0:
315,76,40640,5,8,1:2:0:0:
308,77,40765,1,8,1:2:0:0:
257,135,40890,5,2,0:0:0:0:
257,135,41015,1,2,1:2:0:0:
422,346,41265,1,2,0:0:0:0:
90,346,41515,2,0,P|147:305|248:290,1,150.000005722046,2|8,0:0|1:2,0:0:0:0:
223,288,41890,5,2,0:0:0:0:
191,219,42015,1,2,1:2:0:0:
262,191,42140,1,8,1:2:0:0:
274,59,42390,5,2,1:2:0:0:
281,60,42515,1,0,0:0:0:0:
197,76,42640,5,8,1:2:0:0:
204,77,42765,1,8,1:2:0:0:
141,17,42890,5,2,0:0:0:0:
69,48,43015,2,0,P|35:25|0:13,2,75.0000028610231,2|8|0,1:2|1:2|0:0,0:0:0:0:
165,360,43515,5,2,0:0:0:0:
185,315,43640,1,8,1:2:0:0:
235,317,43765,1,8,1:2:0:0:
325,377,43890,5,2,0:0:0:0:
399,310,44015,1,2,1:2:0:0:
482,332,44140,1,8,1:2:0:0:
0,2,44390,5,2,1:2:0:0:
241,38,44640,1,8,3:2:0:0:
241,38,44765,1,8,3:2:0:0:
38,163,45015,1,2,1:2:0:0:
38,163,45140,1,8,1:2:0:0:
369,112,45390,5,2,1:2:0:0:
112,44,45640,1,8,1:2:0:0:
112,44,45765,1,8,1:2:0:0:
332,208,46015,1,2,1:2:0:0:
332,208,46140,1,8,1:2:0:0:
40,278,46390,5,2,1:2:0:0:
264,157,46640,1,8,1:2:0:0:
264,157,46765,1,8,1:2:0:0:
103,355,47015,1,2,1:2:0:0:
103,355,47140,1,8,1:2:0:0:
175,126,47390,5,2,1:2:0:0:
415,209,47640,1,8,1:2:0:0:
415,209,47765,1,8,1:2:0:0:
167,256,48015,1,2,1:2:0:0:
167,256,48140,1,8,1:2:0:0:
429,111,48390,5,6,1:2:0:0:
284,283,48640,1,8,1:2:0:0:
284,283,48765,1,8,1:2:0:0:
501,215,49015,1,2,1:2:0:0:
501,215,49140,1,8,1:2:0:0:
213,232,49390,5,2,1:2:0:0:
415,288,49640,1,8,1:2:0:0:
415,288,49765,1,8,1:2:0:0:
217,352,50015,1,2,1:2:0:0:
217,352,50140,1,8,1:2:0:0:
512,384,50390,5,6,1:2:0:0:
256,0,51890,6,2,B|248:59|248:59|283:78|289:124,1,136.500004582215,2|0,0:1|0:0,0:1:0:0:
288,120,52390,6,0,P|224:87|92:108,1,179.999994506836,4|0,1:0|0:0,0:0:0:0:
55,124,52640,1,8,1:3:0:0:
195,302,52765,1,2,1:2:0:0:
195,302,53015,5,2,1:2:0:0:
55,124,53140,2,0,P|36:179|33:245,1,119.999996337891,8|0,1:3|0:0,0:0:0:0:
233,225,53390,6,0,L|353:213,1,119.999996337891,2|0,1:2|0:0,0:0:0:0:
383,355,53640,2,0,L|502:342,1,119.999996337891,8|0,1:3|1:2,0:0:0:0:
333,191,53890,6,0,L|213:203,1,119.999996337891,2|2,1:2|1:2,0:0:0:0:
119,312,54140,2,0,L|0:324,1,119.999996337891,8|0,1:3|0:0,0:0:0:0:
248,365,54390,6,0,P|266:306|381:283,1,179.999994506836,2|0,1:2|0:0,0:0:0:0:
431,332,54640,1,8,1:3:0:0:
435,84,54765,2,0,P|463:177|458:266,1,179.999994506836,2|0,1:2|0:0,0:0:0:0:
459,258,55015,6,0,P|400:237|381:158,1,119.999996337891,2|8,1:2|1:3,0:0:0:0:
344,17,55265,1,0,1:0:0:0:
236,80,55390,2,0,P|292:93|341:205,1,179.999994506836,2|0,1:2|0:0,0:0:0:0:
332,269,55640,1,8,1:3:0:0:
215,167,55765,1,2,1:2:0:0:
120,353,55890,6,0,L|103:223,1,119.999996337891,0|2,1:0|1:2,0:0:0:0:
65,205,56077,1,0,1:0:0:0:
65,205,56140,2,0,L|48:75,1,119.999996337891,8|0,1:3|0:0,0:0:0:0:
197,289,56390,6,0,P|277:340|364:338,1,179.999994506836,6|0,1:2|0:0,0:0:0:0:
427,318,56640,1,8,1:3:0:0:
298,124,56765,1,2,1:2:0:0:
298,124,57015,5,2,1:2:0:0:
427,318,57140,2,0,P|445:264|428:195,1,119.999996337891,8|0,1:3|0:0,0:0:0:0:
215,21,57390,6,0,L|203:162,1,119.999996337891,2|0,1:2|0:0,0:0:0:0:
295,262,57640,2,0,L|283:403,1,119.999996337891,8|0,1:3|1:2,0:0:0:0:
221,158,57890,6,0,L|231:38,1,119.999996337891,2|2,1:2|1:2,0:0:0:0:
33,0,58140,2,0,L|22:119,1,119.999996337891,8|0,1:3|0:0,0:0:0:0:
3,300,58390,6,0,P|100:316|174:374,1,179.999994506836,2|0,1:2|0:0,0:0:0:0:
164,363,58640,1,8,1:3:0:0:
149,223,58765,2,0,P|137:165|144:106,1,119.999996337891,2|0,1:2|0:0,0:0:0:0:
331,60,59015,6,0,P|351:158|329:258,1,179.999994506836,2|0,1:2|0:0,0:0:0:0:
337,235,59265,1,0,1:0:0:0:
494,96,59390,2,0,L|471:252,1,119.999996337891,2|0,1:2|0:0,0:0:0:0:
318,355,59640,1,8,1:3:0:0:
247,200,59765,1,2,1:2:0:0:
1,303,59890,6,0,L|131:319,1,119.999996337891,0|2,0:0|1:2,0:0:0:0:
163,354,60077,1,0,1:0:0:0:
163,354,60140,2,0,P|188:297|176:226,1,119.999996337891,8|0,1:3|0:0,0:0:0:0:
46,0,60390,6,0,P|-6:78|15:189,1,179.999994506836,4|0,1:0|0:0,0:0:0:0:
35,223,60640,1,8,1:3:0:0:
250,117,60765,1,2,1:2:0:0:
250,117,61015,5,2,1:2:0:0:
35,223,61140,2,0,P|100:208|159:209,1,119.999996337891,8|0,1:3|0:0,0:0:0:0:
423,37,61390,6,0,L|269:45,1,119.999996337891,2|0,1:2|0:0,0:0:0:0:
143,82,61640,2,0,L|-11:90,1,119.999996337891,8|0,1:3|1:2,0:0:0:0:
284,29,61890,6,0,L|403:22,1,119.999996337891,2|2,1:2|1:2,0:0:0:0:
498,224,62140,2,0,L|378:230,1,119.999996337891,8|0,1:3|0:0,0:0:0:0:
159,341,62390,6,0,P|109:275|120:164,1,179.999994506836,2|0,1:2|0:0,0:0:0:0:
138,115,62640,1,8,1:3:0:0:
294,383,62765,2,0,L|307:246,1,119.999996337891,2|0,1:2|0:0,0:0:0:0:
206,57,63015,6,0,P|192:168|243:239,1,179.999994506836,2|0,1:2|0:0,0:0:0:0:
224,223,63265,1,0,1:0:0:0:
338,120,63390,2,0,P|410:130|464:156,1,119.999996337891,2|0,1:2|0:0,0:0:0:0:
355,284,63640,1,8,1:3:0:0:
231,137,63765,1,2,1:2:0:0:
40,253,63890,6,0,P|104:266|145:308,1,119.999996337891,0|2,1:0|1:2,0:0:0:0:
160,356,64077,1,0,1:0:0:0:
160,356,64140,1,8,1:3:0:0:
292,37,64390,6,0,P|321:132|282:242,1,179.999994506836,6|0,1:2|0:0,0:0:0:0:
255,262,64640,1,8,1:3:0:0:
476,168,64765,1,2,1:2:0:0:
476,168,65015,5,2,1:2:0:0:
255,262,65140,2,0,L|123:252,1,119.999996337891,8|0,1:3|0:0,0:0:0:0:
0,55,65390,6,0,P|-10:115|16:198,1,119.999996337891,2|0,1:2|0:0,0:0:0:0:
216,72,65640,2,0,P|177:118|158:203,1,119.999996337891,8|0,1:3|1:2,0:0:0:0:
446,211,65890,2,0,P|389:232|330:296,1,119.999996337891,0|0,1:0|1:2,0:0:0:0:
91,359,66140,2,0,P|178:340|266:355,1,179.999994506836,8|0,1:3|0:0,0:0:0:0:
267,356,66390,6,0,L|273:285,1,59.9999981689454,4|0,1:0|0:0,0:0:0:0:
177,176,66515,6,0,P|157:323|205:397,1,225.000008583069,8|0,1:3|0:0,0:0:0:0:
406,366,66765,2,0,P|426:219|378:145,1,225.000008583069,4|0,1:0|0:0,0:0:0:0:
306,2,67015,6,0,B|284:81|284:81|316:127|316:127|296:212,1,225.000008583069,4|0,1:0|0:0,0:0:0:0:
296,211,67265,2,0,L|181:224,1,75.0000028610231,4|0,1:0|0:0,0:0:0:0:
3,245,67390,5,4,1:0:0:0:
15,221,67640,5,2,0:2:0:0:
38,234,67890,5,2,0:2:0:0:
26,257,68140,5,2,0:2:0:0:
321,45,68390,5,4,1:0:0:0:
253,59,68515,1,0,0:0:0:0:
221,120,68640,1,8,1:3:0:0:
266,172,68765,1,0,0:0:0:0:
334,160,68890,1,2,1:2:0:0:
364,97,69015,1,0,0:0:0:0:
471,184,69140,5,8,1:3:0:0:
464,253,69265,1,0,0:0:0:0:
354,338,69390,5,2,1:2:0:0:
285,325,69515,1,0,0:0:0:0:
232,278,69640,1,8,1:3:0:0:
208,212,69765,1,0,0:0:0:0:
379,312,69890,5,2,1:2:0:0:
302,279,70015,1,0,0:0:0:0:
249,214,70140,1,8,1:3:0:0:
236,131,70265,1,0,0:0:0:0:
269,57,70390,5,2,1:2:0:0:
269,57,70515,1,0,0:0:0:0:
379,152,70640,5,8,1:3:0:0:
379,152,70765,1,0,0:0:0:0:
251,144,70890,5,2,1:2:0:0:
251,144,71015,1,0,0:0:0:0:
400,76,71140,5,8,1:3:0:0:
400,76,71265,1,0,0:0:0:0:
314,228,71390,5,2,1:2:0:0:
482,194,71515,1,0,0:0:0:0:
296,279,71640,5,8,1:3:0:0:
146,251,71765,1,0,0:0:0:0:
322,321,71890,5,2,1:2:0:0:
453,279,72015,1,0,0:0:0:0:
303,361,72140,5,8,1:3:0:0:
180,333,72265,1,0,0:0:0:0:
232,171,72390,5,6,1:2:0:0:
218,102,72515,1,0,0:0:0:0:
149,92,72640,1,8,1:3:0:0:
113,151,72765,1,0,0:0:0:0:
168,193,72890,1,2,1:2:0:0:
219,145,73015,1,0,0:0:0:0:
163,17,73140,5,8,1:3:0:0:
94,31,73265,1,0,0:0:0:0:
240,54,73390,5,2,1:2:0:0:
306,73,73515,1,0,0:0:0:0:
372,92,73640,1,8,1:3:0:0:
385,160,73765,1,0,0:0:0:0:
234,97,73890,5,2,1:2:0:0:
317,93,74015,1,0,0:0:0:0:
400,89,74140,1,8,1:3:0:0:
455,151,74265,1,0,0:0:0:0:
377,266,74390,5,2,1:2:0:0:
377,266,74515,1,0,0:0:0:0:
244,202,74640,5,8,1:3:0:0:
244,202,74765,1,0,0:0:0:0:
379,194,74890,5,2,1:2:0:0:
379,194,75015,1,0,0:0:0:0:
224,280,75140,5,8,1:3:0:0:
224,280,75265,1,0,0:0:0:0:
222,102,75390,5,2,1:2:0:0:
383,142,75515,1,0,0:0:0:0:
199,55,75640,5,8,1:3:0:0:
51,95,75765,1,0,0:0:0:0:
219,25,75890,5,2,1:2:0:0:
353,59,76015,1,0,0:0:0:0:
208,0,76140,5,8,1:3:0:0:
83,15,76265,1,0,0:0:0:0:
131,189,76390,5,6,1:2:0:0:
182,236,76515,1,0,0:0:0:0:
251,236,76640,1,8,1:3:0:0:
319,225,76765,1,0,0:0:0:0:
386,241,76890,1,2,1:2:0:0:
438,286,77015,1,0,0:0:0:0:
300,263,77140,5,8,1:3:0:0:
314,195,77265,1,0,0:0:0:0:
183,242,77390,5,2,1:2:0:0:
117,219,77515,1,0,0:0:0:0:
64,264,77640,1,8,1:3:0:0:
130,287,77765,1,0,0:0:0:0:
194,104,77890,5,2,1:2:0:0:
114,76,78015,1,0,0:0:0:0:
51,130,78140,1,8,1:3:0:0:
130,158,78265,1,0,0:0:0:0:
125,6,78390,5,2,1:2:0:0:
125,6,78515,1,0,0:0:0:0:
250,40,78640,5,8,1:3:0:0:
250,40,78765,1,0,0:0:0:0:
115,88,78890,5,2,1:2:0:0:
115,88,79015,1,0,0:0:0:0:
263,144,79140,5,8,1:3:0:0:
263,144,79265,1,0,0:0:0:0:
225,253,79390,5,2,1:2:0:0:
379,190,79515,1,0,0:0:0:0:
215,273,79640,5,8,1:3:0:0:
78,204,79765,1,0,0:0:0:0:
226,287,79890,5,2,1:2:0:0:
362,263,80015,1,0,0:0:0:0:
211,306,80140,5,12,1:3:0:0:
90,272,80265,1,0,0:0:0:0:
319,372,80390,5,4,1:0:0:0:
135,0,80890,5,0,0:0:0:0:
9,228,81390,6,0,P|117:167|240:163,1,250,8|0,0:3|0:0,0:0:0:0:
240,163,81765,2,0,P|304:272|214:373,1,250,4|0,0:3|0:0,0:0:0:0:
242,363,82140,2,0,P|235:284|289:231,1,150,4|0,0:3|0:0,0:0:0:0:
351,229,82390,6,0,P|422:259|462:343,1,150,4|0,1:0|0:0,0:0:0:0:
468,367,82640,5,8,3:0:0:0:
512,165,82765,1,8,3:0:0:0:
340,355,82890,5,8,3:0:0:0:
373,76,83015,1,8,3:0:0:0:
213,326,83140,6,0,P|233:292|241:256,1,66.6666666666667,8|0,3:0|0:0,0:0:0:0:
33,18,83390,6,2,B|0:40|0:40|17:153,1,150,2|0,0:1|0:0,0:1:0:0:
21,170,84390,6,0,P|76:203|132:193,1,112.500004291535,4|0,1:0|0:0,0:0:0:0:
187,174,84640,1,8,1:2:0:0:
187,174,84765,1,8,1:2:0:0:
256,186,84890,1,0,0:0:0:0:
407,233,85140,2,0,P|368:169|372:96,1,150.000005722046,8|2,1:2|1:2,0:0:0:0:
372,96,85515,6,0,P|408:107|477:182,1,112.500004291535,2|0,0:0|0:0,0:0:0:0:
486,198,85765,1,8,1:2:0:0:
380,238,85890,5,2,0:0:0:0:
475,283,86015,1,2,1:2:0:0:
409,322,86140,1,8,1:2:0:0:
72,362,86390,5,2,1:2:0:0:
154,289,86515,1,2,0:0:0:0:
248,326,86640,1,8,1:2:0:0:
182,375,86765,1,8,1:2:0:0:
259,339,86890,1,2,0:0:0:0:
225,160,87140,1,8,1:2:0:0:
225,160,87265,2,0,P|181:173|142:197,1,75.0000028610231,2|2,0:0|1:2,0:0:0:0:
112,249,87515,5,2,0:0:0:0:
86,178,87640,1,8,1:2:0:0:
157,155,87765,1,8,1:2:0:0:
46,99,87890,5,2,0:0:0:0:
121,52,88015,1,2,1:2:0:0:
191,75,88140,1,8,1:2:0:0:
417,38,88390,6,0,L|341:45,1,75.0000028610231,2|2,1:2|0:0,0:0:0:0:
486,61,88640,2,0,L|410:68,1,75.0000028610231,8|8,1:2|1:2,0:0:0:0:
297,114,88890,1,2,0:0:0:0:
356,160,89015,2,0,P|425:196|498:220,1,150.000005722046,2|0,1:2|0:0,0:0:0:0:
250,369,89515,5,2,0:0:0:0:
250,369,89640,1,8,1:2:0:0:
250,369,89765,1,8,1:2:0:0:
234,254,89890,5,2,0:0:0:0:
320,323,90015,1,2,1:2:0:0:
344,252,90140,1,8,1:2:0:0:
61,348,90390,5,2,1:2:0:0:
61,348,90640,2,0,L|42:250,1,75.0000028610231,8|8,1:2|1:2,0:0:0:0:
69,157,90890,1,2,0:0:0:0:
133,201,91015,2,0,P|172:264|160:361,1,150.000005722046,2|0,1:2|0:0,0:0:0:0:
170,337,91515,1,2,0:0:0:0:
248,271,91640,5,8,1:2:0:0:
261,197,91765,1,8,1:2:0:0:
158,93,91890,5,2,0:0:0:0:
172,167,92015,1,2,1:2:0:0:
220,141,92140,1,8,1:2:0:0:
308,377,92390,6,0,P|366:309|378:264,1,112.500004291535,2|0,1:2|0:0,0:0:0:0:
381,216,92640,1,8,1:2:0:0:
446,261,92765,1,8,1:2:0:0:
446,261,92890,2,0,L|433:355,1,75.0000028610231,2|2,0:0|1:2,0:0:0:0:
500,75,93265,1,2,0:0:0:0:
500,75,93515,5,2,0:0:0:0:
449,86,93640,1,8,1:2:0:0:
398,97,93765,1,8,1:2:0:0:
509,84,93890,5,2,0:0:0:0:
452,96,94015,1,2,1:2:0:0:
396,108,94140,1,8,1:2:0:0:
204,377,94390,6,0,P|146:309|134:264,1,112.500004291535,2|0,1:2|0:0,0:0:0:0:
131,216,94640,1,8,1:2:0:0:
66,261,94765,1,8,1:2:0:0:
66,261,94890,2,0,L|79:355,1,75.0000028610231,2|2,0:0|1:2,0:0:0:0:
12,75,95265,1,2,0:0:0:0:
12,75,95515,5,2,0:0:0:0:
63,86,95640,1,8,1:2:0:0:
114,97,95765,1,8,1:2:0:0:
3,84,95890,5,2,0:0:0:0:
60,96,96015,1,2,1:2:0:0:
116,108,96140,1,8,1:2:0:0:
256,310,96390,5,2,1:2:0:0:
265,255,96515,1,2,0:0:0:0:
305,328,96640,5,8,1:2:0:0:
350,319,96765,1,8,1:2:0:0:
264,361,96890,5,2,0:0:0:0:
186,339,97015,2,0,P|133:326|13:328,1,150.000005722046,2|0,1:2|0:0,0:0:0:0:
155,148,97515,5,2,0:0:0:0:
174,189,97640,1,8,1:2:0:0:
228,175,97765,1,8,1:2:0:0:
86,184,97890,5,2,0:0:0:0:
64,109,98015,1,2,1:2:0:0:
13,138,98140,1,8,1:2:0:0:
261,261,98390,6,0,L|314:196,1,75.0000028610231,2|0,1:2|0:0,0:0:0:0:
308,202,98640,2,0,L|361:137,1,75.0000028610231,8|8,1:2|1:2,0:0:0:0:
401,92,98890,5,2,0:0:0:0:
428,173,99015,1,2,1:2:0:0:
483,90,99140,5,8,1:2:0:0:
406,73,99265,1,2,0:0:0:0:
190,0,99515,5,2,0:0:0:0:
180,120,99640,1,8,1:2:0:0:
180,120,99765,1,8,1:2:0:0:
253,210,99890,5,2,0:0:0:0:
208,287,100015,1,2,1:2:0:0:
258,336,100140,1,8,1:2:0:0:
512,0,100390,5,2,1:2:0:0:
255,75,100640,1,8,3:2:0:0:
255,75,100765,1,8,3:2:0:0:
506,185,101015,1,2,1:2:0:0:
506,185,101140,1,8,1:2:0:0:
223,149,101390,5,2,1:2:0:0:
510,83,101640,1,8,1:2:0:0:
510,83,101765,1,8,1:2:0:0:
261,220,102015,1,2,1:2:0:0:
261,220,102140,1,8,1:2:0:0:
38,42,102390,5,2,1:2:0:0:
301,102,102640,1,8,1:2:0:0:
301,102,102765,1,8,1:2:0:0:
53,209,103015,1,2,1:2:0:0:
53,209,103140,1,8,1:2:0:0:
304,252,103390,5,2,1:2:0:0:
90,112,103640,1,8,1:2:0:0:
90,112,103765,1,8,1:2:0:0:
337,173,104015,1,2,1:2:0:0:
337,173,104140,1,8,1:2:0:0:
71,320,104390,5,6,1:2:0:0:
297,234,104640,1,8,1:2:0:0:
297,234,104765,1,8,1:2:0:0:
498,373,105015,1,2,1:2:0:0:
498,373,105140,1,8,1:2:0:0:
367,189,105390,5,2,1:2:0:0:
150,238,105640,1,8,1:2:0:0:
150,238,105765,1,8,1:2:0:0:
324,363,106015,1,2,1:2:0:0:
324,363,106140,1,8,1:2:0:0:
0,384,106390,5,6,1:2:0:0:
256,0,107890,6,2,B|285:70|224:62|258:140,1,136.500004582215,2|0,0:1|0:0,0:1:0:0:
254,131,108390,6,0,P|130:159|94:222,1,179.999994506836,4|0,1:0|0:0,0:0:0:0:
77,267,108640,1,8,1:3:0:0:
319,287,108765,2,0,L|186:299,1,119.999996337891,2|0,1:2|0:0,0:0:0:0:
77,267,109015,1,2,1:2:0:0:
225,325,109140,2,0,L|344:314,1,119.999996337891,8|0,1:3|0:0,0:0:0:0:
378,35,109390,6,0,P|417:85|405:185,1,119.999996337891,2|0,1:2|0:0,0:0:0:0:
395,171,109577,1,0,1:0:0:0:
395,171,109640,2,0,L|469:291,1,119.999996337891,8|2,1:3|1:2,0:0:0:0:
289,380,109890,5,0,1:0:0:0:
336,240,110015,1,2,1:2:0:0:
245,119,110140,2,0,P|205:182|250:255,1,119.999996337891,8|0,1:3|0:0,0:0:0:0:
358,345,110390,6,0,L|178:362,1,179.999994506836,2|0,1:2|0:0,0:0:0:0:
107,372,110640,1,8,1:3:0:0:
45,99,110765,2,0,P|102:140|110:285,1,179.999994506836,2|0,1:2|0:0,0:0:0:0:
126,242,111015,6,0,P|78:300|10:297,1,119.999996337891,2|8,1:2|1:3,0:0:0:0:
152,152,111265,1,0,1:0:0:0:
324,263,111390,2,0,L|197:248,1,119.999996337891,2|0,1:2|0:0,0:0:0:0:
375,134,111640,1,8,1:3:0:0:
493,311,111765,1,2,1:2:0:0:
252,146,111890,5,0,3:0:0:0:
247,150,111952,1,0,3:0:0:0:
244,155,112015,1,0,3:2:0:0:
243,160,112077,1,0,3:0:0:0:
243,166,112140,2,0,L|424:149,1,179.999994506836,8|0,1:3|0:0,0:0:0:0:
474,203,112390,6,0,P|422:233|295:181,1,179.999994506836,6|0,1:2|0:0,0:0:0:0:
278,139,112640,1,8,1:3:0:0:
64,230,112765,2,0,L|180:200,1,119.999996337891,2|0,1:2|0:0,0:0:0:0:
278,139,113015,1,2,1:2:0:0:
162,228,113140,2,0,L|45:257,1,119.999996337891,8|0,1:3|0:0,0:0:0:0:
249,377,113390,6,0,P|261:317|319:290,1,119.999996337891,2|0,1:2|0:0,0:0:0:0:
362,289,113577,1,0,1:0:0:0:
362,289,113640,2,0,L|491:328,1,119.999996337891,8|2,1:3|1:2,0:0:0:0:
297,206,113890,5,0,0:0:0:0:
146,254,114015,1,2,1:2:0:0:
170,53,114140,2,0,P|212:94|220:152,1,119.999996337891,8|0,1:3|0:0,0:0:0:0:
458,65,114390,6,0,P|395:116|256:105,1,179.999994506836,2|0,1:2|0:0,0:0:0:0:
230,106,114640,1,8,1:3:0:0:
76,25,114765,2,0,L|66:242,1,179.999994506836,2|0,1:2|0:0,0:0:0:0:
67,204,115015,2,0,P|115:236|183:209,1,119.999996337891,2|8,1:2|1:3,0:0:0:0:
301,138,115265,5,0,1:0:0:0:
384,309,115390,2,0,L|403:176,1,119.999996337891,2|0,1:2|0:0,0:0:0:0:
183,301,115640,1,8,1:3:0:0:
345,384,115765,1,2,1:2:0:0:
228,147,115890,5,0,1:0:0:0:
72,237,116015,1,2,1:2:0:0:
259,360,116140,2,0,P|278:304|273:245,1,119.999996337891,8|0,1:3|0:0,0:0:0:0:
30,375,116390,6,0,P|-3:298|4:187,1,179.999994506836,4|0,1:0|0:0,0:0:0:0:
42,137,116640,1,8,1:3:0:0:
250,277,116765,2,0,L|123:289,1,119.999996337891,2|0,1:2|0:0,0:0:0:0:
42,137,117015,1,2,1:2:0:0:
154,257,117140,2,0,L|273:245,1,119.999996337891,8|0,1:3|0:0,0:0:0:0:
231,23,117390,6,0,P|200:60|234:154,1,119.999996337891,2|0,1:2|0:0,0:0:0:0:
251,161,117577,1,0,1:0:0:0:
251,161,117640,2,0,P|320:173|386:134,1,119.999996337891,8|2,1:3|1:2,0:0:0:0:
490,38,117890,5,0,0:0:0:0:
351,138,118015,1,2,1:2:0:0:
477,251,118140,2,0,L|494:127,1,119.999996337891,8|0,1:3|0:0,0:0:0:0:
286,65,118390,6,0,L|306:291,1,179.999994506836,2|0,1:2|0:0,0:0:0:0:
311,313,118640,1,8,1:3:0:0:
160,373,118765,2,0,P|132:296|185:238,1,119.999996337891,2|0,1:2|0:0,0:0:0:0:
266,138,119015,5,2,1:2:0:0:
80,206,119140,1,8,1:3:0:0:
250,354,119265,1,0,1:0:0:0:
14,275,119390,2,0,L|192:298,1,179.999994506836,2|0,1:2|0:0,0:0:0:0:
250,354,119640,1,8,1:3:0:0:
295,171,119765,1,2,1:2:0:0:
116,304,119890,5,0,1:0:0:0:
280,262,120015,1,2,1:2:0:0:
114,129,120140,1,8,1:3:0:0:
433,363,120390,6,0,P|401:317|433:193,1,179.999994506836,6|0,1:2|0:0,0:0:0:0:
477,149,120640,1,8,1:3:0:0:
303,379,120765,2,0,L|321:249,1,119.999996337891,2|0,1:2|0:0,0:0:0:0:
477,149,121015,1,2,1:2:0:0:
297,233,121140,2,0,L|280:351,1,119.999996337891,8|0,1:3|0:0,0:0:0:0:
390,110,121390,6,0,P|379:47|315:12,1,119.999996337891,2|0,1:2|0:0,0:0:0:0:
284,10,121577,1,0,1:0:0:0:
284,10,121640,2,0,P|208:27|177:97,1,119.999996337891,8|2,1:3|1:2,0:0:0:0:
73,175,121890,5,0,3:0:0:0:
75,169,121952,1,0,3:0:0:0:
79,164,122015,1,2,3:2:0:0:
85,161,122077,1,0,3:0:0:0:
92,158,122140,2,0,L|219:171,1,119.999996337891,8|0,1:3|0:0,0:0:0:0:
420,226,122390,6,0,L|360:219,1,59.9999981689454,4|0,1:0|0:0,0:0:0:0:
279,39,122515,6,0,P|247:174|297:279,1,225.000008583069,8|0,1:3|0:0,0:0:0:0:
493,273,122765,2,0,P|525:138|475:33,1,225.000008583069,4|0,1:0|0:0,0:0:0:0:
400,125,123015,6,0,B|378:204|378:204|410:250|410:250|390:335,1,225.000008583069,4|0,1:0|0:0,0:0:0:0:
390,334,123265,2,0,L|275:347,1,75.0000028610231,4|0,1:0|0:0,0:0:0:0:
97,368,123390,5,4,1:0:0:0:
109,344,123640,5,2,0:2:0:0:
132,357,123890,5,2,0:2:0:0:
120,380,124140,5,2,0:2:0:0:
324,105,124390,5,4,1:0:0:0:
386,134,124515,1,0,0:0:0:0:
357,196,124640,1,8,1:3:0:0:
295,167,124765,1,0,0:0:0:0:
266,229,124890,1,2,1:2:0:0:
328,258,125015,1,0,0:0:0:0:
182,304,125140,5,8,1:3:0:0:
120,335,125265,1,0,0:0:0:0:
58,210,125390,5,2,1:2:0:0:
79,143,125515,1,0,0:0:0:0:
146,124,125640,1,8,1:3:0:0:
215,129,125765,1,0,0:0:0:0:
64,243,125890,5,2,1:2:0:0:
100,167,126015,1,0,0:0:0:0:
175,131,126140,1,8,1:3:0:0:
257,120,126265,1,0,0:0:0:0:
342,139,126390,5,2,1:2:0:0:
342,139,126515,1,0,0:0:0:0:
302,287,126640,5,8,1:3:0:0:
302,287,126765,1,0,0:0:0:0:
258,157,126890,5,2,1:2:0:0:
258,157,127015,1,0,0:0:0:0:
389,265,127140,5,8,1:3:0:0:
389,265,127265,1,0,0:0:0:0:
205,230,127390,5,2,1:2:0:0:
118,373,127515,1,0,0:0:0:0:
184,205,127640,5,8,1:3:0:0:
97,79,127765,1,0,0:0:0:0:
164,241,127890,5,2,1:2:0:0:
51,322,128015,1,0,0:0:0:0:
149,213,128140,5,8,1:3:0:0:
44,143,128265,1,0,0:0:0:0:
239,69,128390,5,6,1:2:0:0:
302,97,128515,1,0,0:0:0:0:
305,166,128640,1,8,1:3:0:0:
241,138,128765,1,0,0:0:0:0:
244,207,128890,1,2,1:2:0:0:
307,235,129015,1,0,0:0:0:0:
433,178,129140,5,8,1:3:0:0:
450,110,129265,1,0,0:0:0:0:
494,247,129390,5,2,1:2:0:0:
435,284,129515,1,0,0:0:0:0:
368,264,129640,1,8,1:3:0:0:
309,301,129765,1,0,0:0:0:0:
463,242,129890,5,2,1:2:0:0:
392,286,130015,1,0,0:0:0:0:
311,262,130140,1,8,1:3:0:0:
241,306,130265,1,0,0:0:0:0:
250,179,130390,5,2,1:2:0:0:
250,179,130515,1,0,0:0:0:0:
109,213,130640,5,8,1:3:0:0:
109,213,130765,1,0,0:0:0:0:
220,104,130890,5,2,1:2:0:0:
220,104,131015,1,0,0:0:0:0:
185,239,131140,5,8,1:3:0:0:
185,239,131265,1,0,0:0:0:0:
360,185,131390,5,2,1:2:0:0:
443,329,131515,1,0,0:0:0:0:
334,191,131640,5,8,1:3:0:0:
391,49,131765,1,0,0:0:0:0:
309,206,131890,5,2,1:2:0:0:
369,331,132015,1,0,0:0:0:0:
282,216,132140,5,8,1:3:0:0:
326,99,132265,1,0,0:0:0:0:
153,172,132390,5,6,1:2:0:0:
177,237,132515,1,0,0:0:0:0:
114,267,132640,1,8,1:3:0:0:
126,198,132765,1,0,0:0:0:0:
76,246,132890,1,2,1:2:0:0:
52,181,133015,1,0,0:0:0:0:
100,50,133140,5,8,1:3:0:0:
161,82,133265,1,0,0:0:0:0:
300,20,133390,5,2,1:2:0:0:
336,79,133515,1,0,0:0:0:0:
301,139,133640,1,8,1:3:0:0:
231,144,133765,1,0,0:0:0:0:
387,101,133890,5,2,1:2:0:0:
303,106,134015,1,0,0:0:0:0:
270,182,134140,1,8,1:3:0:0:
320,248,134265,1,0,0:0:0:0:
451,169,134390,5,2,1:2:0:0:
451,169,134515,1,0,0:0:0:0:
426,322,134640,5,8,1:3:0:0:
426,322,134765,1,0,0:0:0:0:
353,229,134890,5,2,1:2:0:0:
353,229,135015,1,0,0:0:0:0:
496,263,135140,5,8,1:3:0:0:
496,263,135265,1,0,0:0:0:0:
279,232,135390,5,2,1:2:0:0:
319,70,135515,1,0,0:0:0:0:
249,219,135640,5,8,1:3:0:0:
305,361,135765,1,0,0:0:0:0:
224,237,135890,5,2,1:2:0:0:
251,100,136015,1,0,0:0:0:0:
202,228,136140,5,12,1:3:0:0:
234,348,136265,1,0,0:0:0:0:
110,166,136390,5,4,1:0:0:0:
489,363,136890,1,0,0:0:0:0:
178,101,137390,6,0,L|231:357,1,250,8|0,0:3|0:0,0:0:0:0:
271,340,137765,2,0,P|335:240|272:109,1,250,4|0,0:3|0:0,0:0:0:0:
300,83,138140,2,0,P|216:139|224:209,1,150,4|0,0:3|0:0,0:0:0:0:
275,230,138390,6,0,L|434:246,1,150,4|0,1:0|0:0,0:0:0:0:
472,253,138640,5,8,3:0:0:0:
288,335,138765,1,8,3:0:0:0:
460,154,138890,5,8,3:0:0:0:
209,290,139015,1,8,3:0:0:0:
409,39,139140,6,0,P|375:46|327:67,1,66.6666666666667,8|0,3:0|0:0,0:0:0:0:
5,311,139390,5,4,1:0:0:0:
5,311,139640,1,0,0:0:0:0:
5,311,139890,1,0,0:0:0:0:
5,311,140140,1,0,0:0:0:0:
21,340,140390,5,0,0:0:0:0:
101,212,140640,2,0,L|90:285,1,50,2|2,0:0|0:0,0:0:0:0:
93,261,141015,1,0,0:0:0:0:
93,261,141140,1,2,0:0:0:0:
23,327,141390,5,0,0:0:0:0:
133,224,141640,2,0,L|103:291,1,50,2|2,0:0|0:0,0:0:0:0:
112,269,142015,1,0,0:0:0:0:
112,269,142140,1,2,0:0:0:0:
28,314,142390,5,0,0:0:0:0:
161,243,142640,2,0,L|114:300,1,50,2|2,0:0|0:0,0:0:0:0:
129,281,143015,1,0,0:0:0:0:
129,281,143140,1,2,0:0:0:0:
37,303,143390,5,0,0:0:0:0:
184,269,143640,2,0,L|123:311,1,50,2|2,0:0|0:0,0:0:0:0:
143,298,144015,1,0,0:0:0:0:
143,298,144140,1,2,0:0:0:0:
337,354,144390,5,0,0:0:0:0:
381,241,144640,2,0,L|395:306,1,50,2|2,0:0|0:0,0:0:0:0:
391,289,145015,1,0,0:0:0:0:
391,289,145140,1,2,0:0:0:0:
333,330,145390,5,0,0:0:0:0:
420,246,145640,2,0,L|405:310,1,50,2|2,0:0|0:0,0:0:0:0:
408,294,146015,1,0,0:0:0:0:
408,294,146140,1,2,0:0:0:0:
339,306,146390,5,0,0:0:0:0:
453,267,146640,2,0,L|412:319,1,50,2|2,0:0|0:0,0:0:0:0:
422,306,147015,1,0,0:0:0:0:
422,306,147140,1,2,0:0:0:0:
354,286,147390,5,0,0:0:0:0:
474,299,147640,2,0,L|414:329,1,50,2|2,0:0|0:0,0:0:0:0:
429,321,148015,1,0,0:0:0:0:
429,321,148140,1,2,0:0:0:0:
439,146,148390,5,0,0:0:0:0:
309,88,148640,2,0,L|356:129,1,50,2|2,0:0|0:0,0:0:0:0:
346,120,149015,1,0,0:0:0:0:
346,120,149140,1,2,0:0:0:0:
419,183,149390,5,0,0:0:0:0:
345,60,149640,2,0,L|359:120,1,50,2|2,0:0|0:0,0:0:0:0:
357,108,150015,1,0,0:0:0:0:
357,108,150140,1,2,0:0:0:0:
381,201,150390,5,0,0:0:0:0:
391,58,150640,2,0,L|368:116,1,50,2|2,0:0|0:0,0:0:0:0:
373,104,151015,1,0,0:0:0:0:
373,104,151140,1,2,0:0:0:0:
340,194,151390,5,0,0:0:0:0:
430,83,151640,2,0,L|378:117,1,50,2|2,0:0|0:0,0:0:0:0:
389,110,152015,1,0,0:0:0:0:
389,110,152140,1,2,0:0:0:0:
230,21,152390,5,0,0:0:0:0:
151,126,152640,2,0,L|141:57,1,50,2|2,0:0|0:0,0:0:0:0:
143,76,153015,1,0,0:0:0:0:
143,76,153140,1,2,0:0:0:0:
226,91,153390,5,0,0:0:0:0:
95,109,153640,2,0,L|136:53,1,50,2|2,0:0|0:0,0:0:0:0:
125,68,154015,1,0,0:0:0:0:
125,68,154140,1,2,0:0:0:0:
173,137,154390,5,0,0:0:0:0:
68,57,154640,2,0,L|137:46,1,50,2|2,0:0|0:0,0:0:0:0:
118,49,155015,1,0,0:0:0:0:
118,49,155140,1,2,0:0:0:0:
102,132,155390,5,0,0:0:0:0:
85,2,155640,2,0,L|140:43,1,50,2|2,0:0|0:0,0:0:0:0:
126,30,156015,1,0,0:0:0:0:
126,30,156140,1,2,0:0:0:0:
256,192,156390,6,0,P|323:187|377:226,1,119.999996337891,4|2,0:2|0:0,0:0:0:0:
440,327,156765,1,2,0:0:0:0:
512,313,157015,1,4,0:3:0:0:
440,327,157140,2,0,L|360:340,1,59.9999981689454,2|0,0:0|0:0,0:0:0:0:
139,314,157390,6,0,P|203:342|236:401,1,119.999996337891,4|2,0:3|0:0,0:0:0:0:
305,371,157765,2,0,L|429:349,1,119.999996337891,2|4,0:0|0:3,0:0:0:0:
423,350,158140,1,2,0:0:0:0:
256,192,158390,6,0,P|229:238|239:322,1,119.999996337891,4|2,0:3|0:0,0:0:0:0:
155,336,158765,2,0,L|136:267,1,59.9999981689454,2|0,0:0|0:0,0:0:0:0:
40,152,159140,2,0,L|55:226,1,59.9999981689454,2|0,0:0|0:0,0:0:0:0:
127,169,159390,6,0,P|153:104|141:34,1,119.999996337891,4|2,0:3|0:0,0:0:0:0:
65,27,159765,2,0,P|97:63|169:70,1,119.999996337891,2|4,0:0|0:3,0:0:0:0:
165,71,160140,1,2,0:0:0:0:
256,192,160390,6,0,P|291:240|275:319,1,119.999996337891,4|2,0:3|0:0,0:0:0:0:
366,221,160765,2,0,P|413:194|484:222,1,119.999996337891,2|4,0:0|0:3,0:0:0:0:
512,281,161140,2,0,L|497:350,1,59.9999981689454,2|0,0:0|0:0,0:0:0:0:
411,333,161390,6,0,L|282:343,1,119.999996337891,4|2,0:3|0:0,0:0:0:0:
212,314,161765,2,0,L|83:324,1,119.999996337891,2|4,0:0|0:3,0:0:0:0:
92,323,162140,1,2,0:0:0:0:
256,192,162390,6,0,P|293:145|293:75,1,119.999996337891,4|2,0:3|0:0,0:0:0:0:
258,21,162765,1,2,0:0:0:0:
512,32,163140,2,0,L|439:42,1,59.9999981689454,2|0,0:0|0:0,0:0:0:0:
452,40,163390,6,0,P|399:91|405:149,1,119.999996337891,4|2,0:3|0:0,0:0:0:0:
419,208,163765,2,0,P|476:207|511:160,1,119.999996337891,2|4,0:0|0:3,0:0:0:0:
511,160,164140,1,2,0:0:0:0:
256,192,164390,6,0,P|203:171|156:110,1,119.999996337891,4|2,0:3|0:0,0:0:0:0:
149,49,164765,2,0,P|160:24|197:6,1,59.9999981689454,2|0,0:0|0:0,0:0:0:0:
26,175,165140,2,0,P|62:178|90:203,1,59.9999981689454,2|0,0:0|0:0,0:0:0:0:
81,191,165390,6,0,L|67:322,1,119.999996337891,4|2,0:3|0:0,0:0:0:0:
164,280,165765,2,0,P|194:327|154:366,1,119.999996337891,2|4,0:0|0:3,0:0:0:0:
154,365,166140,1,2,0:0:0:0:
256,192,166390,6,0,P|309:154|380:137,1,119.999996337891,4|2,0:3|0:0,0:0:0:0:
435,141,166765,1,2,0:0:0:0:
435,141,167140,1,2,0:0:0:0:
333,60,167390,6,0,L|410:45,1,59.9999981689454,4|0,0:3|0:0,0:0:0:0:
454,116,167640,2,0,L|531:101,1,59.9999981689454,2|2,0:0|0:0,0:0:0:0:
397,217,167890,1,0,0:0:0:0:
397,217,168140,1,2,0:0:0:0:
256,192,168390,6,0,P|202:220|127:207,1,119.999996337891,4|2,0:3|0:0,0:0:0:0:
91,156,168765,2,0,L|84:97,1,59.9999981689454,2|0,0:0|0:0,0:0:0:0:
10,242,169140,1,2,0:0:0:0:
188,285,169390,6,0,L|248:291,1,59.9999981689454,4|0,0:3|0:0,0:0:0:0:
213,371,169640,2,0,L|153:365,1,59.9999981689454,2|2,0:0|0:0,0:0:0:0:
120,378,169890,1,0,0:0:0:0:
188,285,170140,1,2,0:0:0:0:
256,192,170390,6,0,L|268:96,1,89.9999972534181,4|0,0:3|0:0,0:0:0:0:
261,73,170640,1,2,0:0:0:0:
344,148,170765,2,0,P|384:168|431:177,1,89.9999972534181,2|0,0:0|0:0,0:0:0:0:
457,180,171015,1,4,0:3:0:0:
380,263,171140,2,0,P|351:257|325:243,1,59.9999981689454,2|0,0:0|0:0,0:0:0:0:
460,287,171390,6,2,B|283:283|434:48|116:57|20:106|27:264|416:389,1,804.99997543335,2|0,0:1|0:0,0:1:0:0:
405,363,172890,6,0,P|398:329|375:344,1,50,2|2,0:0|0:0,0:0:0:0:
331,347,173015,6,2,B|325:338|325:338|316:348|316:348|311:338|311:338|302:349|302:349|291:339|291:339|282:349|282:349|33:352|33:352|149:332|149:332|249:341,1,540,0|0,0:0|2:0,0:2:0:0:
256,0,176827,5,2,0:0:0:0:
256,0,176890,2,2,B|246:44|262:62|262:62|244:84|256:130,1,136.500004582215,0|0,0:1|0:0,0:1:0:0:
327,102,177390,6,0,P|294:228|192:239,1,187.5,4|0,1:0|0:0,0:0:0:0:
180,264,177640,1,8,1:3:0:0:
122,45,177765,2,0,P|98:105|144:203,1,125,2|0,1:2|0:0,0:0:0:0:
231,318,178015,1,2,1:2:0:0:
37,244,178140,2,0,L|10:101,1,125,8|0,1:3|0:0,0:0:0:0:
167,354,178390,6,0,L|319:373,1,125,2|0,1:2|0:0,0:0:0:0:
360,342,178577,1,0,1:0:0:0:
375,336,178640,2,0,P|409:270|380:190,1,125,8|2,1:3|1:2,0:0:0:0:
262,72,178890,5,0,1:0:0:0:
486,189,179015,1,2,1:2:0:0:
253,287,179140,2,0,P|249:223|296:169,1,125,8|0,1:3|0:0,0:0:0:0:
504,87,179390,6,0,P|447:117|300:101,1,187.5,2|0,1:2|0:0,0:0:0:0:
262,72,179640,1,8,1:3:0:0:
94,128,179765,5,2,1:2:0:0:
89,116,179827,1,0,1:0:0:0:
94,103,179890,1,0,1:0:0:0:
252,179,180015,1,2,1:2:0:0:
31,285,180140,1,8,1:3:0:0:
223,346,180265,1,0,1:0:0:0:
323,212,180390,2,0,P|216:230|142:274,1,187.5,2|0,1:2|0:0,0:0:0:0:
148,268,180640,1,8,1:3:0:0:
345,375,180765,1,2,1:2:0:0:
448,183,180890,5,2,3:0:0:0:
444,178,180952,1,2,3:0:0:0:
439,174,181015,1,2,3:2:0:0:
433,171,181077,1,2,3:0:0:0:
426,169,181140,1,8,1:3:0:0:
419,168,181202,1,0,1:0:0:0:
412,168,181265,1,0,1:0:0:0:
406,169,181327,1,0,1:0:0:0:
400,172,181390,6,0,P|400:268|433:368,1,187.5,6|0,1:2|0:0,0:0:0:0:
497,378,181640,1,8,1:3:0:0:
317,230,181765,2,0,L|146:253,1,125,2|0,1:2|0:0,0:0:0:0:
486,303,182015,1,2,1:2:0:0:
353,38,182140,2,0,P|323:95|342:184,1,125,8|0,1:3|0:0,0:0:0:0:
358,373,182390,6,0,P|346:328|263:338,1,125,2|0,1:2|0:0,0:0:0:0:
218,373,182577,1,0,1:0:0:0:
202,381,182640,2,0,L|59:358,1,125,8|2,1:3|1:2,0:0:0:0:
174,123,182890,5,0,1:0:0:0:
182,134,182953,1,0,1:0:0:0:
181,146,183015,1,2,1:2:0:0:
30,224,183140,2,0,P|5:172|16:96,1,125,8|0,1:3|0:0,0:0:0:0:
192,22,183390,6,0,P|336:22|371:61,1,187.5,2|0,1:2|0:0,0:0:0:0:
406,104,183640,1,8,1:3:0:0:
299,288,183765,2,0,L|319:141,1,125,2|0,1:2|0:0,0:0:0:0:
310,145,183952,1,0,1:0:0:0:
296,131,184015,2,0,L|212:234,1,125,2|8,1:2|1:3,0:0:0:0:
206,243,184202,1,0,1:0:0:0:
195,258,184265,1,0,1:0:0:0:
388,354,184390,5,2,1:2:0:0:
388,334,184452,1,0,1:0:0:0:
396,318,184515,1,0,1:0:0:0:
402,300,184577,1,0,1:0:0:0:
404,282,184640,1,8,1:3:0:0:
211,335,184765,1,2,1:2:0:0:
101,106,184890,5,0,1:0:0:0:
97,71,184952,1,0,1:0:0:0:
93,36,185015,1,2,1:2:0:0:
89,1,185077,1,0,1:0:0:0:
124,6,185140,2,0,L|247:23,1,125,8|0,1:3|0:0,0:0:0:0:
512,49,185390,6,0,P|436:96|437:186,1,187.5,6|0,1:2|0:0,0:0:0:0:
480,253,185640,1,8,1:3:0:0:
311,91,185765,2,0,L|349:252,1,125,2|0,1:2|0:0,0:0:0:0:
458,370,186015,1,2,1:2:0:0:
241,318,186140,2,0,P|306:315|369:276,1,125,8|0,1:3|0:0,0:0:0:0:
206,68,186390,6,0,L|61:82,1,125,2|0,1:2|0:0,0:0:0:0:
28,133,186577,1,0,1:0:0:0:
14,147,186639,2,0,P|-15:224|10:271,1,125,8|2,1:3|1:2,0:0:0:0:
228,358,186890,2,0,P|257:281|232:234,1,125,0|2,1:0|1:2,0:0:0:0:
179,204,187077,1,0,1:0:0:0:
158,216,187140,2,0,L|125:370,1,125,8|0,1:3|0:0,0:0:0:0:
276,116,187390,6,0,P|352:84|491:102,1,187.5,2|0,1:2|0:0,0:0:0:0:
511,136,187640,1,8,1:3:0:0:
280,21,187765,2,0,P|251:89|255:206,1,187.5,2|0,1:2|0:0,0:0:0:0:
309,253,188015,5,2,1:2:0:0:
326,247,188077,1,0,1:0:0:0:
343,253,188140,1,8,1:3:0:0:
356,265,188202,1,0,1:0:0:0:
374,267,188265,1,0,1:0:0:0:
209,290,188390,2,0,P|134:306|29:353,1,187.5,2|0,1:2|0:0,0:0:0:0:
32,350,188640,1,8,1:3:0:0:
144,220,188765,1,2,1:2:0:0:
35,34,188890,5,0,1:0:0:0:
30,52,188952,1,0,1:0:0:0:
33,70,189015,1,2,1:2:0:0:
192,137,189140,1,8,1:3:0:0:
192,137,189265,1,0,1:0:0:0:
0,263,189390,6,0,P|132:252|222:335,1,250,6|8,1:2|1:3,0:0:0:0:
512,121,189765,2,0,P|380:132|290:49,1,250,2|2,1:2|1:2,0:0:0:0:
455,256,190140,1,8,1:3:0:0:
462,272,190202,1,0,1:0:0:0:
462,290,190265,1,0,1:0:0:0:
324,125,190390,5,2,1:2:0:0:
320,149,190452,1,0,1:0:0:0:
325,173,190515,1,0,1:0:0:0:
295,298,190640,2,0,P|319:266|346:248,1,62.5,8|0,1:3|0:0,0:0:0:0:
449,174,190765,2,0,P|420:189|373:202,1,62.5,2|0,1:2|0:0,0:0:0:0:
224,256,190890,6,0,P|243:235|248:175,1,62.5,0|0,1:0|0:0,0:0:0:0:
287,44,191015,2,0,P|259:66|243:94,1,62.5,2|0,1:2|0:0,0:0:0:0:
138,284,191140,2,0,P|136:162|83:105,1,187.5,8|0,1:3|0:0,0:0:0:0:
50,306,191390,6,0,L|40:368,1,62.5,4|0,1:0|0:0,0:0:0:0:
40,368,191515,2,0,P|157:387|266:341,1,240,8|0,1:3|0:0,0:0:0:0:
235,145,191765,2,0,P|118:126|10:173,1,240,4|0,1:0|0:0,0:0:0:0:
136,312,192015,6,0,B|218:288|218:288|268:323|268:323|359:301,1,240,4|0,1:0|0:0,0:0:0:0:
358,301,192265,2,0,L|391:228,1,80,4|0,1:0|0:0,0:0:0:0:
512,0,192390,5,4,1:0:0:0:
512,0,192640,5,2,0:2:0:0:
512,0,192890,5,2,0:2:0:0:
512,0,193140,5,2,0:2:0:0:
40,303,193390,5,4,1:0:0:0:
57,207,193515,1,0,0:0:0:0:
136,151,193640,1,8,1:3:0:0:
233,148,193765,1,0,0:0:0:0:
321,188,193890,1,2,1:2:0:0:
351,280,194015,1,0,0:0:0:0:
184,348,194140,5,8,1:3:0:0:
159,253,194265,1,0,0:0:0:0:
205,63,194390,5,2,1:2:0:0:
285,117,194515,1,0,0:0:0:0:
314,209,194640,1,8,1:3:0:0:
305,305,194765,1,0,0:0:0:0:
205,93,194890,5,2,1:2:0:0:
283,171,195015,1,0,0:0:0:0:
284,282,195140,1,8,1:3:0:0:
210,365,195265,1,0,0:0:0:0:
98,243,195390,5,2,1:2:0:0:
91,171,195515,1,0,0:0:0:0:
220,105,195640,5,8,1:3:0:0:
213,33,195765,1,0,0:0:0:0:
236,49,195890,5,2,1:2:0:0:
243,121,196015,1,0,0:0:0:0:
175,242,196140,5,8,1:3:0:0:
182,314,196265,1,0,0:0:0:0:
142,106,196390,5,2,1:2:0:0:
392,161,196515,1,0,0:0:0:0:
124,174,196640,5,8,1:3:0:0:
355,222,196765,1,0,0:0:0:0:
106,242,196890,5,2,1:2:0:0:
318,283,197015,1,0,0:0:0:0:
88,310,197140,5,8,1:3:0:0:
281,344,197265,1,0,0:0:0:0:
59,194,197390,5,6,1:2:0:0:
108,110,197515,1,0,0:0:0:0:
189,163,197640,1,8,1:3:0:0:
239,79,197765,1,0,0:0:0:0:
319,132,197890,1,2,1:2:0:0:
369,48,198015,1,0,0:0:0:0:
469,190,198140,5,8,1:3:0:0:
453,285,198265,1,0,0:0:0:0:
288,379,198390,5,2,1:2:0:0:
274,282,198515,1,0,0:0:0:0:
260,185,198640,1,8,1:3:0:0:
246,88,198765,1,0,0:0:0:0:
250,330,198890,5,2,1:2:0:0:
269,220,199015,1,0,0:0:0:0:
288,110,199140,1,8,1:3:0:0:
307,0,199265,1,0,0:0:0:0:
139,79,199390,5,2,1:2:0:0:
71,96,199515,1,0,0:0:0:0:
264,140,199640,5,8,1:3:0:0:
332,157,199765,1,0,0:0:0:0:
344,119,199890,5,2,1:2:0:0:
276,102,200015,1,0,0:0:0:0:
99,119,200140,5,8,1:3:0:0:
167,102,200265,1,0,0:0:0:0:
160,277,200390,5,2,1:2:0:0:
188,37,200515,1,0,0:0:0:0:
225,309,200640,5,8,1:3:0:0:
247,78,200765,1,0,0:0:0:0:
290,341,200890,5,2,1:2:0:0:
306,119,201015,1,0,0:0:0:0:
355,373,201140,5,8,1:3:0:0:
365,160,201265,1,0,0:0:0:0:
120,200,201390,5,6,1:2:0:0:
150,93,201515,1,0,0:0:0:0:
230,169,201640,1,8,1:3:0:0:
172,264,201765,1,0,0:0:0:0:
62,245,201890,1,2,1:2:0:0:
21,141,202015,1,0,0:0:0:0:
152,21,202140,5,8,1:3:0:0:
129,129,202265,1,0,0:0:0:0:
304,82,202390,5,2,1:2:0:0:
405,127,202515,1,0,0:0:0:0:
334,212,202640,1,8,1:3:0:0:
345,322,202765,1,0,0:0:0:0:
304,114,202890,5,2,1:2:0:0:
203,189,203015,1,0,0:0:0:0:
318,237,203140,1,8,1:3:0:0:
350,357,203265,1,0,0:0:0:0:
174,304,203390,5,2,1:2:0:0:
159,372,203515,1,0,0:0:0:0:
221,208,203640,5,8,1:3:0:0:
236,140,203765,1,0,0:0:0:0:
210,177,203890,5,2,1:2:0:0:
225,109,204015,1,0,0:0:0:0:
127,280,204140,5,8,1:3:0:0:
112,348,204265,1,0,0:0:0:0:
46,114,204390,5,2,1:2:0:0:
289,40,204515,1,0,0:0:0:0:
87,172,204640,5,8,1:3:0:0:
316,162,204765,1,0,0:0:0:0:
100,226,204890,5,2,1:2:0:0:
303,279,205015,1,0,0:0:0:0:
101,275,205140,5,12,1:3:0:0:
267,376,205265,1,0,0:0:0:0:
507,244,205390,5,4,1:0:0:0:
0,327,205890,5,0,0:0:0:0:
282,73,206390,6,0,P|375:150|330:303,1,262.499991989136,8|0,0:3|0:0,0:0:0:0:
230,311,206765,2,0,P|137:234|182:81,1,262.499991989136,4|0,0:3|0:0,0:0:0:0:
281,228,207140,2,0,L|255:426,1,157.499995193482,4|0,0:3|0:0,0:0:0:0:
150,297,207390,6,0,P|106:250|4:233,1,157.499995193482,4|0,1:0|0:0,0:0:0:0:
0,272,207640,5,8,3:0:0:0:
258,151,207765,1,8,3:0:0:0:
36,343,207890,5,8,3:0:0:0:
391,231,208015,1,8,3:0:0:0:
116,379,208140,6,0,P|150:379|196:339,1,69.9999978637696,8|0,3:0|0:0,0:0:0:0:
483,62,208390,5,4,1:0:0:0:
451,43,208640,5,2,0:2:0:0:
451,79,208890,6,0,P|470:121|523:157,1,100,2|2,0:2|0:2,0:0:0:0:
256,0,209390,6,0,P|185:51|96:48,1,179.999994506836,4|0,1:0|0:0,0:0:0:0:
63,31,209640,2,0,L|136:161,1,119.999996337891,8|0,1:3|0:0,0:0:0:0:
213,261,209890,5,2,1:2:0:0:
297,79,210015,1,2,1:2:0:0:
297,79,210265,5,8,1:3:0:0:
196,140,210390,1,2,0:0:0:0:
332,207,210515,1,2,1:2:0:0:
258,340,210640,2,0,P|242:270|265:213,1,119.999996337891,8|0,1:3|0:0,0:0:0:0:
411,87,210890,5,2,1:2:0:0:
179,218,211015,1,2,1:2:0:0:
362,294,211140,2,0,L|340:116,1,179.999994506836,8|0,1:3|0:0,0:0:0:0:
336,79,211390,6,0,P|277:40|208:66,1,119.999996337891,2|0,1:2|0:0,0:0:0:0:
50,213,211640,2,0,P|175:233|241:282,1,179.999994506836,8|0,1:3|0:0,0:0:0:0:
242,293,211890,5,2,1:2:0:0:
207,150,212015,1,2,1:2:0:0:
207,150,212265,1,8,1:3:0:0:
119,301,212390,6,0,L|-11:320,1,119.999996337891,2|2,0:0|1:2,0:0:0:0:
0,134,212640,2,0,P|29:70|173:46,1,179.999994506836,8|0,1:3|0:0,0:0:0:0:
165,47,212890,5,2,1:2:0:0:
71,185,213015,1,2,1:2:0:0:
280,192,213140,2,0,P|233:154|174:149,1,119.999996337891,8|0,1:3|0:0,0:0:0:0:
409,268,213390,6,0,L|384:89,1,179.999994506836,6|0,1:2|0:0,0:0:0:0:
377,50,213640,2,0,L|357:188,1,119.999996337891,8|0,1:3|0:0,0:0:0:0:
333,352,213890,5,2,1:2:0:0:
232,248,214015,1,2,1:2:0:0:
232,248,214265,5,8,1:3:0:0:
333,352,214390,1,2,0:0:0:0:
167,306,214515,1,2,1:2:0:0:
319,229,214640,2,0,P|374:236|448:264,1,119.999996337891,8|0,1:3|0:0,0:0:0:0:
213,372,214890,5,2,1:2:0:0:
105,235,215015,1,2,1:2:0:0:
246,119,215140,2,0,L|206:245,1,119.999996337891,8|0,1:3|0:0,0:0:0:0:
48,305,215390,6,0,P|15:223|26:59,2,239.999992675781,2|8|2,1:2|1:3|1:2,0:0:0:0:
137,384,216015,1,2,1:2:0:0:
447,222,216265,1,8,1:3:0:0:
447,222,216390,6,0,L|304:243,1,119.999996337891,2|2,0:0|1:2,0:0:0:0:
151,260,216640,2,0,P|103:201|120:96,1,179.999994506836,8|0,1:3|0:0,0:0:0:0:
137,74,216890,1,2,1:2:0:0:
338,137,217015,1,2,1:2:0:0:
244,267,217140,2,0,L|260:123,1,119.999996337891,8|0,1:3|0:0,0:0:0:0:
326,16,217390,6,0,P|394:39|432:170,1,179.999994506836,4|0,1:0|0:0,0:0:0:0:
438,167,217640,2,0,P|412:227|357:256,1,119.999996337891,8|0,1:3|0:0,0:0:0:0:
128,315,217890,5,2,1:2:0:0:
200,337,218015,2,0,P|265:351|330:353,1,119.999996337891,2|0,1:2|0:0,0:0:0:0:
394,350,218265,1,8,1:3:0:0:
302,211,218390,1,2,0:0:0:0:
179,240,218515,1,2,1:2:0:0:
240,53,218640,6,0,L|226:210,1,119.999996337891,8|0,1:3|0:0,0:0:0:0:
213,349,218890,1,2,1:2:0:0:
56,206,219015,1,2,1:2:0:0:
210,71,219140,2,0,L|199:190,1,119.999996337891,8|0,1:3|0:0,0:0:0:0:
77,284,219390,5,2,1:2:0:0:
512,188,219640,1,8,1:3:0:0:
128,22,219890,1,2,1:2:0:0:
128,22,220015,2,0,P|108:83|145:157,1,119.999996337891,2|0,1:2|0:0,0:0:0:0:
202,192,220265,1,8,1:3:0:0:
355,74,220390,5,2,0:0:0:0:
412,175,220515,1,2,1:2:0:0:
256,134,220640,5,8,1:3:0:0:
276,248,220765,1,2,0:0:0:0:
124,212,220890,5,2,1:2:0:0:
106,288,221015,1,2,1:2:0:0:
24,202,221140,5,8,1:3:0:0:
2,227,221265,1,2,0:0:0:0:
25,244,221390,6,0,L|185:368,1,179.999994506836,6|0,1:2|0:0,0:0:0:0:
193,372,221640,2,0,L|341:347,1,119.999996337891,8|0,1:3|0:0,0:0:0:0:
483,123,221890,5,2,1:2:0:0:
413,155,222015,2,0,P|373:252|458:408,1,239.999992675781,2|8,1:2|1:3,0:0:0:0:
197,235,222390,5,2,0:0:0:0:
323,144,222515,1,2,1:2:0:0:
186,16,222640,2,0,L|171:135,1,119.999996337891,8|0,1:3|0:0,0:0:0:0:
300,287,222890,5,2,1:2:0:0:
246,154,223015,1,2,1:2:0:0:
80,200,223140,2,0,P|73:246|157:326,1,119.999996337891,8|0,1:3|0:0,0:0:0:0:
270,378,223390,6,0,P|396:342|527:358,1,239.999992675781,2|8,1:2|1:3,0:0:0:0:
287,19,223890,5,2,1:2:0:0:
287,19,224015,2,0,P|283:109|242:224,1,179.999994506836,2|0,1:2|0:0,0:0:0:0:
236,225,224265,1,8,1:3:0:0:
45,365,224390,6,0,L|37:236,1,119.999996337891,2|2,0:0|1:2,0:0:0:0:
197,125,224640,6,0,L|190:15,1,110.000003356934,8|0,1:3|0:0,0:0:0:0:
164,0,224890,6,0,L|170:109,1,100,2|2,1:2|1:2,0:0:0:0:
306,192,225140,6,0,L|312:306,1,89.9999972534181,8|0,1:3|0:0,0:0:0:0:
256,384,225390,5,6,1:2:0:0:
124,261,226140,5,2,0:2:0:0:
124,261,226390,2,0,P|160:277|205:283,2,80,0|2|0,0:0|0:0|0:0,0:0:0:0:
344,152,228390,5,2,0:0:0:0:
388,182,228640,1,0,0:0:0:0:
365,228,228890,1,2,0:0:0:0:
328,228,229140,1,0,0:0:0:0:
273,172,229390,1,2,0:2:0:0:
407,47,230140,5,2,0:2:0:0:
407,47,230390,2,0,P|446:45|485:33,2,80,0|2|0,0:0|0:0|0:0,0:0:0:0:
83,102,232140,1,0,0:0:0:0:
198,34,232390,5,2,0:0:0:0:
254,91,232640,1,0,0:0:0:0:
220,132,232890,2,0,P|198:139|178:143,1,40,2|0,0:0|0:0,0:0:0:0:
85,149,233390,1,2,0:2:0:0:
398,371,234140,5,2,0:2:0:0:
398,371,234390,2,0,P|400:331|414:286,2,80,0|2|0,0:0|0:3|0:0,0:0:0:0:
63,362,236140,1,0,0:0:0:0:
126,246,236390,5,2,0:0:0:0:
191,291,236640,1,0,0:0:0:0:
165,339,236890,1,2,0:0:0:0:
128,328,237140,1,0,0:0:0:0:
71,381,237390,5,2,0:2:0:0:
506,201,237890,1,2,0:2:0:0:
132,103,238390,2,0,L|197:99,1,60,2|0,0:2|0:0,0:0:0:0:
282,71,238890,2,0,P|269:101|269:136,1,60,2|0,0:2|0:0,0:0:0:0:
305,203,239390,2,0,B|341:263|341:263|325:333,1,140,2|0,0:2|0:0,0:0:0:0:
344,358,240390,6,0,L|355:317,3,40,2|0|2|0,0:2|0:2|0:2|0:2,0:0:0:0:
347,361,241390,1,2,0:2:0:0:
