osu file format v14

[General]
AudioFilename: tatatatan.mp3
AudioLeadIn: 0
PreviewTime: 32779
Countdown: 0
SampleSet: None
StackLeniency: 0.7
Mode: 0
LetterboxInBreaks: 1
WidescreenStoryboard: 1

[Editor]
Bookmarks: 39342,41442,43092,53743,68143,84042,99642,135942,138042,174492,178092,179443,181843
DistanceSpacing: 1
BeatDivisor: 4
GridSize: 32
TimelineZoom: 1.9

[Metadata]
Title:Uta o Utau Hito
TitleUnicode:うたをうたうひと
Artist:siinamota
ArtistUnicode:椎名もた
Creator:Renumi
Version:Normal
Source:
Tags:someone who sings songs wo toybot PowaPowaP ぽわぽわP kokegane no uta 初音ミク hatsune miku vocaloid drum and bass コケガネのうた japanese novelty
BeatmapID:1596829
BeatmapSetID:759268

[Difficulty]
HPDrainRate:4
CircleSize:3
OverallDifficulty:5
ApproachRate:5.8
SliderMultiplier:1.2
SliderTickRate:1

[Events]
//Background and Video events
0,0,"do you care.png",0,0
//Break Periods
2,16742,23563
2,68042,79063
2,138042,151063
//Storyboard Layer 0 (Background)
//Storyboard Layer 1 (Fail)
//Storyboard Layer 2 (Pass)
//Storyboard Layer 3 (Foreground)
//Storyboard Sound Samples

[TimingPoints]
942,300,4,1,1,70,1,0
1692,300,4,1,1,70,1,0
2442,300,4,1,1,70,1,0
3192,300,4,1,1,70,1,0
3942,300,4,1,1,70,1,0
4542,300,7,2,1,75,1,0
8742,300,4,1,1,70,1,0
9192,300,4,1,1,70,1,0
9942,300,4,1,1,70,1,0
10992,300,4,1,1,70,1,0
11742,300,4,1,1,70,1,0
12342,300,7,1,1,75,1,0
16542,300,4,2,1,65,1,0
16992,300,4,2,1,65,1,0
18042,300,4,2,1,65,1,0
18792,300,4,2,1,65,1,0
19542,300,4,2,1,65,1,0
21192,300,4,2,1,65,1,0
22242,300,4,2,1,65,1,0
22992,300,4,2,1,65,1,0
24042,300,4,2,1,65,1,0
24642,300,4,2,1,65,1,0
24642,-125,4,2,1,65,0,0
25092,300,4,2,1,65,1,0
25092,-125,4,2,1,65,0,0
26142,300,4,2,1,65,1,0
26442,-125,4,2,1,65,0,0
26892,300,4,2,1,65,1,0
26892,-125,4,2,1,65,0,0
27642,300,4,2,1,65,1,0
27642,-125,4,2,1,65,0,0
29292,300,4,2,1,65,1,0
29292,-125,4,2,1,65,0,0
30342,300,4,2,1,65,1,0
30642,-125,4,2,1,65,0,0
31092,300,4,2,1,65,1,0
31092,-125,4,2,1,65,0,0
32142,300,4,2,1,65,1,0
32742,300,3,2,1,40,1,0
35442,300,4,2,1,30,1,0
35892,-100,4,2,1,50,0,0
36192,-100,4,2,1,65,0,0
36342,-100,4,2,1,60,0,0
36642,-100,4,1,1,80,0,1
53442,-100,4,1,1,70,0,0
54192,300,4,1,1,70,1,0
54942,300,4,1,1,70,1,0
55692,300,4,1,1,70,1,0
56442,300,4,1,1,70,1,0
57042,300,4,1,1,70,1,0
57792,300,4,1,1,70,1,0
58542,300,4,1,1,70,1,0
59292,300,4,1,1,70,1,0
60042,300,4,1,1,70,1,0
60642,300,4,1,1,70,1,0
61392,300,4,1,1,70,1,0
62142,300,4,1,1,70,1,0
62892,300,4,1,1,70,1,0
63642,300,4,1,1,70,1,0
64242,300,4,1,1,70,1,0
64992,300,4,1,1,70,1,0
65742,300,4,1,1,70,1,0
66492,300,4,1,1,70,1,0
67242,300,4,1,1,70,1,0
67842,300,4,2,1,70,1,0
68292,300,4,2,1,30,1,0
69342,300,4,2,1,30,1,0
70092,300,4,2,1,30,1,0
70842,300,4,2,1,30,1,0
72492,300,4,2,1,30,1,0
73542,300,4,2,1,30,1,0
74292,300,4,2,1,30,1,0
75342,300,4,2,1,30,1,0
75942,300,4,2,1,50,1,0
76392,300,4,2,1,30,1,0
77442,300,4,2,1,30,1,0
78192,300,4,2,1,30,1,0
78942,300,4,2,1,30,1,0
80292,-100,4,2,1,67,0,0
80442,-100,4,2,1,64,0,0
80592,300,4,2,1,61,1,0
80742,-100,4,2,1,58,0,0
80892,-100,4,2,1,55,0,0
81042,-100,4,2,1,52,0,0
81192,-100,4,2,1,49,0,0
81342,-100,4,2,1,46,0,0
81492,-100,4,2,1,43,0,0
81642,300,4,2,1,40,1,0
81792,-100,4,2,1,37,0,0
81942,-100,4,2,1,57,0,0
82092,-100,4,2,1,31,0,0
82242,-100,4,2,1,28,0,0
82392,300,4,2,1,25,1,0
82542,-100,4,2,1,22,0,0
82692,-100,4,2,1,19,0,0
82842,-100,4,2,1,16,0,0
82992,-100,4,2,1,13,0,0
83442,300,4,2,1,13,1,0
83742,-100,4,2,1,60,0,0
84042,300,4,3,1,70,1,0
85842,300,4,3,1,70,1,0
90042,300,4,3,1,70,1,0
92142,300,4,3,1,70,1,0
93942,300,4,3,1,70,1,0
98142,300,4,3,1,70,1,0
100242,300,3,2,1,40,1,0
102942,300,4,2,1,30,1,0
103392,-100,4,2,1,50,0,0
103692,-100,4,2,1,65,0,0
103842,-100,4,2,1,60,0,0
103942,-100,4,1,1,80,0,1
120942,-100,4,1,1,70,0,0
121692,300,4,1,1,70,1,0
122442,300,4,1,1,70,1,0
123192,300,4,1,1,70,1,0
123942,300,4,1,1,70,1,0
124542,300,4,1,1,70,1,0
125292,300,4,1,1,70,1,0
126042,300,4,1,1,70,1,0
126792,300,4,1,1,70,1,0
127542,300,4,1,1,70,1,0
128142,300,4,1,1,70,1,0
128892,300,4,1,1,70,1,0
129642,300,4,1,1,70,1,0
130392,300,4,1,1,70,1,0
131142,300,4,1,1,70,1,0
131742,300,4,1,1,70,1,0
132492,300,4,1,1,70,1,0
133242,300,4,1,1,70,1,0
133542,300,4,2,1,75,1,0
135942,-100,4,2,1,45,0,0
137142,300,3,2,1,45,1,0
153342,300,6,2,1,30,1,0
153642,-100,3,2,1,55,0,0
153792,-100,3,2,1,60,0,0
153942,-100,3,2,1,65,0,0
154542,-100,3,1,0,50,0,0
155142,300,4,2,1,70,1,0
155442,-100,4,2,1,70,0,0
156192,-100,4,1,3,80,0,1
156642,-100,4,1,1,80,0,1
171642,-100,4,2,1,70,0,0
171942,300,4,1,1,80,1,1
172692,300,4,1,1,80,1,1
173442,300,4,1,1,80,1,1
174192,300,4,1,1,80,1,1
174942,300,5,1,1,80,1,1
176292,300,4,1,1,80,1,1
177042,300,4,1,1,80,1,1
177792,300,4,1,1,80,1,1
178542,300,4,1,1,80,1,1
179142,300,4,1,1,80,1,1
182292,300,4,1,1,80,1,1
183042,300,4,1,1,80,1,1
183792,300,4,1,1,80,1,1
184542,300,4,1,1,80,1,1
185142,300,4,1,1,80,1,1
185892,300,4,1,1,80,1,1
186642,300,4,1,1,80,1,1
187392,300,4,1,1,80,1,1
188142,300,4,1,1,80,1,1
188742,300,4,2,1,60,1,0
189192,300,4,2,1,60,1,0
190242,300,4,2,1,60,1,0
190992,300,4,2,1,60,1,0
191742,300,4,2,1,60,1,0
193392,300,4,2,1,60,1,0
194442,300,4,2,1,60,1,0
195192,300,4,2,1,60,1,0
196242,300,4,2,1,60,1,0
196842,300,4,2,1,60,1,0
197292,300,4,2,1,60,1,0
198342,300,4,2,1,60,1,0
199092,300,4,2,1,60,1,0
199842,300,4,2,1,60,1,0
201492,300,4,2,1,60,1,0
202542,300,4,2,1,60,1,0
203292,300,4,2,1,60,1,0
204342,300,4,2,1,60,1,0
204942,300,4,2,1,60,1,0
205392,300,4,2,1,60,1,0
206442,300,4,2,1,60,1,0
207192,300,4,2,1,60,1,0
207942,300,4,2,1,60,1,0
209592,300,4,2,1,60,1,0
210642,300,4,2,1,60,1,0
211392,300,4,2,1,60,1,0
212442,300,4,2,1,60,1,0
213042,300,4,1,1,60,1,0
213492,300,4,2,1,60,1,0
214542,300,4,2,1,60,1,0
215292,300,4,2,1,60,1,0
216042,300,4,2,1,60,1,0
217692,300,4,2,1,60,1,0
218742,300,4,2,1,60,1,0
219492,300,4,2,1,60,1,0
220542,300,4,2,1,60,1,0

[Colours]
Combo1 : 202,177,233
Combo2 : 235,200,188
Combo3 : 193,255,204

[HitObjects]
167,60,942,5,0,0:0:0:0:
51,25,1242,1,0,0:0:0:0:
67,143,1542,1,8,1:2:0:0:
67,143,1692,2,0,B|54:273,1,120,0|0,0:0|1:0,0:0:0:0:
160,319,2292,1,8,1:2:0:0:
160,319,2442,2,0,B|171:199,1,120,0|0,0:0|1:0,0:0:0:0:
238,107,3042,1,8,1:2:0:0:
238,107,3192,2,0,P|285:88|365:110,1,120,0|0,0:0|1:0,0:0:0:0:
429,9,3792,1,8,1:2:0:0:
429,9,3942,2,0,P|469:41|490:121,1,120,0|0,0:0|1:0,0:0:0:0:
416,200,4542,5,6,1:2:0:0:
468,308,4842,2,0,B|300:328|400:248|212:264,1,240,8|8,0:0|0:0,0:0:0:0:
152,344,5742,2,0,P|95:355|55:314,1,120,0|8,1:0|0:0,0:0:0:0:
136,228,6342,1,0,1:0:0:0:
228,148,6642,1,0,1:0:0:0:
120,100,6942,2,0,B|288:120|188:40|376:56,1,240,8|8,0:0|0:0,0:0:0:0:
468,61,7842,1,0,1:0:0:0:
458,180,8142,2,0,P|402:152|322:148,1,120,8|0,1:2|1:0,0:0:0:0:
291,252,8742,5,0,1:0:0:0:
171,233,9042,1,0,1:2:0:0:
171,233,9192,2,0,P|178:297|183:369,1,120,8|0,0:2|1:0,0:0:0:0:
302,371,9792,1,0,1:2:0:0:
302,371,9942,2,0,P|295:307|290:235,1,120,8|0,0:2|1:0,0:0:0:0:
249,138,10542,1,0,1:0:0:0:
143,79,10842,1,8,1:2:0:0:
143,79,10992,2,0,B|85:106|85:106|7:91,1,120,0|0,0:0|0:0,0:0:0:0:
56,212,11592,1,8,1:2:0:0:
56,212,11742,2,0,B|111:201|111:201|169:228,1,120,0|0,0:2|1:0,0:0:0:0:
290,251,12342,5,6,1:2:0:0:
392,313,12642,2,0,B|435:255|435:255|399:81,1,240,8|8,2:0|0:2,0:0:0:0:
315,6,13542,2,0,P|245:8|199:51,1,120,0|8,1:0|0:2,0:0:0:0:
274,137,14142,1,0,1:0:0:0:
238,251,14442,1,0,1:0:0:0:
157,161,14742,2,0,B|200:219|200:219|164:393,1,240,8|8,0:2|0:2,0:0:0:0:
46,369,15642,2,0,P|48:299|91:253,1,120,0|8,1:0|0:2,0:0:0:0:
157,161,16242,1,2,1:2:0:0:
84,65,16542,5,6,0:0:0:0:
72,352,24642,6,0,P|71:299|65:238,1,96,6|0,0:0|0:0,0:0:0:0:
25,208,25092,2,0,P|21:160|20:112,2,96,0|0|0,0:0|0:0|0:0,0:0:0:0:
189,297,26142,1,2,0:0:0:0:
248,187,26442,6,0,P|295:183|343:182,1,96,2|0,0:0|0:0,0:0:0:0:
404,199,26892,2,0,P|402:151|398:103,2,96,0|0|0,0:0|0:0|0:0,0:0:0:0:
452,238,27642,1,0,0:0:0:0:
403,353,27942,1,2,0:0:0:0:
280,374,28242,2,0,P|281:326|285:278,1,96,2|2,0:0|0:0,0:0:0:0:
277,153,28842,6,0,P|223:175|172:182,1,96,2|0,0:2|0:0,0:0:0:0:
153,234,29292,2,0,P|99:212|48:205,2,96,0|0|0,0:0|0:0|0:0,0:0:0:0:
280,374,30342,1,2,0:0:0:0:
419,305,30642,5,2,0:0:0:0:
373,188,30942,2,0,P|374:117|387:41,1,144,2|0,0:2|0:0,0:0:0:0:
510,59,31692,2,0,P|509:130|496:206,1,144,0|0,0:0|0:0,0:0:0:0:
419,305,32442,1,0,0:0:0:0:
290,245,32742,6,0,P|230:238|170:237,2,120,2|0|0,0:0|0:0|0:0,0:0:0:0:
411,185,33642,2,0,P|411:244|418:304,2,120,2|0|0,0:0|0:0|0:0,0:0:0:0:
320,70,34542,2,0,P|379:64|439:63,2,120,2|0|0,0:0|0:0|0:0,0:0:0:0:
231,195,35442,2,0,P|327:193|422:183,1,180,2|0,3:2|3:0,0:0:0:0:
507,282,36342,2,0,L|514:353,1,60,2|0,3:2|3:0,0:0:0:0:
457,364,36642,6,0,P|394:370|320:385,1,120,4|8,1:2|0:2,0:0:0:0:
283,354,37092,1,2,1:2:0:0:
183,203,37542,1,10,0:2:0:0:
63,199,37842,2,0,P|78:256|89:315,1,120,2|8,1:2|0:2,0:0:0:0:
105,373,38292,1,2,1:2:0:0:
253,270,38742,1,10,0:2:0:0:
274,162,39042,6,0,P|320:125|394:132,1,120,2|8,1:2|0:2,0:0:0:0:
394,183,39492,2,0,P|451:168|514:157,1,120,2|2,0:2|0:2,0:0:0:0:
465,38,40092,2,0,P|412:7|349:6,1,120,2|2,0:2|0:2,0:0:0:0:
245,55,40692,2,0,P|207:45|121:28,1,120,2|0,0:2|0:0,0:0:0:0:
68,19,41142,1,10,0:2:0:0:
77,138,41442,6,0,P|46:191|45:254,1,120,2|8,1:2|0:2,0:0:0:0:
54,307,41892,1,2,1:2:0:0:
221,240,42342,1,10,0:2:0:0:
304,326,42642,2,0,P|335:273|336:210,1,120,2|8,0:2|0:2,0:0:0:0:
327,157,43092,1,2,0:2:0:0:
224,0,43542,1,10,0:2:0:0:
233,120,43842,6,0,P|227:173|220:247,1,120,2|8,0:2|0:2,0:0:0:0:
191,293,44292,2,0,P|248:297|305:327,1,120,2|2,0:2|0:2,0:0:0:0:
416,367,44892,2,0,P|413:307|388:253,1,120,2|2,0:2|0:2,0:0:0:0:
343,141,45492,2,0,P|402:136|455:108,1,120,2|0,0:2|0:0,0:0:0:0:
501,70,45942,1,10,0:2:0:0:
406,0,46242,6,0,B|387:17|370:47|370:47|342:36|299:29,1,120,6|8,1:2|0:2,0:0:0:0:
253,22,46692,1,2,0:2:0:0:
76,58,47142,1,10,0:2:0:0:
88,177,47442,2,0,B|106:194|123:224|123:224|151:213|194:206,1,120,2|8,0:2|0:2,0:0:0:0:
241,199,47892,1,2,0:2:0:0:
365,329,48342,1,10,0:2:0:0:
257,383,48642,6,0,P|218:353|144:344,1,120,2|8,0:2|0:2,0:0:0:0:
99,309,49092,1,2,0:2:0:0:
99,309,49242,2,0,P|53:327|8:387,1,120,2|8,0:2|0:2,0:0:0:0:
0,323,49692,2,0,P|-4:257|-12:195,1,120,2|2,0:2|0:2,0:0:0:0:
105,170,50292,2,0,P|113:100|128:35,1,120,2|0,0:2|0:0,0:0:0:0:
159,3,50742,1,10,0:2:0:0:
231,98,51042,6,0,P|218:156|212:216,1,120,2|8,0:2|0:2,0:0:0:0:
175,264,51492,1,2,0:2:0:0:
313,378,51942,1,10,0:2:0:0:
429,348,52242,1,2,1:2:0:0:
426,228,52542,1,8,3:2:0:0:
426,228,52692,2,0,P|339:226|277:314,1,180,2|10,0:2|0:2,0:0:0:0:
183,362,53442,5,6,0:0:0:0:
67,333,53742,1,2,0:0:0:0:
80,213,54042,1,8,0:2:0:0:
80,213,54192,2,0,P|142:213|203:243,1,120,2|2,0:0|0:0,0:0:0:0:
225,120,54792,1,8,0:2:0:0:
225,120,54942,2,0,P|278:151|316:207,1,120,2|2,0:0|0:0,0:0:0:0:
398,119,55542,1,8,0:2:0:0:
398,119,55692,2,0,P|429:172|433:240,1,120,2|2,0:0|0:0,0:0:0:0:
356,321,56292,1,8,0:2:0:0:
356,321,56442,1,2,0:0:0:0:
314,204,56742,1,2,0:0:0:0:
398,119,57042,5,2,0:0:0:0:
356,3,57342,1,2,0:0:0:0:
244,47,57642,1,8,0:2:0:0:
244,47,57792,2,0,B|213:14|165:22|165:22|181:37|191:52,1,120,2|2,0:0|0:0,0:0:0:0:
171,166,58392,1,8,0:2:0:0:
171,166,58542,2,0,B|127:152|90:183|90:183|111:188|127:196,1,120,2|2,0:0|0:0,0:0:0:0:
189,293,59142,1,8,0:2:0:0:
189,293,59292,2,0,B|144:303|127:348|127:348|148:342|166:341,1,120,2|2,0:0|0:0,0:0:0:0:
280,333,59892,1,8,0:2:0:0:
280,333,60042,1,2,0:1:0:0:
392,375,60342,1,2,0:0:0:0:
408,256,60642,5,6,0:0:0:0:
502,182,60942,1,2,0:0:0:0:
393,130,61242,1,8,0:2:0:0:
393,130,61392,2,0,P|381:73|378:6,1,120,2|2,0:0|0:0,0:0:0:0:
486,63,61992,1,8,0:2:0:0:
486,63,62142,2,0,P|498:120|501:187,1,120,2|2,0:0|0:0,0:0:0:0:
408,256,62742,1,8,0:2:0:0:
408,256,62892,2,0,P|351:268|284:271,1,120,2|2,0:0|0:0,0:0:0:0:
261,154,63492,1,8,0:2:0:0:
261,154,63642,1,2,0:0:0:0:
160,214,63942,1,2,0:0:0:0:
116,103,64242,5,2,0:0:0:0:
9,46,64542,1,2,0:0:0:0:
2,165,64842,1,8,0:2:0:0:
2,165,64992,2,0,B|19:199|21:254|21:254|33:241|48:232,1,120,2|2,0:0|0:0,0:0:0:0:
160,214,65592,1,8,0:2:0:0:
160,214,65742,2,0,B|177:179|179:124|179:124|191:137|206:146,1,120,2|2,0:0|0:0,0:0:0:0:
286,225,66342,1,8,0:2:0:0:
286,225,66492,2,0,B|303:259|305:314|305:314|317:301|332:292,1,120,2|2,0:0|0:0,0:0:0:0:
434,348,67092,1,8,0:2:0:0:
434,348,67242,1,2,0:0:0:0:
501,252,67542,1,2,0:0:0:0:
393,197,67842,5,4,0:0:0:0:
256,192,80142,12,0,82992,0:0:0:0:
72,20,83742,5,2,0:0:0:0:
11,123,84042,2,0,B|211:106|96:198|313:183,1,300,6|0,1:2|1:0,0:0:0:0:
315,241,84942,2,0,P|376:224|392:168,1,120,8|0,3:2|1:0,0:0:0:0:
308,89,85542,1,10,0:2:0:0:
197,25,85842,6,0,P|209:113|227:333,1,300,2|0,1:2|1:0,0:0:0:0:
199,377,86742,2,0,P|139:373|92:320,1,120,8|0,0:2|1:0,0:0:0:0:
128,217,87342,1,10,0:2:0:0:
13,254,87642,2,0,P|6:197|1:134,1,120,2|10,0:2|0:2,0:0:0:0:
36,20,88242,6,0,P|74:61|316:66,1,300,2|0,1:2|1:0,0:0:0:0:
344,118,89142,2,0,P|382:81|456:64,1,120,8|0,0:2|1:0,0:0:0:0:
440,182,89742,1,10,0:2:0:0:
489,298,90042,6,0,B|412:277|327:369|382:375|395:350|380:193|232:178,1,360,2|8,1:2|0:2,0:0:0:0:
116,188,91242,2,0,P|138:132|168:80,1,120,0|8,1:0|0:2,0:0:0:0:
286,60,91842,1,2,0:2:0:0:
353,158,92142,6,0,P|311:289|145:326,1,300,6|0,1:2|1:0,0:0:0:0:
107,322,93042,2,0,P|100:294|86:186,1,120,8|0,3:2|1:0,0:0:0:0:
156,105,93642,1,10,0:2:0:0:
254,36,93942,6,0,P|405:19|495:135,1,300,2|0,1:2|1:0,0:0:0:0:
471,178,94842,2,0,P|443:171|335:157,1,120,8|0,0:2|1:0,0:0:0:0:
309,269,95442,1,10,0:2:0:0:
230,178,95742,2,0,P|170:184|112:199,1,120,2|10,0:2|0:2,0:0:0:0:
8,137,96342,6,0,P|46:189|104:54,1,300,2|0,1:2|1:0,0:0:0:0:
148,8,97242,2,0,P|207:14|265:29,1,120,8|0,0:2|1:0,0:0:0:0:
385,17,97842,1,10,0:2:0:0:
446,120,98142,5,2,1:2:0:0:
344,184,98442,2,0,P|306:233|399:274,1,180,10|0,0:2|1:0,0:0:0:0:
436,252,99042,2,0,P|440:315|429:371,1,120,8|0,0:2|1:0,0:0:0:0:
309,381,99642,2,0,P|250:369|190:374,1,120,8|0,0:2|3:0,0:0:0:0:
130,381,100092,1,0,1:0:0:0:
130,381,100242,6,0,P|123:311|123:258,2,120,2|0|0,0:0|0:0|0:0,0:0:0:0:
230,315,101142,2,0,P|229:256|222:196,2,120,2|0|0,0:0|0:0|0:0,0:0:0:0:
122,261,102042,2,0,P|115:191|115:138,2,120,2|0|0,0:0|0:0|0:0,0:0:0:0:
230,315,102942,6,0,P|300:262|387:271,1,180,2|0,3:2|3:0,0:0:0:0:
506,293,103692,1,8,3:0:0:0:
506,293,103842,2,0,P|501:253|493:215,1,60,2|0,0:0|3:0,0:0:0:0:
445,203,104142,6,0,P|450:150|462:80,1,120,6|8,0:2|0:2,0:0:0:0:
473,25,104592,1,2,0:2:0:0:
289,0,105042,1,10,0:2:0:0:
196,75,105342,2,0,P|211:132|221:202,1,120,2|8,0:2|0:2,0:0:0:0:
224,252,105792,1,2,0:2:0:0:
399,293,106242,1,10,0:2:0:0:
309,372,106542,6,0,P|257:342|198:342,1,120,2|8,0:2|0:2,0:0:0:0:
143,367,106992,2,0,P|123:310|119:250,1,120,2|2,0:2|0:2,0:0:0:0:
15,190,107592,2,0,P|48:140|94:101,1,120,2|2,0:2|0:2,0:0:0:0:
180,18,108192,2,0,P|200:74|204:133,1,120,2|0,0:2|0:0,0:0:0:0:
191,192,108642,1,10,0:2:0:0:
285,265,108942,6,0,P|342:273|403:250,1,120,2|8,0:2|0:2,0:0:0:0:
444,212,109392,1,2,0:2:0:0:
507,43,109842,1,10,0:2:0:0:
397,91,110142,2,0,P|338:99|282:78,1,120,2|8,0:2|0:2,0:0:0:0:
233,44,110592,1,2,0:2:0:0:
63,105,111042,1,10,0:2:0:0:
167,163,111342,6,0,P|177:222|184:281,1,120,2|8,0:2|0:2,0:0:0:0:
177,341,111792,2,0,P|236:330|295:324,1,120,2|2,0:2|0:2,0:0:0:0:
352,218,112392,2,0,P|411:222|470:236,1,120,2|2,0:2|0:2,0:0:0:0:
500,119,112992,2,0,P|440:114|381:101,1,120,2|0,0:2|0:0,0:0:0:0:
324,83,113442,1,10,0:2:0:0:
237,0,113742,6,0,P|209:39|198:112,1,120,6|8,0:2|0:2,0:0:0:0:
232,158,114192,1,2,0:2:0:0:
320,314,114642,1,10,0:2:0:0:
200,311,114942,2,0,P|161:283|88:272,1,120,2|8,0:2|0:2,0:0:0:0:
31,279,115392,1,2,0:2:0:0:
88,108,115842,1,10,0:2:0:0:
0,43,116142,6,0,P|39:15|112:4,1,120,2|8,0:2|0:2,0:0:0:0:
119,69,116592,1,0,0:0:0:0:
119,69,116742,2,0,P|162:88|203:148,1,120,2|8,0:2|0:2,0:0:0:0:
162,192,117192,2,0,P|164:251|174:311,1,120,2|2,0:2|0:2,0:0:0:0:
302,304,117792,2,0,P|299:244|289:184,1,120,2|0,0:2|0:0,0:0:0:0:
283,124,118242,1,10,0:2:0:0:
388,180,118542,6,0,P|390:120|400:60,1,120,2|8,0:2|0:2,0:0:0:0:
407,0,118992,1,2,0:2:0:0:
509,148,119442,1,10,0:2:0:0:
442,247,119742,1,2,1:2:0:0:
506,355,120042,1,8,3:2:0:0:
506,355,120192,2,0,B|399:335|443:393|323:363,1,180,2|10,1:2|0:2,0:0:0:0:
222,312,120942,5,6,0:0:0:0:
113,363,121242,1,2,0:0:0:0:
15,293,121542,1,8,0:2:0:0:
15,293,121692,2,0,B|12:256|-8:202|-8:202|4:215|22:230,1,120,2|2,0:0|0:0,0:0:0:0:
127,194,122292,1,8,0:2:0:0:
127,194,122442,2,0,B|124:230|103:284|103:284|115:271|134:256,1,120,2|2,0:0|0:0,0:0:0:0:
239,291,123042,1,8,0:2:0:0:
239,291,123192,2,0,B|236:254|215:200|215:200|227:213|246:228,1,120,2|2,0:0|0:0,0:0:0:0:
345,262,123792,1,8,0:2:0:0:
345,262,123942,1,2,0:0:0:0:
461,244,124242,1,2,0:0:0:0:
511,135,124542,5,2,0:0:0:0:
392,120,124842,1,2,0:0:0:0:
315,27,125142,1,8,0:2:0:0:
315,27,125292,2,0,B|266:-12|226:4|226:4|244:19|251:36,1,120,2|2,0:0|0:0,0:0:0:0:
194,131,125892,1,8,0:2:0:0:
194,131,126042,2,0,B|132:141|105:107|105:107|128:103|143:92,1,120,2|2,0:0|0:0,0:0:0:0:
39,182,126642,1,8,0:2:0:0:
39,182,126792,2,0,B|97:204|103:247|103:247|82:239|64:241,1,120,2|2,0:0|0:0,0:0:0:0:
6,336,127392,1,8,0:2:0:0:
6,336,127542,1,2,0:1:0:0:
121,369,127842,1,2,0:0:0:0:
192,272,128142,5,6,0:0:0:0:
297,214,128442,1,2,0:0:0:0:
379,300,128742,1,8,0:2:0:0:
379,300,128892,2,0,P|440:304|495:252,1,120,2|2,0:0|0:0,0:0:0:0:
431,163,129492,1,8,0:2:0:0:
431,163,129642,2,0,P|464:112|447:38,1,120,2|2,0:0|0:0,0:0:0:0:
338,58,130242,1,8,0:2:0:0:
338,58,130392,2,0,P|287:24|213:41,1,120,2|2,0:0|0:0,0:0:0:0:
111,37,130992,1,8,0:2:0:0:
111,37,131142,1,2,0:0:0:0:
78,152,131442,1,2,0:0:0:0:
194,180,131742,5,2,0:0:0:0:
215,298,132042,1,2,0:0:0:0:
114,363,132342,1,8,0:2:0:0:
114,363,132492,2,0,P|101:304|75:223,1,120,2|2,0:0|0:0,0:0:0:0:
38,135,133092,1,8,0:2:0:0:
38,135,133242,1,2,0:0:0:0:
137,68,133542,5,4,0:2:0:0:
256,192,133692,12,0,135942,0:0:0:0:
256,192,152142,12,0,153942,0:0:0:0:
0,223,154542,6,0,B|24:210|38:191|38:191|48:217|61:227|61:227|32:274|51:317,1,180,0|2,3:0|0:2,3:0:0:0:
57,369,155142,1,2,1:2:0:0:
159,306,155442,6,0,B|268:292|202:350|341:333,1,180,6|4,0:2|1:2,0:0:0:0:
451,342,156192,2,0,B|441:284|463:216|463:216|442:235|411:253,1,180,6|10,1:0|0:2,0:0:0:0:
361,253,156792,2,0,P|355:209|335:121,1,120,0|0,0:0|0:0,0:0:0:0:
365,81,157242,1,10,0:2:0:0:
274,2,157542,2,0,P|214:10|156:24,1,120,2|8,0:2|0:2,0:0:0:0:
96,0,157992,1,2,0:2:0:0:
14,88,158292,1,2,0:2:0:0:
77,189,158592,1,2,0:2:0:0:
22,296,158892,1,2,0:2:0:0:
130,352,159192,2,0,P|188:338|247:329,1,120,2|0,0:2|0:0,0:0:0:0:
304,343,159642,1,10,0:2:0:0:
432,298,159942,6,0,P|401:241|330:237,1,120,2|8,0:2|0:2,0:0:0:0:
358,170,160392,2,0,P|293:168|254:227,1,120,2|0,0:2|0:0,0:0:0:0:
201,225,160842,1,10,0:2:0:0:
248,329,161142,2,0,P|184:340|136:288,1,120,2|8,0:2|0:2,0:0:0:0:
101,350,161592,2,0,P|58:300|80:232,1,120,2|0,0:2|0:0,0:0:0:0:
50,192,162042,1,10,0:2:0:0:
18,76,162342,6,0,P|81:86|152:101,1,120,2|8,0:2|0:2,0:0:0:0:
184,132,162792,1,0,0:0:0:0:
184,132,162942,2,0,P|223:77|350:59,1,180,2|2,0:2|0:2,0:0:0:0:
445,80,163692,1,2,0:2:0:0:
437,202,163992,2,0,P|378:190|318:180,1,120,2|0,0:2|0:0,0:0:0:0:
271,209,164442,1,10,0:2:0:0:
188,121,164742,6,0,P|178:61|166:2,1,120,6|8,0:2|0:2,0:0:0:0:
220,31,165192,2,0,P|160:40|101:52,1,120,2|0,0:2|0:0,0:0:0:0:
42,63,165642,1,10,0:2:0:0:
63,189,165942,2,0,P|74:247|84:307,1,120,2|8,0:2|0:2,0:0:0:0:
28,284,166392,2,0,P|116:265|204:250,1,180,2|10,0:2|0:2,0:0:0:0:
249,291,166992,1,0,0:0:0:0:
249,291,167142,5,2,0:2:0:0:
351,228,167442,1,10,0:2:0:0:
438,309,167742,1,2,0:2:0:0:
331,365,168042,1,8,0:2:0:0:
331,365,168192,5,2,0:2:0:0:
357,249,168492,1,2,0:2:0:0:
252,192,168792,1,2,0:2:0:0:
107,299,169242,1,10,0:2:0:0:
39,199,169542,6,0,P|31:143|12:63,1,120,2|8,0:2|0:2,0:0:0:0:
1,23,169992,2,0,P|38:53|128:62,1,120,2|0,0:2|0:0,0:0:0:0:
167,62,170442,1,10,0:2:0:0:
282,28,170742,2,0,P|273:87|259:145,1,120,2|8,0:2|3:2,0:0:0:0:
239,202,171192,2,0,P|327:195|403:240,1,180,2|2,1:2|1:2,0:0:0:0:
482,331,171942,5,6,0:0:0:0:
362,336,172242,2,0,P|303:325|246:306,1,120,10|2,0:2|0:2,0:0:0:0:
189,287,172692,1,2,0:2:0:0:
175,167,172992,2,0,P|117:148|59:137,1,120,2|2,0:2|0:2,0:0:0:0:
0,127,173442,1,10,0:2:0:0:
26,244,173742,2,0,P|72:275|134:277,1,120,2|10,0:2|0:2,0:0:0:0:
189,287,174192,1,2,0:2:0:0:
175,167,174492,6,0,P|185:108|204:51,1,120,2|2,0:2|0:2,0:0:0:0:
170,0,174942,2,0,P|228:10|285:29,1,120,2|10,0:2|0:2,0:0:0:0:
385,96,175542,1,2,0:0:0:0:
349,215,175842,2,0,P|290:204|233:185,1,120,10|2,0:2|0:2,0:0:0:0:
175,167,176292,1,2,0:2:0:0:
114,272,176592,6,0,B|147:279|167:288|167:288|230:280|230:280|259:292|312:304,1,180,2|10,0:2|0:2,0:0:0:0:
409,299,177342,2,0,P|434:253|444:186,1,120,2|10,0:2|0:2,0:0:0:0:
444,126,177792,1,2,0:2:0:0:
355,45,178092,2,0,P|328:90|318:157,1,120,2|2,0:2|0:2,0:0:0:0:
286,204,178542,2,0,P|226:196|173:168,1,120,2|10,0:2|0:2,0:0:0:0:
64,118,179142,6,0,B|37:275|125:192|93:349,1,240,6|2,0:2|0:2,0:0:0:0:
302,228,180342,2,0,B|329:71|241:154|273:-3,1,240,2|2,0:1|0:2,0:0:0:0:
386,35,181242,1,10,0:2:0:0:
505,20,181542,6,0,P|509:76|495:140,1,120,6|10,0:0|0:2,0:0:0:0:
423,228,182142,1,2,0:2:0:0:
423,228,182292,2,0,P|419:284|433:348,1,120,2|2,0:2|0:2,0:0:0:0:
311,346,182892,1,2,0:2:0:0:
311,346,183042,2,0,P|315:290|301:226,1,120,10|2,0:2|0:0,0:0:0:0:
194,174,183642,1,10,0:2:0:0:
194,174,183792,6,0,B|129:186|129:186|69:152,1,120,2|2,0:2|0:2,0:0:0:0:
41,46,184392,1,2,0:2:0:0:
41,46,184542,2,0,B|106:34|106:34|166:68,1,120,2|10,0:2|0:2,0:0:0:0:
194,174,185142,5,2,0:0:0:0:
302,126,185442,1,10,0:2:0:0:
404,188,185742,1,2,0:2:0:0:
404,188,185892,2,0,P|403:248|391:318,1,120,2|2,0:2|0:2,0:0:0:0:
291,245,186492,5,2,0:2:0:0:
291,245,186642,2,0,P|292:185|304:115,1,120,10|2,0:2|0:2,0:0:0:0:
384,38,187242,1,10,0:2:0:0:
384,38,187392,6,0,P|345:5|265:18,1,120,2|2,0:2|0:2,0:0:0:0:
237,52,187842,1,2,3:1:0:0:
162,145,188142,1,2,0:1:0:0:
42,129,188442,1,2,0:1:0:0:
0,241,188742,5,4,0:2:0:0:
