osu file format v14

[General]
AudioFilename: audio.mp3
AudioLeadIn: 0
PreviewTime: 81518
Countdown: 0
SampleSet: Soft
StackLeniency: 0.4
Mode: 0
LetterboxInBreaks: 0
EpilepsyWarning: 1
WidescreenStoryboard: 1

[Editor]
Bookmarks: 18032,40032,62032,80032,82032,97782,114532,130032,146032
DistanceSpacing: 1.3
BeatDivisor: 4
GridSize: 8
TimelineZoom: 1.1

[Metadata]
Title:Strobe Light (Cut Ver.)
TitleUnicode:ストロボライト (Cut Ver.)
Artist:siinamota
ArtistUnicode:椎名もた
Creator:Cloudchaser
Version:Noffy&Cloud's Hard
Source:
Tags:collab collaboration PowaPowaP powapowa Electronic Japanese Noffy 森井ケンシロウ Kenshirou Morii last short version cut edit AWARD HELLO Shiina Mota ぽわぽわP 溝口遼 Mizoguchi Ryou 森井ケンシロウ Morii Kenshirou Vocaloid 初音ミク Hatsune Miku vocaloid2 hazu-
BeatmapID:1829983
BeatmapSetID:729055

[Difficulty]
HPDrainRate:5
CircleSize:3
OverallDifficulty:5
ApproachRate:7
SliderMultiplier:1.4
SliderTickRate:1

[Events]
//Background and Video events
0,0,"strobelight.png",0,0
//Break Periods
//Storyboard Layer 0 (Background)
//Storyboard Layer 1 (Fail)
//Storyboard Layer 2 (Pass)
//Storyboard Layer 3 (Foreground)
Sprite,Foreground,Centre,"SB\Cloud van Chaser.png",320,240 M,0,18032,,159.7732,409.2115 S,0,18032,,0.6493149 F,0,18032,18282,0,1 F,0,18282,39782,1 F,0,39782,40032,1,0
Sprite,Foreground,Centre,"SB\noffy noffers.png",320,240 M,0,40032,,159.7732,409.2115 S,0,40032,,0.6493149 F,0,40032,40282,0,1 F,0,40282,61782,1 F,0,61782,62032,1,0
Sprite,Foreground,Centre,"SB\Cloud van Chaser.png",320,240 M,0,62032,,159.7732,409.2115 S,0,62032,,0.6493149 F,0,62032,62282,0,1 F,0,62282,81782,1 F,0,81782,82032,1,0
Sprite,Foreground,Centre,"SB\noffy noffers.png",320,240 M,0,82032,,159.7732,409.2115 S,0,82032,,0.6493149 F,0,82032,82282,0,1 F,0,82282,97532,1 F,0,97532,97782,1,0
Sprite,Foreground,Centre,"SB\Cloud van Chaser.png",320,240 M,0,97782,,159.7732,409.2115 S,0,97782,,0.6493149 F,0,97782,98032,0,1 F,0,98032,,1 F,0,98032,114032,1 F,0,114032,114282,1 F,0,114282,114532,1,0
Sprite,Foreground,Centre,"SB\noffy noffers.png",320,240 M,0,114532,,159.7732,409.2115 S,0,114532,,0.6493149 F,0,114532,114782,0,1 F,0,114782,129782,1 F,0,129782,130032,1,0
Sprite,Foreground,Centre,"SB\Cloud van Chaser.png",320,240 M,0,130032,,159.7732,409.2115 S,0,130032,,0.6493149 F,0,130032,130282,0,1 F,0,130282,,1 F,0,130282,145782,1 F,0,145782,146032,1,0 F,0,146032,,0
//Storyboard Layer 4 (Overlay)
//Storyboard Sound Samples

[TimingPoints]
2018,500,4,2,1,60,1,0
82018,-80,4,2,1,70,0,1
113518,-80,4,2,1,70,0,0
114518,-80,4,2,1,70,0,1
146018,-100,4,2,1,60,0,0

[Colours]
Combo1 : 226,126,143
Combo2 : 210,210,210
Combo3 : 99,95,182
Combo4 : 106,106,106
Combo5 : 255,255,106
Combo6 : 73,150,129
SliderBorder : 48,48,48

[HitObjects]
344,80,18018,38,0,P|416:64|456:80,1,70,6|0,3:1|1:2,0:0:0:0:
408,152,18518,2,0,P|336:168|296:152,1,70,10|0,3:2|1:2,0:0:0:0:
208,136,19018,2,0,L|200:280,1,140,2|10,3:2|3:2,0:0:0:0:
120,328,19768,1,2,3:2:0:0:
64,256,20018,54,0,P|56:200|72:176,1,70,2|0,3:2|1:2,0:0:0:0:
128,128,20518,2,0,P|136:94|124:61,1,70,10|0,3:2|0:0,0:0:0:0:
96,24,20893,1,0,0:0:0:0:
96,24,21018,1,2,3:2:0:0:
224,72,21268,2,0,L|320:64,1,70,0|8,1:2|3:2,0:0:0:0:
376,40,21768,1,2,3:2:0:0:
416,200,22018,22,0,P|392:240|392:288,1,70,2|0,3:2|1:2,0:0:0:0:
344,344,22518,1,10,3:2:0:0:
264,232,22768,2,0,L|208:240,1,35,0|0,1:2|1:2,0:0:0:0:
160,296,23018,2,0,P|144:224|176:160,1,140,2|10,3:2|3:2,0:0:0:0:
256,64,23768,1,2,3:2:0:0:
256,64,24018,54,0,B|296:56|296:56|352:72,1,70,2|0,3:2|0:0,0:0:0:0:
400,112,24518,2,0,B|440:120|440:120|496:104,1,70,10|0,3:2|1:2,0:0:0:0:
488,248,25018,2,0,L|336:232,1,140,2|10,3:2|3:2,0:0:0:0:
256,336,25768,1,2,3:2:0:0:
160,240,26018,22,0,P|128:160|160:120,1,140,2|10,3:2|3:2,0:0:0:0:
256,32,26768,1,0,1:2:0:0:
256,32,26893,1,0,1:2:0:0:
256,32,27018,2,0,L|336:48,1,70,2|0,3:2|1:2,0:0:0:0:
452,106,27518,2,0,L|384:120,1,70,8|2,3:2|3:2,0:0:0:0:
304,232,28018,54,0,B|232:208|240:264|136:224,1,140,2|10,3:2|3:2,0:0:0:0:
104,168,28768,1,0,1:2:0:0:
104,168,28893,1,0,0:0:0:0:
104,168,29018,2,0,P|96:128|112:88,1,70,2|0,3:2|1:2,0:0:0:0:
184,56,29518,1,10,3:2:0:0:
296,128,29768,1,2,3:2:0:0:
416,192,30018,22,0,P|424:256|352:304,1,140,2|10,3:2|3:2,0:0:0:0:
256,232,30768,1,0,1:2:0:0:
256,232,30893,1,0,1:2:0:0:
256,232,31018,2,0,L|160:240,1,70,2|0,3:2|1:2,0:0:0:0:
96,224,31518,2,0,P|80:272|80:296,1,70,10|2,3:2|3:2,0:0:0:0:
186,377,32018,2,0,L|186:217,1,140,2|10,3:2|3:2,0:0:0:0:
232,64,33018,2,0,P|296:48|320:48,1,70,2|8,3:2|0:3,0:0:0:0:
376,96,33518,1,8,0:3:0:0:
376,96,34018,54,0,L|352:256,1,140,6|10,3:1|3:2,0:0:0:0:
368,328,34768,1,0,1:2:0:0:
368,328,34893,1,0,1:2:0:0:
368,328,35018,2,0,P|288:352|224:312,1,140,2|10,3:2|3:2,0:0:0:0:
200,248,35768,1,2,3:2:0:0:
152,128,36018,22,0,P|112:128|64:144,1,70,2|0,3:2|1:2,0:0:0:0:
131,255,36518,2,0,P|171:255|219:239,1,70,10|0,3:2|1:2,0:0:0:0:
368,104,37018,2,0,P|334:104|260:120,1,105,2|0,3:2|0:0,0:0:0:0:
240,152,37518,1,10,3:2:0:0:
312,328,37768,1,2,3:2:0:0:
312,328,38018,54,0,P|376:312|416:224,1,140,2|10,3:2|3:2,0:0:0:0:
384,168,38768,1,0,1:2:0:0:
384,168,38893,1,0,1:2:0:0:
384,168,39018,2,0,P|384:120|416:80,1,70,2|0,3:2|1:2,0:0:0:0:
336,32,39518,2,0,L|264:48,1,70,10|2,3:2|3:2,0:0:0:0:
181,76,40018,21,2,3:2:0:0:
105,185,40268,1,0,1:2:0:0:
48,64,40518,1,10,3:2:0:0:
115,193,40768,1,0,1:2:0:0:
53,321,41018,2,0,P|27:289|24:241,1,70,2|0,3:2|1:2,0:0:0:0:
105,185,41518,2,0,P|131:153|127:81,1,105,10|0,3:2|0:0,0:0:0:0:
99,33,42018,54,0,L|255:38,1,140,2|10,3:2|3:2,0:0:0:0:
340,47,42768,1,0,1:2:0:0:
340,47,42893,1,0,1:2:0:0:
340,47,43018,2,0,P|364:92|405:117,1,70,2|0,3:2|1:2,0:0:0:0:
454,197,43518,2,0,L|334:191,1,105,10|0,3:2|0:0,0:0:0:0:
282,187,44018,21,2,3:2:0:0:
202,293,44268,1,0,1:2:0:0:
69,303,44518,1,10,3:2:0:0:
209,298,44768,1,0,1:2:0:0:
139,175,45018,2,0,P|129:131|143:95,1,70,2|0,3:2|1:2,0:0:0:0:
234,55,45518,2,0,P|244:88|237:122,1,70,10|2,3:2|3:2,0:0:0:0:
144,13,46018,54,0,P|104:13|39:102,1,140,2|10,3:2|3:2,0:0:0:0:
35,193,46768,1,0,1:2:0:0:
35,193,46893,1,0,1:2:0:0:
35,193,47018,2,0,L|109:186,1,70,2|0,3:2|1:2,0:0:0:0:
209,177,47518,2,0,P|206:228|236:270,1,105,10|0,3:2|0:0,0:0:0:0:
292,306,48018,22,0,L|447:296,1,140,2|10,3:2|3:2,0:0:0:0:
469,168,48768,1,0,1:2:0:0:
469,168,48893,1,0,0:0:0:0:
469,168,49018,2,0,P|472:133|459:101,1,70,2|0,3:2|1:2,0:0:0:0:
345,31,49518,2,0,P|332:63|350:140,1,105,2|0,3:2|0:0,0:0:0:0:
367,193,50018,54,0,P|298:181|226:222,1,140,2|10,3:2|3:2,0:0:0:0:
197,292,50768,1,0,1:2:0:0:
108,271,51018,2,0,L|116:181,1,70,2|0,3:2|1:2,0:0:0:0:
40,65,51518,2,0,L|46:134,1,70,10|2,3:2|3:2,0:0:0:0:
114,201,52018,21,2,3:2:0:0:
220,121,52268,1,0,1:2:0:0:
325,198,52518,1,10,3:2:0:0:
226,127,52768,1,0,1:2:0:0:
218,253,53018,2,0,L|218:330,1,70,2|0,3:2|1:2,0:0:0:0:
346,358,53518,2,0,P|362:321|368:254,1,105,10|0,3:2|0:0,0:0:0:0:
359,190,54018,54,0,P|423:177|479:108,1,140,2|10,3:2|3:2,0:0:0:0:
472,33,54768,1,0,1:2:0:0:
472,33,54893,1,0,1:2:0:0:
472,33,55018,2,0,L|385:43,1,70,2|0,3:2|1:2,0:0:0:0:
265,99,55518,2,0,L|334:101,1,70,10|2,3:2|3:2,0:0:0:0:
394,170,56018,21,2,3:2:0:0:
323,283,56268,1,0,1:2:0:0:
189,283,56518,1,10,3:2:0:0:
118,170,56768,1,0,1:2:0:0:
234,106,57018,2,0,P|247:141|244:197,1,70,2|0,3:2|1:2,0:0:0:0:
118,170,57518,2,0,P|105:135|108:79,1,70,10|2,3:2|3:2,0:0:0:0:
248,173,58018,54,0,P|224:257|179:297,1,140,2|10,3:2|3:2,0:0:0:0:
96,300,58768,1,0,1:2:0:0:
96,300,58893,1,0,1:2:0:0:
96,300,59018,2,0,L|84:219,1,70,2|0,3:2|1:2,0:0:0:0:
209,177,59518,2,0,P|206:228|236:270,1,105,10|0,3:2|0:0,0:0:0:0:
297,296,60018,21,2,3:2:0:0:
381,193,60268,1,0,1:2:0:0:
359,61,60518,1,10,3:2:0:0:
388,198,60768,1,0,1:2:0:0:
493,264,61018,2,0,P|508:230|510:190,1,70,2|0,3:2|1:2,0:0:0:0:
452,43,61518,2,0,P|455:77|469:109,1,70,10|2,3:2|3:2,0:0:0:0:
381,193,62018,54,0,P|309:177|245:193,1,140,2|10,3:2|3:2,0:0:0:0:
168,296,62768,1,0,1:2:0:0:
168,296,62893,1,0,1:2:0:0:
168,296,63018,2,0,L|248:304,1,70,2|0,3:2|1:2,0:0:0:0:
144,208,63518,2,0,L|64:224,1,70,10|2,3:2|3:2,0:0:0:0:
8,112,64018,22,0,B|56:112|56:112|88:88|88:88|144:88,1,140,2|10,3:2|3:2,0:0:0:0:
256,152,64768,1,0,1:2:0:0:
256,152,65018,2,0,P|272:88|248:48,1,105,2|0,3:2|1:2,0:0:0:0:
224,16,65518,1,10,3:2:0:0:
384,32,65768,1,2,3:2:0:0:
440,168,66018,54,0,P|416:272|424:288,1,105,12|8,0:1|0:1,0:0:0:0:
440,304,66518,1,10,0:1:0:0:
312,328,66768,1,8,0:1:0:0:
208,240,67018,2,0,B|160:224|160:264|80:240,1,105,10|8,0:1|0:1,0:0:0:0:
64,224,67518,1,10,0:1:0:0:
64,224,67643,1,8,0:1:0:0:
64,224,67768,1,10,0:1:0:0:
176,80,68018,22,0,P|240:88|256:88,1,70,10|0,0:1|0:0,0:0:0:0:
384,32,68518,2,0,P|349:34|314:40,1,70,10|0,0:1|0:0,0:0:0:0:
432,112,69018,2,0,P|496:120|512:120,1,70,10|0,0:1|0:0,0:0:0:0:
480,32,69518,1,10,0:1:0:0:
240,152,70018,54,0,P|208:216|208:272,1,105,10|8,0:1|0:1,0:0:0:0:
224,296,70518,1,10,0:1:0:0:
91,262,70768,1,8,0:1:0:0:
113,127,71018,2,0,P|121:63|111:13,1,105,10|8,0:1|0:1,0:0:0:0:
85,17,71518,1,10,0:1:0:0:
223,71,71768,1,10,0:1:0:0:
380,61,72018,22,0,B|356:101|388:173|388:173|348:237|284:205,1,210,10|0,0:1|0:0,0:0:0:0:
184,208,73018,2,0,P|120:208|64:232,1,105,10|10,0:1|0:1,0:0:0:0:
84,255,73518,1,10,0:1:0:0:
84,255,73643,1,8,0:1:0:0:
84,255,73768,1,2,0:0:0:0:
152,328,74018,54,0,L|280:312,1,105,10|8,0:1|0:1,0:0:0:0:
296,312,74518,1,10,0:1:0:0:
432,352,74768,1,8,0:1:0:0:
432,200,75018,2,0,P|416:144|432:88,1,105,10|8,0:1|0:1,0:0:0:0:
456,64,75518,2,0,L|504:56,2,35,10|8|10,0:1|0:1|0:1,0:0:0:0:
320,80,76018,22,0,L|208:48,1,105,10|8,0:1|0:1,0:0:0:0:
112,24,76518,2,0,P|128:104|112:144,1,105,10|0,0:1|0:0,0:0:0:0:
64,216,77018,2,0,L|184:208,1,105,10|8,0:1|0:1,0:0:0:0:
208,240,77518,1,10,0:1:0:0:
440,112,78018,54,0,P|424:176|432:232,1,105,10|8,0:1|0:1,0:0:0:0:
448,248,78518,1,10,0:1:0:0:
352,336,78768,1,8,0:1:0:0:
352,336,79018,2,0,P|296:304|240:328,1,105,10|8,0:1|0:1,0:0:0:0:
168,336,79518,2,0,P|112:368|56:344,1,105,10|0,0:1|0:0,0:0:0:0:
106,280,80018,22,0,L|91:175,1,105,10|2,0:1|3:2,0:0:0:0:
192,208,80518,2,0,L|177:104,1,105,2|2,3:2|3:2,0:0:0:0:
240,32,81018,1,2,3:2:0:0:
424,152,81518,53,2,3:2:0:0:
424,152,82018,53,6,3:1:0:0:
349,66,82268,1,0,1:2:0:0:
349,66,82393,2,0,P|319:105|309:150,1,87.5,2|0,1:0|0:0,0:0:0:0:
315,198,82768,1,2,3:2:0:0:
256,315,83018,1,2,3:2:0:0:
197,198,83268,1,0,1:2:0:0:
136,314,83518,70,0,P|101:283|83:236,1,87.5,10|2,3:2|3:2,0:0:0:0:
84,132,84018,2,0,P|102:92|135:64,2,87.5,2|0|10,3:2|1:2|3:2,0:0:0:0:
197,198,84768,1,0,1:2:0:0:
197,198,85018,1,2,3:2:0:0:
396,89,85518,54,0,B|394:171|394:171|423:181|443:202,1,131.25,10|0,3:2|0:0,0:0:0:0:
471,240,86018,2,0,P|468:298|436:335,1,87.5,2|0,3:2|1:2,0:0:0:0:
328,363,86518,2,0,B|330:281|330:281|301:271|281:250,1,131.25,10|0,3:2|1:2,0:0:0:0:
253,212,87018,2,0,P|256:154|288:117,1,87.5,2|0,3:2|1:2,0:0:0:0:
127,92,87518,54,0,B|129:174|129:174|100:184|80:205,1,131.25,10|0,3:2|1:2,0:0:0:0:
60,249,88018,1,2,3:2:0:0:
144,349,88268,1,0,1:2:0:0:
144,349,88393,2,0,P|181:330|213:282,1,87.5,2|0,1:0|0:0,0:0:0:0:
231,241,88768,1,2,1:2:0:0:
256,112,89018,1,2,3:2:0:0:
256,112,89518,70,0,P|321:136|389:97,1,131.25,10|0,3:2|0:0,0:0:0:0:
415,72,90018,69,2,3:2:0:0:
492,178,90268,1,0,1:2:0:0:
492,178,90393,2,0,L|482:270,1,87.5,2|0,1:0|0:0,0:0:0:0:
481,321,90768,1,2,1:2:0:0:
363,261,91018,1,2,3:2:0:0:
244,316,91268,1,0,1:2:0:0:
126,374,91518,54,0,L|116:282,1,87.5,10|2,3:2|3:2,0:0:0:0:
108,156,92018,2,0,P|142:184|192:195,2,87.5,2|0|10,3:2|1:2|3:2,0:0:0:0:
199,61,92768,1,0,1:2:0:0:
199,61,93018,1,2,3:2:0:0:
479,61,93518,54,0,P|426:81|346:64,1,131.25,10|0,3:2|0:0,0:0:0:0:
307,35,94018,2,0,P|308:95|285:141,1,87.5,2|0,3:2|1:2,0:0:0:0:
225,229,94518,2,0,P|172:249|92:232,1,131.25,10|0,3:2|1:2,0:0:0:0:
54,203,95018,2,0,P|55:263|32:309,1,87.5,2|0,3:2|1:2,0:0:0:0:
0,114,95518,70,0,P|63:100|124:121,1,131.25,10|0,3:2|0:0,0:0:0:0:
174,151,96018,1,2,3:2:0:0:
256,73,96268,1,0,1:2:0:0:
256,73,96393,2,0,P|302:65|365:83,1,87.5,2|0,1:2|0:0,0:0:0:0:
389,103,96768,1,2,1:2:0:0:
298,198,97018,1,2,3:2:0:0:
174,151,97268,1,0,1:2:0:0:
125,271,97518,70,0,P|189:311|263:300,1,131.25,8|0,3:2|0:0,0:0:0:0:
294,283,98018,54,0,P|302:219|294:187,1,87.5,2|0,3:2|1:2,0:0:0:0:
360,136,98393,2,0,P|354:92|363:50,1,87.5,2|0,1:0|0:0,0:0:0:0:
400,24,98768,1,2,1:2:0:0:
272,80,99018,2,0,L|168:64,1,87.5,2|0,3:2|1:2,0:0:0:0:
88,152,99518,1,10,3:2:0:0:
136,272,99768,1,2,3:2:0:0:
264,232,100018,54,0,L|384:216,2,87.5,2|0|10,3:2|1:2|3:2,0:0:0:0:
232,360,100768,1,0,1:2:0:0:
264,232,101018,1,2,3:2:0:0:
136,264,101268,1,0,1:2:0:0:
136,264,101518,70,0,P|56:256|64:192,1,131.25,10|0,3:2|0:0,0:0:0:0:
80,184,102018,70,0,L|72:64,1,87.5,2|0,3:2|1:2,0:0:0:0:
192,24,102518,2,0,P|256:56|320:40,1,131.25,10|0,3:2|0:0,0:0:0:0:
360,24,103018,2,0,L|344:128,1,87.5,2|0,3:2|1:2,0:0:0:0:
376,240,103518,1,10,3:2:0:0:
488,168,103768,1,2,3:2:0:0:
447,296,104018,54,0,P|391:328|339:313,1,87.5,2|0,3:2|1:2,0:0:0:0:
320,304,104393,2,0,L|224:296,1,87.5,2|0,1:0|0:0,0:0:0:0:
192,328,104768,1,2,1:2:0:0:
72,248,105018,2,0,P|96:184|88:144,1,87.5,2|0,3:2|1:2,0:0:0:0:
104,32,105518,54,0,P|192:56|240:40,1,131.25,8|0,3:2|0:0,0:0:0:0:
272,16,106018,69,2,3:2:0:0:
320,136,106268,1,0,1:2:0:0:
320,136,106393,2,0,P|288:208|304:256,1,131.25,2|2,1:0|1:2,0:0:0:0:
424,296,107018,2,0,L|432:208,1,87.5,2|0,3:2|1:2,0:0:0:0:
320,136,107518,2,0,L|312:48,1,87.5,10|2,3:2|3:2,0:0:0:0:
184,32,108018,69,2,3:2:0:0:
80,104,108268,1,0,1:2:0:0:
152,216,108518,2,0,P|176:160|176:120,1,87.5,10|0,3:2|1:2,0:0:0:0:
56,192,109018,2,0,P|64:264|96:312,1,131.25,2|0,3:2|0:0,0:0:0:0:
144,328,109518,53,10,3:2:0:0:
256,240,109768,1,2,3:2:0:0:
384,288,110018,54,0,B|408:232|376:184|376:184|424:208,1,131.25,2|0,3:2|0:0,0:0:0:0:
416,112,110518,2,0,P|352:104|296:152,1,131.25,10|0,3:2|1:2,0:0:0:0:
280,184,111018,1,2,3:2:0:0:
216,72,111268,1,0,1:2:0:0:
216,72,111518,70,0,L|120:80,1,87.5,10|2,3:2|3:2,0:0:0:0:
48,184,112018,1,2,3:2:0:0:
112,296,112268,1,0,1:2:0:0:
112,296,112393,2,0,L|240:280,1,87.5,2|0,1:0|0:0,0:0:0:0:
240,304,112768,1,2,1:2:0:0:
328,208,113018,2,0,P|312:136|312:96,1,87.5,2|0,3:2|0:0,0:0:0:0:
360,0,113518,69,2,3:2:0:0:
232,32,113768,1,2,3:2:0:0:
232,32,114518,53,14,3:2:0:0:
187,126,114768,1,0,1:2:0:0:
187,126,114893,1,0,1:2:0:0:
187,126,115018,2,0,P|119:136|79:116,1,87.5,2|0,3:2|1:2,0:0:0:0:
43,33,115518,1,10,3:2:0:0:
43,33,115768,1,2,3:2:0:0:
9,141,116018,54,0,L|24:335,1,175,2|10,3:2|3:2,0:0:0:0:
135,331,116768,1,0,1:2:0:0:
135,331,116893,1,0,1:2:0:0:
135,331,117018,2,0,P|155:286|160:235,1,87.5,2|0,3:2|1:2,0:0:0:0:
151,134,117518,1,10,3:2:0:0:
248,191,117768,1,2,3:2:0:0:
360,173,118018,70,0,L|377:-3,1,175,2|10,3:2|3:2,0:0:0:0:
267,32,118768,1,0,1:2:0:0:
267,32,118893,1,0,1:2:0:0:
267,32,119018,2,0,P|249:86|261:133,1,87.5,2|0,3:2|1:2,0:0:0:0:
360,173,119518,1,10,3:2:0:0:
360,173,119768,1,2,3:2:0:0:
473,175,120018,70,0,B|486:227|486:227|457:367,1,175,2|10,3:2|3:2,0:0:0:0:
344,356,120768,1,0,1:2:0:0:
344,356,120893,1,0,1:2:0:0:
344,356,121018,2,0,P|300:335|244:340,1,87.5,2|0,3:2|1:2,0:0:0:0:
154,373,121518,1,10,3:2:0:0:
42,350,121768,1,2,3:2:0:0:
56,237,122018,54,0,B|121:249|121:249|243:219,1,175,2|10,3:2|3:2,0:0:0:0:
317,150,122768,1,0,1:2:0:0:
317,150,122893,1,0,1:2:0:0:
317,150,123018,2,0,L|338:58,1,87.5,2|0,3:2|1:2,0:0:0:0:
450,63,123518,1,10,3:2:0:0:
429,174,123768,1,2,3:2:0:0:
453,285,124018,54,0,P|394:341|397:255,1,175,2|10,3:2|3:2,0:0:0:0:
299,188,124768,2,0,P|256:127|214:188,1,175,0|0,1:2|1:2,0:0:0:0:
143,279,125518,2,0,P|104:343|70:331,1,87.5,10|2,3:2|3:2,0:0:0:0:
37,251,126018,70,0,P|31:153|60:73,1,175,2|10,3:2|3:2,0:0:0:0:
166,108,126768,1,2,1:2:0:0:
166,108,126893,1,0,1:2:0:0:
166,108,127018,2,0,P|143:162|154:209,1,87.5,2|0,3:2|1:2,0:0:0:0:
258,172,127518,1,10,3:2:0:0:
258,172,127768,1,0,0:0:0:0:
346,108,128018,70,0,P|369:190|329:265,1,175,2|10,3:2|3:2,0:0:0:0:
258,172,128768,1,0,1:2:0:0:
258,58,129018,2,0,P|288:23|334:10,1,87.5,2|0,3:2|1:2,0:0:0:0:
437,35,129518,2,0,P|459:76|451:140,1,87.5,10|2,3:2|3:2,0:0:0:0:
344,240,130018,53,2,3:2:0:0:
248,184,130268,1,0,1:2:0:0:
248,184,130393,2,0,P|160:184|128:200,1,87.5,2|0,1:2|0:0,0:0:0:0:
112,208,130768,1,2,1:2:0:0:
88,320,131018,2,0,B|56:344|56:344|-16:352,2,87.5,0|2|10,1:2|3:2|3:2,0:0:0:0:
200,288,131768,1,2,3:2:0:0:
248,184,132018,54,0,P|256:120|232:80,1,87.5,2|0,3:2|1:2,0:0:0:0:
336,32,132518,2,0,L|440:72,1,87.5,10|0,3:2|1:2,0:0:0:0:
456,168,133018,2,0,P|408:208|432:296,1,131.25,2|0,3:2|1:2,0:0:0:0:
432,304,133518,69,10,3:2:0:0:
320,280,133768,1,2,3:2:0:0:
208,304,134018,70,0,L|64:320,1,131.25,2|0,3:2|0:0,0:0:0:0:
24,296,134518,2,0,P|56:256|48:216,1,87.5,10|0,3:2|1:2,0:0:0:0:
112,128,135018,2,0,P|144:72|192:120,1,131.25,2|0,3:2|0:0,0:0:0:0:
224,144,135518,2,0,L|336:120,1,87.5,10|2,3:2|3:2,0:0:0:0:
400,56,136018,54,0,P|408:136|424:160,1,87.5,2|0,3:2|1:2,0:0:0:0:
464,168,136393,2,0,L|432:272,1,87.5,2|0,1:0|0:0,0:0:0:0:
448,304,136768,1,2,1:2:0:0:
336,272,137018,2,0,P|256:264|160:280,1,175,2|10,3:2|3:2,0:0:0:0:
64,216,137768,1,2,3:2:0:0:
136,64,138018,53,2,3:2:0:0:
232,120,138268,1,0,1:2:0:0:
232,120,138393,2,0,P|280:128|328:112,1,87.5,2|0,1:0|0:0,0:0:0:0:
360,80,138768,1,2,1:2:0:0:
448,152,139018,1,2,3:2:0:0:
368,232,139268,1,0,1:2:0:0:
432,328,139518,70,0,L|312:344,1,87.5,10|2,3:2|3:2,0:0:0:0:
264,256,140018,2,0,P|184:232|144:248,2,87.5,2|0|10,3:2|1:2|3:2,0:0:0:0:
192,344,140768,1,0,1:2:0:0:
104,272,141018,2,0,P|99:207|120:168,1,87.5,2|0,3:2|1:2,0:0:0:0:
155,84,141518,70,0,B|220:89|220:89|293:62,1,131.25,10|0,3:2|0:0,0:0:0:0:
332,40,142018,54,0,P|324:128|334:161,1,87.5,2|0,3:2|1:2,0:0:0:0:
303,237,142518,2,0,P|257:276|163:256,1,131.25,10|0,3:2|1:2,0:0:0:0:
134,255,143018,2,0,L|148:361,1,87.5,2|0,3:2|1:2,0:0:0:0:
32,368,143518,1,10,3:2:0:0:
16,256,143768,1,2,3:2:0:0:
0,144,144018,53,2,3:2:0:0:
256,192,144143,12,0,146018,1:0:0:0:
