osu file format v14

[General]
AudioFilename: audio.mp3
AudioLeadIn: 0
PreviewTime: 488
Countdown: 0
SampleSet: Soft
StackLeniency: 0.7
Mode: 0
LetterboxInBreaks: 1
EpilepsyWarning: 1
WidescreenStoryboard: 1

[Editor]
Bookmarks: 11237,21822,32488,51155,61822,72488,83155,93822,112488,123155,127154,129821,155154
DistanceSpacing: 1
BeatDivisor: 4
GridSize: 32
TimelineZoom: 1.8

[Metadata]
Title:Because enyhow die (Kari)
TitleUnicode:Because enyhow die (仮)
Artist:siinamota
ArtistUnicode:椎名もた
Creator:Renumi
Version:Normal
Source:
Tags:beren vocaloid anyhow 故に yue_ni therefor. therefore hatsune_miku j-pop japanese electronic shiinamota powapowa ぽわぽわ
BeatmapID:3636679
BeatmapSetID:1775997

[Difficulty]
HPDrainRate:4.5
CircleSize:3
OverallDifficulty:4
ApproachRate:5.5
SliderMultiplier:1.05
SliderTickRate:1

[Events]
//Background and Video events
0,0,"because.jpg",0,0
//Break Periods
2,62021,69821
//Storyboard Layer 0 (Background)
//Storyboard Layer 1 (Fail)
//Storyboard Layer 2 (Pass)
//Storyboard Layer 3 (Foreground)
//Storyboard Layer 4 (Overlay)
//Storyboard Sound Samples

[TimingPoints]
488,333.333333333333,4,2,1,75,1,0
11154,-100,4,2,1,75,0,0
11487,-100,4,2,1,70,0,0
21821,-100,4,2,1,75,0,0
32487,-100,4,2,1,75,0,0
32821,-100,4,2,1,70,0,0
43154,-100,4,2,1,75,0,0
43487,-100,4,2,1,65,0,0
49821,-100,4,2,1,75,0,0
51154,-100,4,2,1,80,0,1
51487,-100,4,2,1,80,0,0
61487,-100,4,2,1,80,0,0
61821,-100,4,2,1,80,0,0
71154,-100,4,2,1,65,0,0
72154,-100,4,2,1,75,0,0
72487,-100,4,2,1,70,0,0
83154,-100,4,2,1,75,0,0
112487,-100,4,2,1,80,0,1
112821,-100,4,2,1,80,0,0
122821,-100,4,2,1,83,0,0
123154,-100,4,2,1,85,0,1
127154,-100,4,2,1,88,0,1
134154,-100,4,2,1,85,0,1
139154,517.241379310345,4,2,1,85,1,0
141222,500,4,2,1,40,1,0
142222,566.251415628539,4,2,1,40,1,0
144487,333.333333333333,4,2,1,80,1,1
164487,-100,4,1,1,85,0,1
166820,400,4,1,1,90,1,1
166920,317.460317460316,4,1,1,90,1,1
167078,458.015267175573,4,1,1,90,1,1
167307,517.241379310345,4,1,1,90,1,1
167436,540.540540540541,4,1,1,90,1,1
167706,333.333333333333,4,1,1,90,1,1
168372,288.461538461538,4,1,1,30,1,1
169262,-100,4,1,1,30,0,0

[Colours]
Combo1 : 255,88,100
Combo2 : 173,255,95
Combo3 : 255,94,55
Combo4 : 253,226,134

[HitObjects]
56,233,488,6,0,P|23:265|0:293,2,78.75,4|2|0,3:1|0:0|0:0,0:0:0:0:
106,219,1154,2,0,L|219:239,1,105,2|8,0:0|0:1,0:0:0:0:
293,299,1821,2,0,L|309:381,2,78.75,0|2|0,3:0|0:0|0:0,0:0:0:0:
323,256,2487,1,2,0:0:0:0:
314,151,2821,1,8,0:1:0:0:
388,77,3154,6,0,L|399:-12,2,78.75,0|2|0,3:0|0:0|0:0,0:0:0:0:
409,125,3821,2,0,P|460:116|511:103,1,105,2|8,0:0|0:1,0:0:0:0:
507,207,4487,2,0,L|423:224,1,78.75,0|2,3:0|0:1,0:0:0:0:
313,282,5154,1,2,0:0:0:0:
210,259,5487,1,8,0:1:0:0:
115,305,5821,6,0,L|36:296,1,78.75,0|2,3:0|0:1,0:0:0:0:
12,166,6487,1,2,0:0:0:0:
82,87,6821,1,8,0:1:0:0:
186,78,7154,2,0,B|191:-7,2,78.75,0|2|0,3:0|0:0|0:0,0:0:0:0:
226,111,7821,2,0,P|278:106|330:98,1,105,2|8,0:0|0:1,0:0:0:0:
423,147,8487,6,0,P|466:155|504:164,2,78.75,0|2|0,3:0|0:0|0:0,0:0:0:0:
380,178,9154,1,2,0:0:0:0:
289,231,9487,1,8,0:1:0:0:
250,328,9821,2,0,L|260:395,2,52.5,0|0|8,3:0|3:0|0:1,0:0:0:0:
171,258,10487,2,0,L|174:199,1,52.5,2|0,3:0|3:0,0:0:0:0:
213,177,10821,2,0,L|210:118,1,52.5,8|2,0:1|0:0,0:0:0:0:
199,80,11154,6,0,P|131:30|60:119,1,210,6|2,3:1|1:0,0:0:0:0:
107,200,12154,1,2,0:2:0:0:
62,295,12487,2,0,P|108:318|158:335,1,105,2|2,3:1|0:1,0:0:0:0:
211,337,12987,2,0,L|217:275,1,52.5,0|0,3:0|1:0,0:0:0:0:
228,74,13821,6,0,P|273:68|341:74,1,105,2|2,3:1|3:2,0:0:0:0:
430,109,14487,2,0,P|460:127|481:144,2,52.5,2|0|2,1:0|0:0|0:0,0:0:0:0:
347,174,15154,2,0,P|305:231|353:298,1,157.5,2|0,3:1|3:0,0:0:0:0:
398,306,15821,1,0,1:0:0:0:
205,384,16487,6,0,B|152:361|152:361|-4:367,1,210,2|2,3:1|1:0,0:0:0:0:
14,262,17487,1,2,0:0:0:0:
116,238,17821,2,0,P|125:188|134:79,1,157.5,2|0,3:1|3:0,0:0:0:0:
134,29,18487,1,0,1:0:0:0:
336,133,19154,6,0,L|441:126,1,105,2|2,3:1|3:2,0:0:0:0:
494,216,19821,1,2,1:0:0:0:
460,315,20154,1,2,0:0:0:0:
357,362,20487,2,0,P|301:340|258:313,1,105,2|2,3:1|0:0,0:0:0:0:
233,290,20987,1,2,3:2:0:0:
233,290,21154,2,0,L|121:303,1,105,2|2,1:0|0:3,0:0:0:0:
77,210,21821,6,0,P|49:211|-5:220,2,78.75,6|2|0,3:2|0:0|0:0,0:0:0:0:
129,214,22487,2,0,P|155:174|182:118,1,105,2|8,0:0|0:1,0:0:0:0:
269,78,23154,2,0,L|263:-12,2,78.75,0|2|0,3:0|0:0|0:0,0:0:0:0:
305,114,23821,1,2,0:0:0:0:
408,105,24154,1,8,0:1:0:0:
434,204,24487,6,0,P|459:204|526:202,2,78.75,0|2|0,3:0|0:0|0:0,0:0:0:0:
400,244,25154,1,2,0:0:0:0:
307,193,25487,1,8,0:1:0:0:
202,180,25821,2,0,P|137:173|119:175,1,78.75,0|2,3:0|0:1,0:0:0:0:
53,282,26487,1,2,0:0:0:0:
143,341,26821,1,8,0:1:0:0:
248,317,27154,6,0,P|281:318|328:333,1,78.75,0|2,3:0|0:1,0:0:0:0:
452,301,27821,1,2,0:0:0:0:
466,197,28154,1,8,0:1:0:0:
424,100,28487,2,0,L|426:13,2,78.75,0|2|0,3:0|0:0|0:0,0:0:0:0:
375,121,29154,2,0,P|328:124|268:115,1,105,2|8,0:0|0:1,0:0:0:0:
165,93,29821,6,0,L|78:91,2,78.75,0|2|0,3:0|0:0|0:0,0:0:0:0:
187,140,30487,1,2,0:0:0:0:
150,238,30821,1,8,0:1:0:0:
200,330,31154,2,0,L|207:397,2,52.5,0|0|8,3:0|3:0|0:1,0:0:0:0:
272,263,31821,2,0,L|276:205,1,52.5,2|0,3:0|3:0,0:0:0:0:
325,193,32154,2,0,L|313:137,1,52.5,8|0,0:1|0:0,0:0:0:0:
312,89,32487,6,2,P|368:27|456:97,1,210,6|2,3:1|1:0,0:0:0:0:
473,206,33487,2,0,L|485:259,1,52.5,2|0,0:2|3:0,0:0:0:0:
481,310,33821,2,2,B|428:319|428:319|316:274,1,157.5,2|0,3:1|3:0,0:0:0:0:
284,257,34487,1,2,1:3:0:0:
75,280,35154,6,2,P|80:231|96:176,1,105,2|2,3:1|3:2,0:0:0:0:
89,72,35821,2,2,L|72:20,2,52.5,2|0|2,1:0|0:0|0:0,0:0:0:0:
185,112,36487,2,2,B|356:96,1,157.5,2|0,3:1|3:0,0:0:0:0:
387,71,37154,1,2,1:3:0:0:
499,248,37821,6,2,P|491:297|475:354,1,105,6|2,3:1|0:0,0:0:0:0:
371,355,38487,2,2,P|356:304|348:252,1,105,2|2,1:0|0:0,0:0:0:0:
284,169,39154,2,0,L|277:116,2,52.5,2|0|2,3:1|0:0|0:1,0:0:0:0:
201,233,39821,1,2,1:3:0:0:
371,355,40487,6,2,L|475:369,1,105,2|2,3:1|3:2,0:0:0:0:
496,266,41154,2,0,L|489:205,1,52.5,2|0,1:0|0:0,0:0:0:0:
496,162,41487,1,2,0:0:0:0:
424,85,41821,2,0,B|366:106|366:106|259:88,1,157.5,2|2,3:1|3:0,0:0:0:0:
228,59,42487,1,0,1:0:0:0:
122,59,42821,1,2,0:2:0:0:
46,141,43154,6,0,P|46:219|56:360,1,210,6|2,0:0|0:0,0:0:0:0:
263,372,44487,2,0,P|271:293|276:154,1,210,2|2,0:0|0:0,0:0:0:0:
218,74,45487,1,0,0:0:0:0:
303,11,45821,2,0,B|372:43|372:43|526:41,1,210,2|2,0:0|0:0,0:0:0:0:
370,202,47154,2,0,B|236:200|236:200|167:232,1,210,2|2,0:0|0:0,0:0:0:0:
152,336,48154,2,0,P|88:317|35:299,1,105,0|6,0:0|0:0,0:0:0:0:
359,18,49821,2,0,P|412:26|470:46,1,105,2|2,0:0|0:0,0:0:0:0:
486,143,50487,2,0,L|469:210,2,52.5,2|0|2,0:0|0:0|0:0,0:0:0:0:
380,140,51154,6,0,P|335:144|210:173,1,157.5,6|2,3:1|0:1,0:0:0:0:
88,246,52154,1,10,0:1:0:0:
19,166,52487,2,0,P|30:114|37:62,1,105,2|8,3:1|0:1,0:0:0:0:
30,10,52987,2,0,P|77:34|191:33,1,157.5,2|8,3:1|0:1,0:0:0:0:
284,21,53821,6,0,L|394:44,2,105,2|10|2,3:1|0:1|0:1,0:0:0:0:
190,74,54821,1,8,0:1:0:0:
165,175,55154,2,0,L|59:181,1,105,2|8,3:1|0:1,0:0:0:0:
10,199,55654,2,0,P|-12:258|35:350,1,157.5,2|10,0:1|0:1,0:0:0:0:
118,296,56487,5,6,0:0:0:0:
203,234,56821,1,8,0:1:0:0:
306,253,57154,2,0,P|367:269|416:272,1,105,2|8,3:2|0:1,0:0:0:0:
476,192,57821,2,0,P|470:147|449:79,2,105,2|8|2,3:1|0:1|3:2,0:0:0:0:
333,349,59154,6,0,L|219:359,1,105,6|10,3:2|0:1,0:0:0:0:
225,252,59821,2,0,P|180:252|117:264,1,105,2|10,3:2|0:1,0:0:0:0:
27,215,60487,1,6,3:2:0:0:
18,110,60821,1,10,0:1:0:0:
100,45,61154,2,0,L|213:52,1,105,2|10,3:2|0:1,0:0:0:0:
291,110,61821,5,6,0:1:0:0:
452,41,71154,6,0,P|482:91|492:123,2,78.75
402,21,71821,1,0,3:0:0:0:
302,53,72154,1,8,0:1:0:0:
201,22,72487,6,2,P|145:64|121:102,1,105,6|2,3:1|0:0,0:0:0:0:
69,181,73154,2,2,L|92:303,1,105,2|2,1:0|0:2,0:0:0:0:
164,357,73821,2,2,L|216:336,1,52.5,2|0,3:1|0:0,0:0:0:0:
239,291,74154,2,0,P|290:302|353:322,1,105,2|2,3:1|1:3,0:0:0:0:
445,301,74821,1,2,0:2:0:0:
441,196,75154,6,2,L|419:85,1,105,2|2,3:1|0:2,0:0:0:0:
335,31,75821,2,2,L|282:24,2,52.5,2|0|2,1:0|3:0|0:0,0:0:0:0:
386,122,76487,1,2,3:1:0:0:
298,180,76821,2,0,P|246:175|181:162,1,105,2|2,3:1|1:3,0:0:0:0:
0,252,77821,6,2,B|-11:295|-11:295|11:359,1,105,6|2,3:1|0:0,0:0:0:0:
113,361,78487,2,2,L|217:349,1,105,2|2,1:0|0:0,0:0:0:0:
316,312,79154,2,0,L|329:250,2,52.5,2|0|2,3:1|0:0|3:1,0:0:0:0:
409,360,79821,1,2,1:3:0:0:
486,288,80154,1,2,0:0:0:0:
424,203,80487,6,2,P|359:174|306:172,1,105,2|2,3:1|0:2,0:0:0:0:
213,187,81154,2,2,P|234:135|247:73,1,105,2|2,1:0|0:0,0:0:0:0:
164,21,81821,2,0,P|121:39|56:79,1,105,2|2,3:1|3:2,0:0:0:0:
51,117,82321,1,2,1:0:0:0:
51,117,82487,2,0,L|-4:106,2,52.5,2|8|8,3:1|3:0|0:3,0:0:0:0:
155,125,83154,6,0,L|168:214,2,78.75,6|2|0,3:2|0:0|3:0,0:0:0:0:
184,81,83821,2,0,B|233:65|233:65|298:69,1,105,2|8,0:0|0:1,0:0:0:0:
378,119,84487,2,0,P|443:137|463:140,2,78.75,0|2|0,3:0|0:0|3:0,0:0:0:0:
331,150,85154,1,2,0:0:0:0:
317,253,85487,1,8,0:1:0:0:
369,344,85821,6,0,L|452:334,2,78.75,0|2|0,3:0|0:0|3:0,0:0:0:0:
321,367,86487,2,0,P|271:362|208:346,1,105,2|8,0:0|0:1,0:0:0:0:
128,293,87154,2,0,B|40:309,1,78.75,0|2,3:0|0:1,0:0:0:0:
12,181,87821,1,2,0:0:0:0:
113,155,88154,1,8,0:1:0:0:
195,90,88487,6,0,B|179:2,1,78.75,0|2,3:0|0:1,0:0:0:0:
311,27,89154,1,2,0:0:0:0:
381,104,89487,1,8,0:1:0:0:
385,209,89821,2,0,P|436:219|473:221,2,78.75,0|2|0,3:0|0:0|3:0,0:0:0:0:
337,186,90487,2,0,L|229:191,1,105,2|8,0:0|0:1,0:0:0:0:
127,180,91154,6,0,P|103:145|84:98,2,78.75,0|2|0,3:0|0:0|3:0,0:0:0:0:
144,229,91821,2,0,L|156:344,1,105,2|8,0:0|0:1,0:0:0:0:
61,381,92487,2,0,L|-25:377,2,78.75,0|2|0,3:0|3:2|3:0,0:0:0:0:
109,361,93154,1,2,0:2:0:0:
199,308,93487,2,0,L|272:317,1,52.5,10|0,0:1|0:0,0:0:0:0:
300,334,93821,6,0,P|353:327|418:309,1,105,6|10,3:2|0:1,0:0:0:0:
483,247,94487,2,0,P|476:194|458:129,1,105,2|10,0:2|0:1,0:0:0:0:
406,55,95154,2,0,P|363:72|303:102,1,105,2|10,3:1|0:1,0:0:0:0:
275,137,95654,2,0,L|147:127,1,105,2|0,3:0|3:0,0:0:0:0:
119,142,96154,1,8,0:1:0:0:
54,229,96487,6,0,P|88:269|135:302,1,105,2|8,3:1|0:1,0:0:0:0:
225,350,97154,2,0,P|264:316|295:273,1,105,2|8,0:1|0:1,0:0:0:0:
287,168,97821,2,0,L|266:64,1,105,2|10,3:1|0:1,0:0:0:0:
299,24,98321,1,2,3:0:0:0:
397,61,98654,1,0,3:0:0:0:
397,61,98821,2,0,L|464:73,1,52.5,8|0,0:1|0:0,0:0:0:0:
488,104,99154,6,0,P|504:158|514:222,1,105,2|10,3:2|0:1,0:0:0:0:
435,277,99821,2,0,P|387:265|322:239,1,105,2|10,0:2|0:1,0:0:0:0:
239,202,100487,2,0,L|114:212,1,105,2|10,3:1|0:1,0:0:0:0:
85,230,100987,2,0,P|59:188|39:122,1,105,2|0,3:0|3:0,0:0:0:0:
55,84,101487,1,8,0:1:0:0:
146,32,101821,5,2,3:1:0:0:
245,70,102154,1,10,0:1:0:0:
348,52,102487,2,0,P|399:43|454:40,1,105,2|8,0:1|0:1,0:0:0:0:
512,130,103154,2,0,P|509:183|499:235,1,105,2|10,3:1|0:1,0:0:0:0:
473,280,103654,1,2,3:0:0:0:
400,355,103987,1,0,3:0:0:0:
400,355,104154,2,0,L|330:351,1,52.5,10|0,0:1|0:0,0:0:0:0:
312,312,104487,6,0,P|259:316|209:330,1,105,6|8,0:0|0:1,0:0:0:0:
110,366,105154,2,0,L|97:252,1,105,2|8,0:0|0:1,0:0:0:0:
26,184,105821,2,0,L|42:80,1,105,2|8,3:2|0:1,0:0:0:0:
130,22,106487,2,0,P|184:26|245:36,1,105,2|8,0:0|0:1,0:0:0:0:
258,86,106987,1,2,3:0:0:0:
258,86,107154,6,0,L|374:73,1,105,2|8,3:2|0:1,0:0:0:0:
446,136,107821,2,0,L|501:142,2,52.5,2|0|8,0:1|3:0|0:1,0:0:0:0:
360,196,108487,2,0,P|345:243|334:297,1,105,2|8,3:1|0:1,0:0:0:0:
426,347,109154,2,0,L|496:331,2,52.5,2|0|4,0:1|3:0|1:2,0:0:0:0:
326,334,109821,5,2,3:1:0:0:
326,334,109987,2,0,B|252:312|252:312|168:341,2,157.5,8|8|8,0:1|0:1|0:1,0:0:0:0:
372,359,111154,1,2,3:2:0:0:
453,292,111487,1,2,0:0:0:0:
428,189,111821,2,0,L|420:131,2,52.5,2|0|2,0:0|0:0|0:0,0:0:0:0:
332,231,112487,6,0,P|256:209|183:179,1,157.5,6|2,3:1|0:1,0:0:0:0:
40,113,113487,1,8,0:1:0:0:
14,214,113821,2,0,L|12:336,1,105,2|8,3:1|0:1,0:0:0:0:
44,360,114321,2,0,P|119:338|192:308,1,157.5,2|8,3:1|0:1,0:0:0:0:
286,261,115154,6,0,P|285:215|273:143,1,105,2|8,3:1|0:1,0:0:0:0:
224,150,115654,2,0,P|234:83|257:28,1,105,2|0,3:1|3:0,0:0:0:0:
282,13,116154,1,8,0:1:0:0:
381,47,116487,2,0,L|503:32,1,105,2|8,3:1|0:1,0:0:0:0:
490,86,116987,2,0,P|506:135|512:187,1,105,2|0,0:1|3:0,0:0:0:0:
497,238,117487,1,10,0:1:0:0:
458,335,117821,5,6,0:0:0:0:
362,290,118154,1,8,0:1:0:0:
267,336,118487,2,0,L|162:336,1,105,2|8,3:2|0:1,0:0:0:0:
104,248,119154,2,0,L|-1:247,2,105,2|8|2,3:1|0:1|3:2,0:0:0:0:
194,194,120154,1,8,0:1:0:0:
298,202,120487,6,0,P|305:150|303:97,1,105,6|10,3:2|0:1,0:0:0:0:
368,14,121154,2,0,L|472:8,1,105,2|10,3:2|0:1,0:0:0:0:
505,108,121821,1,6,3:2:0:0:
470,207,122154,1,10,0:1:0:0:
491,309,122487,2,0,L|362:317,1,105,2|10,3:2|0:1,0:0:0:0:
357,360,122987,1,8,0:2:0:0:
357,360,123154,6,0,L|228:352,1,105,6|8,3:0|0:1,0:0:0:0:
201,366,123654,2,0,P|168:298|209:214,1,157.5,8|8,0:3|0:3,0:0:0:0:
290,179,124487,2,0,L|419:171,1,105,6|8,3:0|0:1,0:0:0:0:
446,185,124987,2,0,P|479:117|438:33,1,157.5,8|8,0:3|0:3,0:0:0:0:
349,69,125821,6,0,L|245:50,1,105,6|8,3:0|0:1,0:0:0:0:
213,16,126321,1,8,0:3:0:0:
213,16,126487,2,0,P|160:20|98:33,1,105,2|8,0:0|0:3,0:0:0:0:
50,117,127154,2,0,L|-3:105,2,52.5,4|2|8,3:0|0:3|0:1,0:0:0:0:
121,194,127821,2,0,L|173:188,2,52.5,4|2|8,0:1|0:3|0:3,0:0:0:0:
21,228,128487,6,0,P|10:274|7:351,1,105,4|8,3:1|0:1,0:0:0:0:
101,374,129154,2,0,L|154:384,2,52.5,2|2|8,0:2|3:0|0:3,0:0:0:0:
138,275,129821,2,0,L|254:263,1,105,4|8,3:0|0:1,0:0:0:0:
344,288,130487,2,0,L|357:346,2,52.5,2|2|8,0:0|3:0|0:3,0:0:0:0:
399,198,131154,6,0,P|353:173|298:154,1,105,4|8,3:0|0:1,0:0:0:0:
260,135,131654,1,10,0:3:0:0:
260,135,131821,2,0,L|270:76,2,52.5,2|2|8,0:0|3:0|0:3,0:0:0:0:
169,190,132487,2,0,L|187:304,1,105,4|8,3:1|0:1,0:0:0:0:
148,330,132987,1,10,0:3:0:0:
148,330,133154,2,0,P|118:327|85:321,1,52.5,2|2,0:0|3:0,0:0:0:0:
51,294,133487,2,0,P|21:297|-12:303,2,52.5,8|8|6,0:3|0:2|3:1,0:0:0:0:
261,294,134487,6,0,B|273:247|273:247|266:191,1,105,2|10,3:2|0:1,0:0:0:0:
247,147,134987,1,0,0:0:0:0:
247,147,135154,2,0,B|291:130|291:130|362:128,1,105,2|8,3:1|0:1,0:0:0:0:
446,167,135821,2,0,L|511:182,2,52.5,0|2|10,3:0|0:0|0:1,0:0:0:0:
377,246,136487,6,0,L|391:350,1,105,6|8,3:1|0:1,0:0:0:0:
345,370,136987,1,2,0:1:0:0:
345,370,137154,2,0,L|240:384,1,105,0|10,3:0|0:1,0:0:0:0:
173,303,137821,1,2,3:1:0:0:
75,330,138154,6,0,P|38:257|26:218,1,105,8|0,0:1|3:0,0:0:0:0:
26,181,138654,1,8,3:1:0:0:
26,181,138821,2,0,L|41:118,1,52.5,2|8,3:1|0:1,0:0:0:0:
24,73,139154,1,6,0:0:0:0:
256,192,139283,12,0,142788,0:0:0:0:
46,72,144487,6,0,P|97:55|155:56,1,105,6|8,3:1|0:1,0:0:0:0:
197,71,144987,2,0,P|221:113|235:184,1,105,2|2,0:1|0:2,0:0:0:0:
214,216,145487,1,8,0:1:0:0:
271,303,145820,2,0,L|398:308,1,105,2|8,3:1|0:1,0:0:0:0:
430,327,146320,1,2,3:1:0:0:
430,327,146487,2,0,B|437:274|437:274|425:205,1,105,0|8,3:0|0:1,0:0:0:0:
367,137,147153,6,0,L|253:156,1,105,2|8,3:1|0:1,0:0:0:0:
229,194,147653,2,0,P|180:184|120:161,1,105,2|2,0:1|0:2,0:0:0:0:
86,133,148153,1,8,0:1:0:0:
15,211,148487,2,0,L|34:325,1,105,2|8,3:1|0:1,0:0:0:0:
70,351,148987,2,0,P|121:340|170:322,1,105,2|0,0:1|0:0,0:0:0:0:
209,287,149487,2,0,P|256:295|277:300,1,52.5,10|0,0:1|0:0,0:0:0:0:
308,317,149820,5,6,0:0:0:0:
447,160,150487,2,0,P|450:108|446:43,1,105,2|8,3:2|0:1,0:0:0:0:
345,79,151153,2,0,L|229:72,1,105,2|8,3:1|0:1,0:0:0:0:
143,30,151820,2,0,P|114:45|52:94,1,105,2|8,3:2|0:1,0:0:0:0:
9,183,152487,5,6,3:2:0:0:
10,287,152820,1,10,0:1:0:0:
96,346,153153,2,0,L|215:324,1,105,2|10,3:2|0:1,0:0:0:0:
254,237,153820,1,6,3:2:0:0:
358,245,154153,1,10,0:1:0:0:
396,345,154487,2,0,L|515:367,1,105,2|10,3:2|0:1,0:0:0:0:
472,262,155153,6,0,P|506:194|448:126,1,157.5,6|2,3:2|0:1,0:0:0:0:
372,93,155987,1,8,0:1:0:0:
372,93,156153,1,2,3:1:0:0:
270,120,156487,1,4,3:1:0:0:
270,120,156653,2,0,L|94:103,1,157.5,2|2,0:1|3:1,0:0:0:0:
27,166,157487,2,0,L|34:227,1,52.5,8|2,0:1|0:1,0:0:0:0:
87,245,157820,6,0,P|84:293|79:321,1,52.5,4|0,3:1|0:0,0:0:0:0:
103,345,158153,2,0,P|167:307|266:330,1,157.5,10|2,0:1|0:1,0:0:0:0:
355,332,158986,1,0,0:0:0:0:
355,332,159153,2,0,P|386:301|389:179,1,157.5,6|2,3:1|0:1,0:0:0:0:
355,92,159986,1,0,0:0:0:0:
355,92,160153,1,10,3:1:0:0:
251,75,160486,5,4,3:1:0:0:
251,75,160653,2,0,L|125:75,1,105,2|0,0:1|0:0,0:0:0:0:
96,57,161153,2,0,P|47:83|-5:123,1,105,2|8,3:1|0:1,0:0:0:0:
4,164,161653,1,2,0:1:0:0:
24,271,161986,1,0,0:0:0:0:
24,271,162153,1,10,0:1:0:0:
111,328,162486,1,0,3:0:0:0:
111,328,162653,2,0,P|201:323|222:317,1,105,2|0,0:1|0:0,0:0:0:0:
243,275,163153,6,0,P|318:282|352:290,1,105,2|8,3:1|0:1,0:0:0:0:
384,324,163653,1,2,0:1:0:0:
458,250,163986,1,0,0:0:0:0:
458,250,164153,2,0,L|463:176,1,52.5,10|0,0:1|0:0,0:0:0:0:
256,192,164486,12,12,168040,0:0:0:0:
