osu file format v14

[General]
AudioFilename: audio.mp3
AudioLeadIn: 0
PreviewTime: 488
Countdown: 0
SampleSet: Soft
StackLeniency: 0.7
Mode: 0
LetterboxInBreaks: 1
EpilepsyWarning: 1
WidescreenStoryboard: 1

[Editor]
Bookmarks: 11154,21822,32488,51155,61822,72488,83155,93822,112488,123155,127154,129821,155154
DistanceSpacing: 1.5
BeatDivisor: 4
GridSize: 32
TimelineZoom: 1.8

[Metadata]
Title:Because enyhow die (Kari)
TitleUnicode:Because enyhow die (仮)
Artist:siinamota
ArtistUnicode:椎名もた
Creator:Renumi
Version:Insane
Source:
Tags:beren vocaloid anyhow 故に yue_ni therefor. therefore hatsune_miku j-pop japanese electronic shiinamota powapowa ぽわぽわ
BeatmapID:3636678
BeatmapSetID:1775997

[Difficulty]
HPDrainRate:6.5
CircleSize:3.6
OverallDifficulty:7.4
ApproachRate:8.5
SliderMultiplier:1.45
SliderTickRate:1

[Events]
//Background and Video events
0,0,"because.jpg",0,0
//Break Periods
2,62021,69821
//Storyboard Layer 0 (Background)
//Storyboard Layer 1 (Fail)
//Storyboard Layer 2 (Pass)
//Storyboard Layer 3 (Foreground)
//Storyboard Layer 4 (Overlay)
//Storyboard Sound Samples

[TimingPoints]
488,333.333333333333,4,2,1,75,1,0
11154,-100,4,2,1,75,0,0
11487,-100,4,2,1,70,0,0
21821,-100,4,2,1,75,0,0
32487,-100,4,2,1,75,0,0
32821,-100,4,2,1,70,0,0
43154,-100,4,2,1,75,0,0
43487,-100,4,2,1,65,0,0
49821,-100,4,2,1,75,0,0
51154,-90.9090909090909,4,2,1,80,0,1
51487,-90.9090909090909,4,2,1,80,0,0
61487,-90.9090909090909,4,2,1,80,0,0
61821,-100,4,2,1,80,0,0
71154,-100,4,2,1,65,0,0
72154,-100,4,2,1,75,0,0
72487,-100,4,2,1,70,0,0
83154,-100,4,2,1,75,0,0
112487,-90.9090909090909,4,2,1,80,0,1
112821,-90.9090909090909,4,2,1,80,0,0
122821,-100,4,2,1,83,0,0
123154,-90.9090909090909,4,2,1,85,0,1
127154,-90.9090909090909,4,2,1,88,0,1
134154,-90.9090909090909,4,2,1,85,0,1
139154,517.241379310345,4,2,1,85,1,0
141222,500,4,2,1,40,1,0
142222,566.251415628539,4,2,1,40,1,0
144487,333.333333333333,4,2,1,80,1,1
144487,-90.9090909090909,4,2,1,80,0,1
164487,-90.9090909090909,4,1,1,85,0,1
166653,-97.0873786407767,4,1,1,85,0,1
166820,400,4,1,1,90,1,1
166920,317.460317460316,4,1,1,90,1,1
167078,458.015267175573,4,1,1,90,1,1
167078,-90.9090909090909,4,1,1,90,0,1
167307,517.241379310345,4,1,1,90,1,1
167436,540.540540540541,4,1,1,90,1,1
167436,-90.9090909090909,4,1,1,90,0,1
167706,333.333333333333,4,1,1,90,1,1
168372,288.461538461538,4,1,1,30,1,1
168372,-125,4,1,1,30,0,1
169262,-100,4,1,1,30,0,0

[Colours]
Combo1 : 255,88,100
Combo2 : 173,255,95
Combo3 : 255,94,55
Combo4 : 253,226,134

[HitObjects]
247,280,488,6,0,B|196:269|196:269|125:269,2,108.75,4|2|0,3:1|0:0|0:0,0:0:0:0:
339,336,1154,1,2,0:0:0:0:
438,292,1321,1,0,3:0:0:0:
456,185,1487,1,8,0:1:0:0:
396,93,1654,1,2,0:0:0:0:
206,122,1821,2,0,B|192:68|192:68|209:3,2,108.75,0|2|0,3:0|0:0|0:0,0:0:0:0:
169,224,2487,1,2,0:0:0:0:
100,153,2654,1,0,3:0:0:0:
100,153,2737,1,8,0:0:0:0:
100,153,2821,2,0,L|16:151,1,72.5,8|2,0:1|0:0,0:0:0:0:
58,266,3154,6,0,L|64:354,1,72.5,0|0,3:0|0:0,0:0:0:0:
62,338,3404,2,0,B|186:335,1,108.75,2|0,0:0|0:0,0:0:0:0:
276,370,3821,1,2,0:0:0:0:
339,281,3987,1,0,3:0:0:0:
444,252,4154,1,8,0:1:0:0:
507,163,4321,1,2,0:0:0:0:
404,13,4487,6,0,L|267:34,1,108.75,0|2,3:0|0:1,0:0:0:0:
147,121,4987,1,0,0:0:0:0:
166,228,5154,1,2,0:0:0:0:
45,162,5321,1,0,3:0:0:0:
45,162,5404,1,8,0:0:0:0:
45,162,5487,2,0,L|55:247,1,72.5,8|2,0:1|0:0,0:0:0:0:
142,358,5821,6,0,P|202:352|275:339,1,108.75,0|2,3:0|0:1,0:0:0:0:
297,190,6321,1,0,0:0:0:0:
297,190,6487,1,2,0:0:0:0:
379,260,6654,1,0,3:0:0:0:
478,214,6821,1,8,0:1:0:0:
494,106,6987,1,2,0:0:0:0:
342,0,7154,2,0,P|282:5|211:20,2,108.75,0|2|0,3:0|0:0|0:0,0:0:0:0:
402,91,7821,1,2,0:0:0:0:
368,198,7987,1,0,3:0:0:0:
368,198,8071,1,8,0:0:0:0:
368,198,8154,2,0,L|274:185,1,72.5,8|2,0:1|0:0,0:0:0:0:
165,103,8487,6,0,P|155:145|146:195,1,72.5,0|0,3:0|0:0,0:0:0:0:
149,173,8737,2,0,L|169:287,1,108.75,2|0,0:0|0:0,0:0:0:0:
111,373,9154,1,2,0:0:0:0:
44,286,9321,1,0,3:0:0:0:
27,179,9487,2,0,L|31:86,2,72.5,8|2|0,0:1|0:0|3:0,0:0:0:0:
128,219,9987,1,0,3:0:0:0:
128,219,10071,1,2,3:2:0:0:
128,219,10154,2,0,P|168:204|208:199,1,72.5,8|0,0:1|0:0,0:0:0:0:
304,178,10487,1,2,3:0:0:0:
364,268,10654,1,0,3:0:0:0:
275,339,10821,1,8,0:1:0:0:
275,339,10904,1,0,0:0:0:0:
275,339,10987,2,0,L|322:345,1,36.25,2|0,0:0|0:0,0:0:0:0:
358,371,11154,6,0,L|512:358,1,145,6|0,3:1|0:0,0:0:0:0:
348,204,11821,2,0,B|321:151|321:151|335:50,1,145,2|2,1:0|0:2,0:0:0:0:
235,30,12321,1,0,3:0:0:0:
235,30,12487,2,0,P|227:67|220:129,2,72.5,2|0|2,3:1|0:0|0:1,0:0:0:0:
332,66,12987,2,0,L|367:59,2,36.25,0|0|0,3:0|3:0|1:0,0:0:0:0:
304,172,13321,1,0,3:0:0:0:
0,143,13654,1,8,0:0:0:0:
94,139,13821,6,0,B|106:271,1,108.75,2|0,3:1|0:0,0:0:0:0:
103,247,14154,2,0,L|17:258,1,72.5,2|0,3:2|0:0,0:0:0:0:
176,341,14487,2,0,P|235:316|279:288,1,108.75,2|8,1:0|0:0,0:0:0:0:
272,292,14821,1,2,0:0:0:0:
388,338,14987,1,0,3:0:0:0:
436,227,15154,2,0,L|444:143,2,72.5,2|0|2,3:1|0:0|0:1,0:0:0:0:
512,328,15654,1,0,3:0:0:0:
512,328,15737,1,0,3:0:0:0:
512,328,15821,1,0,1:0:0:0:
357,305,15987,1,0,3:0:0:0:
336,77,16321,1,8,0:0:0:0:
254,147,16487,6,0,P|187:134|105:103,1,145,2|2,3:1|0:0,0:0:0:0:
6,105,16987,1,0,0:0:0:0:
6,210,17154,2,0,P|43:259|148:254,1,145,2|2,1:0|0:0,0:0:0:0:
225,234,17654,1,0,3:0:0:0:
225,234,17821,2,0,L|239:322,2,72.5,2|0|2,3:1|0:0|0:0,0:0:0:0:
289,146,18321,2,0,L|340:158,2,36.25,0|0|0,3:0|3:0|1:0,0:0:0:0:
223,59,18654,1,0,3:0:0:0:
221,276,18987,1,8,0:0:0:0:
313,333,19154,6,0,P|371:331|481:321,1,145,2|2,3:1|3:2,0:0:0:0:
337,86,19821,2,0,P|347:140|361:193,1,108.75,2|8,1:0|0:0,0:0:0:0:
360,192,20154,2,0,P|323:184|276:183,1,72.5,2|0,0:0|3:0,0:0:0:0:
190,228,20487,2,0,L|95:218,2,72.5,2|0|2,3:1|0:0|0:0,0:0:0:0:
193,119,20987,2,0,L|183:83,1,36.25,2|0,3:2|3:0,0:0:0:0:
157,57,21154,2,0,B|71:46|89:77|0:59,1,145,2|2,1:0|0:3,0:0:0:0:
60,159,21654,1,2,0:0:0:0:
18,327,21821,6,0,L|134:319,2,108.75,6|2|0,3:2|0:0|0:0,0:0:0:0:
6,219,22487,1,2,0:0:0:0:
111,192,22654,1,0,3:0:0:0:
206,243,22821,1,8,0:1:0:0:
312,225,22987,1,2,0:0:0:0:
493,209,23154,2,0,L|506:291,1,72.5,0|0,3:0|0:0,0:0:0:0:
504,280,23404,2,0,P|450:281|376:275,1,108.75,2|0,0:0|0:0,0:0:0:0:
324,195,23821,1,2,0:0:0:0:
359,98,23987,1,0,3:0:0:0:
359,98,24071,1,8,0:0:0:0:
359,98,24154,2,0,P|318:101|264:108,1,72.5,8|2,0:1|0:0,0:0:0:0:
128,172,24487,6,0,L|6:156,2,108.75,0|2|0,3:0|0:0|0:0,0:0:0:0:
199,90,25154,1,2,0:0:0:0:
262,178,25321,1,0,3:0:0:0:
225,279,25487,1,8,0:1:0:0:
270,378,25654,1,2,0:0:0:0:
396,252,25821,6,0,P|452:253|511:269,1,108.75,0|2,3:0|0:1,0:0:0:0:
203,311,26321,1,0,0:0:0:0:
98,261,26487,1,2,0:0:0:0:
209,217,26654,1,0,3:0:0:0:
209,217,26737,1,0,0:0:0:0:
209,217,26821,2,0,L|214:121,1,72.5,8|2,0:1|0:0,0:0:0:0:
106,8,27154,6,0,P|50:9|-9:25,1,108.75,0|2,3:0|0:1,0:0:0:0:
237,98,27654,1,0,0:0:0:0:
237,98,27821,1,2,0:0:0:0:
333,48,27987,1,0,3:0:0:0:
436,81,28154,1,8,0:1:0:0:
461,205,28321,1,2,0:0:0:0:
363,355,28487,2,0,B|315:373|315:373|229:378,2,108.75,0|2|0,3:0|0:0|0:0,0:0:0:0:
367,246,29154,1,2,0:0:0:0:
259,262,29321,1,0,3:0:0:0:
259,262,29404,1,8,0:0:0:0:
259,262,29487,2,0,L|243:174,1,72.5,8|2,0:1|0:0,0:0:0:0:
182,20,29821,6,0,P|179:58|168:114,1,72.5,0|0,3:0|0:0,0:0:0:0:
173,91,30071,2,0,L|47:108,1,108.75,2|0,0:0|0:0,0:0:0:0:
29,207,30487,1,2,0:0:0:0:
105,284,30654,1,0,3:0:0:0:
192,218,30821,1,8,0:1:0:0:
266,296,30987,2,0,P|312:303|368:309,1,72.5,2|0,0:0|3:0,0:0:0:0:
441,270,31321,1,0,3:0:0:0:
441,270,31404,1,2,3:2:0:0:
441,270,31487,2,0,P|455:236|468:202,1,72.5,8|0,0:1|0:0,0:0:0:0:
457,93,31821,1,2,3:0:0:0:
361,41,31987,1,0,3:0:0:0:
259,42,32154,1,8,0:1:0:0:
259,42,32237,1,0,0:0:0:0:
259,42,32321,2,0,P|223:46|189:53,1,36.25
184,85,32487,6,2,B|102:100|131:73|33:85,1,145,6|2,3:1|0:0,0:0:0:0:
322,262,33154,2,2,P|359:289|415:213,1,145,2|2,1:0|0:2,0:0:0:0:
441,127,33654,1,0,3:0:0:0:
441,127,33821,2,2,P|514:143|538:152,2,72.5,2|0|2,3:1|0:0|0:1,0:0:0:0:
333,112,34321,2,0,P|323:90|310:57,1,36.25,0|0,3:0|3:0,0:0:0:0:
344,31,34487,1,2,1:3:0:0:
344,31,34654,1,0,3:0:0:0:
251,152,34821,2,0,P|247:192|239:259,1,72.5,2|2,0:2|1:3,0:0:0:0:
190,319,35154,6,2,B|102:330|129:299|18:315,1,145,2|2,3:1|3:2,0:0:0:0:
5,210,35654,1,0,0:0:0:0:
25,107,35821,2,2,P|80:93|91:93,2,36.25,2|0|0,1:0|0:0|0:0,0:0:0:0:
130,188,36154,2,0,P|127:224|122:260,1,72.5,2|0,0:0|3:0,0:0:0:0:
218,117,36487,2,2,P|283:113|341:152,1,108.75,2|0,3:1|0:0,0:0:0:0:
320,131,36821,2,0,P|340:188|344:209,1,72.5,2|0,0:1|3:0,0:0:0:0:
342,199,37071,1,0,3:0:0:0:
342,199,37154,1,2,1:3:0:0:
319,322,37321,1,2,3:0:0:0:
417,276,37487,2,0,P|455:271|505:270,1,72.5,2|8,0:2|0:0,0:0:0:0:
319,322,37821,6,2,B|229:340|250:313|164:323,1,145,6|2,3:1|0:0,0:0:0:0:
126,345,38237,2,0,L|72:329,1,36.25
57,236,38487,2,2,P|53:197|51:161,1,72.5,2|0,1:0|0:0,0:0:0:0:
96,58,38821,2,0,P|131:74|163:90,1,72.5,2|0,0:0|3:0,0:0:0:0:
212,186,39154,2,0,L|291:173,1,72.5,2|0,3:1|0:0,0:0:0:0:
384,215,39487,1,2,0:1:0:0:
384,215,39654,2,0,L|390:158,2,36.25,2|0|2,3:0|3:0|1:3,0:0:0:0:
327,308,39987,1,0,3:0:0:0:
422,360,40154,2,2,P|480:363|515:359,1,72.5,2|8,0:0|0:0,0:0:0:0:
306,288,40487,6,2,L|222:290,1,72.5,2|0,3:1|0:0,0:0:0:0:
64,239,40821,2,0,P|61:278|68:328,1,72.5,2|0,3:2|0:0,0:0:0:0:
168,367,41154,1,2,1:0:0:0:
198,322,41237,2,0,L|187:198,1,108.75,0|2,0:0|0:0,0:0:0:0:
160,108,41654,1,0,3:0:0:0:
240,34,41821,2,0,P|277:41|333:55,1,72.5,2|0,3:1|0:0,0:0:0:0:
423,50,42154,1,2,0:2:0:0:
423,50,42321,2,0,L|478:38,2,36.25,2|0|0,3:0|3:0|1:0,0:0:0:0:
358,142,42654,1,2,3:0:0:0:
371,253,42821,2,0,L|379:336,1,72.5,2|0,0:2|0:0,0:0:0:0:
490,316,43154,5,6,0:0:0:0:
490,316,43487,1,0,0:0:0:0:
279,282,43821,1,2,0:0:0:0:
279,282,44154,1,0,0:0:0:0:
395,257,44487,1,2,0:0:0:0:
395,257,44821,1,0,0:0:0:0:
179,230,45154,1,2,0:0:0:0:
179,230,45487,2,0,L|172:142,1,72.5,0|2,0:0|0:0,0:0:0:0:
236,69,45821,5,2,0:0:0:0:
236,69,46154,1,0,0:0:0:0:
379,172,46487,1,2,0:0:0:0:
379,172,46821,1,0,0:0:0:0:
276,315,47154,1,2,0:0:0:0:
276,315,47487,1,0,0:0:0:0:
133,212,47821,1,2,0:0:0:0:
133,212,48154,1,0,0:0:0:0:
256,192,48487,1,6,0:0:0:0:
256,192,49821,5,2,0:0:0:0:
352,225,49987,1,0,0:0:0:0:
510,190,50154,2,0,P|475:182|439:180,1,72.5,2|0,0:0|0:0,0:0:0:0:
256,192,50487,1,2,0:0:0:0:
160,159,50654,1,0,0:0:0:0:
0,192,50821,2,0,P|35:200|72:202,1,72.5,2|0,0:0|0:0,0:0:0:0:
256,192,51154,6,0,P|278:237|277:326,1,119.625003650665,6|0,3:1|0:0,0:0:0:0:
281,305,51487,1,8,0:1:0:0:
179,384,51654,2,0,B|122:380|122:380|43:301,1,159.500004867554,2|2,0:1|3:2,0:0:0:0:
68,167,52154,2,0,L|92:78,1,79.7500024337769,10|0,0:1|0:0,0:0:0:0:
220,11,52487,5,2,3:1:0:0:
357,127,52654,1,0,0:0:0:0:
223,138,52821,1,8,0:1:0:0:
366,35,52987,1,2,3:1:0:0:
366,35,53321,1,0,3:0:0:0:
464,195,53487,1,8,0:1:0:0:
464,195,53821,6,0,L|454:318,1,119.625003650665,2|2,3:1|0:2,0:0:0:0:
454,314,54154,2,0,P|384:328|286:291,1,159.500004867554,10|2,0:1|0:1,0:0:0:0:
260,172,54654,2,0,L|177:166,1,79.7500024337769,0|8,3:0|0:1,0:0:0:0:
53,118,54987,1,2,0:0:0:0:
96,238,55154,6,0,L|109:334,2,79.7500024337769,2|0|8,3:1|0:0|0:1,0:0:0:0:
182,33,55654,2,0,P|219:100|180:166,1,159.500004867554,2|0,0:1|3:0,0:0:0:0:
322,278,56154,2,0,P|283:274|233:271,1,79.7500024337769,10|0,0:1|0:0,0:0:0:0:
412,360,56487,5,6,0:0:0:0:
412,360,56654,1,0,0:0:0:0:
457,251,56821,1,8,0:1:0:0:
457,251,56987,1,0,0:0:0:0:
365,166,57154,2,0,P|355:128|348:87,1,79.7500024337769,2|0,3:2|0:0,0:0:0:0:
268,260,57487,2,0,P|261:298|251:338,1,79.7500024337769,8|0,0:1|0:0,0:0:0:0:
148,142,57821,2,0,L|249:147,1,79.7500024337769,2|0,3:1|0:0,0:0:0:0:
365,166,58154,1,8,0:1:0:0:
365,166,58487,2,0,L|473:154,1,79.7500024337769,2|0,3:2|0:0,0:0:0:0:
339,293,58821,2,0,P|276:266|251:247,1,79.7500024337769,8|0,0:1|0:0,0:0:0:0:
154,192,59154,5,6,3:2:0:0:
154,192,59321,1,0,0:0:0:0:
166,61,59487,1,10,0:1:0:0:
166,61,59654,1,0,0:0:0:0:
297,26,59821,2,0,P|318:61|338:107,1,79.7500024337769,2|0,3:2|0:0,0:0:0:0:
320,241,60154,1,10,0:1:0:0:
320,241,60487,6,0,L|311:342,1,79.7500024337769,6|0,3:2|0:0,0:0:0:0:
184,173,60821,2,0,L|196:252,1,79.7500024337769,10|0,0:1|0:0,0:0:0:0:
83,88,61154,2,0,P|132:70|174:66,1,79.7500024337769,2|0,3:2|0:0,0:0:0:0:
429,296,61487,2,0,P|380:314|298:320,1,119.625003650665,10|0,0:1|0:0,0:0:0:0:
313,320,61821,5,6,0:1:0:0:
363,84,71154,6,0,L|481:93,2,108.75
249,47,71821,1,0,3:0:0:0:
249,47,71987,1,0,3:0:0:0:
148,118,72154,1,8,0:1:0:0:
148,118,72237,1,8,0:1:0:0:
148,118,72321,2,0,L|89:115,1,36.25,8|8,0:1|0:1,0:0:0:0:
62,111,72487,6,2,B|56:230,1,108.75,6|0,3:1|0:0,0:0:0:0:
56,219,72821,2,0,P|52:265|46:305,1,72.5,2|0,0:0|3:0,0:0:0:0:
152,348,73154,2,2,L|281:343,1,108.75,2|0,1:0|0:0,0:0:0:0:
260,343,73487,2,0,L|355:357,1,72.5,2|0,0:2|3:0,0:0:0:0:
442,284,73821,2,2,P|481:291|520:301,2,72.5,2|0|2,3:1|0:0|3:1,0:0:0:0:
225,279,74487,2,0,L|271:364,1,72.5,2|8,1:3|0:0,0:0:0:0:
135,222,74821,2,0,L|23:211,1,108.75,2|0,0:2|0:0,0:0:0:0:
26,211,75154,6,2,P|24:151|30:114,1,72.5,2|0,3:1|3:0,0:0:0:0:
101,31,75487,2,0,L|227:52,1,108.75,2|0,0:2|0:0,0:0:0:0:
208,48,75821,2,2,P|248:41|294:27,1,72.5,2|0,1:0|3:0,0:0:0:0:
386,91,76154,2,0,L|372:189,1,72.5,2|0,0:0|0:0,0:0:0:0:
461,253,76487,2,2,L|476:341,2,72.5,2|0|2,3:1|0:0|3:1,0:0:0:0:
71,294,77154,2,0,L|-17:283,1,72.5,2|0,1:3|0:0,0:0:0:0:
180,202,77487,2,0,P|182:239|181:275,1,72.5,2|0,0:2|0:0,0:0:0:0:
55,139,77821,6,2,P|109:90|194:92,1,145,6|2,3:1|0:0,0:0:0:0:
281,129,78321,1,0,3:0:0:0:
372,59,78487,2,2,L|465:73,1,72.5,2|0,1:0|3:0,0:0:0:0:
300,243,78821,2,0,L|217:249,1,72.5,2|0,0:0|3:0,0:0:0:0:
435,191,79154,2,0,P|450:241|458:280,2,72.5,2|0|2,3:1|0:0|3:1,0:0:0:0:
40,126,79821,2,0,P|69:199|79:216,1,72.5,2|8,1:3|0:0,0:0:0:0:
239,140,80154,2,0,P|201:125|151:117,1,72.5,2|0,0:0|0:0,0:0:0:0:
206,254,80487,6,2,P|141:258|59:317,1,145,2|2,3:1|0:2,0:0:0:0:
0,384,80987,1,0,3:0:0:0:
0,259,81154,2,2,L|27:160,1,72.5,2|0,1:0|0:0,0:0:0:0:
156,173,81487,2,0,L|140:102,1,72.5,2|0,0:0|3:0,0:0:0:0:
278,27,81821,2,0,P|317:86|272:154,1,145,2|2,3:1|3:2,0:0:0:0:
249,264,82321,1,2,1:0:0:0:
249,264,82404,1,8,1:2:0:0:
249,264,82487,2,0,L|261:329,2,36.25,2|0|8,3:1|3:0|3:0,0:0:0:0:
151,209,82821,2,0,L|157:173,1,36.25,8|0,0:3|0:0,0:0:0:0:
129,129,82987,1,8,1:0:0:0:
129,129,83071,1,0,1:0:0:0:
129,129,83154,6,0,P|58:136|-4:144,2,108.75,6|2|0,3:2|0:0|3:0,0:0:0:0:
238,70,83821,1,2,0:0:0:0:
356,38,83987,1,0,3:0:0:0:
464,97,84154,1,8,0:1:0:0:
508,212,84321,1,2,0:0:0:0:
415,351,84487,2,0,L|312:354,1,72.5,0|0,3:0|0:0,0:0:0:0:
342,353,84737,2,0,P|333:306|341:234,1,108.75,2|0,0:0|3:0,0:0:0:0:
370,126,85154,1,2,0:0:0:0:
253,167,85321,1,0,3:0:0:0:
253,167,85404,1,0,0:0:0:0:
253,167,85487,2,0,L|186:159,2,36.25,8|8|2,0:1|0:0|0:0,0:0:0:0:
227,45,85821,6,0,L|135:54,1,72.5,0|0,3:0|0:0,0:0:0:0:
154,52,86071,2,0,P|110:78|56:102,1,108.75,2|0,0:0|3:0,0:0:0:0:
9,215,86487,1,2,0:0:0:0:
49,331,86654,1,0,3:0:0:0:
168,362,86821,1,8,0:1:0:0:
260,281,86987,1,2,0:0:0:0:
370,115,87154,6,0,L|495:106,1,108.75,0|2,3:0|0:1,0:0:0:0:
203,17,87654,1,0,3:0:0:0:
210,129,87821,1,2,0:0:0:0:
104,30,87987,1,0,3:0:0:0:
104,30,88071,1,0,0:0:0:0:
104,30,88154,2,0,L|39:34,2,36.25,8|8|2,0:1|0:0|0:0,0:0:0:0:
186,122,88487,6,0,B|135:136|135:136|71:126,1,108.75,0|2,3:0|0:1,0:0:0:0:
159,293,88987,1,0,3:0:0:0:
159,293,89154,1,2,0:0:0:0:
253,213,89321,1,0,3:0:0:0:
372,240,89487,1,8,0:1:0:0:
458,327,89654,1,2,0:0:0:0:
426,133,89821,2,0,P|361:138|337:147,1,72.5,0|0,3:0|0:0,0:0:0:0:
354,140,90071,2,0,P|334:90|319:28,1,108.75,2|0,0:0|3:0,0:0:0:0:
199,55,90487,1,2,0:0:0:0:
85,36,90654,1,0,3:0:0:0:
85,36,90737,1,0,0:0:0:0:
85,36,90821,2,0,L|84:-7,2,36.25,8|8|2,0:1|0:0|0:0,0:0:0:0:
130,150,91154,6,0,L|142:253,1,72.5,0|0,3:0|0:0,0:0:0:0:
138,222,91404,2,0,L|127:352,1,108.75,2|0,0:0|3:0,0:0:0:0:
247,363,91821,1,2,0:0:0:0:
367,340,91987,1,0,3:0:0:0:
451,250,92154,1,8,0:1:0:0:
458,126,92321,1,2,0:0:0:0:
314,22,92487,2,0,B|261:13|261:13|198:23,2,108.75,0|2|0,3:0|3:2|3:0,0:0:0:0:
363,134,93154,1,2,0:2:0:0:
239,123,93321,1,0,3:0:0:0:
351,263,93487,1,10,0:1:0:0:
227,252,93654,1,0,0:0:0:0:
227,252,93737,1,8,0:0:0:0:
227,252,93821,6,0,P|150:236|73:243,1,145,6|10,3:2|0:1,0:0:0:0:
10,141,94321,1,0,3:0:0:0:
124,96,94487,2,0,L|220:87,1,72.5,2|0,0:2|3:0,0:0:0:0:
322,112,94821,1,10,0:1:0:0:
322,112,95154,2,0,P|327:72|331:18,2,72.5,2|2|10,3:1|0:0|0:1,0:0:0:0:
266,222,95654,2,0,P|289:298|332:363,1,145,2|0,3:0|3:0,0:0:0:0:
465,302,96154,2,0,P|436:286|363:260,1,108.75,8|2,0:1|0:0,0:0:0:0:
365,261,96487,6,0,L|275:277,1,72.5,2|0,3:1|0:0,0:0:0:0:
183,346,96821,2,0,P|90:333|27:314,1,145,8|2,0:1|0:1,0:0:0:0:
15,198,97321,1,0,3:0:0:0:
121,136,97487,1,8,0:1:0:0:
121,136,97821,2,0,P|112:96|94:39,1,72.5,2|0,3:1|0:0,0:0:0:0:
222,175,98154,1,10,0:1:0:0:
117,240,98321,2,0,P|110:306|107:384,1,145,2|0,3:0|3:0,0:0:0:0:
228,359,98821,2,0,P|271:331|331:343,1,108.75,8|2,0:1|0:0,0:0:0:0:
325,339,99154,6,0,L|431:354,1,72.5,2|0,3:2|0:0,0:0:0:0:
488,266,99487,2,0,P|477:218|470:113,1,145,10|2,0:1|0:2,0:0:0:0:
394,24,99987,1,0,3:0:0:0:
304,108,100154,1,10,0:1:0:0:
304,108,100487,2,0,P|259:106|199:94,1,72.5,2|2,3:1|0:0,0:0:0:0:
125,38,100821,1,10,0:1:0:0:
245,1,100987,2,0,L|255:158,1,145,2|0,3:0|3:0,0:0:0:0:
164,230,101487,1,8,0:1:0:0:
163,230,101821,6,0,L|76:223,1,72.5,2|0,3:1|0:0,0:0:0:0:
297,139,102154,2,0,L|225:145,1,72.5,10|0,0:1|0:0,0:0:0:0:
229,342,102487,1,2,0:1:0:0:
229,342,102821,2,0,P|284:362|311:370,1,72.5,8|0,0:1|0:0,0:0:0:0:
479,279,103154,2,0,P|429:263|401:257,1,72.5,2|0,3:1|0:0,0:0:0:0:
286,266,103487,1,10,0:1:0:0:
378,347,103654,2,0,P|402:319|376:203,1,145,2|0,3:0|3:0,0:0:0:0:
327,112,104154,2,0,L|337:57,2,36.25,10|0|0,0:1|0:0|0:0,0:0:0:0:
213,161,104487,6,0,P|185:141|142:104,2,72.5,6|0|8,0:0|0:0|0:1,0:0:0:0:
301,280,104987,1,0,3:0:0:0:
178,264,105154,2,0,B|127:246|127:246|16:269,1,145,2|8,0:0|0:1,0:0:0:0:
258,375,105821,6,0,P|329:374|328:286,1,145,2|8,3:2|0:1,0:0:0:0:
279,208,106321,1,0,0:0:0:0:
340,101,106487,2,0,P|380:107|428:117,1,72.5,2|0,0:0|3:0,0:0:0:0:
495,204,106821,2,0,L|510:261,2,36.25,8|0|2,0:1|0:0|3:0,0:0:0:0:
390,48,107154,6,0,P|379:114|359:222,1,145,2|8,3:2|0:1,0:0:0:0:
394,299,107654,1,0,3:0:0:0:
292,228,107821,2,0,P|259:219|221:218,1,72.5,2|0,0:1|3:0,0:0:0:0:
107,267,108154,1,8,0:1:0:0:
107,267,108487,6,0,P|93:195|82:124,1,145,2|8,3:1|0:1,0:0:0:0:
149,20,108987,1,0,3:0:0:0:
269,44,109154,2,0,L|266:122,1,72.5,2|0,0:1|3:0,0:0:0:0:
258,267,109487,1,4,1:2:0:0:
258,267,109821,5,2,3:1:0:0:
436,189,109987,1,8,0:1:0:0:
436,189,110321,1,0,3:0:0:0:
330,125,110487,1,8,0:1:0:0:
224,189,110654,1,0,3:0:0:0:
105,154,110821,1,0,0:0:0:0:
12,234,110987,1,8,0:1:0:0:
0,90,111154,5,2,3:2:0:0:
106,154,111321,1,0,0:0:0:0:
212,90,111487,2,0,L|196:0,1,72.5,2|0,0:0|0:0,0:0:0:0:
424,45,111821,1,2,0:0:0:0:
331,125,111987,1,0,0:0:0:0:
212,90,112154,2,0,L|224:161,1,72.5,2|0,0:0|0:0,0:0:0:0:
297,275,112487,6,0,P|369:299|446:294,1,119.625003650665,6|0,3:1|0:0,0:0:0:0:
412,299,112821,1,8,0:1:0:0:
372,182,112987,2,0,B|354:139|354:139|377:2,1,159.500004867554,2|2,0:1|3:2,0:0:0:0:
242,65,113487,2,0,B|256:155,1,79.7500024337769,8|0,0:1|0:0,0:0:0:0:
172,249,113821,5,2,3:1:0:0:
93,193,113987,1,0,0:0:0:0:
224,161,114154,1,8,0:1:0:0:
246,314,114321,1,2,3:1:0:0:
246,314,114654,1,0,3:0:0:0:
408,297,114821,1,8,0:1:0:0:
408,297,115154,6,0,B|397:225|397:225|419:125,1,159.500004867554,2|8,3:1|0:1,0:0:0:0:
280,155,115654,2,0,B|290:70|290:70|271:-16,1,159.500004867554,2|0,3:1|3:0,0:0:0:0:
415,140,116154,2,0,P|467:145|516:144,1,79.7500024337769,8|2,0:1|0:0,0:0:0:0:
374,48,116487,5,2,3:1:0:0:
280,155,116654,2,0,P|296:214|311:243,1,79.7500024337769,0|8,0:0|0:1,0:0:0:0:
475,372,116987,2,0,P|435:327|334:338,1,159.500004867554,2|0,0:1|3:0,0:0:0:0:
227,371,117487,2,0,L|143:379,1,79.7500024337769,10|0,0:1|0:0,0:0:0:0:
47,294,117821,5,6,0:0:0:0:
47,294,117987,1,0,0:0:0:0:
11,180,118154,1,8,0:1:0:0:
11,180,118321,1,0,0:0:0:0:
55,64,118487,2,0,B|165:69,1,79.7500024337769,2|0,3:2|0:0,0:0:0:0:
280,19,118821,2,0,P|313:26|374:45,1,79.7500024337769,8|0,0:1|0:0,0:0:0:0:
323,214,119154,2,0,P|356:207|419:188,1,79.7500024337769,2|0,3:1|0:0,0:0:0:0:
204,144,119487,1,8,0:1:0:0:
204,144,119821,2,0,P|168:184|150:216,1,79.7500024337769,2|0,3:2|0:0,0:0:0:0:
262,352,120154,1,8,0:1:0:0:
262,352,120487,6,0,L|366:347,1,79.7500024337769,6|0,3:2|0:0,0:0:0:0:
399,220,120821,2,0,L|501:224,1,79.7500024337769,10|0,0:1|0:0,0:0:0:0:
342,99,121154,2,0,P|302:112|259:134,1,79.7500024337769,2|0,3:2|0:0,0:0:0:0:
157,199,121487,1,10,0:1:0:0:
157,199,121821,6,0,L|60:205,1,79.7500024337769,6|0,3:2|0:0,0:0:0:0:
277,236,122154,2,0,P|292:285|299:325,1,79.7500024337769,10|0,0:1|0:0,0:0:0:0:
139,291,122487,2,0,P|124:250|121:164,1,119.625003650665,2|0,3:2|0:0,0:0:0:0:
119,174,122821,1,10,0:1:0:0:
191,66,122987,5,8,0:2:0:0:
191,66,123071,1,8,0:2:0:0:
191,66,123154,2,0,L|323:49,1,119.625003650665,6|0,3:0|0:0,0:0:0:0:
309,50,123487,1,8,0:1:0:0:
333,183,123654,2,0,P|358:145|454:205,1,159.500004867554,8|0,0:3|3:0,0:0:0:0:
504,299,124154,2,0,P|500:320|493:347,2,39.8750012168885,8|0|2,0:3|0:0|0:0,0:0:0:0:
368,298,124487,6,0,P|323:300|272:303,1,79.7500024337769,6|2,3:0|0:2,0:0:0:0:
256,352,124737,2,0,L|200:344,1,39.8750012168885,0|8,0:0|0:1,0:0:0:0:
136,245,124987,2,0,P|111:207|15:267,1,159.500004867554,8|0,0:3|3:0,0:0:0:0:
29,376,125487,2,0,L|68:370,2,39.8750012168885,8|0|2,0:3|0:0|0:0,0:0:0:0:
52,160,125821,6,0,P|89:187|138:249,1,119.625003650665,6|0,3:0|0:0,0:0:0:0:
135,244,126154,1,8,0:1:0:0:
263,201,126321,2,0,L|364:197,2,79.7500024337769,8|2|0,0:3|0:0|3:0,0:0:0:0:
168,103,126821,1,8,0:3:0:0:
168,103,126904,1,0,0:0:0:0:
168,103,126987,1,2,0:3:0:0:
291,47,127154,6,0,L|308:-3,2,39.8750012168885,4|0|2,3:0|0:0|0:3,0:0:0:0:
426,100,127487,1,8,0:1:0:0:
426,100,127571,1,0,0:0:0:0:
426,100,127654,1,10,0:3:0:0:
476,226,127821,2,0,L|524:204,2,39.8750012168885,4|0|2,0:1|0:0|0:3,0:0:0:0:
487,369,128154,1,8,0:3:0:0:
487,369,128237,1,0,0:0:0:0:
487,369,128321,1,2,0:3:0:0:
374,292,128487,6,0,L|287:287,1,79.7500024337769,4|2,3:1|0:3,0:0:0:0:
162,252,128821,2,0,L|94:237,2,39.8750012168885,8|0|10,0:1|0:0|0:3,0:0:0:0:
268,336,129154,2,0,L|273:249,1,79.7500024337769,2|2,0:2|3:0,0:0:0:0:
308,124,129487,1,8,0:3:0:0:
308,124,129571,1,0,0:0:0:0:
308,124,129654,1,2,0:3:0:0:
203,37,129821,6,0,P|166:40|107:49,1,79.7500024337769,4|2,3:0|0:3,0:0:0:0:
85,176,130154,2,0,L|13:170,2,39.8750012168885,8|0|10,0:1|0:0|0:3,0:0:0:0:
193,247,130487,2,0,P|232:252|272:255,1,79.7500024337769,2|2,0:0|3:0,0:0:0:0:
382,173,130821,1,8,0:3:0:0:
382,173,130904,1,0,0:0:0:0:
382,173,130987,1,2,0:3:0:0:
463,281,131154,6,0,L|475:336,2,39.8750012168885,4|0|2,3:0|0:0|0:3,0:0:0:0:
463,103,131487,2,0,L|475:48,2,39.8750012168885,8|0|10,0:1|0:0|0:3,0:0:0:0:
357,257,131821,1,2,0:0:0:0:
357,257,131904,1,0,0:0:0:0:
357,257,131987,1,2,3:0:0:0:
357,127,132154,1,8,0:3:0:0:
357,127,132237,1,0,0:0:0:0:
357,127,132321,1,2,0:3:0:0:
230,195,132487,6,0,L|182:190,2,39.8750012168885,4|0|2,3:1|0:0|0:3,0:0:0:0:
247,330,132821,1,8,0:1:0:0:
115,355,132987,1,10,0:3:0:0:
115,355,133071,1,0,0:0:0:0:
115,355,133154,2,0,P|105:319|96:270,1,79.7500024337769,2|2,0:0|3:0,0:0:0:0:
54,148,133487,1,8,0:3:0:0:
127,33,133654,1,8,0:2:0:0:
127,33,133737,1,8,0:2:0:0:
127,33,133821,5,6,3:1:0:0:
355,179,134154,2,0,P|374:145|392:87,1,79.7500024337769,8|2,0:1|0:1,0:0:0:0:
252,122,134487,2,0,P|203:125|154:141,1,79.7500024337769,2|0,3:2|0:0,0:0:0:0:
173,132,134737,1,0,0:0:0:0:
173,132,134821,2,0,L|192:228,1,79.7500024337769,10|0,0:1|0:0,0:0:0:0:
116,325,135154,6,0,L|68:321,2,39.8750012168885,2|0|0,3:1|0:0|0:0,0:0:0:0:
247,360,135487,2,0,L|295:356,2,39.8750012168885,8|0|2,0:1|0:0|0:1,0:0:0:0:
218,226,135821,1,0,3:0:0:0:
218,226,135904,1,0,0:0:0:0:
218,226,135987,1,2,0:0:0:0:
353,229,136154,2,0,L|366:290,2,39.8750012168885,10|8|0,0:1|0:0|0:0,0:0:0:0:
346,112,136487,6,0,L|359:56,2,39.8750012168885,6|0|0,3:1|0:0|0:0,0:0:0:0:
176,102,136821,2,0,L|113:88,2,39.8750012168885,8|0|2,0:1|0:0|0:1,0:0:0:0:
166,272,137154,2,0,L|152:335,2,39.8750012168885,0|0|0,3:0|0:0|0:0,0:0:0:0:
336,282,137487,1,10,0:1:0:0:
336,282,137571,1,0,0:0:0:0:
336,282,137654,2,0,P|376:276|441:270,1,79.7500024337769,0|2,0:0|3:1,0:0:0:0:
461,144,137987,6,0,L|472:99,2,39.8750012168885,2|0|8,0:0|0:0|0:1,0:0:0:0:
336,87,138321,2,0,L|326:48,2,39.8750012168885,2|0|0,0:1|0:0|3:0,0:0:0:0:
225,165,138654,1,8,3:1:0:0:
225,165,138737,1,8,0:1:0:0:
225,165,138821,2,0,L|194:127,1,39.8750012168885,2|8,3:1|0:0,0:0:0:0:
162,102,138987,2,0,L|110:91,2,39.8750012168885,8|8|6,0:1|0:1|0:0,0:0:0:0:
256,192,139283,12,0,142788,0:0:0:0:
30,82,144345,5,0,0:0:0:0:
30,82,144487,2,0,B|43:185,1,79.7500024337769,6|0,3:1|0:0,0:0:0:0:
44,296,144820,1,8,0:1:0:0:
175,263,144987,2,0,B|268:296|246:259|343:300,1,159.500004867554,2|2,0:1|0:2,0:0:0:0:
462,265,145487,2,0,P|480:192|482:162,1,79.7500024337769,8|0,0:1|0:0,0:0:0:0:
328,29,145820,5,2,3:1:0:0:
318,164,145987,1,0,0:0:0:0:
447,175,146153,1,8,0:1:0:0:
451,38,146320,1,2,3:1:0:0:
451,38,146487,2,0,P|411:47|358:63,1,79.7500024337769,0|0,3:0|0:0,0:0:0:0:
192,119,146820,2,0,L|269:138,1,79.7500024337769,8|2,0:1|0:0,0:0:0:0:
476,238,147153,6,0,P|439:248|380:262,1,79.7500024337769,2|0,3:1|0:0,0:0:0:0:
273,248,147487,1,8,0:1:0:0:
161,299,147653,2,0,B|112:276|112:276|56:178,1,159.500004867554,2|2,0:1|0:2,0:0:0:0:
76,49,148153,2,0,P|136:37|169:35,1,79.7500024337769,8|2,0:1|0:0,0:0:0:0:
355,126,148487,5,2,3:1:0:0:
225,94,148653,1,0,0:0:0:0:
326,11,148820,1,8,0:1:0:0:
279,180,148987,2,0,B|267:258|267:258|297:363,1,159.500004867554,2|0,0:1|0:0,0:0:0:0:
439,158,149487,2,0,L|456:258,1,79.7500024337769,10|0,0:1|0:0,0:0:0:0:
419,371,149820,5,6,0:0:0:0:
419,371,149987,1,0,0:0:0:0:
289,352,150153,1,8,0:1:0:0:
289,352,150320,1,0,0:0:0:0:
155,377,150487,2,0,B|111:377|111:377|70:370,1,79.7500024337769,2|0,3:2|0:0,0:0:0:0:
208,239,150820,2,0,B|252:239|252:239|293:246,1,79.7500024337769,8|0,0:1|0:0,0:0:0:0:
61,244,151153,2,0,P|32:197|16:162,1,79.7500024337769,2|0,3:1|0:0,0:0:0:0:
98,39,151487,1,8,0:1:0:0:
98,39,151820,2,0,P|150:56|185:72,1,79.7500024337769,2|0,3:2|0:0,0:0:0:0:
252,176,152153,1,8,0:1:0:0:
252,176,152487,6,0,L|350:173,1,79.7500024337769,6|0,3:2|0:0,0:0:0:0:
247,318,152820,2,0,P|180:316|141:308,1,79.7500024337769,10|0,0:1|0:0,0:0:0:0:
384,289,153153,2,0,P|449:311|484:331,1,79.7500024337769,2|0,3:2|0:0,0:0:0:0:
308,259,153487,1,10,0:1:0:0:
308,259,153820,2,0,L|296:170,1,79.7500024337769,6|2,3:2|0:3,0:0:0:0:
177,79,154153,2,0,P|181:38|187:-10,1,79.7500024337769,10|2,0:1|0:3,0:0:0:0:
291,61,154487,2,0,P|302:117|289:206,1,119.625003650665,2|0,3:2|0:0,0:0:0:0:
297,178,154820,2,0,L|190:175,1,79.7500024337769,10|2,0:1|0:3,0:0:0:0:
87,136,155153,6,0,P|23:151|2:155,2,79.7500024337769,6|8|8,3:2|0:2|0:1,0:0:0:0:
217,176,155653,2,0,B|222:244|222:244|203:339,1,159.500004867554,2|8,0:1|0:1,0:0:0:0:
58,280,156153,2,0,P|63:319|70:359,1,79.7500024337769,2|0,3:1|0:0,0:0:0:0:
193,258,156487,5,4,3:1:0:0:
193,258,156653,2,0,B|289:242|267:275|367:256,1,159.500004867554,2|2,0:1|0:0,0:0:0:0:
199,118,157153,2,0,P|241:126|362:172,1,159.500004867554,2|8,3:1|0:1,0:0:0:0:
479,225,157653,6,0,P|473:178|460:116,1,79.7500024337769,2|4,0:1|3:1,0:0:0:0:
404,32,157987,1,0,0:0:0:0:
404,32,158153,2,0,P|360:67|349:164,1,159.500004867554,10|0,0:1|3:0,0:0:0:0:
404,297,158653,2,0,P|446:308|498:320,2,79.7500024337769,2|8|0,0:1|0:1|0:0,0:0:0:0:
268,287,159153,6,0,P|224:291|158:302,2,79.7500024337769,6|8|8,3:1|0:0|0:1,0:0:0:0:
404,297,159653,2,0,P|404:219|350:165,1,159.500004867554,2|0,0:1|0:0,0:0:0:0:
216,142,160153,1,10,3:1:0:0:
216,142,160486,5,4,3:1:0:0:
92,85,160653,2,0,P|45:79|-12:78,1,79.7500024337769,2|8,0:1|0:1,0:0:0:0:
0,228,160986,1,0,0:0:0:0:
135,219,161153,2,0,B|240:203|201:234|315:211,1,159.500004867554,2|8,3:1|0:1,0:0:0:0:
236,338,161653,6,0,L|158:355,1,79.7500024337769,2|0,0:1|3:0,0:0:0:0:
135,219,161986,1,0,0:0:0:0:
293,215,162153,2,0,B|316:134|316:134|308:33,1,159.500004867554,10|0,0:1|3:0,0:0:0:0:
436,8,162653,2,0,L|449:104,1,79.7500024337769,2|8,0:1|0:1,0:0:0:0:
407,217,162986,1,0,0:0:0:0:
276,161,163153,6,0,P|232:144|101:138,1,159.500004867554,2|8,3:1|0:1,0:0:0:0:
22,229,163653,2,0,P|65:248|125:255,1,79.7500024337769,2|0,0:1|3:0,0:0:0:0:
199,164,163986,1,0,0:0:0:0:
289,265,164153,2,0,P|327:256|363:239,1,79.7500024337769,10|0,0:1|0:0,0:0:0:0:
469,153,164486,6,0,L|484:254,1,79.7500024337769,6|2,0:0|0:0,0:0:0:0:
480,231,164736,2,0,L|466:381,1,119.625003650665,0|2,0:0|0:0,0:0:0:0:
323,180,165153,6,2,L|346:311,1,119.625003650665,2|0,0:0|3:0,0:0:0:0:
344,298,165486,1,2,0:0:0:0:
202,224,165653,6,2,L|191:387,1,159.500004867554
84,165,166153,6,2,L|90:260,1,79.7500024337769,2|4,0:0|0:0,0:0:0:0:
230,108,166486,5,2,0:0:0:0:
36,32,166653,2,2,L|59:163,1,119.625003650665,0|0,0:0|0:0,0:0:0:0:
241,137,167078,6,0,L|226:238,1,79.7500024337769,2|2,0:0|0:0,0:0:0:0:
226,273,167436,2,2,L|245:350,1,79.7500024337769
352,214,167872,1,2,0:0:0:0:
127,253,168039,1,12,0:0:0:0:
