osu file format v14

[General]
AudioFilename: audio.mp3
AudioLeadIn: 0
PreviewTime: 488
Countdown: 0
SampleSet: Soft
StackLeniency: 0.3
Mode: 0
LetterboxInBreaks: 1
EpilepsyWarning: 1
WidescreenStoryboard: 1

[Editor]
Bookmarks: 21822,32488,51155,61822,72488,83155,93822,112488,123155,127154,129821,155154
DistanceSpacing: 1.7
BeatDivisor: 4
GridSize: 32
TimelineZoom: 1.8

[Metadata]
Title:Because enyhow die (Kari)
TitleUnicode:Because enyhow die (仮)
Artist:siinamota
ArtistUnicode:椎名もた
Creator:Renumi
Version:Hard
Source:
Tags:beren vocaloid anyhow 故に yue_ni therefor. therefore hatsune_miku j-pop japanese electronic shiinamota powapowa ぽわぽわ
BeatmapID:3636676
BeatmapSetID:1775997

[Difficulty]
HPDrainRate:6
CircleSize:3.4
OverallDifficulty:6.4
ApproachRate:7.5
SliderMultiplier:1.2
SliderTickRate:1

[Events]
//Background and Video events
0,0,"because.jpg",0,0
//Break Periods
2,62021,69821
//Storyboard Layer 0 (Background)
//Storyboard Layer 1 (Fail)
//Storyboard Layer 2 (Pass)
//Storyboard Layer 3 (Foreground)
//Storyboard Layer 4 (Overlay)
//Storyboard Sound Samples

[TimingPoints]
488,333.333333333333,4,2,1,75,1,0
11154,-100,4,2,1,75,0,0
11487,-100,4,2,1,70,0,0
21821,-100,4,2,1,75,0,0
32487,-100,4,2,1,75,0,0
32821,-100,4,2,1,70,0,0
43154,-100,4,2,1,75,0,0
43487,-100,4,2,1,65,0,0
49821,-100,4,2,1,75,0,0
51154,-100,4,2,1,80,0,1
51487,-100,4,2,1,80,0,0
61487,-100,4,2,1,80,0,0
61821,-100,4,2,1,80,0,0
71154,-100,4,2,1,65,0,0
72154,-100,4,2,1,75,0,0
72487,-100,4,2,1,70,0,0
83154,-100,4,2,1,75,0,0
112487,-100,4,2,1,80,0,1
112821,-100,4,2,1,80,0,0
122821,-100,4,2,1,83,0,0
123154,-100,4,2,1,85,0,1
127154,-100,4,2,1,88,0,1
134154,-100,4,2,1,85,0,1
139154,517.241379310345,4,2,1,85,1,0
141222,500,4,2,1,40,1,0
142222,566.251415628539,4,2,1,40,1,0
144487,333.333333333333,4,2,1,80,1,1
164487,-100,4,1,1,85,0,1
166653,-107.52688172043,4,1,1,85,0,1
166820,400,4,1,1,90,1,1
166920,317.460317460316,4,1,1,90,1,1
167078,458.015267175573,4,1,1,90,1,1
167078,-104.166666666667,4,1,1,90,0,1
167307,517.241379310345,4,1,1,90,1,1
167436,540.540540540541,4,1,1,90,1,1
167706,333.333333333333,4,1,1,90,1,1
168372,288.461538461538,4,1,1,30,1,1
169262,-100,4,1,1,30,0,0

[Colours]
Combo1 : 255,88,100
Combo2 : 173,255,95
Combo3 : 255,94,55
Combo4 : 253,226,134

[HitObjects]
89,172,488,6,0,B|-22:169,2,90,4|2|0,3:1|0:0|0:0,0:0:0:0:
176,224,1154,2,0,L|254:217,1,60,2|0,0:0|3:0,0:0:0:0:
326,171,1487,2,0,L|404:178,1,60,8|2,0:1|0:0,0:0:0:0:
475,226,1821,2,0,P|496:273|506:323,2,90,0|2|0,3:0|0:0|0:0,0:0:0:0:
392,166,2487,1,2,0:0:0:0:
431,71,2654,2,0,L|479:62,2,30,0|8|8,3:0|0:0|0:1,0:0:0:0:
336,32,2987,1,2,0:0:0:0:
288,124,3154,6,0,P|243:119|199:109,2,90,0|2|0,3:0|0:0|0:0,0:0:0:0:
392,166,3821,2,0,L|381:238,1,60,2|0,0:0|3:0,0:0:0:0:
321,307,4154,2,0,L|330:379,1,60,8|2,0:1|0:0,0:0:0:0:
229,341,4487,6,0,P|184:342|139:347,1,90,0|2,3:0|0:1,0:0:0:0:
43,227,4987,1,0,0:0:0:0:
27,125,5154,1,2,0:0:0:0:
93,47,5321,2,0,L|90:2,2,30,0|8|8,3:0|0:0|0:1,0:0:0:0:
172,113,5654,1,2,0:0:0:0:
183,214,5821,6,0,P|227:218|272:219,1,90,0|2,3:0|0:1,0:0:0:0:
388,118,6321,1,0,0:0:0:0:
479,161,6487,2,0,L|493:226,1,60,2|0,0:0|3:0,0:0:0:0:
491,322,6821,2,0,L|472:389,1,60,8|2,0:1|0:0,0:0:0:0:
388,303,7154,2,0,L|388:201,2,90,0|2|0,3:0|0:0|0:0,0:0:0:0:
320,379,7821,1,2,0:0:0:0:
227,336,7987,2,0,L|230:297,2,30,0|8|8,3:0|0:0|0:1,0:0:0:0:
129,367,8321,1,2,0:0:0:0:
88,273,8487,6,0,L|-26:269,2,90,0|2|0,3:0|0:0|0:0,0:0:0:0:
174,217,9154,2,0,P|181:185|185:151,1,60,2|0,0:0|3:0,0:0:0:0:
225,64,9487,2,0,P|283:51|343:48,1,120,8|0,0:1|3:0,0:0:0:0:
445,43,9987,2,0,L|438:5,2,30,0|2|8,3:0|3:2|0:1,0:0:0:0:
459,144,10321,1,0,0:0:0:0:
364,181,10487,2,0,L|347:254,1,60,2|0,3:0|3:0,0:0:0:0:
263,294,10821,2,0,L|267:339,2,30,8|0|2,0:1|0:0|0:0,0:0:0:0:
176,240,11154,6,0,P|145:239|34:233,1,120,6|0,3:1|0:0,0:0:0:0:
3,36,11821,2,0,P|34:37|145:43,1,120,2|2,1:0|0:2,0:0:0:0:
219,93,12321,1,0,3:0:0:0:
219,93,12487,2,0,P|280:91|336:60,1,120,2|2,3:1|0:1,0:0:0:0:
426,26,12987,2,0,L|479:14,2,30,0|0|0,3:0|3:0|1:0,0:0:0:0:
415,128,13321,1,0,3:0:0:0:
219,93,13654,1,8,0:0:0:0:
219,93,13821,6,0,B|241:221,1,120,2|2,3:1|3:2,0:0:0:0:
239,211,14487,2,0,L|159:228,1,60,2|0,1:0|0:0,0:0:0:0:
311,274,14821,2,0,L|371:281,1,60,2|0,0:0|3:0,0:0:0:0:
453,340,15154,2,0,P|483:291|490:220,1,120,2|2,3:1|0:1,0:0:0:0:
450,142,15654,2,0,L|436:100,2,30,0|0|0,3:0|3:0|1:0,0:0:0:0:
356,171,15987,1,0,3:0:0:0:
178,64,16321,1,8,0:0:0:0:
178,64,16487,6,0,P|111:51|40:26,1,120,2|2,3:1|0:0,0:0:0:0:
25,236,17154,2,0,B|35:357,1,120,2|2,1:0|0:0,0:0:0:0:
128,302,17654,1,0,3:0:0:0:
128,302,17821,2,0,L|134:378,2,60,2|0|2,3:1|0:0|0:0,0:0:0:0:
177,212,18321,2,0,L|159:163,2,30,0|0|0,3:0|3:0|1:0,0:0:0:0:
285,238,18654,1,0,3:0:0:0:
326,39,18987,1,8,0:0:0:0:
326,39,19154,6,0,P|386:48|449:77,1,120,2|2,3:1|3:2,0:0:0:0:
472,293,19821,2,0,L|408:305,1,60,2|0,1:0|0:0,0:0:0:0:
338,369,20154,2,0,P|323:346|308:317,1,60,2|0,0:0|3:0,0:0:0:0:
209,289,20487,2,0,P|241:237|269:167,1,120,2|2,3:1|0:0,0:0:0:0:
277,81,20987,1,2,3:2:0:0:
277,81,21154,2,0,L|151:90,1,120,2|2,1:0|0:3,0:0:0:0:
55,88,21654,1,2,0:0:0:0:
9,178,21821,6,0,L|29:285,2,90,6|2|0,3:2|0:0|0:0,0:0:0:0:
106,158,22487,1,2,0:0:0:0:
196,205,22654,1,0,3:0:0:0:
210,306,22821,2,0,P|263:313|290:315,1,60,8|2,0:1|0:0,0:0:0:0:
371,323,23154,2,0,L|480:312,2,90,0|2|0,3:0|0:0|0:0,0:0:0:0:
328,232,23821,1,2,0:0:0:0:
413,176,23987,2,0,L|463:182,2,30,0|8|8,3:0|0:0|0:1,0:0:0:0:
339,103,24321,1,2,0:0:0:0:
238,86,24487,6,0,P|223:36|222:-15,2,90,0|2|0,3:0|0:0|0:0,0:0:0:0:
242,188,25154,1,2,0:0:0:0:
209,284,25321,1,0,3:0:0:0:
108,269,25487,2,0,L|23:263,1,60,8|2,0:1|0:0,0:0:0:0:
5,168,25821,6,0,P|53:169|115:177,1,90,0|2,3:0|0:1,0:0:0:0:
209,284,26321,1,0,0:0:0:0:
290,344,26487,1,2,0:0:0:0:
391,332,26654,2,0,L|408:385,2,30,0|0|8,3:0|0:0|0:1,0:0:0:0:
446,246,26987,1,2,0:0:0:0:
417,147,27154,6,0,L|424:57,1,90,0|2,3:0|0:1,0:0:0:0:
275,20,27654,1,0,0:0:0:0:
201,90,27821,1,2,0:0:0:0:
108,46,27987,1,0,3:0:0:0:
18,93,28154,2,0,P|1:139|-2:172,1,60,8|2,0:1|0:0,0:0:0:0:
1,251,28487,2,0,P|26:318|44:349,2,90,0|2|0,3:0|0:0|0:0,0:0:0:0:
89,197,29154,1,2,0:0:0:0:
179,243,29321,2,0,L|176:291,2,30,0|8|8,3:0|0:0|0:1,0:0:0:0:
246,165,29654,1,2,0:0:0:0:
213,67,29821,6,0,P|273:52|309:51,2,90,0|2|0,3:0|0:0|0:0,0:0:0:0:
146,144,30487,1,2,0:0:0:0:
189,236,30654,1,0,3:0:0:0:
168,336,30821,2,0,P|208:346|303:353,1,120,8|0,0:1|3:0,0:0:0:0:
380,313,31321,2,0,L|432:322,2,30,0|2|8,3:0|3:2|0:1,0:0:0:0:
302,245,31654,1,0,0:0:0:0:
269,147,31821,2,0,P|321:125|348:120,1,60,2|0,3:0|3:0,0:0:0:0:
420,81,32154,2,0,L|449:75,2,30,8|0|0,0:1|0:0|0:0,0:0:0:0:
344,150,32487,6,2,B|327:19,1,120,6|2,3:1|0:0,0:0:0:0:
124,33,33154,2,2,P|64:18|4:57,1,120,2|2,1:0|0:2,0:0:0:0:
7,149,33654,1,0,3:0:0:0:
7,149,33821,2,2,L|17:230,2,60,2|0|2,3:1|0:0|0:1,0:0:0:0:
92,92,34321,2,0,L|96:42,2,30,0|0|2,3:0|3:0|1:3,0:0:0:0:
174,152,34654,1,0,3:0:0:0:
206,249,34821,2,0,P|239:253|287:255,1,60,2|2,0:2|1:3,0:0:0:0:
339,188,35154,6,2,B|409:174|409:174|461:182,1,120,2|2,3:1|3:2,0:0:0:0:
350,355,35821,2,2,L|358:387,2,30,2|0|0,1:0|0:0|0:0,0:0:0:0:
269,292,36154,2,0,L|185:301,1,60,2|0,0:0|3:0,0:0:0:0:
117,342,36487,2,2,P|112:282|116:222,1,120,2|2,3:1|0:1,0:0:0:0:
111,120,36987,2,0,L|54:117,2,30,0|0|2,3:0|3:0|1:3,0:0:0:0:
212,101,37321,1,2,3:0:0:0:
253,193,37487,2,0,L|335:187,1,60,2|8,0:2|0:0,0:0:0:0:
379,266,37821,6,2,L|505:246,1,120,6|2,3:1|0:0,0:0:0:0:
386,76,38487,2,2,L|244:53,1,120,2|2,1:0|0:0,0:0:0:0:
174,27,38987,1,0,3:0:0:0:
174,27,39154,2,0,L|94:37,1,60,2|0,3:1|0:0,0:0:0:0:
28,115,39487,1,2,0:1:0:0:
28,115,39654,2,0,L|-23:100,2,30,2|0|2,3:0|3:0|1:3,0:0:0:0:
114,169,39987,1,0,3:0:0:0:
212,143,40154,2,2,P|208:190|204:221,1,60,2|8,0:0|0:0,0:0:0:0:
185,302,40487,6,2,P|236:277|307:273,1,120,2|2,3:1|3:2,0:0:0:0:
482,184,41154,2,0,L|539:193,2,30,2|0|0,1:0|0:0|0:0,0:0:0:0:
415,106,41487,2,0,L|341:111,1,60,2|0,0:0|3:0,0:0:0:0:
248,136,41821,2,0,P|194:161|134:166,1,120,2|2,3:1|0:2,0:0:0:0:
46,217,42321,2,0,L|16:214,2,30,2|0|0,3:0|3:0|1:0,0:0:0:0:
63,317,42654,1,2,3:0:0:0:
149,372,42821,2,0,P|184:367|220:358,1,60,2|0,0:2|0:0,0:0:0:0:
299,322,43154,6,0,P|334:323|430:325,1,120,6|0,0:0|0:0,0:0:0:0:
419,325,43821,2,0,P|420:290|422:194,1,120,2|0,0:0|0:0,0:0:0:0:
421,205,44487,2,0,P|386:204|290:202,1,120,2|0,0:0|0:0,0:0:0:0:
301,202,45154,2,0,P|300:237|298:333,1,120,2|0,0:0|0:0,0:0:0:0:
213,322,45654,1,2,0:0:0:0:
213,322,45821,6,0,P|178:323|82:325,1,120,2|0,0:0|0:0,0:0:0:0:
93,325,46487,2,0,P|92:290|90:194,1,120,2|0,0:0|0:0,0:0:0:0:
91,205,47154,2,0,P|126:204|222:202,1,120,2|0,0:0|0:0,0:0:0:0:
211,202,47821,2,0,P|212:237|214:333,1,120,2|0,0:0|0:0,0:0:0:0:
10,324,48487,1,6,0:0:0:0:
206,45,49821,6,0,P|255:38|278:39,1,60,2|0,0:0|0:0,0:0:0:0:
318,126,50154,2,0,P|299:171|287:191,1,60,2|0,0:0|0:0,0:0:0:0:
190,181,50487,2,0,P|159:142|148:121,2,60,2|0|2,0:0|0:0|0:0,0:0:0:0:
190,181,51154,6,0,P|179:236|159:302,1,120,6|8,3:1|0:1,0:0:0:0:
248,348,51654,2,0,P|285:316|379:317,1,120,2|2,0:1|3:2,0:0:0:0:
448,345,52154,2,0,L|522:335,1,60,10|0,0:1|0:0,0:0:0:0:
431,204,52487,2,0,P|391:209|364:218,1,60,2|0,3:1|0:0,0:0:0:0:
280,254,52821,1,8,0:1:0:0:
248,348,52987,2,0,P|187:330|115:294,1,120,2|0,3:1|3:0,0:0:0:0:
59,238,53487,1,8,0:1:0:0:
171,67,53821,6,0,B|229:49|229:49|296:59,2,120,2|10|2,3:1|0:1|0:1,0:0:0:0:
75,102,54654,2,0,L|0:86,2,60,0|8|2,3:0|0:1|0:0,0:0:0:0:
158,160,55154,2,0,P|167:198|171:234,1,60,2|0,3:1|0:0,0:0:0:0:
227,302,55487,1,8,0:1:0:0:
298,228,55654,2,0,P|350:205|436:206,1,120,2|0,0:1|3:0,0:0:0:0:
497,257,56154,1,10,0:1:0:0:
324,365,56487,6,0,L|245:346,1,60,6|0,0:0|0:0,0:0:0:0:
175,301,56821,2,0,L|116:315,1,60,8|0,0:1|0:0,0:0:0:0:
43,244,57154,2,0,P|14:170|13:110,1,120,2|8,3:2|0:1,0:0:0:0:
73,48,57654,1,0,0:0:0:0:
165,91,57821,2,0,P|194:165|195:225,1,120,2|8,3:1|0:1,0:0:0:0:
367,316,58487,2,0,L|508:321,1,120,2|8,3:2|0:1,0:0:0:0:
510,220,58987,1,0,0:0:0:0:
503,117,59154,6,0,L|425:113,1,60,6|0,3:2|0:0,0:0:0:0:
357,57,59487,2,0,L|272:67,1,60,10|0,0:1|0:0,0:0:0:0:
200,29,59821,2,0,P|143:12|65:-1,1,120,2|10,3:2|0:1,0:0:0:0:
30,88,60321,1,0,0:0:0:0:
76,178,60487,6,0,P|117:172|219:148,1,120,6|10,3:2|0:1,0:0:0:0:
395,185,61154,2,0,L|417:242,1,60,2|0,3:2|0:0,0:0:0:0:
306,278,61487,2,0,L|356:333,1,60,10|0,0:1|0:0,0:0:0:0:
440,365,61821,1,6,0:1:0:0:
363,84,71154,6,0,L|463:94,2,90
261,105,71821,2,0,L|254:165,1,60,0|0,3:0|3:0,0:0:0:0:
183,39,72154,2,0,L|168:-12,2,30,8|8|8,0:1|0:1|0:1,0:0:0:0:
117,117,72487,6,2,P|56:166|26:219,1,120,6|2,3:1|0:0,0:0:0:0:
152,381,73154,2,2,L|287:372,1,120,2|2,1:0|0:2,0:0:0:0:
374,364,73654,1,0,3:0:0:0:
374,364,73821,2,2,P|389:323|397:287,1,60,2|0,3:1|0:0,0:0:0:0:
399,205,74154,2,0,P|338:233|281:280,1,120,2|2,3:1|1:3,0:0:0:0:
128,381,74821,2,0,L|124:306,1,60,2|0,0:2|0:0,0:0:0:0:
58,243,75154,6,2,B|45:207|45:207|57:105,1,120,2|2,3:1|0:2,0:0:0:0:
221,8,75821,2,2,L|360:25,1,120,2|2,1:0|0:0,0:0:0:0:
430,80,76321,1,0,0:0:0:0:
430,80,76487,2,2,P|494:70|513:71,1,60,2|0,3:1|0:0,0:0:0:0:
475,172,76821,2,0,B|456:208|456:208|453:295,2,120,2|2|2,3:1|1:3|0:2,0:0:0:0:
340,22,77821,6,2,P|300:40|246:92,1,120,6|2,3:1|0:0,0:0:0:0:
272,195,78321,1,0,3:0:0:0:
272,195,78487,2,2,L|134:207,1,120,2|2,1:0|0:0,0:0:0:0:
7,64,79154,2,0,L|-4:-17,2,60,2|0|2,3:1|0:0|3:1,0:0:0:0:
30,267,79821,2,0,P|53:316|63:330,1,60,2|8,1:3|0:0,0:0:0:0:
147,366,80154,2,0,P|194:371|226:368,1,60,2|0,0:0|0:0,0:0:0:0:
276,296,80487,6,2,P|346:260|403:262,1,120,2|2,3:1|0:2,0:0:0:0:
474,312,80987,1,0,3:0:0:0:
474,312,81154,2,2,P|497:261|510:182,1,120,2|2,1:0|0:0,0:0:0:0:
391,35,81821,2,0,P|368:86|355:165,1,120,2|2,3:1|3:2,0:0:0:0:
353,250,82321,2,0,L|364:298,2,30,2|8|2,1:0|1:2|3:1,0:0:0:0:
254,222,82654,1,8,3:0:0:0:
155,249,82821,2,0,L|144:297,2,30,8|0|8,0:3|0:0|1:0,0:0:0:0:
88,171,83154,6,0,L|-6:183,2,90,6|2|0,3:2|0:0|3:0,0:0:0:0:
183,132,83821,1,2,0:0:0:0:
261,67,83987,1,0,3:0:0:0:
363,66,84154,2,0,P|398:80|438:103,1,60,8|2,0:1|0:0,0:0:0:0:
483,168,84487,2,0,L|476:272,2,90,0|2|0,3:0|0:0|3:0,0:0:0:0:
399,108,85154,1,2,0:0:0:0:
341,203,85321,2,0,L|347:240,2,30,0|0|8,3:0|0:0|0:1,0:0:0:0:
246,163,85654,1,2,0:0:0:0:
165,98,85821,6,0,L|158:8,2,90,0|2|0,3:0|0:0|3:0,0:0:0:0:
150,199,86487,1,2,0:0:0:0:
47,204,86654,1,0,3:0:0:0:
11,299,86821,2,0,P|11:333|14:373,1,60,8|2,0:1|0:0,0:0:0:0:
110,335,87154,6,0,B|215:333,1,90,0|2,3:0|0:1,0:0:0:0:
351,344,87654,1,0,3:0:0:0:
452,332,87821,1,2,0:0:0:0:
483,235,87987,2,0,L|531:236,2,30,0|0|8,3:0|0:0|0:1,0:0:0:0:
446,138,88321,1,2,0:0:0:0:
344,141,88487,6,0,B|240:143,1,90,0|2,3:0|0:1,0:0:0:0:
140,36,88987,1,0,3:0:0:0:
58,84,89154,2,0,L|63:160,1,60,2|0,0:0|3:0,0:0:0:0:
23,238,89487,2,0,L|35:305,1,60,8|2,0:1|0:0,0:0:0:0:
134,316,89821,2,0,P|139:270|144:217,2,90,0|2|0,3:0|0:0|3:0,0:0:0:0:
221,369,90487,1,2,0:0:0:0:
282,287,90654,2,0,L|278:245,2,30,0|0|8,3:0|0:0|0:1,0:0:0:0:
373,352,90987,1,2,0:0:0:0:
466,310,91154,6,0,L|469:212,2,90,0|2|0,3:0|0:0|3:0,0:0:0:0:
366,336,91821,1,2,0:0:0:0:
345,236,91987,1,0,3:0:0:0:
385,141,92154,2,0,P|356:132|316:125,1,60,8|2,0:1|0:0,0:0:0:0:
224,129,92487,2,0,B|115:137,2,90,0|2|0,3:0|3:2|3:0,0:0:0:0:
264,223,93154,2,0,L|272:287,1,60,2|0,0:2|3:0,0:0:0:0:
202,357,93487,2,0,L|221:399,2,30,10|0|0,0:1|0:0|0:0,0:0:0:0:
144,271,93821,6,0,B|67:260|67:260|22:227,1,120,6|10,3:2|0:1,0:0:0:0:
15,139,94321,1,0,3:0:0:0:
15,139,94487,2,0,L|0:12,1,120,2|10,0:2|0:1,0:0:0:0:
205,15,95154,2,0,L|292:7,2,60,2|2|10,3:1|0:0|0:1,0:0:0:0:
151,105,95654,2,0,L|167:226,1,120,2|0,3:0|3:0,0:0:0:0:
248,285,96154,1,8,0:1:0:0:
426,187,96487,5,2,3:1:0:0:
426,187,96821,2,0,P|436:240|446:269,1,60,8|0,0:1|3:0,0:0:0:0:
442,347,97154,2,0,P|402:329|304:319,1,120,2|8,0:1|0:1,0:0:0:0:
128,240,97821,2,0,L|115:164,2,60,2|0|10,3:1|0:0|0:1,0:0:0:0:
209,307,98321,2,0,B|289:324|289:324|354:312,1,120,2|0,3:0|3:0,0:0:0:0:
391,238,98821,1,8,0:1:0:0:
259,71,99154,6,0,L|115:58,1,120,2|10,3:2|0:1,0:0:0:0:
74,139,99654,1,0,3:0:0:0:
74,139,99821,2,0,L|10:119,1,60,2|0,0:2|3:0,0:0:0:0:
11,19,100154,1,10,0:1:0:0:
185,179,100487,2,0,P|199:232|201:244,2,60,2|2|10,3:1|0:0|0:1,0:0:0:0:
103,240,100987,2,0,B|92:293|92:293|103:378,1,120,2|0,3:0|3:0,0:0:0:0:
202,349,101487,1,8,0:1:0:0:
347,205,101821,6,0,P|380:201|423:199,1,60,2|0,3:1|0:0,0:0:0:0:
433,322,102154,2,0,P|403:320|373:316,1,60,10|0,0:1|0:0,0:0:0:0:
286,266,102487,2,0,P|266:206|294:139,1,120,2|8,0:1|0:1,0:0:0:0:
463,59,103154,2,0,P|471:92|473:143,2,60,2|0|10,3:1|0:0|0:1,0:0:0:0:
370,14,103654,2,0,B|333:20|333:20|244:20,1,120,2|0,3:0|3:0,0:0:0:0:
148,14,104154,2,0,L|68:30,1,60,10|0,0:1|0:0,0:0:0:0:
23,104,104487,6,0,P|18:196|42:222,1,120,6|8,0:0|0:1,0:0:0:0:
124,256,104987,1,0,3:0:0:0:
91,352,105154,2,0,B|136:361|136:361|223:344,1,120,2|8,0:0|0:1,0:0:0:0:
289,159,105821,2,0,B|334:150|334:150|421:167,1,120,2|8,3:2|0:1,0:0:0:0:
487,226,106321,1,0,0:0:0:0:
509,126,106487,2,0,L|486:-4,1,120,2|8,0:0|0:1,0:0:0:0:
388,26,106987,1,2,3:0:0:0:
285,36,107154,6,0,P|259:73|234:168,1,120,2|8,3:2|0:1,0:0:0:0:
300,223,107654,1,0,3:0:0:0:
244,308,107821,2,0,L|173:298,2,60,2|0|8,0:1|3:0|0:1,0:0:0:0:
343,130,108487,2,0,L|460:110,1,120,2|8,3:1|0:1,0:0:0:0:
498,205,108987,1,0,3:0:0:0:
406,251,109154,2,0,P|412:288|424:331,1,60,2|0,0:1|3:0,0:0:0:0:
299,219,109487,2,0,P|263:205|220:194,1,60,4|0,1:2|0:0,0:0:0:0:
313,335,109821,5,2,3:1:0:0:
313,335,109987,2,0,P|253:336|199:362,1,120,8|0,0:1|3:0,0:0:0:0:
99,344,110487,2,0,L|80:282,2,60,8|0|0,0:1|3:0|0:0,0:0:0:0:
261,218,111154,2,0,P|301:195|320:184,1,60,2|0,3:2|0:0,0:0:0:0:
320,87,111487,2,0,P|280:63|261:52,1,60,2|0,0:0|0:0,0:0:0:0:
177,102,111821,2,0,P|176:148|176:170,2,60,2|0|2,0:0|0:0|0:0,0:0:0:0:
288,166,112321,1,0,0:0:0:0:
288,166,112487,6,0,L|297:305,1,120,6|8,3:1|0:1,0:0:0:0:
386,331,112987,2,0,P|439:360|493:313,1,120,2|2,0:1|3:2,0:0:0:0:
503,231,113487,2,0,P|471:217|436:207,1,60,8|0,0:1|0:0,0:0:0:0:
344,204,113821,2,0,P|315:213|288:225,1,60,2|0,3:1|0:0,0:0:0:0:
214,296,114154,1,8,0:1:0:0:
127,242,114321,2,0,P|131:194|133:110,1,120,2|0,3:1|3:0,0:0:0:0:
90,29,114821,1,8,0:1:0:0:
285,86,115154,6,0,P|342:87|431:78,1,120,2|8,3:1|0:1,0:0:0:0:
491,135,115654,2,0,P|490:192|499:281,1,120,2|0,3:1|3:0,0:0:0:0:
453,348,116154,2,0,P|505:353|535:353,1,60,8|2,0:1|0:0,0:0:0:0:
390,258,116487,1,2,3:1:0:0:
390,258,116654,2,0,L|323:262,1,60,0|8,0:0|0:1,0:0:0:0:
236,303,116987,2,0,P|195:262|147:195,1,120,2|0,0:1|3:0,0:0:0:0:
148,110,117487,1,10,0:1:0:0:
333,24,117821,6,0,L|355:89,1,60,6|0,0:0|0:0,0:0:0:0:
474,73,118154,2,0,L|477:132,1,60,8|0,0:1|0:0,0:0:0:0:
496,233,118487,2,0,P|422:219|358:212,1,120,2|8,3:2|0:1,0:0:0:0:
281,248,118987,1,0,0:0:0:0:
306,346,119154,2,0,P|232:360|168:367,1,120,2|8,3:1|0:1,0:0:0:0:
48,215,119821,2,0,P|64:176|76:138,1,60,2|0,3:2|0:0,0:0:0:0:
169,135,120154,2,0,P|153:96|141:58,1,60,8|0,0:1|0:0,0:0:0:0:
226,14,120487,6,0,P|270:21|300:91,1,120,6|10,3:2|0:1,0:0:0:0:
288,185,120987,1,0,0:0:0:0:
389,172,121154,2,0,P|445:191|465:261,1,120,2|10,3:2|0:1,0:0:0:0:
304,367,121821,6,0,L|226:363,1,60,6|0,3:2|0:0,0:0:0:0:
242,253,122154,2,0,L|182:256,1,60,10|0,0:1|0:0,0:0:0:0:
71,327,122487,2,0,P|73:295|81:257,1,60,2|0,3:2|0:0,0:0:0:0:
31,176,122821,2,0,L|-10:161,2,30,10|2|8,0:1|0:0|0:2,0:0:0:0:
133,177,123154,6,0,B|144:120|144:120|126:42,1,120,6|8,3:0|0:1,0:0:0:0:
232,0,123654,2,0,B|221:57|221:57|239:135,1,120,8|0,0:3|3:0,0:0:0:0:
313,183,124154,2,0,L|385:197,1,60,8|2,0:3|0:0,0:0:0:0:
428,280,124487,2,0,P|364:286|287:297,1,120,6|8,3:0|0:1,0:0:0:0:
251,377,124987,2,0,P|187:371|110:360,1,120,8|0,0:3|3:0,0:0:0:0:
41,315,125487,1,8,0:3:0:0:
121,127,125821,6,0,P|113:67|107:7,1,120,6|8,3:0|0:1,0:0:0:0:
229,69,126321,2,0,P|223:133|221:154,2,60,8|2|0,0:3|0:0|3:0,0:0:0:0:
319,21,126821,2,0,L|389:27,1,60,8|2,0:3|0:3,0:0:0:0:
471,69,127154,2,0,L|503:65,2,30,4|0|2,3:0|0:0|0:3,0:0:0:0:
389,130,127487,2,0,L|401:207,1,60,8|10,0:1|0:3,0:0:0:0:
370,288,127821,2,0,L|384:326,2,30,4|0|2,0:1|0:0|0:3,0:0:0:0:
277,245,128154,1,8,0:3:0:0:
135,98,128487,6,0,P|84:106|3:138,1,120,4|8,3:1|0:1,0:0:0:0:
70,217,128987,1,10,0:3:0:0:
34,312,129154,2,0,L|44:362,2,30,2|0|2,0:2|0:0|3:0,0:0:0:0:
149,318,129487,2,0,P|183:323|223:329,1,60,8|2,0:3|0:3,0:0:0:0:
304,364,129821,2,0,P|358:354|431:321,1,120,4|8,3:0|0:1,0:0:0:0:
475,244,130321,1,10,0:3:0:0:
438,149,130487,2,0,L|449:110,2,30,2|0|2,0:0|0:0|3:0,0:0:0:0:
337,169,130821,1,8,0:3:0:0:
133,183,131154,6,0,B|120:141|120:141|118:49,1,120,4|8,3:0|0:1,0:0:0:0:
209,19,131654,1,10,0:3:0:0:
299,65,131821,2,0,L|337:77,2,30,2|0|2,0:0|0:0|3:0,0:0:0:0:
357,171,132154,2,0,L|398:161,2,30,8|0|2,0:3|0:0|0:3,0:0:0:0:
268,222,132487,2,0,B|281:264|281:264|283:356,1,120,4|8,3:1|0:1,0:0:0:0:
188,368,132987,1,10,0:3:0:0:
92,332,133154,2,0,L|84:278,2,30,2|0|2,0:0|0:0|3:0,0:0:0:0:
1,268,133487,2,0,L|9:221,2,30,8|0|8,0:3|0:0|0:2,0:0:0:0:
8,370,133821,5,6,3:1:0:0:
8,370,134487,2,0,P|49:339|139:326,1,120,2|10,3:2|0:1,0:0:0:0:
205,276,134987,1,0,0:0:0:0:
294,325,135154,2,0,L|313:366,2,30,2|0|0,3:1|0:0|0:0,0:0:0:0:
323,229,135487,2,0,L|337:143,1,60,8|2,0:1|0:1,0:0:0:0:
399,91,135821,2,0,L|423:62,2,30,0|0|2,3:0|0:0|0:0,0:0:0:0:
297,75,136154,2,0,L|222:60,1,60,10|0,0:1|0:0,0:0:0:0:
137,52,136487,6,0,B|109:99|109:99|107:173,1,120,6|8,3:1|0:1,0:0:0:0:
177,273,136987,1,2,0:1:0:0:
74,276,137154,2,0,L|62:324,2,30,0|0|0,3:0|0:0|0:0,0:0:0:0:
166,232,137487,2,0,B|214:215|214:215|292:219,1,120,10|2,0:1|3:1,0:0:0:0:
373,265,137987,6,0,L|388:339,1,60,2|8,0:0|0:1,0:0:0:0:
475,252,138321,2,0,L|556:257,1,60,2|0,0:1|3:0,0:0:0:0:
407,163,138654,2,0,L|390:135,2,30,8|8|2,3:1|0:1|3:1,0:0:0:0:
289,155,138987,2,0,L|257:148,2,30,8|8|6,0:1|0:1|0:0,0:0:0:0:
256,192,139283,12,0,142788,0:0:0:0:
424,61,144487,6,0,P|395:68|361:80,1,60,6|0,3:1|0:0,0:0:0:0:
293,158,144820,1,8,0:1:0:0:
399,174,144987,2,0,B|421:208|421:208|430:299,1,120,2|2,0:1|0:2,0:0:0:0:
321,301,145487,2,0,L|311:360,1,60,8|0,0:1|0:0,0:0:0:0:
187,263,145820,2,0,P|219:249|248:244,1,60,2|0,3:1|0:0,0:0:0:0:
292,157,146153,2,0,P|265:145|236:139,1,60,8|2,0:1|3:1,0:0:0:0:
133,174,146487,2,0,B|66:180|87:152|2:165,1,120,0|8,3:0|0:1,0:0:0:0:
176,19,147153,6,0,P|229:17|302:48,1,120,2|8,3:1|0:1,0:0:0:0:
355,126,147653,2,0,P|353:179|384:252,1,120,2|2,0:1|0:2,0:0:0:0:
413,342,148153,2,0,L|329:335,1,60,8|2,0:1|0:0,0:0:0:0:
257,285,148487,2,0,P|218:289|178:300,1,60,2|0,3:1|0:0,0:0:0:0:
104,348,148820,1,8,0:1:0:0:
37,262,148987,2,0,B|51:217|51:217|48:125,1,120,2|0,0:1|0:0,0:0:0:0:
14,41,149487,1,10,0:1:0:0:
226,2,149820,6,0,B|230:74|230:74|254:137,1,120,6|8,0:0|0:1,0:0:0:0:
449,194,150487,2,0,P|483:219|512:302,1,120,2|8,3:2|0:1,0:0:0:0:
440,369,150987,1,0,0:0:0:0:
332,360,151153,2,0,P|289:334|275:318,1,60,2|0,3:1|0:0,0:0:0:0:
234,229,151487,2,0,P|196:250|167:261,1,60,8|0,0:1|0:0,0:0:0:0:
111,339,151820,2,0,P|77:314|48:231,1,120,2|8,3:2|0:1,0:0:0:0:
131,44,152487,6,0,L|201:36,1,60,6|0,3:2|0:0,0:0:0:0:
292,73,152820,2,0,P|315:54|341:39,1,60,10|0,0:1|0:0,0:0:0:0:
446,66,153153,2,0,L|456:193,1,120,2|10,3:2|0:1,0:0:0:0:
327,360,153820,2,0,L|333:279,1,60,6|2,3:2|0:3,0:0:0:0:
365,197,154153,2,0,L|365:114,1,60,10|2,0:1|0:3,0:0:0:0:
265,235,154487,2,0,L|253:104,1,120,2|10,3:2|0:1,0:0:0:0:
187,30,154987,1,2,0:3:0:0:
88,72,155153,6,0,L|13:76,2,60,6|8|8,3:2|0:2|0:1,0:0:0:0:
167,143,155653,2,0,P|131:196|71:242,1,120,2|8,0:1|0:1,0:0:0:0:
3,310,156153,2,0,P|41:328|70:335,1,60,2|0,3:1|0:0,0:0:0:0:
172,322,156487,1,4,3:1:0:0:
172,322,156653,2,0,L|160:178,1,120,2|2,0:1|0:0,0:0:0:0:
182,96,157153,1,2,3:1:0:0:
330,253,157487,2,0,L|333:188,1,60,8|2,0:1|0:1,0:0:0:0:
395,104,157820,5,4,3:1:0:0:
461,196,157987,1,0,0:0:0:0:
461,196,158153,2,0,L|478:328,1,120,10|0,0:1|3:0,0:0:0:0:
375,353,158653,2,0,P|345:351|293:338,2,60,2|8|0,0:1|0:1|0:0,0:0:0:0:
435,263,159153,2,0,P|464:257|494:255,2,60,6|8|8,3:1|0:0|0:1,0:0:0:0:
330,253,159653,2,0,P|302:223|307:122,1,120,2|0,0:1|0:0,0:0:0:0:
354,57,160153,1,10,3:1:0:0:
153,136,160486,5,4,3:1:0:0:
153,136,160653,2,0,P|106:130|68:128,1,60,2|8,0:1|0:1,0:0:0:0:
19,208,160986,1,0,0:0:0:0:
19,208,161153,2,0,P|21:267|35:334,1,120,2|8,3:1|0:1,0:0:0:0:
133,365,161653,2,0,L|131:285,2,60,2|0|0,0:1|3:0|0:0,0:0:0:0:
233,326,162153,2,0,P|244:267|246:207,1,120,10|0,0:1|3:0,0:0:0:0:
346,165,162653,2,0,L|355:240,2,60,2|8|0,0:1|0:1|0:0,0:0:0:0:
265,93,163153,6,0,P|210:73|142:57,1,120,2|8,3:1|0:1,0:0:0:0:
59,95,163653,1,2,0:1:0:0:
22,307,163986,1,0,0:0:0:0:
22,307,164153,2,0,P|58:307|92:302,1,60,10|0,0:1|0:0,0:0:0:0:
183,338,164486,5,6,0:0:0:0:
183,338,164653,2,2,L|190:201,1,120
88,200,165153,2,2,P|72:134|72:72,1,120
156,26,165653,2,2,P|194:42|259:91,1,120
353,55,166153,2,2,P|357:115|376:196,1,120
441,254,166653,6,2,P|436:302|427:359,1,90,0|0,0:0|0:0,0:0:0:0:
340,384,167078,2,0,P|333:339|328:294,1,90,2|2,0:0|0:0,0:0:0:0:
249,79,167706,2,0,L|236:138,1,60,2|2,0:0|0:0,0:0:0:0:
155,186,168039,1,12,0:0:0:0:
