osu file format v14

[General]
AudioFilename: audio.mp3
AudioLeadIn: 0
PreviewTime: 488
Countdown: 0
SampleSet: Soft
StackLeniency: 0.7
Mode: 0
LetterboxInBreaks: 1
EpilepsyWarning: 1
WidescreenStoryboard: 1

[Editor]
Bookmarks: 21822,32488,51155,61822,72488,83155,88487,93822,112488,123155,127154,129821,155154
DistanceSpacing: 1
BeatDivisor: 4
GridSize: 32
TimelineZoom: 1.8

[Metadata]
Title:Because enyhow die (Kari)
TitleUnicode:Because enyhow die (仮)
Artist:siinamota
ArtistUnicode:椎名もた
Creator:Renumi
Version:Easy
Source:
Tags:beren vocaloid anyhow 故に yue_ni therefor. therefore hatsune_miku j-pop japanese electronic shiinamota powapowa ぽわぽわ
BeatmapID:3636675
BeatmapSetID:1775997

[Difficulty]
HPDrainRate:4
CircleSize:2.5
OverallDifficulty:3
ApproachRate:3
SliderMultiplier:0.9
SliderTickRate:1

[Events]
//Background and Video events
0,0,"because.jpg",0,0
//Break Periods
2,62021,69714
//Storyboard Layer 0 (Background)
//Storyboard Layer 1 (Fail)
//Storyboard Layer 2 (Pass)
//Storyboard Layer 3 (Foreground)
//Storyboard Layer 4 (Overlay)
//Storyboard Sound Samples

[TimingPoints]
488,333.333333333333,4,2,1,75,1,0
11154,-100,4,2,1,75,0,0
11487,-100,4,2,1,70,0,0
21821,-100,4,2,1,75,0,0
32487,-100,4,2,1,75,0,0
32821,-100,4,2,1,70,0,0
43154,-100,4,2,1,75,0,0
43487,-100,4,2,1,65,0,0
49821,-100,4,2,1,75,0,0
51154,-100,4,2,1,80,0,1
51487,-100,4,2,1,80,0,0
61487,-100,4,2,1,80,0,0
61821,-100,4,2,1,80,0,0
71154,-100,4,2,1,65,0,0
72154,-100,4,2,1,75,0,0
72487,-100,4,2,1,70,0,0
83154,-100,4,2,1,75,0,0
112487,-100,4,2,1,80,0,1
112821,-100,4,2,1,80,0,0
122821,-100,4,2,1,83,0,0
123154,-100,4,2,1,85,0,1
127154,-100,4,2,1,88,0,1
134154,-100,4,2,1,85,0,1
139154,517.241379310345,4,2,1,85,1,0
141222,500,4,2,1,40,1,0
142222,566.251415628539,4,2,1,40,1,0
144487,333.333333333333,4,2,1,80,1,1
164487,-100,4,1,1,85,0,1
166820,400,4,1,1,90,1,1
166920,317.460317460316,4,1,1,90,1,1
167078,458.015267175573,4,1,1,90,1,1
167307,517.241379310345,4,1,1,90,1,1
167436,540.540540540541,4,1,1,90,1,1
167706,333.333333333333,4,1,1,90,1,1
168372,288.461538461538,4,1,1,30,1,1
169262,-100,4,1,1,30,0,0

[Colours]
Combo1 : 255,88,100
Combo2 : 173,255,95
Combo3 : 255,94,55
Combo4 : 253,226,134

[HitObjects]
0,34,488,6,0,P|45:36|97:52,1,90,4|8,3:1|0:1,0:0:0:0:
165,110,1154,2,0,P|210:108|263:97,1,90,2|8,0:0|0:1,0:0:0:0:
352,70,1821,2,0,P|389:125|366:239,1,180,0|2,3:0|0:0,0:0:0:0:
331,322,2821,1,8,0:1:0:0:
224,364,3154,2,0,L|122:348,1,90,0|8,3:0|0:1,0:0:0:0:
37,332,3821,2,0,P|28:287|26:231,1,90,2|8,0:0|0:1,0:0:0:0:
64,152,4487,2,0,B|123:123|123:123|240:146,1,180,0|2,3:0|0:0,0:0:0:0:
387,272,5821,6,0,B|437:240|437:240|472:116,1,180,0|2,3:0|0:0,0:0:0:0:
426,34,6821,1,8,0:1:0:0:
328,18,7154,2,0,P|281:20|225:33,1,90,0|8,3:0|0:1,0:0:0:0:
142,51,7821,2,0,L|46:44,1,90,2|8,0:0|0:1,0:0:0:0:
37,142,8487,2,0,P|73:233|16:308,1,180,0|2,3:0|0:0,0:0:0:0:
97,373,9487,1,8,0:1:0:0:
180,320,9821,2,0,B|272:311,1,90,0|8,3:0|0:1,0:0:0:0:
360,349,10487,2,0,L|467:358,1,90,2|8,3:0|0:1,0:0:0:0:
483,263,11154,6,0,P|503:177|468:85,1,180,6|2,3:1|1:0,0:0:0:0:
385,48,12154,1,2,0:2:0:0:
292,14,12487,2,0,L|197:22,2,90,2|2|0,3:1|0:1|1:0,0:0:0:0:
392,184,13821,2,0,L|481:191,1,90,2|2,3:1|3:2,0:0:0:0:
502,287,14487,2,0,L|492:396,1,90,2|2,1:0|0:0,0:0:0:0:
394,368,15154,2,0,P|352:322|223:320,1,180,2|0,3:1|1:0,0:0:0:0:
48,364,16487,6,0,B|21:277|21:277|41:174,1,180,2|2,3:1|1:0,0:0:0:0:
128,149,17487,1,2,0:0:0:0:
225,169,17821,2,0,L|321:178,2,90,2|2|0,3:1|0:0|1:0,0:0:0:0:
106,10,19154,2,0,L|8:16,1,90,2|2,3:1|3:2,0:0:0:0:
8,114,19821,2,0,P|3:159|3:204,1,90,2|2,1:0|0:0,0:0:0:0:
10,302,20487,2,0,P|68:344|175:294,1,180,2|2,3:1|1:0,0:0:0:0:
224,232,21487,1,2,0:3:0:0:
321,258,21821,6,0,L|419:246,1,90,6|8,3:2|0:1,0:0:0:0:
479,176,22487,2,0,P|497:136|516:79,1,90,2|8,0:0|0:1,0:0:0:0:
424,45,23154,2,0,B|339:7|339:7|245:21,1,180,0|2,3:0|0:0,0:0:0:0:
58,58,24487,2,0,P|68:135|78:162,1,90,0|8,3:0|0:1,0:0:0:0:
167,173,25154,2,0,P|163:220|150:275,1,90,2|8,0:0|0:1,0:0:0:0:
99,344,25821,2,0,B|159:364|159:364|283:328,1,180,0|2,3:0|0:0,0:0:0:0:
314,138,27154,6,0,B|374:118|374:118|498:154,1,180,0|2,3:0|0:0,0:0:0:0:
498,248,28154,1,8,0:1:0:0:
446,332,28487,2,0,P|386:321|342:310,1,90,0|8,3:0|0:1,0:0:0:0:
298,234,29154,2,0,P|238:245|194:256,1,90,2|8,0:0|0:1,0:0:0:0:
111,262,29821,2,0,P|65:182|101:102,1,180,0|2,3:0|0:0,0:0:0:0:
176,49,30821,1,8,0:1:0:0:
274,47,31154,2,0,L|363:52,1,90,0|8,3:0|0:1,0:0:0:0:
449,102,31821,2,0,P|470:151|479:195,1,90,2|8,3:0|0:1,0:0:0:0:
467,285,32487,6,2,B|414:314|414:314|281:292,1,180,6|2,3:1|1:0,0:0:0:0:
243,210,33487,1,2,0:2:0:0:
148,179,33821,2,2,P|135:140|123:93,1,90,2|2,3:1|0:1,0:0:0:0:
190,20,34487,1,2,1:3:0:0:
386,44,35154,2,2,P|448:95|406:180,1,180,2|2,3:1|1:0,0:0:0:0:
316,190,36154,1,2,0:0:0:0:
230,239,36487,2,2,L|227:340,1,90,2|2,3:1|0:1,0:0:0:0:
139,376,37154,2,0,P|92:377|39:371,1,90,2|2,1:3|0:2,0:0:0:0:
14,280,37821,6,2,P|27:200|121:194,1,180,6|2,3:1|1:0,0:0:0:0:
207,223,38821,1,2,0:0:0:0:
281,287,39154,2,0,P|332:280|383:263,1,90,2|2,3:1|0:1,0:0:0:0:
434,194,39821,1,2,1:3:0:0:
265,90,40487,6,2,P|189:118|137:39,1,180,2|2,3:1|1:0,0:0:0:0:
40,22,41487,2,0,P|24:59|9:107,1,90,2|2,0:0|3:1,0:0:0:0:
68,185,42154,1,2,0:2:0:0:
72,284,42487,2,0,L|165:276,1,90,0|2,1:0|0:2,0:0:0:0:
234,208,43154,6,0,B|253:122|253:122|220:16,2,180,6|2|2,0:0|0:0|0:0,0:0:0:0:
36,201,45154,1,2,0:0:0:0:
160,355,45821,2,0,B|246:374|246:374|352:341,2,180,2|2|2,0:0|0:0|0:0,0:0:0:0:
36,201,47821,1,2,0:0:0:0:
178,63,48487,1,6,0:0:0:0:
178,63,49821,2,0,L|284:66,1,90,2|2,0:0|0:0,0:0:0:0:
364,42,50487,2,0,P|373:86|379:130,1,90,2|2,0:0|0:0,0:0:0:0:
342,222,51154,6,0,B|326:287|326:287|355:364,2,135,6|2|10,3:1|0:1|0:1,0:0:0:0:
305,129,52487,1,2,3:1:0:0:
205,123,52821,2,0,L|131:192,1,90,8|0,0:1|0:0,0:0:0:0:
274,336,53821,2,0,P|355:371|431:314,1,180,2|2,3:1|0:1,0:0:0:0:
488,247,54821,1,8,0:1:0:0:
418,177,55154,2,0,B|400:108|400:108|416:40,2,135,2|2|10,3:1|0:1|0:1,0:0:0:0:
353,252,56487,6,0,P|272:287|196:230,1,180,6|2,0:0|3:2,0:0:0:0:
148,156,57487,1,8,0:1:0:0:
58,199,57821,2,0,L|55:299,2,90,2|8|2,3:1|0:1|3:2,0:0:0:0:
156,27,59154,2,0,P|234:-8|307:38,1,180,6|2,3:2|3:2,0:0:0:0:
364,119,60154,1,10,0:1:0:0:
444,176,60487,2,0,P|432:222|418:271,1,90,6|10,3:2|0:1,0:0:0:0:
369,348,61154,2,0,P|326:360|282:365,1,90,2|10,3:2|0:1,0:0:0:0:
216,289,61821,5,6,0:1:0:0:
452,41,71154,6,0,P|482:91|448:215,1,180,0|0,0:0|3:0,0:0:0:0:
376,261,72154,1,8,0:1:0:0:
291,208,72487,2,2,B|249:192|249:192|101:196,1,180,6|2,3:1|1:0,0:0:0:0:
41,263,73487,1,2,0:2:0:0:
99,342,73821,2,2,L|197:349,2,90,2|2|2,3:1|3:1|1:3,0:0:0:0:
10,164,75154,2,2,P|37:99|121:22,1,180,2|2,3:1|1:0,0:0:0:0:
212,47,76154,1,2,0:0:0:0:
308,25,76487,2,2,P|334:63|353:108,1,90,2|2,3:1|3:1,0:0:0:0:
322,197,77154,1,2,1:3:0:0:
455,343,77821,6,2,B|389:363|389:363|265:340,1,180,6|2,3:1|1:0,0:0:0:0:
182,323,78821,1,2,0:0:0:0:
104,261,79154,2,0,L|7:268,2,90,2|2|2,3:1|3:1|1:3,0:0:0:0:
290,217,80487,2,2,P|316:177|327:42,1,180,2|2,3:1|1:0,0:0:0:0:
238,6,81487,1,2,0:0:0:0:
151,55,81821,2,0,L|45:52,2,90,2|2|2,3:1|3:2|3:1,0:0:0:0:
225,120,82821,1,8,0:3:0:0:
279,202,83154,6,0,L|378:198,1,90,6|8,3:2|0:1,0:0:0:0:
458,241,83821,2,0,P|465:287|465:339,1,90,2|8,0:0|0:1,0:0:0:0:
370,356,84487,2,0,L|174:362,1,180,0|2,3:0|0:0,0:0:0:0:
22,234,85821,2,0,P|21:162|29:138,1,90,0|8,3:0|0:1,0:0:0:0:
78,61,86487,2,0,P|150:60|174:68,1,90,2|8,0:0|0:1,0:0:0:0:
263,84,87154,6,0,B|297:138|297:138|306:258,1,180,0|2,3:0|0:0,0:0:0:0:
460,377,88487,2,0,B|494:323|494:323|503:203,1,180,0|2,3:0|0:0,0:0:0:0:
468,114,89487,1,8,0:1:0:0:
393,48,89821,2,0,L|305:29,1,90,0|8,3:0|0:1,0:0:0:0:
206,23,90487,2,0,P|173:52|141:97,1,90,2|8,0:0|0:1,0:0:0:0:
66,148,91154,2,0,B|50:212|50:212|84:340,1,180,0|2,3:0|0:0,0:0:0:0:
173,291,92154,1,8,0:1:0:0:
266,322,92487,2,0,L|373:316,1,90,0|8,3:0|0:1,0:0:0:0:
441,270,93154,1,2,0:2:0:0:
474,176,93487,1,10,0:1:0:0:
449,79,93821,6,0,P|380:43|271:63,1,180,6|2,3:2|0:2,0:0:0:0:
190,95,94821,1,10,0:1:0:0:
91,82,95154,2,0,P|89:130|96:178,1,90,2|10,3:1|0:1,0:0:0:0:
156,353,96154,1,8,0:1:0:0:
229,287,96487,2,0,P|271:278|328:277,1,90,2|8,3:1|0:1,0:0:0:0:
416,266,97154,2,0,P|451:232|482:185,1,90,2|8,0:1|0:1,0:0:0:0:
466,99,97821,1,2,3:1:0:0:
385,41,98154,1,10,0:1:0:0:
187,53,98821,1,8,0:1:0:0:
114,120,99154,6,0,P|126:192|137:219,1,90,2|10,3:2|0:1,0:0:0:0:
201,277,99821,2,0,L|298:278,1,90,2|10,0:2|0:1,0:0:0:0:
379,321,100487,1,2,3:1:0:0:
471,285,100821,1,10,0:1:0:0:
391,103,101487,1,8,0:1:0:0:
299,65,101821,2,0,P|269:85|227:131,1,90,2|10,3:1|0:1,0:0:0:0:
223,219,102487,2,0,P|253:252|290:277,1,90,2|8,0:1|0:1,0:0:0:0:
251,369,103154,1,2,3:1:0:0:
157,336,103487,2,0,B|85:285|85:285|-13:285,1,180,10|10,0:1|0:1,0:0:0:0:
21,189,104487,6,0,P|47:135|172:135,1,180,6|2,0:0|0:0,0:0:0:0:
355,122,105821,2,0,P|441:118|490:188,1,180,2|2,3:2|0:0,0:0:0:0:
502,287,106821,1,8,0:1:0:0:
424,348,107154,2,0,B|360:370|360:370|244:344,1,180,2|2,3:2|0:1,0:0:0:0:
83,239,108487,2,0,B|61:175|61:175|87:59,1,180,2|2,3:1|0:1,0:0:0:0:
170,13,109487,1,4,1:2:0:0:
268,24,109821,6,0,P|392:99|256:209,1,360,2|2,3:1|3:2,0:0:0:0:
138,84,111821,1,2,0:0:0:0:
42,244,112487,6,0,B|27:316|27:316|50:382,2,135,6|2|8,3:1|0:1|0:1,0:0:0:0:
83,155,113821,1,2,3:1:0:0:
159,216,114154,2,0,L|263:231,1,90,8|0,0:1|0:0,0:0:0:0:
435,152,115154,2,0,B|455:93|455:93|440:21,2,135,2|2|8,3:1|3:1|0:1,0:0:0:0:
393,242,116487,2,0,B|409:311|409:311|459:364,2,135,2|2|10,3:1|0:1|0:1,0:0:0:0:
344,155,117821,6,0,P|316:107|203:130,1,180,6|2,0:0|3:2,0:0:0:0:
164,212,118821,1,8,0:1:0:0:
166,310,119154,2,0,L|71:322,1,90,2|8,3:1|0:1,0:0:0:0:
10,247,119821,2,0,L|-2:152,1,90,2|8,3:2|0:1,0:0:0:0:
30,63,120487,2,0,P|87:0|166:31,1,180,6|2,3:2|3:2,0:0:0:0:
229,107,121487,1,10,0:1:0:0:
323,77,121821,2,0,L|427:86,1,90,6|10,3:2|0:1,0:0:0:0:
483,153,122487,2,0,P|474:198|458:246,1,90,2|10,3:2|0:1,0:0:0:0:
382,301,123154,6,0,B|357:253|357:253|351:167,2,135,6|8|8,3:0|0:3|0:3,0:0:0:0:
324,381,124487,2,0,B|258:366|258:366|190:368,2,135,6|8|8,3:0|0:3|0:3,0:0:0:0:
422,368,125821,2,0,P|465:292|409:225,1,180,6|2,3:0|0:0,0:0:0:0:
317,203,126821,1,8,0:3:0:0:
243,270,127154,2,0,L|255:362,2,90,4|8|4,3:0|0:1|0:1,0:0:0:0:
153,93,128487,6,0,P|107:93|49:105,1,90,4|8,3:1|0:1,0:0:0:0:
9,183,129154,2,0,L|23:290,1,90,2|8,0:2|0:3,0:0:0:0:
71,357,129821,2,0,P|115:364|160:364,1,90,4|8,3:0|0:1,0:0:0:0:
233,298,130487,2,0,L|340:284,1,90,2|8,0:0|0:3,0:0:0:0:
420,299,131154,1,4,3:0:0:0:
475,217,131487,2,0,P|506:146|454:59,1,180,8|8,0:1|0:3,0:0:0:0:
360,62,132487,2,0,P|313:135|344:216,1,180,4|2,3:1|0:0,0:0:0:0:
411,289,133487,1,8,0:3:0:0:
362,375,133821,1,6,3:1:0:0:
170,325,134487,6,0,P|156:280|147:223,1,90,2|10,3:2|0:1,0:0:0:0:
148,138,135154,2,0,P|158:92|179:38,1,90,2|8,3:1|0:1,0:0:0:0:
271,39,135821,2,0,P|305:70|341:115,1,90,0|10,3:0|0:1,0:0:0:0:
394,180,136487,2,0,L|488:199,1,90,6|8,3:1|0:1,0:0:0:0:
512,295,137154,2,0,B|461:325|461:325|327:333,1,180,0|2,3:0|3:1,0:0:0:0:
263,269,138154,6,0,L|156:247,1,90,8|0,0:1|3:0,0:0:0:0:
75,254,138821,1,2,3:1:0:0:
30,170,139154,1,6,0:0:0:0:
256,192,139283,12,0,142788,0:0:0:0:
386,69,144487,6,0,B|451:42|451:42|517:51,2,135,6|2|8,3:1|0:1|0:1,0:0:0:0:
313,135,145820,2,0,P|319:180|332:232,1,90,2|8,3:1|0:1,0:0:0:0:
330,322,146487,2,0,L|227:316,1,90,0|8,3:0|0:1,0:0:0:0:
146,348,147153,2,0,B|-2:361,2,135,2|2|8,3:1|0:1|0:1,0:0:0:0:
239,313,148487,2,0,L|251:118,1,180,2|2,3:1|0:1,0:0:0:0:
305,51,149487,1,10,0:1:0:0:
403,60,149820,6,0,P|448:131|406:225,1,180,6|2,0:0|3:2,0:0:0:0:
325,252,150820,1,8,0:1:0:0:
243,195,151153,2,0,P|198:181|147:177,1,90,2|8,3:1|0:1,0:0:0:0:
99,259,151820,2,0,L|8:253,1,90,2|8,3:2|0:1,0:0:0:0:
25,351,152487,2,0,B|99:363|99:363|208:310,1,180,6|2,3:2|3:2,0:0:0:0:
190,217,153487,1,10,0:1:0:0:
248,135,153820,2,0,P|301:130|338:130,2,90,6|10|2,3:2|0:1|3:2,0:0:0:0:
159,312,155153,6,0,B|214:333|214:333|291:323,2,135,6|2|2,3:2|0:1|3:1,0:0:0:0:
89,240,156487,2,0,P|90:191|98:146,1,90,4|8,3:1|0:1,0:0:0:0:
129,57,157153,2,0,L|225:41,1,90,2|8,3:1|0:1,0:0:0:0:
315,60,157820,2,0,L|497:82,1,180,4|0,3:1|3:0,0:0:0:0:
503,180,158820,1,8,0:1:0:0:
428,244,159153,2,0,B|413:311|413:311|433:382,2,135,6|2|10,3:1|0:1|3:1,0:0:0:0:
373,161,160486,6,0,P|307:118|215:152,1,180,4|2,3:1|3:1,0:0:0:0:
214,248,161486,1,8,0:1:0:0:
222,346,161820,2,0,L|116:343,1,90,0|10,3:0|0:1,0:0:0:0:
37,329,162486,2,0,P|31:281|38:232,1,90,0|8,3:0|0:1,0:0:0:0:
90,158,163153,2,0,B|103:89|103:89|86:25,2,135,2|2|10,3:1|0:1|0:1,0:0:0:0:
256,192,164486,12,12,168039,0:0:0:0:
