osu file format v14

[General]
AudioFilename: audio.mp3
AudioLeadIn: 0
PreviewTime: 488
Countdown: 0
SampleSet: Normal
StackLeniency: 0.7
Mode: 0
LetterboxInBreaks: 1
EpilepsyWarning: 1
WidescreenStoryboard: 1

[Editor]
Bookmarks: 21822,32488,51155,61822,72488,83155,93822,112488,123155,129821,155154
DistanceSpacing: 1.7
BeatDivisor: 4
GridSize: 32
TimelineZoom: 1.8

[Metadata]
Title:Because enyhow die (Kari)
TitleUnicode:Because enyhow die (仮)
Artist:siinamota
ArtistUnicode:椎名もた
Creator:Renumi
Version:Another
Source:
Tags:beren vocaloid anyhow 故に yue_ni therefor. therefore hatsune_miku j-pop japanese electronic shiinamota powapowa ぽわぽわ
BeatmapID:3636674
BeatmapSetID:1775997

[Difficulty]
HPDrainRate:7
CircleSize:4
OverallDifficulty:8
ApproachRate:9
SliderMultiplier:1.51
SliderTickRate:1

[Events]
//Background and Video events
0,0,"because.jpg",0,0
//Break Periods
2,62021,69821
//Storyboard Layer 0 (Background)
//Storyboard Layer 1 (Fail)
//Storyboard Layer 2 (Pass)
//Storyboard Layer 3 (Foreground)
//Storyboard Layer 4 (Overlay)
//Storyboard Sound Samples

[TimingPoints]
488,333.333333333333,4,2,1,75,1,0
488,-83.3333333333333,4,2,1,75,0,0
11154,-83.3333333333333,4,2,1,75,0,0
11487,-100,4,2,1,70,0,0
21821,-83.3333333333333,4,2,1,75,0,0
32487,-83.3333333333333,4,2,1,75,0,0
32821,-100,4,2,1,70,0,0
43154,-83.3333333333333,4,2,1,75,0,0
43487,-83.3333333333333,4,2,1,65,0,0
49821,-83.3333333333333,4,2,1,75,0,0
51154,-83.3333333333333,4,2,1,80,0,1
51487,-83.3333333333333,4,2,1,80,0,0
61487,-83.3333333333333,4,2,1,80,0,0
61821,-100,4,2,1,80,0,0
71154,-100,4,2,1,65,0,0
72154,-100,4,2,1,75,0,0
72487,-100,4,2,1,70,0,0
83154,-83.3333333333333,4,2,1,75,0,0
94154,-100,4,2,1,75,0,0
104487,-100,4,2,1,75,0,0
104821,-111.111111111111,4,2,1,75,0,0
111821,-83.3333333333333,4,2,1,75,0,0
112487,-83.3333333333333,4,2,1,80,0,1
112821,-83.3333333333333,4,2,1,80,0,0
122821,-83.3333333333333,4,2,1,83,0,0
123154,-83.3333333333333,4,2,1,85,0,1
127154,-83.3333333333333,4,2,1,88,0,1
134154,-83.3333333333333,4,2,1,85,0,1
139154,517.241379310345,4,2,1,85,1,0
141222,500,4,2,1,40,1,0
142222,566.251415628539,4,2,1,40,1,0
144487,333.333333333333,4,2,1,80,1,1
144487,-80,4,2,1,80,0,1
164487,-74.0740740740741,4,1,1,85,0,1
164903,-74.0740740740741,4,1,1,5,0,1
164986,-74.0740740740741,4,1,1,85,0,1
166653,-79.3650793650794,4,1,1,85,0,1
166820,400,4,1,1,90,1,1
166920,317.460317460316,4,1,1,90,1,1
167078,458.015267175573,4,1,1,90,1,1
167078,-74.0740740740741,4,1,1,90,0,1
167307,517.241379310345,4,1,1,90,1,1
167436,540.540540540541,4,1,1,90,1,1
167436,-74.0740740740741,4,1,1,90,0,1
167706,333.333333333333,4,1,1,90,1,1
167706,-80,4,1,1,90,0,1
168372,288.461538461538,4,1,1,30,1,1
168372,-125,4,1,1,30,0,1
169262,-100,4,1,1,30,0,0

[Colours]
Combo1 : 255,88,100
Combo2 : 173,255,95
Combo3 : 255,94,55
Combo4 : 253,226,134

[HitObjects]
385,326,488,6,0,L|287:319,1,90.5999972351075,4|0,3:1|0:0,0:0:0:0:
207,384,737,2,0,B|193:310|193:310|209:251,1,135.899995852661,2|0,0:0|0:0,0:0:0:0:
339,145,1154,1,2,0:0:0:0:
214,94,1321,1,0,3:0:0:0:
125,184,1487,1,8,0:1:0:0:
2,154,1654,1,2,0:0:0:0:
240,108,1821,2,0,P|276:156|302:208,1,90.5999972351075,0|0,3:0|0:0,0:0:0:0:
297,286,2071,2,0,P|364:264|461:260,1,135.899995852661,2|0,0:0|0:0,0:0:0:0:
512,167,2487,1,2,0:0:0:0:
512,167,2654,2,0,L|435:150,1,45.2999986175538,0|8,3:0|0:0,0:0:0:0:
399,33,2821,2,0,P|422:27|476:16,1,45.2999986175538,8|8,0:1|0:2,0:0:0:0:
362,125,2987,1,2,0:0:0:0:
362,125,3154,6,0,P|307:133|265:142,1,90.5999972351075,0|0,3:0|0:0,0:0:0:0:
206,231,3404,2,0,P|145:262|101:189,1,135.899995852661,2|0,0:0|0:0,0:0:0:0:
134,68,3821,1,2,0:0:0:0:
12,53,3987,1,0,3:0:0:0:
0,187,4154,1,8,0:1:0:0:
128,196,4321,1,2,0:0:0:0:
275,323,4487,6,0,L|383:318,1,90.5999972351075,0|0,3:0|0:0,0:0:0:0:
478,346,4737,2,0,P|483:301|484:255,1,90.5999972351075,2|0,0:1|0:0,0:0:0:0:
493,215,4987,1,0,0:0:0:0:
493,215,5154,1,2,0:0:0:0:
493,215,5321,2,0,L|417:204,1,45.2999986175538,0|8,3:0|0:0,0:0:0:0:
389,102,5487,2,0,L|340:107,1,45.2999986175538,8|10,0:1|0:2,0:0:0:0:
230,81,5654,1,2,0:0:0:0:
230,81,5821,6,0,P|229:126|223:171,1,90.5999972351075,0|0,3:0|0:0,0:0:0:0:
117,136,6071,2,0,P|71:136|26:142,1,90.5999972351075,2|0,0:1|0:0,0:0:0:0:
28,191,6321,1,0,0:0:0:0:
28,191,6487,1,2,0:0:0:0:
159,203,6654,1,0,3:0:0:0:
214,295,6821,1,8,0:1:0:0:
85,305,6987,1,2,0:0:0:0:
232,279,7154,2,0,P|305:274|356:275,1,90.5999972351075,0|0,3:0|0:0,0:0:0:0:
423,298,7404,2,0,P|427:229|420:139,1,135.899995852661,2|0,0:0|0:0,0:0:0:0:
296,46,7821,1,2,0:0:0:0:
296,46,7987,2,0,L|285:-25,1,45.2999986175538,0|8,3:0|0:0,0:0:0:0:
183,54,8154,2,0,L|175:98,1,45.2999986175538,8|10,0:1|0:2,0:0:0:0:
92,158,8321,1,2,0:0:0:0:
92,158,8487,6,0,L|-7:159,1,90.5999972351075,0|0,3:0|0:0,0:0:0:0:
89,275,8737,2,0,L|235:262,1,135.899995852661,2|0,0:0|0:0,0:0:0:0:
362,174,9154,1,2,0:0:0:0:
423,296,9321,1,0,3:0:0:0:
512,202,9487,1,8,0:1:0:0:
474,84,9654,2,0,P|433:73|383:67,1,90.5999972351075,2|0,0:0|3:0,0:0:0:0:
209,27,9987,2,0,L|157:38,2,45.2999986175538,0|2|8,3:0|3:2|0:1,0:0:0:0:
385,67,10321,1,0,0:0:0:0:
385,67,10487,2,0,L|396:127,1,45.2999986175538,2|0,3:0|0:0,0:0:0:0:
272,250,10654,2,0,P|293:201|310:177,1,45.2999986175538,0|0,3:0|0:0,0:0:0:0:
432,208,10821,1,8,0:1:0:0:
459,222,10904,1,0,0:0:0:0:
474,249,10987,2,0,P|483:269|490:290,1,45.2999986175538,2|0,0:0|0:0,0:0:0:0:
485,335,11154,6,0,P|408:373|337:311,1,181.199994470215,6|0,3:1|0:0,0:0:0:0:
27,49,11821,2,0,P|104:11|171:66,1,151,2|2,1:0|0:2,0:0:0:0:
201,139,12321,1,0,3:0:0:0:
97,166,12487,2,0,P|89:203|85:240,1,75.5,2|0,3:1|0:0,0:0:0:0:
195,259,12821,2,0,P|202:296|206:333,1,75.5,2|0,0:1|3:0,0:0:0:0:
198,373,13071,1,0,3:0:0:0:
198,373,13154,1,0,1:0:0:0:
342,384,13321,1,0,3:0:0:0:
16,165,13654,5,8,0:0:0:0:
130,144,13821,2,0,B|263:130,1,113.25,2|0,3:1|0:0,0:0:0:0:
275,151,14154,2,0,P|335:166|359:171,1,75.5,2|0,3:2|0:0,0:0:0:0:
494,188,14487,2,0,L|502:106,1,75.5,2|0,1:0|0:0,0:0:0:0:
502,75,14737,1,8,0:0:0:0:
500,37,14821,2,0,L|491:-24,2,37.75,2|0|0,0:0|0:0|3:0,0:0:0:0:
364,38,15154,2,0,P|326:39|288:38,2,75.5,2|0|2,3:1|0:0|0:1,0:0:0:0:
168,173,15654,2,0,L|105:181,2,37.75,0|0|0,3:0|3:0|1:0,0:0:0:0:
344,156,15987,1,0,3:0:0:0:
3,193,16321,5,8,0:0:0:0:
15,71,16487,2,0,P|65:34|129:39,1,113.25,2|0,3:1|0:0,0:0:0:0:
156,51,16821,2,0,L|243:63,1,75.5,2|0,0:0|0:0,0:0:0:0:
460,180,17154,2,0,P|400:175|361:163,1,75.5,2|0,1:0|0:0,0:0:0:0:
243,181,17487,1,2,0:0:0:0:
386,274,17654,1,0,3:0:0:0:
218,201,17821,2,0,L|204:106,1,75.5,2|0,3:1|0:0,0:0:0:0:
71,186,18154,2,0,P|43:212|3:254,1,75.5,2|0,0:0|3:0,0:0:0:0:
0,273,18404,2,0,L|6:331,1,37.75,0|0,3:0|1:0,0:0:0:0:
4,70,18654,1,0,3:0:0:0:
218,201,18987,5,8,0:0:0:0:
233,315,19154,2,0,P|294:349|357:342,1,113.25,2|0,3:1|0:0,0:0:0:0:
373,328,19487,2,0,L|378:230,1,75.5,2|0,3:2|0:0,0:0:0:0:
340,60,19821,2,0,L|444:49,1,75.5,2|0,1:0|0:0,0:0:0:0:
441,24,20071,1,8,0:0:0:0:
470,1,20154,2,0,L|523:4,2,37.75,2|0|0,0:0|0:0|3:0,0:0:0:0:
259,0,20487,1,2,3:1:0:0:
261,289,20821,1,2,0:0:0:0:
131,138,20987,2,0,L|94:134,1,37.75,2|0,3:2|3:0,0:0:0:0:
164,134,21154,2,0,P|176:200|163:296,1,151,2|2,1:0|0:3,0:0:0:0:
166,282,21654,1,2,0:0:0:0:
263,358,21821,6,0,P|313:329|370:326,1,90.5999972351075,6|0,3:2|0:0,0:0:0:0:
463,381,22071,2,0,P|449:339|450:294,1,90.5999972351075,2|0,0:0|0:0,0:0:0:0:
471,254,22321,1,0,0:0:0:0:
471,254,22487,1,2,0:0:0:0:
387,155,22654,1,0,3:0:0:0:
256,119,22821,1,8,0:1:0:0:
120,127,22987,1,2,0:0:0:0:
0,1,23154,2,0,L|117:6,1,90.5999972351075,0|0,3:0|0:0,0:0:0:0:
173,56,23404,2,0,P|243:42|281:43,1,90.5999972351075,2|0,0:0|0:0,0:0:0:0:
309,58,23654,1,0,0:0:0:0:
309,58,23821,1,2,0:0:0:0:
409,172,23987,2,0,L|405:234,1,45.2999986175538,0|8,3:0|0:0,0:0:0:0:
372,347,24154,2,0,L|367:302,1,45.2999986175538,8|8,0:1|0:2,0:0:0:0:
286,220,24321,1,2,0:0:0:0:
286,220,24487,6,0,B|158:232,1,90.5999972351075,0|0,3:0|0:0,0:0:0:0:
118,290,24737,2,0,P|59:254|21:224,1,90.5999972351075,2|0,0:0|0:0,0:0:0:0:
15,210,24987,1,0,0:0:0:0:
15,210,25154,1,2,0:0:0:0:
9,84,25321,1,0,3:0:0:0:
127,5,25487,1,8,0:1:0:0:
262,22,25654,1,2,0:0:0:0:
399,115,25821,6,0,P|460:118|512:150,1,90.5999972351075,0|0,3:0|0:0,0:0:0:0:
430,199,26071,2,0,B|396:234|396:234|411:342,1,135.899995852661,2|0,0:1|0:0,0:0:0:0:
281,370,26487,1,2,0:0:0:0:
281,370,26654,2,0,L|212:372,1,45.2999986175538,0|0,3:0|0:0,0:0:0:0:
176,233,26821,2,0,P|194:258|205:281,1,45.2999986175538,8|10,0:1|0:2,0:0:0:0:
72,320,26987,1,2,0:0:0:0:
72,320,27154,6,0,B|61:272|61:272|71:211,1,90.5999972351075,0|0,3:0|0:0,0:0:0:0:
162,157,27404,2,0,B|118:150|118:150|86:130|86:130|34:122,1,135.899995852661,2|0,0:1|0:0,0:0:0:0:
146,45,27821,1,2,0:0:0:0:
261,115,27987,1,0,3:0:0:0:
397,113,28154,1,8,0:1:0:0:
510,37,28321,1,2,0:0:0:0:
461,205,28487,2,0,P|390:219|340:225,1,90.5999972351075,0|0,3:0|0:0,0:0:0:0:
232,247,28737,2,0,P|287:265|333:290,1,90.5999972351075,2|0,0:0|0:0,0:0:0:0:
358,308,28987,1,0,0:0:0:0:
358,308,29154,1,2,0:0:0:0:
196,353,29321,2,0,L|131:341,1,45.2999986175538,0|8,3:0|0:0,0:0:0:0:
27,273,29487,2,0,P|91:257|100:257,1,45.2999986175538,8|10,0:1|0:2,0:0:0:0:
191,251,29654,1,2,0:0:0:0:
191,251,29821,6,0,P|193:187|192:141,1,90.5999972351075,0|0,3:0|0:0,0:0:0:0:
268,85,30071,2,0,P|322:79|377:74,1,90.5999972351075,2|0,0:0|0:0,0:0:0:0:
407,74,30321,1,0,0:0:0:0:
407,74,30487,1,2,0:0:0:0:
487,170,30654,1,0,3:0:0:0:
410,282,30821,1,8,0:1:0:0:
280,240,30987,2,0,P|236:242|165:257,1,90.5999972351075,2|0,0:0|3:0,0:0:0:0:
79,330,31321,2,0,L|2:322,2,45.2999986175538,0|2|8,3:0|3:2|0:1,0:0:0:0:
211,378,31654,1,0,0:0:0:0:
211,378,31821,2,0,L|216:311,1,45.2999986175538,2|0,3:0|0:0,0:0:0:0:
152,210,31987,2,0,P|84:213|71:219,1,45.2999986175538,0|0,3:0|0:0,0:0:0:0:
280,240,32154,1,8,0:1:0:0:
302,244,32237,1,0,0:0:0:0:
324,243,32321,2,0,P|391:239|404:233,1,45.2999986175538
442,207,32487,6,2,B|334:235|369:190|262:209,1,181.199994470215,6|2,3:1|0:0,0:0:0:0:
263,209,32987,1,0,0:0:0:0:
256,84,33154,2,2,L|86:83,1,151,2|2,1:0|0:2,0:0:0:0:
12,144,33654,1,0,3:0:0:0:
105,297,33821,2,2,L|204:289,2,75.5,2|0|2,3:1|0:0|0:1,0:0:0:0:
40,222,34321,1,0,3:0:0:0:
40,222,34404,1,0,3:0:0:0:
40,222,34487,1,2,1:3:0:0:
187,201,34654,1,0,3:0:0:0:
299,289,34821,1,2,0:2:0:0:
353,171,34987,1,2,1:3:0:0:
260,4,35154,6,2,B|236:72|236:72|264:161,1,151,2|2,3:1|3:2,0:0:0:0:
259,147,35654,1,0,0:0:0:0:
374,73,35821,2,2,L|440:83,2,37.75,2|0|0,1:0|0:0|0:0,0:0:0:0:
207,73,36154,2,0,P|138:88|110:99,1,75.5,2|0,0:0|3:0,0:0:0:0:
53,261,36487,2,2,P|103:283|177:299,1,113.25,2|0,3:1|0:0,0:0:0:0:
185,325,36821,2,0,L|236:317,1,37.75,2|0,0:1|0:0,0:0:0:0:
305,193,36987,2,0,L|296:256,1,37.75,0|0,3:0|3:0,0:0:0:0:
319,322,37154,1,2,1:3:0:0:
319,322,37321,1,2,3:0:0:0:
426,246,37487,2,0,P|464:241|514:239,1,75.5,2|8,0:2|0:0,0:0:0:0:
319,322,37821,6,2,P|279:262|320:184,1,151,6|2,3:1|0:0,0:0:0:0:
336,170,38237,2,0,L|391:176,1,37.75
262,82,38487,2,2,L|256:7,1,75.5,2|0,1:0|0:0,0:0:0:0:
74,80,38821,2,0,L|-25:66,1,75.5,2|0,0:0|3:0,0:0:0:0:
284,96,39154,1,2,3:1:0:0:
101,187,39321,1,0,0:0:0:0:
257,271,39487,2,0,P|262:308|265:346,1,75.5,2|2,0:1|3:0,0:0:0:0:
248,384,39737,1,0,3:0:0:0:
248,384,39821,1,2,1:3:0:0:
214,198,39987,1,0,3:0:0:0:
411,213,40154,1,2,0:0:0:0:
411,213,40487,6,2,P|430:162|437:130,1,75.5,2|0,3:1|0:0,0:0:0:0:
349,41,40821,2,0,P|295:50|264:59,1,75.5,2|0,3:2|0:0,0:0:0:0:
136,165,41154,1,2,1:0:0:0:
171,179,41237,2,0,L|271:174,1,75.5,0|8,0:0|0:0,0:0:0:0:
279,201,41487,2,0,L|378:188,1,75.5,2|0,0:0|3:0,0:0:0:0:
193,274,41821,2,0,B|104:284|130:255|21:280,1,151,2|2,3:1|0:2,0:0:0:0:
106,365,42321,1,2,3:0:0:0:
106,365,42404,1,0,3:0:0:0:
106,365,42487,1,0,1:0:0:0:
201,304,42654,1,2,3:0:0:0:
309,307,42821,2,0,L|401:322,1,75.5,2|0,0:2|0:0,0:0:0:0:
512,221,43154,5,6,0:0:0:0:
512,221,43487,1,0,0:0:0:0:
300,165,43821,1,2,0:0:0:0:
300,165,44154,1,0,0:0:0:0:
408,229,44487,1,2,0:0:0:0:
408,229,44821,1,0,0:0:0:0:
183,190,45154,1,2,0:0:0:0:
183,190,45487,2,0,P|177:142|180:93,1,90.5999972351075,0|2,0:0|0:0,0:0:0:0:
257,11,45821,5,2,0:0:0:0:
257,11,46154,1,0,0:0:0:0:
238,212,46487,1,2,0:0:0:0:
238,212,46821,1,0,0:0:0:0:
179,99,47154,1,2,0:0:0:0:
179,99,47487,1,0,0:0:0:0:
198,343,47821,1,2,0:0:0:0:
198,343,48154,1,0,0:0:0:0:
135,219,48487,1,6,0:0:0:0:
135,219,49821,5,2,0:0:0:0:
198,343,49987,1,0,0:0:0:0:
238,212,50154,1,2,0:0:0:0:
179,99,50321,1,0,0:0:0:0:
135,219,50487,2,0,B|89:219|89:219|13:203,1,90.5999972351075,2|0,0:0|0:0,0:0:0:0:
377,165,50821,2,0,B|423:165|423:165|499:181,1,90.5999972351075,2|0,0:0|0:0,0:0:0:0:
308,384,51154,6,0,P|284:352|328:271,1,135.899995852661,6|0,3:1|0:0,0:0:0:0:
364,263,51487,1,8,0:1:0:0:
204,274,51654,2,0,B|149:280|149:280|39:205,1,181.199994470215,2|2,0:1|3:2,0:0:0:0:
174,45,52154,2,0,P|191:103|197:141,1,90.5999972351075,10|0,0:1|0:0,0:0:0:0:
39,187,52487,5,2,3:1:0:0:
304,140,52654,1,0,0:0:0:0:
133,229,52821,1,8,0:1:0:0:
354,262,52987,1,2,3:1:0:0:
354,262,53321,1,0,3:0:0:0:
171,345,53487,1,8,0:1:0:0:
171,345,53821,6,0,P|159:275|158:242,1,90.5999972351075,2|0,3:1|0:0,0:0:0:0:
179,216,54071,1,2,0:2:0:0:
214,187,54154,2,0,P|289:223|388:203,1,181.199994470215,10|2,0:1|0:1,0:0:0:0:
467,75,54654,2,0,P|421:66|375:67,1,90.5999972351075,0|8,3:0|0:1,0:0:0:0:
268,115,54987,1,2,0:0:0:0:
392,199,55154,5,2,3:1:0:0:
131,166,55321,2,0,P|128:107|130:47,1,90.5999972351075,0|8,0:0|0:1,0:0:0:0:
303,203,55654,2,0,P|307:299|304:398,1,181.199994470215,2|0,0:1|3:0,0:0:0:0:
28,155,56154,2,0,L|178:149,1,135.899995852661,10|0,0:1|0:0,0:0:0:0:
210,167,56487,5,6,0:0:0:0:
210,167,56654,1,0,0:0:0:0:
335,103,56821,1,8,0:1:0:0:
335,103,56987,1,0,0:0:0:0:
326,245,57154,2,0,L|448:256,1,90.5999972351075,2|0,3:2|0:0,0:0:0:0:
176,360,57487,2,0,L|287:353,1,90.5999972351075,8|0,0:1|0:0,0:0:0:0:
92,185,57821,2,0,L|203:192,1,90.5999972351075,2|0,3:1|0:0,0:0:0:0:
335,103,58154,2,0,P|429:111|496:111,1,135.899995852661,8|0,0:1|0:0,0:0:0:0:
500,145,58487,2,0,L|512:251,1,90.5999972351075,2|0,3:2|0:0,0:0:0:0:
305,39,58821,2,0,L|300:151,1,90.5999972351075,8|0,0:1|0:0,0:0:0:0:
250,302,59154,5,6,3:2:0:0:
250,302,59321,1,0,0:0:0:0:
106,203,59487,1,10,0:1:0:0:
106,203,59654,1,0,0:0:0:0:
163,65,59821,2,0,P|216:56|261:58,1,90.5999972351075,2|0,3:2|0:0,0:0:0:0:
260,211,60154,2,0,P|313:220|358:218,1,90.5999972351075,10|0,0:1|0:0,0:0:0:0:
465,108,60487,5,6,3:2:0:0:
465,108,60654,1,0,0:0:0:0:
512,283,60821,1,10,0:1:0:0:
512,283,60987,1,0,0:0:0:0:
359,371,61154,2,0,P|338:325|323:271,1,90.5999972351075,2|0,3:2|0:0,0:0:0:0:
184,218,61487,2,0,P|205:172|231:78,1,135.899995852661,10|0,0:1|0:0,0:0:0:0:
226,51,61821,1,6,0:1:0:0:
360,84,71154,6,0,L|487:89,2,113.25
249,47,71821,1,0,3:0:0:0:
249,47,71987,1,0,3:0:0:0:
196,166,72154,2,0,P|179:153|158:130,1,37.75,8|8,0:1|0:1,0:0:0:0:
313,153,72321,2,0,P|310:174|300:203,1,37.75,8|8,0:1|0:1,0:0:0:0:
291,231,72487,6,2,P|314:290|348:342,1,113.25,6|0,3:1|0:0,0:0:0:0:
369,355,72821,2,0,L|467:349,1,75.5,2|0,0:0|3:0,0:0:0:0:
291,231,73154,2,2,P|236:217|179:216,1,113.25,2|0,1:0|0:0,0:0:0:0:
152,241,73487,2,0,P|132:208|112:160,1,75.5,2|0,0:2|3:0,0:0:0:0:
196,19,73821,2,2,L|295:24,2,75.5,2|0|2,3:1|0:0|3:1,0:0:0:0:
163,363,74487,1,2,1:3:0:0:
163,363,74654,1,8,0:0:0:0:
152,241,74821,2,0,L|21:246,1,113.25,2|0,0:2|0:0,0:0:0:0:
2,256,75154,6,2,L|10:163,1,75.5,2|0,3:1|3:0,0:0:0:0:
181,130,75487,1,2,0:2:0:0:
150,108,75571,2,0,L|141:26,1,75.5
161,0,75821,2,2,L|79:9,1,75.5,2|0,1:0|3:0,0:0:0:0:
283,125,76154,2,0,L|376:142,1,75.5,2|0,0:0|0:0,0:0:0:0:
243,25,76487,1,2,3:1:0:0:
229,200,76654,1,0,0:0:0:0:
383,122,76821,1,2,3:1:0:0:
47,158,77154,1,2,1:3:0:0:
351,293,77487,2,0,L|354:384,1,75.5,2|0,0:2|0:0,0:0:0:0:
77,340,77821,6,2,P|152:345|227:355,1,151,6|2,3:1|0:0,0:0:0:0:
354,369,78321,1,0,3:0:0:0:
302,249,78487,2,2,L|390:259,1,75.5,2|0,1:0|3:0,0:0:0:0:
327,96,78821,2,0,P|323:62|313:22,1,75.5,2|0,0:0|3:0,0:0:0:0:
58,211,79154,2,0,L|130:192,1,75.5,2|0,3:1|0:0,0:0:0:0:
199,90,79487,1,2,3:1:0:0:
435,342,79821,1,2,1:3:0:0:
435,342,79987,1,8,0:0:0:0:
445,194,80154,1,2,0:0:0:0:
445,194,80487,6,2,P|385:202|328:250,1,113.25,2|0,3:1|0:0,0:0:0:0:
331,268,80821,2,0,L|343:306,2,37.75,2|8|0,0:2|0:0|3:0,0:0:0:0:
214,156,81154,2,2,P|154:163|114:175,1,75.5,2|0,1:0|0:0,0:0:0:0:
172,359,81487,2,0,P|112:352|47:327,1,113.25,2|0,0:0|0:0,0:0:0:0:
32,312,81821,2,0,B|6:238|6:238|39:142,1,151,2|2,3:1|3:2,0:0:0:0:
140,34,82321,1,2,1:0:0:0:
168,45,82404,1,8,1:2:0:0:
199,57,82487,2,0,L|238:52,1,37.75,2|0,3:1|3:0,0:0:0:0:
323,0,82654,2,0,L|362:5,2,37.75,8|0|8,3:0|3:0|0:3,0:0:0:0:
194,236,82987,1,8,1:0:0:0:
194,236,83071,1,0,1:0:0:0:
194,236,83154,6,0,P|201:281|210:344,1,90.5999972351075,6|0,3:2|0:0,0:0:0:0:
306,366,83404,2,0,P|350:342|416:351,1,90.5999972351075,2|0,0:0|0:0,0:0:0:0:
491,364,83654,2,0,P|487:341|484:319,1,45.2999986175538,0|0,3:0|0:0,0:0:0:0:
457,282,83821,1,2,0:0:0:0:
348,212,83987,1,0,3:0:0:0:
332,77,84154,1,8,0:1:0:0:
447,4,84321,1,2,0:0:0:0:
310,106,84487,2,0,P|242:111|184:114,1,90.5999972351075,0|0,3:0|0:0,0:0:0:0:
144,59,84737,2,0,P|76:54|18:51,1,90.5999972351075,2|0,0:0|0:0,0:0:0:0:
0,123,84987,2,0,L|2:192,1,45.2999986175538,0|0,3:0|0:0,0:0:0:0:
27,205,85154,1,2,0:0:0:0:
171,295,85321,1,0,3:0:0:0:
192,266,85404,1,0,0:0:0:0:
200,229,85487,2,0,L|155:210,1,45.2999986175538,8|8,0:1|0:0,0:0:0:0:
284,273,85654,2,0,L|328:265,1,45.2999986175538,2|8,0:0|0:0,0:0:0:0:
364,247,85821,6,0,P|409:251|477:265,1,90.5999972351075,0|0,3:0|0:0,0:0:0:0:
438,384,86071,2,0,P|393:380|325:366,1,90.5999972351075,2|0,0:0|0:0,0:0:0:0:
277,317,86321,2,0,L|286:255,1,45.2999986175538,0|0,3:0|0:0,0:0:0:0:
264,231,86487,1,2,0:0:0:0:
276,102,86654,1,0,3:0:0:0:
163,25,86821,1,8,0:1:0:0:
28,40,86987,1,2,0:0:0:0:
211,139,87154,6,0,P|256:135|301:132,1,90.5999972351075,0|0,3:0|0:0,0:0:0:0:
387,62,87404,2,0,L|449:70,2,45.2999986175538,2|0|0,0:1|0:0|0:0,0:0:0:0:
302,20,87654,1,0,3:0:0:0:
302,20,87821,1,2,0:0:0:0:
388,173,87987,1,0,3:0:0:0:
410,175,88071,1,0,0:0:0:0:
432,178,88154,2,0,P|446:213|460:252,1,45.2999986175538,8|8,0:1|0:0,0:0:0:0:
510,303,88321,2,0,P|501:324|493:345,1,45.2999986175538,2|8,0:0|0:0,0:0:0:0:
462,364,88487,6,0,P|420:344|362:340,1,90.5999972351075,0|0,3:0|0:0,0:0:0:0:
257,372,88737,2,0,L|187:364,2,45.2999986175538,2|0|0,0:1|0:0|0:0,0:0:0:0:
303,285,88987,1,0,3:0:0:0:
303,285,89154,1,2,0:0:0:0:
177,231,89321,1,0,3:0:0:0:
132,120,89487,1,8,0:1:0:0:
14,50,89654,1,2,0:0:0:0:
227,44,89821,2,0,P|251:97|262:148,1,90.5999972351075,0|0,3:0|0:0,0:0:0:0:
314,230,90071,2,0,P|361:246|411:259,1,90.5999972351075,2|0,0:0|0:0,0:0:0:0:
439,160,90321,2,0,L|505:148,1,45.2999986175538,0|0,3:0|0:0,0:0:0:0:
512,117,90487,1,2,0:0:0:0:
486,312,90654,1,0,3:0:0:0:
459,308,90737,1,0,0:0:0:0:
430,305,90821,2,0,L|368:297,1,45.2999986175538,8|8,0:1|0:0,0:0:0:0:
258,298,90987,2,0,P|236:300|201:306,1,45.2999986175538,2|8,0:0|0:0,0:0:0:0:
173,328,91154,6,0,P|129:323|70:316,1,90.5999972351075,0|0,3:0|0:0,0:0:0:0:
0,207,91404,2,0,P|44:201|89:196,1,90.5999972351075,2|0,0:0|0:0,0:0:0:0:
206,212,91654,2,0,P|222:188|240:157,1,45.2999986175538,0|0,3:0|0:0,0:0:0:0:
234,128,91821,1,2,0:0:0:0:
355,76,91987,1,0,3:0:0:0:
475,138,92154,1,8,0:1:0:0:
495,272,92321,1,2,0:0:0:0:
292,377,92487,2,0,P|284:321|278:245,1,90.5999972351075,0|0,3:0|0:0,0:0:0:0:
206,212,92737,2,0,P|214:156|220:80,1,90.5999972351075,2|0,3:2|0:0,0:0:0:0:
320,77,92987,2,0,L|320:22,1,45.2999986175538,0|0,3:0|0:0,0:0:0:0:
285,2,93154,1,2,0:2:0:0:
152,3,93321,1,0,3:0:0:0:
328,172,93487,1,10,0:1:0:0:
466,169,93654,1,0,0:0:0:0:
466,169,93737,1,8,0:0:0:0:
466,169,93821,6,0,B|491:255|491:255|461:367,1,181.199994470215,6|10,3:2|0:1,0:0:0:0:
304,384,94321,1,0,3:0:0:0:
256,202,94487,1,2,0:2:0:0:
147,249,94654,1,0,3:0:0:0:
361,264,94821,1,10,0:1:0:0:
361,264,95154,2,0,L|370:170,1,75.5,2|2,3:1|0:0,0:0:0:0:
500,329,95487,1,10,0:1:0:0:
304,384,95654,1,2,3:0:0:0:
304,384,95987,1,0,3:0:0:0:
368,188,96154,2,0,L|276:172,1,75.5,8|0,0:1|0:0,0:0:0:0:
258,159,96404,1,2,0:0:0:0:
224,142,96487,6,0,P|186:143|131:150,1,75.5,2|0,3:1|0:0,0:0:0:0:
162,302,96821,2,0,P|116:277|54:268,1,113.25,8|0,0:1|0:0,0:0:0:0:
20,279,97154,1,2,0:1:0:0:
223,233,97321,1,0,3:0:0:0:
186,105,97487,1,8,0:1:0:0:
186,105,97821,2,0,P|176:38|186:6,1,75.5,2|0,3:1|0:0,0:0:0:0:
383,94,98154,1,10,0:1:0:0:
424,295,98321,1,2,3:0:0:0:
424,295,98654,1,0,3:0:0:0:
286,295,98821,2,0,P|276:362|286:394,1,75.5,8|0,0:1|0:0,0:0:0:0:
314,378,99071,1,2,0:0:0:0:
351,382,99154,6,0,L|444:376,1,75.5,2|0,3:2|0:0,0:0:0:0:
511,238,99487,2,0,P|433:207|371:217,1,113.25,10|0,0:1|0:0,0:0:0:0:
369,220,99821,1,2,0:2:0:0:
380,57,99987,1,0,3:0:0:0:
220,55,100154,1,10,0:1:0:0:
220,55,100321,1,0,0:0:0:0:
229,244,100487,2,0,P|188:242|150:239,1,75.5,2|2,3:1|0:0,0:0:0:0:
88,128,100821,1,10,0:1:0:0:
269,351,100987,1,2,3:0:0:0:
269,351,101321,1,0,3:0:0:0:
321,162,101487,2,0,B|341:213|350:261,1,75.5,8|0,0:1|0:0,0:0:0:0:
354,271,101737,1,2,0:0:0:0:
378,303,101821,6,0,P|424:311|483:318,1,75.5,2|0,3:1|0:0,0:0:0:0:
512,105,102154,2,0,P|474:110|437:116,1,75.5,10|0,0:1|0:0,0:0:0:0:
228,206,102487,1,2,0:1:0:0:
228,206,102821,2,0,L|233:103,1,75.5,8|0,0:1|0:0,0:0:0:0:
102,73,103154,1,2,3:1:0:0:
88,229,103321,1,0,0:0:0:0:
252,221,103487,1,10,0:1:0:0:
333,371,103654,1,2,3:0:0:0:
333,371,103987,1,0,3:0:0:0:
437,273,104154,2,0,L|540:278,1,75.5,10|0,0:1|0:0,0:0:0:0:
353,120,104487,6,0,P|315:79|238:126,1,151,6|8,0:0|0:1,0:0:0:0:
199,253,104987,1,0,3:0:0:0:
70,149,105154,2,0,P|59:87|57:59,1,67.9499979263306,2|0,0:0|3:0,0:0:0:0:
164,37,105487,1,8,0:1:0:0:
51,170,105654,1,0,0:0:0:0:
232,248,105821,6,0,B|253:312|253:312|238:399,1,135.899995852661,2|8,3:2|0:1,0:0:0:0:
374,127,106404,1,0,0:0:0:0:
386,158,106487,2,0,L|378:256,1,67.9499979263306,2|0,0:0|3:0,0:0:0:0:
181,150,106821,2,0,L|189:243,1,67.9499979263306,8|2,0:1|3:0,0:0:0:0:
176,250,107071,1,0,3:0:0:0:
156,277,107154,6,0,P|110:292|66:211,1,135.899995852661,2|8,3:2|0:1,0:0:0:0:
176,65,107654,1,0,3:0:0:0:
315,249,107821,2,0,P|370:241|394:233,1,67.9499979263306,2|0,0:1|3:0,0:0:0:0:
484,155,108154,1,8,0:1:0:0:
484,155,108487,6,0,P|478:90|462:4,1,135.899995852661,2|8,3:1|0:1,0:0:0:0:
350,96,108987,1,0,3:0:0:0:
136,80,109154,2,0,P|138:34|144:0,1,67.9499979263306,2|0,0:1|3:0,0:0:0:0:
280,7,109487,1,4,1:2:0:0:
280,7,109821,5,2,3:1:0:0:
256,192,109987,1,8,0:1:0:0:
256,192,110321,1,0,3:0:0:0:
198,98,110487,1,8,0:1:0:0:
331,147,110654,1,0,3:0:0:0:
314,286,110821,1,0,0:0:0:0:
181,237,110987,1,8,0:1:0:0:
150,159,111154,5,2,3:2:0:0:
228,275,111321,1,0,0:0:0:0:
361,224,111487,1,2,0:0:0:0:
283,108,111654,1,0,0:0:0:0:
314,286,111821,2,0,B|350:319|350:319|390:336,1,90.5999972351075,2|0,0:0|0:0,0:0:0:0:
198,98,112154,2,0,B|162:65|162:65|122:48,1,90.5999972351075,2|0,0:0|0:0,0:0:0:0:
59,286,112487,6,0,P|131:310|162:260,1,135.899995852661,6|0,3:1|0:0,0:0:0:0:
167,224,112821,1,8,0:1:0:0:
285,297,112987,2,0,B|392:288|361:333|488:302,1,181.199994470215,2|2,0:1|3:2,0:0:0:0:
245,72,113487,2,0,B|257:161,1,90.5999972351075,8|0,0:1|0:0,0:0:0:0:
417,204,113821,5,2,3:1:0:0:
222,189,113987,1,0,0:0:0:0:
438,163,114154,1,8,0:1:0:0:
185,314,114321,1,2,3:1:0:0:
185,314,114654,1,0,3:0:0:0:
351,378,114821,1,8,0:1:0:0:
351,378,115154,6,0,B|340:306|340:306|359:223,1,135.899995852661,2|0,3:1|0:0,0:0:0:0:
376,204,115487,1,8,0:1:0:0:
193,197,115654,2,0,B|150:157|150:157|108:23,1,181.199994470215,2|0,3:1|3:0,0:0:0:0:
359,53,116154,2,0,P|344:97|319:140,1,90.5999972351075,8|2,0:1|0:0,0:0:0:0:
297,331,116487,5,2,3:1:0:0:
105,218,116654,2,0,P|160:200|218:198,1,90.5999972351075,0|8,0:0|0:1,0:0:0:0:
322,337,116987,2,0,P|382:351|470:250,1,181.199994470215,2|0,0:1|3:0,0:0:0:0:
193,197,117487,2,0,P|164:142|136:73,1,135.899995852661,10|0,0:1|0:0,0:0:0:0:
128,34,117821,5,6,0:0:0:0:
128,34,117987,1,0,0:0:0:0:
22,153,118154,1,8,0:1:0:0:
22,153,118321,1,0,0:0:0:0:
117,281,118487,2,0,B|237:283,1,90.5999972351075,2|0,3:2|0:0,0:0:0:0:
241,132,118821,2,0,B|361:130,1,90.5999972351075,8|0,0:1|0:0,0:0:0:0:
281,337,119154,2,0,B|401:339,1,90.5999972351075,2|0,3:1|0:0,0:0:0:0:
361,109,119487,2,0,P|410:114|469:128,1,90.5999972351075,8|0,0:1|0:0,0:0:0:0:
450,371,119821,2,0,B|471:308|471:308|446:230,1,135.899995852661,2|0,3:2|0:0,0:0:0:0:
411,215,120154,2,0,L|308:217,1,90.5999972351075,8|0,0:1|0:0,0:0:0:0:
206,137,120487,5,6,3:2:0:0:
206,137,120654,1,0,0:0:0:0:
89,256,120821,2,0,L|-14:239,1,90.5999972351075,10|0,0:1|0:0,0:0:0:0:
91,109,121154,1,2,3:2:0:0:
91,109,121321,1,0,0:0:0:0:
188,270,121487,2,0,L|205:379,1,90.5999972351075,10|0,0:1|0:0,0:0:0:0:
296,106,121821,5,6,3:2:0:0:
296,106,121987,1,0,0:0:0:0:
415,316,122154,2,0,P|323:299|286:287,1,90.5999972351075,10|0,0:1|0:0,0:0:0:0:
91,109,122487,2,0,P|134:62|216:51,1,135.899995852661,2|0,3:2|0:0,0:0:0:0:
241,24,122821,2,0,L|308:26,1,45.2999986175538,10|2,0:1|0:0,0:0:0:0:
373,76,122987,2,0,L|445:67,1,45.2999986175538,8|8,0:2|0:2,0:0:0:0:
475,184,123154,6,0,P|451:174|404:162,1,45.2999986175538,6|0,3:0|0:0,0:0:0:0:
297,175,123321,2,0,P|305:206|312:238,1,45.2999986175538,2|0,0:2|0:0,0:0:0:0:
404,284,123487,1,8,0:1:0:0:
248,108,123654,2,0,P|280:190|201:252,1,181.199994470215,8|0,0:3|3:0,0:0:0:0:
34,325,124154,1,8,0:3:0:0:
45,295,124237,1,0,0:0:0:0:
70,277,124321,1,2,0:0:0:0:
101,274,124404,1,0,0:0:0:0:
127,288,124487,6,0,P|131:314|134:340,1,45.2999986175538,6|0,3:0|0:0,0:0:0:0:
273,323,124654,2,0,L|326:328,2,45.2999986175538,2|0|8,0:2|0:0|0:1,0:0:0:0:
135,197,124987,2,0,B|254:182|203:229|350:194,1,181.199994470215,8|0,0:3|3:0,0:0:0:0:
469,32,125487,1,8,0:3:0:0:
442,15,125571,1,0,0:0:0:0:
410,14,125654,1,2,0:0:0:0:
382,28,125737,1,0,0:0:0:0:
364,54,125821,6,0,P|299:53|250:52,1,90.5999972351075,6|0,3:0|0:0,0:0:0:0:
236,22,126071,2,0,L|177:43,1,45.2999986175538,0|8,0:0|0:1,0:0:0:0:
239,186,126321,2,0,L|284:199,1,45.2999986175538,8|0,0:3|0:0,0:0:0:0:
358,245,126487,2,0,L|394:296,2,45.2999986175538,2|0|0,0:0|0:0|3:0,0:0:0:0:
92,141,126821,1,8,0:3:0:0:
62,149,126904,1,0,0:0:0:0:
48,176,126987,1,2,0:3:0:0:
58,205,127071,1,0,0:0:0:0:
87,216,127154,6,0,P|96:243|101:271,2,45.2999986175538,4|0|2,3:0|0:0|0:3,0:0:0:0:
183,53,127487,2,0,P|174:79|168:107,1,45.2999986175538,8|0,0:1|0:0,0:0:0:0:
237,181,127654,2,0,P|273:169|293:160,1,45.2999986175538,10|0,0:3|0:0,0:0:0:0:
357,101,127821,2,0,P|382:103|425:111,2,45.2999986175538,4|0|2,0:1|0:0|0:3,0:0:0:0:
324,253,128154,1,8,0:3:0:0:
325,284,128237,1,0,0:0:0:0:
342,310,128321,1,2,0:3:0:0:
369,326,128404,1,0,0:0:0:0:
400,325,128487,6,0,L|478:311,2,45.2999986175538,4|0|2,3:1|0:0|0:3,0:0:0:0:
178,246,128821,2,0,L|100:232,2,45.2999986175538,8|0|10,0:1|0:0|0:3,0:0:0:0:
338,129,129154,1,2,0:2:0:0:
338,129,129237,1,0,0:0:0:0:
338,129,129321,1,2,3:0:0:0:
297,327,129487,2,0,L|287:391,1,45.2999986175538,8|0,0:3|0:0,0:0:0:0:
169,215,129654,2,0,L|174:270,1,45.2999986175538,2|0,0:3|0:0,0:0:0:0:
133,382,129821,6,0,L|61:375,2,45.2999986175538,4|0|2,3:0|0:0|0:3,0:0:0:0:
354,235,130154,2,0,L|430:250,2,45.2999986175538,8|0|10,0:1|0:0|0:3,0:0:0:0:
142,108,130487,1,2,0:0:0:0:
142,108,130571,1,0,0:0:0:0:
142,108,130654,1,2,3:0:0:0:
302,21,130821,2,0,P|351:34|371:47,1,45.2999986175538,8|0,0:3|0:0,0:0:0:0:
433,101,130987,2,0,P|458:147|462:169,1,45.2999986175538,2|0,0:3|0:0,0:0:0:0:
465,181,131154,5,4,3:0:0:0:
437,196,131237,1,0,0:0:0:0:
406,200,131321,1,2,0:3:0:0:
376,190,131404,1,0,0:0:0:0:
352,169,131487,1,8,0:1:0:0:
318,61,131654,1,10,0:3:0:0:
215,97,131821,1,2,0:0:0:0:
187,112,131904,1,0,0:0:0:0:
156,116,131987,1,2,3:0:0:0:
126,106,132071,1,0,0:0:0:0:
102,85,132154,2,0,L|44:93,2,45.2999986175538,8|0|2,0:3|0:0|0:3,0:0:0:0:
191,187,132487,5,4,3:1:0:0:
198,217,132571,1,0,0:0:0:0:
201,249,132654,1,2,0:3:0:0:
201,281,132737,1,0,0:0:0:0:
197,312,132821,2,0,L|132:302,1,45.2999986175538,8|0,0:1|0:0,0:0:0:0:
44,258,132987,2,0,L|-15:265,1,45.2999986175538,10|0,0:3|0:0,0:0:0:0:
90,160,133154,1,2,0:0:0:0:
120,153,133237,1,0,0:0:0:0:
152,150,133321,1,2,3:0:0:0:
408,156,133487,2,0,L|398:91,1,45.2999986175538,8|0,0:3|0:0,0:0:0:0:
294,205,133654,2,0,L|285:293,1,45.2999986175538,8|8,0:2|0:2,0:0:0:0:
358,345,133821,1,6,3:1:0:0:
358,345,134154,6,0,P|421:349|487:354,1,90.5999972351075,8|2,0:1|0:1,0:0:0:0:
333,115,134487,2,0,P|265:122|222:136,1,90.5999972351075,2|0,3:2|0:0,0:0:0:0:
207,155,134737,1,0,0:0:0:0:
171,183,134821,2,0,L|60:173,1,90.5999972351075,10|0,0:1|0:0,0:0:0:0:
54,327,135154,6,0,L|5:326,2,45.2999986175538,2|0|0,3:1|0:0|0:0,0:0:0:0:
136,164,135487,1,8,0:1:0:0:
136,164,135571,1,0,0:0:0:0:
136,164,135654,1,2,0:1:0:0:
280,331,135821,1,0,3:0:0:0:
280,331,135904,1,0,0:0:0:0:
280,331,135987,2,0,L|276:376,1,45.2999986175538,2|0,0:0|0:0,0:0:0:0:
392,257,136154,2,0,L|406:320,2,45.2999986175538,10|8|0,0:1|0:0|0:0,0:0:0:0:
312,130,136487,5,6,3:1:0:0:
312,130,136571,1,0,0:0:0:0:
312,130,136654,1,0,0:0:0:0:
133,258,136821,2,0,L|68:253,2,45.2999986175538,8|0|2,0:1|0:0|0:1,0:0:0:0:
200,130,137154,1,0,3:0:0:0:
200,130,137237,1,0,0:0:0:0:
200,130,137321,1,0,0:0:0:0:
379,258,137487,2,0,L|444:253,1,45.2999986175538,10|0,0:1|0:0,0:0:0:0:
470,251,137654,2,0,L|460:140,1,90.5999972351075,0|2,0:0|3:1,0:0:0:0:
317,25,137987,5,2,0:0:0:0:
317,25,138071,1,0,0:0:0:0:
317,25,138154,2,0,L|326:106,1,45.2999986175538,8|0,0:1|0:0,0:0:0:0:
217,146,138321,1,2,0:1:0:0:
217,146,138404,1,0,0:0:0:0:
217,146,138487,2,0,L|226:64,1,45.2999986175538,0|0,3:0|0:0,0:0:0:0:
317,176,138654,6,0,P|368:186|390:191,1,45.2999986175538,8|8,3:1|0:1,0:0:0:0:
271,280,138821,2,0,L|187:293,1,45.2999986175538,2|8,3:1|0:0,0:0:0:0:
447,266,138987,2,0,L|448:328,1,45.2999986175538,8|8,0:1|0:1,0:0:0:0:
354,375,139154,1,6,0:0:0:0:
256,192,139283,12,0,142788,0:0:0:0:
208,233,144345,5,0,0:0:0:0:
208,233,144487,2,0,B|193:184|193:184|202:130,1,94.375,6|0,3:1|0:0,0:0:0:0:
312,333,144820,1,8,0:1:0:0:
325,160,144987,2,0,B|427:138|410:178|532:145,1,188.75,2|2,0:1|0:2,0:0:0:0:
278,56,145487,1,8,0:1:0:0:
434,67,145653,1,0,0:0:0:0:
264,32,145820,5,2,3:1:0:0:
95,63,145987,1,0,0:0:0:0:
153,224,146153,1,8,0:1:0:0:
325,160,146320,1,2,3:1:0:0:
325,160,146487,2,0,L|321:292,1,94.375,0|0,3:0|0:0,0:0:0:0:
154,111,146820,1,8,0:1:0:0:
220,350,146987,5,2,0:0:0:0:
220,350,147153,2,0,B|228:303|228:303|213:242,1,94.375,2|0,3:1|0:0,0:0:0:0:
68,143,147487,1,8,0:1:0:0:
0,303,147653,2,0,P|96:341|133:269,1,188.75,2|2,0:1|0:2,0:0:0:0:
106,35,148153,1,8,0:1:0:0:
75,176,148320,1,2,0:0:0:0:
226,50,148487,5,2,3:1:0:0:
324,188,148653,1,0,0:0:0:0:
400,33,148820,1,8,0:1:0:0:
205,160,148987,2,0,B|216:267,2,94.375,2|0|0,0:1|0:0|0:0,0:0:0:0:
412,137,149487,2,0,P|433:211|418:300,1,141.5625,10|0,0:1|0:0,0:0:0:0:
420,324,149820,5,6,0:0:0:0:
420,324,149987,1,0,0:0:0:0:
184,293,150153,1,8,0:1:0:0:
184,293,150320,1,0,0:0:0:0:
365,374,150487,2,0,B|319:375|319:375|265:363,1,94.375,2|0,3:2|0:0,0:0:0:0:
86,172,150820,2,0,B|132:171|132:171|179:181,1,94.375,8|0,0:1|0:0,0:0:0:0:
456,198,151153,1,2,3:1:0:0:
456,198,151320,1,0,0:0:0:0:
310,39,151487,2,0,L|329:144,1,94.375,8|0,0:1|0:0,0:0:0:0:
295,288,151820,1,2,3:2:0:0:
295,288,151987,1,0,0:0:0:0:
164,60,152153,2,0,L|144:221,1,141.5625,8|0,0:1|0:0,0:0:0:0:
121,241,152487,6,0,L|9:228,1,94.375,6|0,3:2|0:0,0:0:0:0:
329,335,152820,2,0,P|262:333|195:321,1,94.375,10|0,0:1|0:0,0:0:0:0:
488,213,153153,2,0,P|421:215|354:227,1,94.375,2|0,3:2|0:0,0:0:0:0:
281,240,153487,1,10,0:1:0:0:
281,240,153820,2,0,L|266:133,1,94.375,6|2,3:2|0:3,0:0:0:0:
107,334,154153,2,0,L|122:227,1,94.375,10|2,0:1|0:3,0:0:0:0:
105,22,154487,2,0,P|65:73|116:132,1,141.5625,2|0,3:2|0:0,0:0:0:0:
146,149,154820,1,10,0:1:0:0:
366,150,154987,1,2,0:3:0:0:
265,289,155153,5,6,3:2:0:0:
250,99,155320,1,8,0:2:0:0:
366,150,155487,1,8,0:1:0:0:
143,149,155653,2,0,L|129:312,1,141.5625,2|0,0:1|0:0,0:0:0:0:
101,323,155987,1,8,0:1:0:0:
266,191,156153,2,0,P|263:140|243:85,1,94.375,2|0,3:1|0:0,0:0:0:0:
73,37,156487,5,4,3:1:0:0:
219,217,156653,2,0,B|268:226|268:226|326:215,1,94.375,2|8,0:1|0:1,0:0:0:0:
439,149,156987,1,2,0:0:0:0:
462,351,157153,2,0,P|414:323|318:334,1,141.5625,2|0,3:1|0:0,0:0:0:0:
291,354,157487,1,8,0:1:0:0:
455,240,157653,6,0,B|455:195|455:195|439:149,1,94.375,2|4,0:1|3:1,0:0:0:0:
362,9,157987,1,0,0:0:0:0:
213,166,158153,2,0,P|129:151|95:145,1,94.375,10|0,0:1|0:0,0:0:0:0:
180,25,158487,1,0,3:0:0:0:
326,212,158653,2,0,P|334:278|333:328,1,94.375,2|8,0:1|0:1,0:0:0:0:
285,80,158986,1,0,0:0:0:0:
220,258,159153,5,6,3:1:0:0:
47,253,159320,1,8,0:0:0:0:
245,232,159486,1,8,0:1:0:0:
0,148,159653,2,0,B|114:130|79:177|209:147,1,188.75,2|0,0:1|0:0,0:0:0:0:
315,91,160153,2,0,P|340:51|360:8,1,94.375,10|0,3:1|0:0,0:0:0:0:
297,200,160486,5,4,3:1:0:0:
439,155,160653,2,0,P|464:230|470:288,1,94.375,2|8,0:1|0:1,0:0:0:0:
384,379,160986,1,0,0:0:0:0:
201,269,161153,2,0,P|166:240|58:283,1,141.5625,2|0,3:1|0:0,0:0:0:0:
61,299,161486,1,8,0:1:0:0:
157,123,161653,6,0,P|206:112|273:97,1,94.375,2|0,0:1|3:0,0:0:0:0:
382,22,161986,1,0,0:0:0:0:
445,214,162153,2,0,L|330:202,1,94.375,10|0,0:1|0:0,0:0:0:0:
371,43,162486,1,0,3:0:0:0:
243,206,162653,2,0,P|255:275|266:322,1,94.375,2|8,0:1|0:1,0:0:0:0:
397,328,162986,1,0,0:0:0:0:
203,383,163153,6,0,B|153:358|153:358|97:234,1,188.75,2|8,3:1|0:1,0:0:0:0:
149,28,163653,2,0,P|147:119|140:152,1,94.375,2|0,0:1|3:0,0:0:0:0:
18,153,163986,1,0,0:0:0:0:
259,208,164153,2,0,P|257:117|242:54,1,141.5625,10|0,0:1|0:0,0:0:0:0:
231,18,164486,5,6,0:0:0:0:
391,118,164653,2,2,L|383:300,1,152.88750058322,2|0,0:0|0:0,0:0:0:0:
402,318,164986,5,2,0:0:0:0:
164,152,165153,2,2,L|177:271,1,101.925000388813,2|0,0:0|0:0,0:0:0:0:
306,235,165486,5,2,0:0:0:0:
40,215,165653,2,2,L|29:324,1,101.925000388813,2|0,0:0|0:0,0:0:0:0:
174,384,165986,5,2,0:0:0:0:
274,184,166153,2,2,L|284:346,1,152.88750058322,2|0,0:0|0:0,0:0:0:0:
310,381,166486,5,2,0:0:0:0:
149,110,166653,2,2,L|139:262,1,152.88750058322,0|0,0:0|0:0,0:0:0:0:
367,353,167078,6,0,B|419:368|419:368|488:363,1,101.925000388813,2|2,0:0|0:0,0:0:0:0:
475,236,167436,2,2,B|427:232|427:232|375:247,1,101.925000388813
276,312,167872,1,2,0:0:0:0:
324,100,168039,1,12,0:0:0:0:
