osu file format v14

[General]
AudioFilename: audio.mp3
AudioLeadIn: 0
PreviewTime: 2007
Countdown: 1
SampleSet: Soft
StackLeniency: 0.2
Mode: 0
LetterboxInBreaks: 0
WidescreenStoryboard: 1

[Editor]
Bookmarks: 6007,51070,55070,59070,63070,65070
DistanceSpacing: 1.3
BeatDivisor: 4
GridSize: 32
TimelineZoom: 2.599999

[Metadata]
Title:A Palette Full of You
TitleUnicode:A Palette Full of You
Artist:siina mota
ArtistUnicode:siina mota
Creator:Veridian
Version:Insane
Source:
Tags:
BeatmapID:1750367
BeatmapSetID:835771

[Difficulty]
HPDrainRate:6
CircleSize:4
OverallDifficulty:7
ApproachRate:9
SliderMultiplier:1.9
SliderTickRate:1

[Events]
//Background and Video events
0,0,"asasasasasasasasas.PNG",0,0
//Break Periods
//Storyboard Layer 0 (Background)
//Storyboard Layer 1 (Fail)
//Storyboard Layer 2 (Pass)
//Storyboard Layer 3 (Foreground)
//Storyboard Sound Samples

[TimingPoints]
1070,250,4,2,1,70,1,0
1507,-100,4,2,1,20,0,0
1632,-100,4,2,1,30,0,0
1757,-100,4,2,1,50,0,0
1882,-100,4,2,1,70,0,0
1945,-100,4,2,1,100,0,0
3007,-100,4,2,1,5,0,0
3070,-100,4,2,1,70,0,0
4007,-100,4,2,1,5,0,0
4070,-100,4,2,1,70,0,0
6007,-100,4,2,1,5,0,0
6070,-100,4,2,1,70,0,0
7007,-100,4,2,1,5,0,0
7070,-100,4,2,1,70,0,0
8007,-100,4,2,1,5,0,0
8070,-100,4,2,1,70,0,0
10007,-100,4,2,1,5,0,0
10070,-100,4,2,1,70,0,0
11007,-100,4,2,1,5,0,0
11070,-100,4,2,1,70,0,0
12007,-100,4,2,1,5,0,0
12070,-100,4,2,1,70,0,0
14007,-100,4,2,1,5,0,0
14070,-100,4,2,1,70,0,0
15007,-100,4,2,1,5,0,0
15070,-100,4,2,1,70,0,0
16007,-100,4,2,1,5,0,0
16070,-100,4,2,1,70,0,0
17320,-100,4,2,1,80,0,0
17570,-97.0873786407767,4,2,1,90,0,0
17820,-94.3396226415094,4,2,1,100,0,0
18070,-100,4,2,2,60,0,0
19070,-100,4,2,3,50,0,0
35070,-133.333333333333,4,2,4,60,0,0
51070,-133.333333333333,4,2,5,55,0,0
54695,-133.333333333333,4,2,1,55,0,0
55070,-181.818181818181,4,2,0,20,0,0
56320,-181.818181818181,4,2,0,10,0,0
56570,-181.818181818181,4,2,0,20,0,0
58320,-181.818181818181,4,2,0,10,0,0
58570,-181.818181818181,4,2,0,20,0,0
59070,-133.333333333333,4,2,5,55,0,0
62695,-133.333333333333,4,2,1,55,0,0
63070,-181.818181818181,4,2,0,20,0,0
64320,-181.818181818181,4,2,0,10,0,0
64570,-181.818181818181,4,2,0,20,0,0
65070,-100,4,2,1,5,0,0
67070,-100,4,2,1,85,0,1
67257,-100,4,2,1,5,0,1
67320,-100,4,2,7,85,0,1
67507,-100,4,2,1,5,0,1
67570,-100,4,2,1,85,0,1
67820,-100,4,2,7,85,0,1
68070,-100,4,2,1,85,0,1
68320,-100,4,2,7,85,0,1
68570,-100,4,2,1,85,0,1
68632,-100,4,2,1,5,0,1
68695,-100,4,2,1,85,0,1
68820,-100,4,2,7,85,0,1
69007,-100,4,2,1,85,0,1
69070,-100,4,2,6,85,0,1
69757,-100,4,2,1,5,0,1
69820,-100,4,2,1,85,0,1
69945,-100,4,2,1,85,0,1
70320,-100,4,2,7,85,0,1
70570,-100,4,2,1,85,0,1
70820,-100,4,2,7,85,0,1
71070,-100,4,2,1,85,0,1
71320,-100,4,2,7,85,0,1
71570,-100,4,2,1,85,0,1
71820,-100,4,2,7,85,0,1
72070,-100,4,2,1,85,0,1
72320,-100,4,2,7,85,0,1
72570,-100,4,2,1,85,0,1
72820,-100,4,2,7,85,0,1
73070,-100,4,2,6,85,0,1
73195,-100,4,2,1,85,0,1
73320,-100,4,2,6,85,0,1
73445,-100,4,2,1,85,0,1
73570,-100,4,2,6,85,0,1
73695,-100,4,2,1,85,0,1
73945,-100,4,2,7,85,0,1
74070,-100,4,2,1,85,0,1
74257,-100,4,2,1,5,0,1
74320,-100,4,2,7,85,0,1
74570,-100,4,2,1,85,0,1
74632,-100,4,2,1,5,0,1
74695,-100,4,2,1,85,0,1
74820,-100,4,2,7,85,0,1
75070,-100,4,2,1,85,0,1
75257,-100,4,2,1,5,0,1
75320,-100,4,2,7,85,0,1
75570,-100,4,2,1,85,0,1
75632,-100,4,2,1,5,0,1
75695,-100,4,2,1,85,0,1
75820,-100,4,2,7,85,0,1
76070,-100,4,2,1,85,0,1
76320,-100,4,2,7,85,0,1
76570,-100,4,2,1,85,0,1
76632,-100,4,2,1,5,0,1
76695,-100,4,2,1,85,0,1
76820,-100,4,2,7,85,0,1
77070,-100,4,2,6,85,0,1
78007,-100,4,2,1,5,0,1
78070,-100,4,2,1,85,0,1
78320,-100,4,2,7,85,0,1
78570,-100,4,2,1,85,0,1
78820,-100,4,2,7,85,0,1
79070,-100,4,2,1,85,0,1
79320,-100,4,2,7,85,0,1
79570,-100,4,2,1,85,0,1
79820,-100,4,2,7,85,0,1
80070,-100,4,2,1,85,0,1
80320,-100,4,2,7,85,0,1
80570,-100,4,2,1,85,0,1
80695,-100,4,2,1,100,0,1
80820,-100,4,2,7,100,0,1
81070,-100,4,2,1,90,0,0
81257,-100,4,2,1,5,0,0
81320,-100,4,2,7,90,0,0
82257,-100,4,2,1,5,0,0
82320,-100,4,2,1,90,0,0
82570,-100,4,2,7,90,0,0
83257,-100,4,2,1,5,0,0
83320,-100,4,2,1,90,0,0
83570,-100,4,2,7,90,0,0
84070,-100,4,2,6,90,0,0
84507,-100,4,2,6,5,0,0
84570,-100,4,2,6,90,0,0
85007,-100,4,2,6,5,0,0
85070,-100,4,2,1,90,0,0
85257,-100,4,2,1,5,0,0
85320,-100,4,2,1,90,0,0
85570,-100,4,2,7,90,0,0
86257,-100,4,2,1,5,0,0
86320,-100,4,2,1,90,0,0
86570,-100,4,2,7,90,0,0
87257,-100,4,2,1,5,0,0
87320,-100,4,2,1,90,0,0
87570,-100,4,2,7,90,0,0
88070,-100,4,2,6,90,0,0
88507,-100,4,2,6,5,0,0
88570,-100,4,2,6,90,0,0
89007,-100,4,2,6,5,0,0
89070,-100,4,2,1,90,0,0
89257,-100,4,2,1,5,0,0
89320,-100,4,2,1,90,0,0
89570,-100,4,2,7,90,0,0
90257,-100,4,2,1,5,0,0
90320,-100,4,2,1,90,0,0
90570,-100,4,2,7,90,0,0
91257,-100,4,2,1,5,0,0
91320,-100,4,2,1,90,0,0
91570,-100,4,2,7,90,0,0
92070,-100,4,2,6,90,0,0
92507,-100,4,2,6,5,0,0
92570,-100,4,2,6,90,0,0
93007,-100,4,2,6,5,0,0
93070,-100,4,2,1,90,0,0
93570,-100,4,2,7,90,0,0
94570,-100,4,2,7,90,0,0
95070,-66.6666666666667,4,2,0,5,0,0
95570,-1000,4,2,10,70,0,0
96195,-1000,4,2,10,5,0,0

[Colours]
Combo1 : 145,145,145
Combo2 : 58,112,252
Combo3 : 252,71,46
Combo4 : 255,255,53
Combo5 : 255,255,255

[HitObjects]
39,123,1507,6,0,L|43:135,32,11.875,0|0|0|0|0|0|0|0|0|0|0|0|0|0|0|0|0|0|0|0|0|0|0|0|0|0|0|0|0|0|0|0|0,0:2|0:2|0:2|0:2|0:2|0:2|0:2|0:2|0:2|0:2|0:2|0:2|0:2|0:2|0:2|0:2|0:2|0:2|0:2|0:2|0:2|0:2|0:2|0:2|0:2|0:2|0:2|0:2|0:2|0:2|0:2|0:2|0:2,0:2:0:0:
48,146,2070,2,0,P|95:125|195:221,1,190,4|2,3:2|1:2,0:2:0:0:
103,215,2445,1,0,0:2:0:0:
297,150,2570,2,0,P|292:210|301:259,1,95,2|2,0:2|0:2,0:2:0:0:
418,273,2820,2,0,P|428:208|417:117,1,142.5,8|0,1:2|0:2,0:2:0:0:
413,115,3070,6,0,P|392:73|482:91,1,190,6|0,3:2|1:2,0:2:0:0:
504,165,3445,1,2,0:2:0:0:
303,58,3570,2,0,P|243:53|194:62,1,95,2|2,0:2|0:2,0:2:0:0:
93,167,3820,2,0,P|162:176|247:162,1,142.5,8|0,1:2|0:2,0:2:0:0:
252,153,4070,6,0,L|351:170,1,95,4|0,3:2|0:2,0:2:0:0:
329,350,4320,2,0,L|294:255,1,95,2|2,1:2|0:2,0:2:0:0:
471,179,4570,2,0,L|406:256,2,95,0|2|2,0:2|0:2|1:2,0:2:0:0:
472,31,4945,2,0,P|425:10|325:106,1,190,2|0,0:2|0:2,0:2:0:0:
240,68,5320,1,2,1:2:0:0:
416,103,5445,1,2,0:2:0:0:
283,175,5570,2,0,P|330:169|377:175,1,95,2|0,0:2|0:2,0:2:0:0:
151,148,5820,2,0,P|80:157|10:148,1,142.5,10|0,1:2|0:2,0:2:0:0:
3,133,6070,38,0,P|49:144|63:280,1,190,6|2,3:2|1:2,0:2:0:0:
1,337,6445,1,0,0:2:0:0:
165,384,6570,2,0,P|159:336|165:289,1,95,2|2,0:2|0:2,0:2:0:0:
279,183,6820,2,0,P|287:253|278:323,1,142.5,8|0,1:2|0:2,0:2:0:0:
286,337,7070,6,0,P|310:300|452:326,1,190,4|2,3:2|1:2,0:2:0:0:
504,381,7445,1,0,0:2:0:0:
509,193,7570,2,0,P|461:198|414:192,1,95,2|2,0:2|0:2,0:2:0:0:
178,113,7820,2,0,P|248:103|318:112,1,142.5,8|0,1:2|0:2,0:2:0:0:
327,122,8070,6,0,L|308:215,1,95,6|0,3:2|0:2,0:2:0:0:
327,360,8320,2,0,L|255:297,1,95,2|2,1:2|0:2,0:2:0:0:
118,246,8570,2,0,L|207:215,2,95,0|2|0,0:2|0:2|1:2,0:2:0:0:
68,325,8945,2,0,P|89:278|-7:178,1,190,2|0,0:2|0:2,0:2:0:0:
0,267,9320,1,2,1:2:0:0:
139,382,9445,1,2,0:2:0:0:
209,327,9570,2,0,P|256:321|303:327,1,95,2|0,0:2|0:2,0:2:0:0:
496,250,9820,2,0,P|425:258|355:249,1,142.5,10|0,1:2|0:2,0:2:0:0:
334,243,10070,38,0,P|324:152|399:101,1,190,6|0,3:2|1:2,0:2:0:0:
503,81,10445,1,2,0:2:0:0:
427,0,10570,2,0,P|379:5|332:0,1,95,2|2,0:2|0:2,0:2:0:0:
112,71,10820,2,0,P|182:62|252:71,1,142.5,8|0,1:2|0:2,0:2:0:0:
270,85,11070,6,0,P|285:108|184:126,1,190,4|2,3:2|1:2,0:2:0:0:
92,193,11445,1,0,0:2:0:0:
156,266,11570,2,0,P|161:313|155:360,1,95,2|2,0:2|0:2,0:2:0:0:
278,375,11820,2,0,P|269:304|278:234,1,142.5,8|0,1:2|0:2,0:2:0:0:
287,218,12070,6,0,L|380:235,1,95,6|0,3:2|0:2,0:2:0:0:
422,61,12320,2,0,L|360:133,1,95,2|2,1:2|0:2,0:2:0:0:
499,255,12570,2,0,L|467:165,2,95,0|2|0,0:2|0:2|1:2,0:2:0:0:
305,44,13070,2,0,P|319:98|221:93,1,190,2|0,3:2|1:2,0:2:0:0:
162,11,13445,1,2,0:2:0:0:
11,95,13570,2,0,P|58:100|105:95,1,95,2|2,0:2|0:2,0:2:0:0:
208,208,13820,2,0,P|137:198|67:207,1,142.5,10|0,1:2|0:2,0:2:0:0:
48,224,14070,38,0,P|56:305|131:273,1,190,6|2,3:2|1:2,0:2:0:0:
207,337,14445,1,0,0:2:0:0:
289,174,14570,2,0,P|284:221|289:268,1,95,2|2,0:2|0:2,0:2:0:0:
411,291,14820,2,0,P|421:220|412:150,1,142.5,8|0,1:2|0:2,0:2:0:0:
401,123,15070,6,0,P|434:137|525:35,1,190,6|2,3:2|1:2,0:2:0:0:
443,48,15445,1,0,0:2:0:0:
303,168,15570,2,0,P|297:120|302:73,1,95,2|2,0:2|0:2,0:2:0:0:
181,34,15820,2,0,P|189:104|179:174,1,142.5,8|0,1:2|0:2,0:2:0:0:
167,180,16070,6,0,B|122:171|122:171|109:180|109:180|54:170,3,95,6|0|0|0,3:2|0:2|1:2|0:2,0:2:0:0:
174,288,16570,2,0,B|219:279|219:279|231:287|231:287|287:278,1,95,0|0,0:2|0:2,0:2:0:0:
393,205,16820,2,0,B|347:196|347:196|335:204|335:204|279:195,1,95,8|0,1:2|0:2,0:2:0:0:
495,137,17070,38,2,B|489:169|489:169|498:182|498:182|489:227,1,95,2|2,3:2|0:2,0:2:0:0:
431,383,17320,2,2,B|422:337|422:337|430:325|430:325|425:286,1,95,2|2,1:2|0:2,0:2:0:0:
357,53,17570,2,2,B|351:85|351:85|360:98|360:98|350:157,1,97.8499991788101,2|2,0:2|0:2,0:2:0:0:
231,384,17820,2,2,B|222:338|222:338|230:326|230:326|220:276,1,100.700000153656,10|2,1:2|0:2,0:2:0:0:
143,193,18070,1,0,1:0:0:0:
312,200,19070,5,2,0:2:0:0:
233,151,19445,1,8,0:2:0:0:
233,239,19820,1,2,0:2:0:0:
317,111,20070,5,10,0:2:0:0:
152,192,20445,1,0,0:2:0:0:
308,288,20820,1,2,0:2:0:0:
176,88,21070,37,10,0:2:0:0:
408,192,21445,1,0,0:2:0:0:
176,296,21820,1,8,0:2:0:0:
512,192,22320,5,8,0:2:0:0:
84,28,22695,1,8,0:2:0:0:
200,200,23070,5,2,0:2:0:0:
279,151,23445,1,8,0:2:0:0:
279,239,23820,1,2,0:2:0:0:
195,111,24070,37,10,0:2:0:0:
360,192,24445,1,0,0:2:0:0:
204,288,24820,1,2,0:2:0:0:
336,88,25070,5,10,0:2:0:0:
104,192,25445,1,0,0:2:0:0:
336,296,25820,1,8,0:2:0:0:
0,192,26320,5,8,0:2:0:0:
428,28,26695,1,10,0:2:0:0:
200,148,27070,37,2,0:2:0:0:
256,240,27445,1,8,0:2:0:0:
312,148,27820,1,2,0:2:0:0:
160,240,28070,5,10,0:2:0:0:
352,240,28445,1,0,0:2:0:0:
256,76,28820,1,2,0:2:0:0:
256,332,29070,5,10,0:2:0:0:
376,32,29445,1,0,0:2:0:0:
256,244,29820,1,8,0:2:0:0:
136,32,30320,37,8,0:2:0:0:
256,332,30695,1,10,0:2:0:0:
312,148,31070,5,2,0:2:0:0:
256,240,31445,1,8,0:2:0:0:
200,148,31820,1,2,0:2:0:0:
352,240,32070,5,10,0:2:0:0:
160,240,32445,1,0,0:2:0:0:
256,76,32820,1,2,0:2:0:0:
256,332,33070,37,10,0:2:0:0:
136,32,33445,1,0,0:2:0:0:
256,244,33820,1,8,0:2:0:0:
376,32,34320,5,8,0:2:0:0:
256,332,34695,1,8,0:2:0:0:
123,223,35070,5,6,3:2:0:0:
135,203,35320,2,0,P|171:243|263:239,1,142.500005435944,0|0,1:2|0:2,0:2:0:0:
359,211,35820,2,0,P|355:235|363:299,1,71.2500027179719,10|0,1:2|0:2,0:2:0:0:
275,155,36070,1,6,3:2:0:0:
292,140,36320,2,0,P|300:100|288:-12,1,142.500005435944,0|0,1:2|0:2,0:2:0:0:
208,44,36820,2,0,L|117:28,1,71.2500027179719,10|0,1:2|0:2,0:2:0:0:
152,128,37070,38,0,L|-5:100,1,142.500005435944,6|0,3:2|1:2,0:2:0:0:
8,200,37445,2,0,P|48:208|96:296,1,142.500005435944,4|0,0:2|0:2,0:2:0:0:
96,376,37820,1,12,1:2:0:0:
116,371,38070,1,0,3:2:0:0:
328,308,38320,2,0,P|257:318|187:308,1,142.500005435944,4|2,1:2|0:2,0:2:0:0:
220,232,38695,1,4,0:2:0:0:
220,232,38820,2,0,P|255:237|308:228,1,71.2500027179719,10|0,1:2|0:2,0:2:0:0:
456,164,39070,5,6,3:2:0:0:
472,172,39320,2,0,P|480:208|400:208,1,142.500005435944,0|0,1:2|0:2,0:2:0:0:
328,152,39820,2,0,P|333:117|324:64,1,71.2500027179719,10|0,1:2|0:2,0:2:0:0:
244,20,40070,1,6,3:2:0:0:
232,44,40320,2,0,P|222:114|232:184,1,142.500005435944,0|0,1:2|0:2,0:2:0:0:
252,276,40820,2,0,L|165:260,1,71.2500027179719,10|0,1:2|0:2,0:2:0:0:
136,184,41070,6,0,P|140:232|56:216,1,142.500005435944,6|0,3:2|1:2,0:2:0:0:
4,168,41445,2,0,P|13:238|3:308,1,142.500005435944,4|0,0:2|0:2,0:2:0:0:
80,364,41820,1,12,1:2:0:0:
100,348,42070,1,0,3:2:0:0:
176,284,42320,2,0,L|334:310,1,142.500005435944,4|2,1:2|0:2,0:2:0:0:
296,216,42695,1,4,0:2:0:0:
296,216,42820,2,0,L|209:200,1,71.2500027179719,10|0,1:2|0:2,0:2:0:0:
256,32,43070,37,6,3:2:0:0:
240,52,43320,2,0,P|236:100|320:84,1,142.500005435944,0|0,1:2|0:2,0:2:0:0:
360,32,43820,2,0,L|447:16,1,71.2500027179719,10|0,1:2|0:2,0:2:0:0:
488,104,44070,1,6,3:2:0:0:
464,120,44320,2,0,P|455:190|465:260,1,142.500005435944,0|0,1:2|0:2,0:2:0:0:
388,380,44820,2,0,P|393:345|384:292,1,71.2500027179719,10|0,1:2|0:2,0:2:0:0:
352,224,45070,6,0,L|182:253,1,142.500005435944,6|0,3:2|1:2,0:2:0:0:
208,336,45445,2,0,P|183:271|119:245,1,142.500005435944,4|0,0:2|0:2,0:2:0:0:
52,304,45820,1,12,1:2:0:0:
36,320,46070,1,0,3:2:0:0:
24,80,46320,2,0,P|15:150|25:220,1,142.500005435944,4|2,1:2|0:2,0:2:0:0:
112,186,46695,1,4,0:2:0:0:
112,186,46820,2,0,P|108:151|112:116,1,71.2500027179719,10|0,1:2|0:2,0:2:0:0:
353,158,47070,5,6,3:2:0:0:
340,176,47320,2,0,L|174:146,1,142.500005435944,0|0,1:2|0:2,0:2:0:0:
280,76,47820,2,0,L|378:58,1,71.2500027179719,10|0,1:2|0:2,0:2:0:0:
420,120,48070,1,6,3:2:0:0:
433,111,48320,2,0,P|442:181|432:252,1,142.500005435944,0|0,1:2|0:2,0:2:0:0:
456,348,48820,2,0,L|357:330,1,71.2500027179719,10|0,1:2|0:2,0:2:0:0:
276,336,49070,38,0,P|339:326|328:263,1,142.500005435944,6|0,3:2|1:2,0:2:0:0:
232,252,49445,2,0,P|161:260|91:250,1,142.500005435944,4|0,0:2|0:2,0:2:0:0:
24,184,49820,1,12,1:2:0:0:
32,160,50070,1,0,3:2:0:0:
64,4,50320,2,0,P|53:67|116:76,1,142.500005435944,4|0,1:2|0:2,0:2:0:0:
196,36,50695,1,4,0:2:0:0:
196,36,50820,2,0,L|294:53,1,71.2500027179719,8|0,1:2|0:2,0:2:0:0:
192,130,51070,6,0,B|192:126|192:126|191:133|191:133|195:130|195:130|188:129|188:129|303:149,3,142.500005435944,6|0|6|8,0:2|0:2|0:2|0:2,0:2:0:0:
212,224,52070,2,0,B|215:224|215:224|208:223|208:223|211:227|211:227|212:220|212:220|192:335,3,142.500005435944,6|0|6|8,0:2|0:2|0:2|0:2,0:2:0:0:
116,236,53070,2,0,B|115:239|115:239|116:232|116:232|112:235|112:235|119:236|119:236|4:216,3,142.500005435944,14|0|6|8,0:2|0:2|0:2|0:2,0:2:0:0:
96,142,54070,2,0,B|92:141|92:141|99:142|99:142|96:138|96:138|95:145|95:145|115:30,2,142.500005435944,6|0|14,0:2|0:2|0:2,0:2:0:0:
264,184,54695,5,0,3:2:0:0:
188,132,54820,1,0,3:2:0:0:
184,220,54945,1,0,3:2:0:0:
272,96,55070,38,0,P|320:92|396:100,1,104.500003189087,4|0,0:2|0:2,0:2:0:0:
448,144,55445,1,4,0:3:0:0:
372,288,55570,2,0,P|367:235|372:183,1,104.500003189087,2|0,1:3|0:2,0:2:0:0:
496,212,55945,2,0,P|490:235|465:228,3,52.2500015945435,2|4|0|4,1:3|0:3|1:2|0:3,0:2:0:0:
272,228,56570,2,0,P|280:208|224:216,1,104.500003189087,2|0,1:3|0:2,0:2:0:0:
208,280,56945,1,2,1:3:0:0:
40,228,57070,6,0,P|88:224|164:232,1,104.500003189087,4|0,0:2|0:2,0:2:0:0:
208,280,57445,1,4,0:3:0:0:
376,336,57570,2,0,P|328:340|252:332,1,104.500003189087,2|0,1:3|0:2,0:2:0:0:
308,228,57945,2,0,P|314:251|339:244,3,52.2500015945435,2|4|2|4,1:3|0:3|1:3|0:3,0:2:0:0:
428,124,58570,2,0,P|436:144|380:136,1,104.500003189087,2|0,1:3|0:2,0:2:0:0:
360,64,58945,1,0,1:2:0:0:
288,120,59070,6,0,B|287:124|287:124|288:117|288:117|284:120|284:120|291:121|291:121|173:100,3,142.500005435944,14|0|6|8,0:2|0:2|0:2|0:2,0:2:0:0:
228,212,60070,2,0,B|232:213|232:213|225:212|225:212|228:216|228:216|229:209|229:209|208:326,3,142.500005435944,6|0|6|8,0:2|0:2|0:2|0:2,0:2:0:0:
320,268,61070,2,0,B|321:264|321:264|320:271|320:271|324:268|324:268|317:267|317:267|434:287,3,142.500005435944,14|0|6|8,0:2|0:2|0:2|0:2,0:2:0:0:
380,176,62070,2,0,B|376:175|376:175|383:176|383:176|380:172|380:172|379:179|379:179|399:61,2,142.500005435944,6|0|14,0:2|0:2|0:2,0:2:0:0:
216,164,62695,37,0,3:2:0:0:
243,82,62820,1,2,3:2:0:0:
300,142,62945,1,0,3:2:0:0:
162,99,63070,6,0,P|109:94|57:98,1,104.500003189087,4|0,0:2|0:2,0:2:0:0:
0,168,63445,1,4,0:3:0:0:
88,288,63570,2,0,P|93:235|89:183,1,104.500003189087,2|0,1:3|0:2,0:2:0:0:
184,228,63945,2,0,P|190:251|215:244,3,52.2500015945435,2|4|2|4,1:3|0:3|1:3|0:3,0:2:0:0:
348,220,64570,2,0,P|356:240|300:232,1,104.500003189087,2|0,1:3|0:2,0:2:0:0:
256,176,64945,2,0,P|254:150|258:107,1,52.2500015945435,2|0,1:3|0:2,0:2:0:0:
256,192,65320,12,0,66820,0:2:0:0:
0,200,67070,6,0,P|46:211|68:316,1,142.5,6|0,3:2|0:2,0:2:0:0:
64,312,67320,2,0,P|112:304|232:320,1,142.5,10|0,1:2|0:2,0:2:0:0:
216,332,67570,1,2,3:2:0:0:
304,168,67695,1,0,3:2:0:0:
352,252,67820,2,0,P|305:258|258:252,1,95,10|8,1:2|0:2,0:2:0:0:
404,168,68070,38,0,P|451:162|498:168,2,95,2|0|8,3:2|0:2|1:2,0:2:0:0:
324,24,68445,2,0,P|383:14|371:73,1,142.5,10|0,3:2|0:2,0:2:0:0:
355,93,68695,1,2,3:2:0:0:
256,92,68820,2,0,P|209:98|162:92,1,95,8|8,1:2|0:2,0:2:0:0:
80,32,69070,5,6,3:2:0:0:
32,104,69195,1,0,0:2:0:0:
88,8,69320,1,2,1:2:0:0:
20,128,69445,1,0,3:2:0:0:
95,243,69570,2,0,P|82:184|142:192,1,142.5,2|0,0:2|0:2,0:2:0:0:
156,212,69820,1,2,1:2:0:0:
236,340,69945,1,0,0:2:0:0:
338,262,70070,2,0,L|229:242,2,95,2|0|8,3:2|0:2|1:2,0:2:0:0:
330,360,70445,2,0,L|424:344,1,95,10|0,3:2|0:2,0:2:0:0:
428,248,70695,5,2,3:2:0:0:
508,300,70820,1,8,1:2:0:0:
508,212,70945,2,0,P|504:160|512:100,1,95,10|0,0:2|3:2,0:2:0:0:
324,72,71195,37,2,0:2:0:0:
404,28,71320,1,8,1:2:0:0:
404,116,71445,2,0,P|408:168|400:228,1,95,10|0,3:2|0:2,0:2:0:0:
224,244,71695,5,2,3:2:0:0:
304,296,71820,1,8,1:2:0:0:
304,208,71945,2,0,P|300:156|308:96,1,95,10|0,0:2|3:2,0:2:0:0:
120,68,72195,5,2,0:2:0:0:
200,24,72320,1,8,1:2:0:0:
200,112,72445,2,0,P|204:164|196:224,1,95,10|0,3:2|0:2,0:2:0:0:
114,161,72695,38,0,L|-4:140,2,95,2|8|8,3:2|1:2|0:2,0:2:0:0:
40,320,73070,1,2,3:2:0:0:
140,296,73195,1,2,0:2:0:0:
68,232,73320,1,2,1:2:0:0:
96,340,73445,5,2,3:2:0:0:
128,244,73570,1,2,0:2:0:0:
24,272,73695,1,2,3:2:0:0:
184,376,73945,5,10,0:2:0:0:
232,304,74070,2,0,P|280:296|400:312,1,142.5,2|0,3:2|0:2,0:2:0:0:
388,320,74320,1,8,1:2:0:0:
484,184,74445,2,0,P|494:243|435:231,1,142.5,10|0,3:2|0:2,0:2:0:0:
412,212,74695,2,0,P|352:217|304:206,2,95,0|10|8,3:2|1:2|0:2,0:2:0:0:
476,56,75070,38,0,P|396:56|368:144,1,142.5,6|0,3:2|0:2,0:2:0:0:
364,124,75320,1,8,1:2:0:0:
288,52,75445,2,0,P|240:60|120:44,1,142.5,10|0,3:2|0:2,0:2:0:0:
124,36,75695,1,0,0:2:0:0:
0,124,75820,2,0,P|60:119|108:130,1,95,10|8,1:2|0:2,0:2:0:0:
64,304,76070,6,0,L|43:185,2,95,2|0|8,3:2|0:2|1:2,0:2:0:0:
160,196,76445,2,0,P|150:255|209:243,1,142.5,10|0,3:2|0:2,0:2:0:0:
220,224,76695,1,0,3:2:0:0:
288,288,76820,2,0,P|348:283|396:294,1,95,2|8,1:2|0:2,0:2:0:0:
456,108,77070,5,6,3:2:0:0:
380,172,77195,1,0,0:2:0:0:
480,204,77320,1,2,1:2:0:0:
396,116,77445,37,0,3:2:0:0:
420,216,77570,1,2,0:2:0:0:
496,148,77695,1,0,3:2:0:0:
438,162,77820,6,0,P|448:96|432:-8,1,142.5,2|0,1:2|0:2,0:2:0:0:
432,4,78070,1,2,3:2:0:0:
256,40,78195,2,0,P|316:45|364:34,1,95,2|8,0:2|1:2,0:2:0:0:
308,136,78445,2,0,P|248:131|200:142,1,95,10|0,3:2|0:2,0:2:0:0:
40,140,78695,5,2,3:2:0:0:
88,208,78820,1,8,1:2:0:0:
132,136,78945,2,0,L|108:32,1,95,10|0,0:2|3:2,0:2:0:0:
116,288,79195,37,2,0:2:0:0:
164,220,79320,1,8,1:2:0:0:
208,292,79445,2,0,L|184:396,1,95,10|0,3:2|0:2,0:2:0:0:
396,288,79695,5,2,3:2:0:0:
348,220,79820,1,8,1:2:0:0:
304,292,79945,2,0,L|328:396,1,95,10|0,0:2|3:2,0:2:0:0:
472,140,80195,5,2,0:2:0:0:
424,208,80320,1,8,1:2:0:0:
380,136,80445,2,0,L|404:32,1,95,10|0,3:2|0:2,0:2:0:0:
208,44,80695,37,2,3:2:0:0:
304,44,80820,1,10,1:2:0:0:
256,116,80945,1,10,0:2:0:0:
124,12,81070,6,0,P|172:44|152:144,1,142.5,6|0,3:2|0:2,0:2:0:0:
164,132,81320,2,0,P|117:126|70:132,1,95,2|2,1:2|0:2,0:2:0:0:
116,216,81570,1,10,3:2:0:0:
12,36,81695,2,0,P|28:108|0:240,1,190,10|0,0:2|0:2,0:2:0:0:
104,352,82070,6,0,P|45:366|54:306,1,142.5,6|0,3:2|0:2,0:2:0:0:
66,298,82320,2,0,L|172:316,1,95,2|2,1:2|0:2,0:2:0:0:
260,148,82570,2,0,L|190:230,1,95,10|10,3:2|0:2,0:2:0:0:
300,384,82820,2,0,L|263:282,1,95,10|2,1:2|0:2,0:2:0:0:
424,244,83070,38,0,P|433:303|374:289,1,142.5,6|0,3:2|0:2,0:2:0:0:
364,272,83320,2,0,P|352:204|384:64,2,190,2|10|10,1:2|3:2|1:2,0:2:0:0:
300,384,83945,1,2,0:2:0:0:
267,294,84070,2,0,P|220:288|173:294,1,95,6|2,3:2|0:2,0:2:0:0:
156,112,84320,2,0,P|156:160|264:160,1,142.5,2|0,1:2|0:2,0:2:0:0:
252,170,84570,2,0,P|257:123|251:76,1,95,2|0,3:2|0:2,0:2:0:0:
68,56,84820,2,0,P|58:126|66:197,1,142.5,2|0,1:2|0:2,0:2:0:0:
84,212,85070,6,0,P|18:223|5:289,1,142.5,6|0,3:2|0:2,0:2:0:0:
12,312,85320,2,0,P|59:305|106:310,1,95,2|2,1:2|0:2,0:2:0:0:
296,308,85570,1,10,3:2:0:0:
216,376,85695,2,0,P|196:283|216:188,1,190,10|2,0:2|0:2,0:2:0:0:
343,34,86070,6,0,P|352:93|293:79,1,142.5,6|0,3:2|0:2,0:2:0:0:
279,66,86320,2,0,L|159:94,1,95,2|2,1:2|0:2,0:2:0:0:
43,98,86570,2,0,L|127:187,1,95,10|10,3:2|0:2,0:2:0:0:
187,282,86820,2,0,L|222:164,1,95,10|2,1:2|0:2,0:2:0:0:
368,272,87070,38,0,P|309:287|317:227,1,142.5,6|0,3:2|0:2,0:2:0:0:
340,216,87320,2,0,P|440:228|560:200,2,190,2|10|2,1:2|3:2|1:2,0:2:0:0:
432,140,87945,1,2,0:2:0:0:
340,20,88070,2,0,P|346:67|341:114,1,95,6|2,3:2|0:2,0:2:0:0:
160,128,88320,2,0,P|225:115|237:49,1,142.5,2|0,1:2|0:2,0:2:0:0:
232,32,88570,2,0,L|129:50,1,95,2|0,3:2|0:2,0:2:0:0:
88,204,88820,2,0,L|269:235,1,142.5,2|0,1:2|0:2,0:2:0:0:
248,233,89070,6,0,P|259:298|325:311,1,142.5,6|0,3:2|0:2,0:2:0:0:
344,300,89320,2,0,P|391:294|438:299,1,95,2|2,1:2|0:2,0:2:0:0:
392,384,89570,1,10,3:2:0:0:
488,198,89695,2,0,P|472:291|492:384,1,190,10|2,0:2|0:2,0:2:0:0:
332,184,90070,6,0,P|390:199|382:139,1,142.5,6|0,3:2|0:2,0:2:0:0:
368,124,90320,2,0,L|249:144,1,95,2|2,1:2|0:2,0:2:0:0:
212,324,90570,2,0,L|253:211,1,95,10|10,3:2|0:2,0:2:0:0:
116,92,90820,2,0,L|193:183,1,95,10|2,1:2|0:2,0:2:0:0:
16,248,91070,38,0,P|74:263|66:203,1,142.5,6|0,3:2|0:2,0:2:0:0:
52,192,91320,2,0,P|68:120|36:-8,2,190,2|10|10,1:2|3:2|1:2,0:2:0:0:
152,240,91945,1,2,0:2:0:0:
244,144,92070,2,0,P|197:150|150:145,1,95,6|2,3:2|0:2,0:2:0:0:
232,316,92320,2,0,P|244:248|336:228,1,142.5,2|0,1:2|0:2,0:2:0:0:
320,228,92570,2,0,P|367:222|414:228,1,95,2|0,3:2|0:2,0:2:0:0:
380,64,92820,2,0,P|389:123|330:109,1,142.5,2|0,1:2|0:2,0:2:0:0:
316,96,93070,5,6,3:2:0:0:
200,0,93195,1,2,0:2:0:0:
296,80,93320,1,2,1:2:0:0:
220,16,93445,1,2,0:2:0:0:
204,108,93570,2,0,L|101:89,1,95,8|10,3:2|0:2,0:2:0:0:
24,208,93820,2,0,L|117:191,1,95,8|0,1:2|0:2,0:2:0:0:
112,312,94070,5,6,3:2:0:0:
228,216,94195,1,2,0:2:0:0:
132,296,94320,1,10,1:2:0:0:
208,232,94445,1,2,0:2:0:0:
224,332,94570,2,0,L|317:348,1,95,8|10,3:2|0:2,0:2:0:0:
424,236,94820,2,0,L|330:252,1,95,8|8,1:2|0:2,0:2:0:0:
184,132,95070,6,0,P|160:132|208:116,1,213.750008153916,0|0,0:2|0:2,0:2:0:0:
276,152,95320,2,0,B|320:112|316:68|316:68|352:88|360:132|360:132|380:108|396:88|396:88|424:100|428:120,1,267.187510192395,0|0,0:2|0:2,0:2:0:0:
428,116,95570,6,2,L|476:116,1,47.5,0|0,0:2|0:2,0:2:0:0:
