osu file format v14

[General]
AudioFilename: audio.mp3
AudioLeadIn: 0
PreviewTime: 2007
Countdown: 1
SampleSet: None
StackLeniency: 0.2
Mode: 0
LetterboxInBreaks: 0
WidescreenStoryboard: 1

[Editor]
Bookmarks: 6007,51070,55070,59070,63070,65070
DistanceSpacing: 1.3
BeatDivisor: 4
GridSize: 4
TimelineZoom: 2.599999

[Metadata]
Title:A Palette Full of You
TitleUnicode:A Palette Full of You
Artist:siina mota
ArtistUnicode:siina mota
Creator:Veridian
Version:Hard
Source:
Tags:
BeatmapID:1753757
BeatmapSetID:835771

[Difficulty]
HPDrainRate:4
CircleSize:3.8
OverallDifficulty:5
ApproachRate:8
SliderMultiplier:1.4
SliderTickRate:1

[Events]
//Background and Video events
0,0,"asasasasasasasasas.PNG",0,0
//Break Periods
//Storyboard Layer 0 (Background)
//Storyboard Layer 1 (Fail)
//Storyboard Layer 2 (Pass)
//Storyboard Layer 3 (Foreground)
//Storyboard Sound Samples

[TimingPoints]
1070,250,4,2,1,70,1,0
1507,-100,4,2,1,20,0,0
1632,-100,4,2,1,30,0,0
1757,-100,4,2,1,50,0,0
1882,-100,4,2,1,70,0,0
1945,-100,4,2,1,100,0,0
3007,-100,4,2,1,5,0,0
3070,-100,4,2,1,70,0,0
4007,-100,4,2,1,5,0,0
4070,-100,4,2,1,70,0,0
6007,-100,4,2,1,5,0,0
6070,-100,4,2,1,70,0,0
7007,-100,4,2,1,5,0,0
7070,-100,4,2,1,70,0,0
8007,-100,4,2,1,5,0,0
8070,-100,4,2,1,70,0,0
10007,-100,4,2,1,5,0,0
10070,-100,4,2,1,70,0,0
11007,-100,4,2,1,5,0,0
11070,-100,4,2,1,70,0,0
12007,-100,4,2,1,5,0,0
12070,-100,4,2,1,70,0,0
14007,-100,4,2,1,5,0,0
14070,-100,4,2,1,70,0,0
15007,-100,4,2,1,5,0,0
15070,-100,4,2,1,70,0,0
16007,-100,4,2,1,5,0,0
16070,-100,4,2,1,70,0,0
17320,-100,4,2,1,80,0,0
17570,-97.0873786407767,4,2,1,90,0,0
17820,-94.3396226415094,4,2,1,100,0,0
18070,-100,4,2,2,60,0,0
19070,-133.333333333333,4,2,3,50,0,0
22320,-133.333333333333,4,2,3,50,0,0
35070,-100,4,2,4,60,0,0
55070,-181.818181818181,4,2,0,20,0,0
56320,-181.818181818181,4,2,0,10,0,0
56570,-181.818181818181,4,2,0,20,0,0
58320,-181.818181818181,4,2,0,10,0,0
58570,-181.818181818181,4,2,0,20,0,0
59070,-100,4,2,5,55,0,0
63070,-181.818181818181,4,2,0,20,0,0
64320,-181.818181818181,4,2,0,10,0,0
64570,-181.818181818181,4,2,0,20,0,0
65070,-100,4,2,1,5,0,0
67070,-100,4,2,1,85,0,1
67257,-100,4,2,1,5,0,1
67320,-100,4,2,7,85,0,1
67507,-100,4,2,1,5,0,1
67570,-100,4,2,1,85,0,1
67820,-100,4,2,7,85,0,1
68070,-100,4,2,1,85,0,1
68320,-100,4,2,7,85,0,1
68570,-100,4,2,1,85,0,1
68632,-100,4,2,1,5,0,1
68695,-100,4,2,1,85,0,1
68820,-100,4,2,7,85,0,1
69007,-100,4,2,1,85,0,1
69070,-100,4,2,6,85,0,1
69757,-100,4,2,1,5,0,1
69820,-100,4,2,1,85,0,1
69945,-100,4,2,1,85,0,1
70320,-100,4,2,7,85,0,1
70570,-100,4,2,1,85,0,1
70820,-100,4,2,7,85,0,1
71070,-100,4,2,1,85,0,1
71320,-100,4,2,7,85,0,1
71570,-100,4,2,1,85,0,1
71820,-100,4,2,7,85,0,1
72070,-100,4,2,1,85,0,1
72320,-100,4,2,7,85,0,1
72570,-100,4,2,1,85,0,1
72820,-100,4,2,7,85,0,1
73070,-100,4,2,6,85,0,1
73195,-100,4,2,1,85,0,1
73320,-100,4,2,6,85,0,1
73445,-100,4,2,1,85,0,1
73570,-100,4,2,6,85,0,1
73695,-100,4,2,1,85,0,1
73945,-100,4,2,7,85,0,1
74070,-100,4,2,1,85,0,1
74257,-100,4,2,1,5,0,1
74320,-100,4,2,7,85,0,1
74570,-100,4,2,1,85,0,1
74632,-100,4,2,1,5,0,1
74695,-100,4,2,1,85,0,1
74820,-100,4,2,7,85,0,1
75070,-100,4,2,1,85,0,1
75257,-100,4,2,1,5,0,1
75320,-100,4,2,7,85,0,1
75570,-100,4,2,1,85,0,1
75632,-100,4,2,1,5,0,1
75695,-100,4,2,1,85,0,1
75820,-100,4,2,7,85,0,1
76070,-100,4,2,1,85,0,1
76320,-100,4,2,7,85,0,1
76570,-100,4,2,1,85,0,1
76632,-100,4,2,1,5,0,1
76695,-100,4,2,1,85,0,1
76820,-100,4,2,7,85,0,1
77070,-100,4,2,6,85,0,1
78007,-100,4,2,1,5,0,1
78070,-100,4,2,1,85,0,1
78320,-100,4,2,7,85,0,1
78570,-100,4,2,1,85,0,1
78820,-100,4,2,7,85,0,1
79070,-100,4,2,1,85,0,1
79320,-100,4,2,7,85,0,1
79570,-100,4,2,1,85,0,1
79820,-100,4,2,7,85,0,1
80070,-100,4,2,1,85,0,1
80320,-100,4,2,7,85,0,1
80570,-100,4,2,1,85,0,1
80695,-100,4,2,1,100,0,1
80820,-100,4,2,7,100,0,1
81070,-100,4,2,1,90,0,0
81257,-100,4,2,1,5,0,0
81320,-100,4,2,7,90,0,0
82257,-100,4,2,1,5,0,0
82320,-100,4,2,1,90,0,0
82570,-100,4,2,7,90,0,0
83257,-100,4,2,1,5,0,0
83320,-100,4,2,1,90,0,0
83570,-100,4,2,7,90,0,0
84070,-100,4,2,6,90,0,0
84507,-100,4,2,6,5,0,0
84570,-100,4,2,6,90,0,0
85007,-100,4,2,6,5,0,0
85070,-100,4,2,1,90,0,0
85257,-100,4,2,1,5,0,0
85320,-100,4,2,1,90,0,0
85570,-100,4,2,7,90,0,0
86257,-100,4,2,1,5,0,0
86320,-100,4,2,1,90,0,0
86570,-100,4,2,7,90,0,0
87257,-100,4,2,1,5,0,0
87320,-100,4,2,1,90,0,0
87570,-100,4,2,7,90,0,0
88070,-100,4,2,6,90,0,0
88507,-100,4,2,6,5,0,0
88570,-100,4,2,6,90,0,0
89007,-100,4,2,6,5,0,0
89070,-100,4,2,1,90,0,0
89257,-100,4,2,1,5,0,0
89320,-100,4,2,1,90,0,0
89570,-100,4,2,7,90,0,0
90257,-100,4,2,1,5,0,0
90320,-100,4,2,1,90,0,0
90570,-100,4,2,7,90,0,0
91257,-100,4,2,1,5,0,0
91320,-100,4,2,1,90,0,0
91570,-100,4,2,7,90,0,0
92070,-100,4,2,6,90,0,0
92507,-100,4,2,6,5,0,0
92570,-100,4,2,6,90,0,0
93007,-100,4,2,6,5,0,0
93070,-100,4,2,1,90,0,0
93570,-100,4,2,7,90,0,0
94570,-100,4,2,7,90,0,0
95070,-66.6666666666667,4,2,0,5,0,0
95570,-1000,4,2,10,70,0,0
96195,-1000,4,2,10,5,0,0

[Colours]
Combo1 : 145,145,145
Combo2 : 58,112,252
Combo3 : 252,71,46
Combo4 : 255,255,53
Combo5 : 255,255,255

[HitObjects]
472,196,2070,6,0,P|500:184|500:260,1,140
420,272,2445,1,0,0:0:0:0:
372,196,2570,2,0,P|324:200|288:192,1,70
240,128,2820,2,0,P|188:120|136:127,1,105
120,136,3070,6,0,P|92:124|92:200,1,140
160,244,3445,1,0,0:0:0:0:
84,292,3570,2,0,P|88:340|80:376,2,70
244,384,4070,6,0,P|236:328|252:224,1,140
308,176,4445,1,0,0:0:0:0:
356,100,4570,2,0,P|332:136|260:84,1,140
304,20,4945,2,0,P|360:3|438:48,1,140
476,116,5320,2,0,P|485:185|472:256,2,140
392,280,6070,38,0,P|440:272|440:352,1,140
364,372,6445,1,0,0:0:0:0:
300,308,6570,2,0,P|265:303|230:308,1,70
164,372,6820,2,0,P|112:380|60:373,1,105
48,368,7070,6,0,L|77:202,1,140
92,140,7445,1,0,0:0:0:0:
112,52,7570,2,0,L|24:32,2,70
168,224,8070,6,0,L|333:194,1,140
396,180,8445,1,0,0:0:0:0:
456,248,8570,2,0,P|443:179|452:110,1,140
436,20,8945,2,0,P|444:68|364:68,1,140
292,28,9320,2,0,P|222:18|149:30,2,140
292,212,10070,38,0,P|222:222|153:211,1,140
96,140,10445,1,0,0:0:0:0:
60,224,10570,2,0,P|55:259|60:294,1,70
108,372,10820,2,0,P|100:324|156:332,1,105
156,324,11070,6,0,L|301:298,1,140
372,344,11445,1,0,0:0:0:0:
448,296,11570,2,0,L|468:208,2,70
456,116,12070,6,0,P|464:164|384:164,1,140
328,108,12445,1,0,0:0:0:0:
264,172,12570,2,0,P|194:182|125:171,1,140
60,108,12945,2,0,L|87:265,1,140
132,324,13320,2,0,P|104:292|28:353,2,140
308,376,14070,38,0,P|268:348|256:244,1,140
248,172,14445,1,0,0:0:0:0:
328,216,14570,2,0,P|372:212|424:220,1,70
424,120,14820,2,0,P|372:128|320:121,1,105
312,112,15070,6,0,L|152:136,1,140
100,80,15445,1,0,0:0:0:0:
88,172,15570,2,0,L|72:258,2,70
256,192,16070,12,0,18070,0:0:0:0:
206,198,19070,5,0,0:0:0:0:
278,146,19445,1,0,0:0:0:0:
286,234,19820,1,0,0:0:0:0:
205,189,20070,37,0,0:0:0:0:
285,150,20445,1,0,0:0:0:0:
278,238,20820,1,0,0:0:0:0:
207,180,21070,5,0,0:0:0:0:
292,156,21445,1,0,0:0:0:0:
270,241,21820,1,0,0:0:0:0:
112,192,22320,1,0,0:0:0:0:
400,192,22695,1,0,0:0:0:0:
250,142,23070,5,0,0:0:0:0:
302,214,23445,1,0,0:0:0:0:
214,222,23820,1,0,0:0:0:0:
259,141,24070,37,0,0:0:0:0:
298,221,24445,1,0,0:0:0:0:
210,214,24820,1,0,0:0:0:0:
268,143,25070,21,0,0:0:0:0:
292,228,25445,1,0,0:0:0:0:
207,206,25820,1,0,0:0:0:0:
256,48,26320,1,0,0:0:0:0:
256,328,26695,1,0,0:0:0:0:
306,186,27070,37,0,0:0:0:0:
234,238,27445,1,0,0:0:0:0:
226,150,27820,1,0,0:0:0:0:
307,195,28070,5,0,0:0:0:0:
227,234,28445,1,0,0:0:0:0:
234,146,28820,1,0,0:0:0:0:
305,204,29070,5,0,0:0:0:0:
220,228,29445,1,0,0:0:0:0:
242,143,29820,1,0,0:0:0:0:
112,192,30320,1,0,0:0:0:0:
400,192,30695,1,0,0:0:0:0:
262,242,31070,37,0,0:0:0:0:
210,170,31445,1,0,0:0:0:0:
298,162,31820,1,0,0:0:0:0:
253,243,32070,5,0,0:0:0:0:
214,163,32445,1,0,0:0:0:0:
302,170,32820,1,0,0:0:0:0:
244,241,33070,5,0,0:0:0:0:
220,156,33445,1,0,0:0:0:0:
305,178,33820,1,0,0:0:0:0:
256,328,34320,1,0,0:0:0:0:
256,48,34695,1,0,0:0:0:0:
508,148,35070,38,0,P|512:196|492:244,1,70
500,308,35320,2,0,P|512:272|432:260,1,140
300,376,35820,2,0,L|177:354,1,105
184,348,36070,2,0,P|177:313|182:279,1,70
256,228,36320,2,0,P|194:236|191:173,1,140
88,24,36820,2,0,P|94:58|89:92,1,70
180,80,37070,6,0,L|341:108,1,140
384,40,37445,2,0,P|368:120|384:188,1,140
444,241,37820,2,0,P|449:279|445:309,1,70
376,372,38070,1,0,0:0:0:0:
256,236,38320,2,0,L|94:264,1,140
40,212,38695,1,0,0:0:0:0:
100,144,38820,2,0,L|182:129,1,70
136,48,39070,6,0,P|170:43|205:46,1,70
260,120,39320,2,0,P|320:128|424:112,1,140
508,268,39820,2,0,P|476:248|468:304,1,105
464,308,40070,2,0,P|423:303|376:313,1,70
312,348,40320,2,0,L|284:190,1,140
152,88,40820,2,0,L|168:182,1,70
184,244,41070,38,0,P|184:204|108:240,1,140
52,136,41445,2,0,P|60:192|45:291,1,140
128,320,41820,1,0,0:0:0:0:
280,220,42070,2,0,L|358:233,1,70
308,312,42320,2,0,L|472:344,1,140
496,264,42695,1,0,0:0:0:0:
452,184,42820,2,0,P|449:145|458:101,1,70
504,36,43070,6,0,L|435:23,1,70
368,84,43320,2,0,L|230:57,1,140
80,156,43820,2,0,P|96:120|164:140,1,105
164,132,44070,2,0,P|168:188|152:292,2,140
340,184,44820,2,0,P|337:237|349:282,1,70
424,220,45070,6,0,P|448:248|472:184,1,140
400,132,45445,2,0,P|344:160|268:124,1,140
336,64,45820,1,0,0:0:0:0:
184,168,46070,2,0,P|177:133|182:99,1,70
96,64,46320,2,0,P|84:124|104:220,1,140
168,260,46695,1,0,0:0:0:0:
148,348,46820,2,0,L|230:333,1,70
264,256,47070,38,0,L|346:241,1,70
396,312,47320,2,0,P|383:243|396:174,1,140
284,32,47820,2,0,P|292:68|278:148,1,105
272,148,48070,2,0,P|228:144|178:155,1,70
128,200,48320,2,0,L|102:54,1,140
12,220,48820,2,0,L|25:298,1,70
28,380,49070,6,0,P|24:328|96:352,1,140
172,292,49445,2,0,P|220:308|316:288,1,140
380,240,49820,1,0,0:0:0:0:
208,188,50070,2,0,P|240:196|292:176,1,70
240,104,50320,2,0,P|252:92|192:88,1,140
132,144,50695,1,0,0:0:0:0:
72,76,50820,2,0,P|38:67|4:75,1,70
36,160,51070,6,0,B|16:216|16:216|24:232|24:232|0:304,3,140
184,300,52070,2,0,B|243:319|243:319|259:311|259:311|315:331,3,140
400,172,53070,2,0,B|420:116|420:116|412:100|412:100|436:28,3,140
252,32,54070,2,0,B|192:12|192:12|176:20|176:20|120:0,2,140
192,108,54695,2,0,B|184:142|184:142|195:188,2,70
276,140,55070,38,0,P|288:116|344:96,1,77.0000023498536
400,32,55445,1,0,0:0:0:0:
428,120,55570,2,0,P|432:160|424:208,1,77.0000023498536
488,300,55945,2,0,P|487:276|493:247,3,38.5000011749268
360,272,56570,2,0,P|392:288|388:336,1,77.0000023498536
324,384,56945,1,0,0:0:0:0:
268,308,57070,6,0,P|263:269|267:231,1,77.0000023498536
328,156,57445,1,0,0:0:0:0:
232,128,57570,2,0,P|220:152|164:172,1,77.0000023498536
104,120,57945,2,0,P|84:117|61:123,3,38.5000011749268
88,284,58570,2,0,P|92:245|88:207,1,77.0000023498536
176,172,58945,1,0,0:0:0:0:
176,264,59070,6,0,B|232:244|232:244|248:252|248:252|320:228,3,140
408,72,60070,2,0,B|352:92|352:92|336:84|336:84|264:108,3,140
436,192,61070,2,0,B|455:251|455:251|447:267|447:267|467:323,3,140
308,235,62070,2,0,B|288:175|288:175|296:159|296:159|276:103,2,140
276,320,62695,2,0,B|310:328|310:328|358:315,2,70
216,252,63070,38,0,P|177:248|139:253,1,77.0000023498536
84,324,63445,1,0,0:0:0:0:
48,240,63570,2,0,L|61:161,1,77.0000023498536
160,124,63945,2,0,L|151:171,3,38.5000011749268
44,24,64570,2,0,P|40:52|88:76,1,77.0000023498536
152,36,64945,2,0,L|194:28,1,38.5000011749268
256,192,65195,12,0,66570,0:0:0:0:
412,136,67070,6,0,P|384:100|456:92,2,140
484,192,67695,1,0,0:0:0:0:
408,244,67820,2,0,P|402:284|414:331,1,70
340,372,68070,1,0,0:0:0:0:
268,316,68195,2,0,P|272:260|256:192,1,105
260,200,68445,2,0,L|180:213,1,70
132,280,68695,1,0,0:0:0:0:
72,212,68820,2,0,L|-8:199,1,70
28,112,69070,6,0,P|23:77|29:43,2,70
112,80,69445,1,0,0:0:0:0:
196,44,69570,2,0,P|236:24|304:64,1,105
300,52,69820,2,0,L|390:36,2,70
300,144,70195,2,0,L|428:124,1,105
420,132,70445,2,0,L|406:210,1,70
480,256,70695,37,0,0:0:0:0:
304,308,70945,1,0,0:0:0:0:
484,272,71195,1,0,0:0:0:0:
308,324,71445,1,0,0:0:0:0:
372,204,71695,5,0,0:0:0:0:
424,380,71945,1,0,0:0:0:0:
368,188,72195,1,0,0:0:0:0:
420,364,72445,1,0,0:0:0:0:
364,172,72695,1,0,0:0:0:0:
448,164,72820,2,0,P|452:120|440:68,1,70
456,4,73070,6,0,P|440:40|360:48,1,105
368,52,73320,2,0,P|316:44|256:56,1,105
256,64,73570,1,0,0:0:0:0:
176,8,73695,1,0,0:0:0:0:
164,100,73820,2,0,P|124:104|84:100,1,70
12,144,74070,2,0,P|44:120|60:196,1,140
12,256,74445,2,0,P|76:244|164:260,1,140
212,320,74820,1,0,0:0:0:0:
276,256,74945,1,0,0:0:0:0:
340,320,75070,38,0,P|374:322|409:318,2,70
276,256,75445,2,0,L|304:94,1,140
304,28,75820,2,0,P|272:76|216:64,1,105
212,64,76070,1,0,0:0:0:0:
136,12,76195,2,0,P|101:10|66:14,1,70
104,100,76445,2,0,L|120:212,1,105
108,216,76695,1,0,0:0:0:0:
76,300,76820,2,0,P|110:301|145:297,1,70
208,228,77070,6,0,L|220:144,2,70
240,312,77445,1,0,0:0:0:0:
300,244,77570,2,0,P|351:235|403:243,1,105
416,252,77820,2,0,P|452:258|502:247,1,70
452,168,78070,1,0,0:0:0:0:
488,84,78195,2,0,P|453:79|419:85,1,70
