osu file format v14

[General]
AudioFilename: audio.mp3
AudioLeadIn: 0
PreviewTime: 260948
Countdown: 0
SampleSet: Soft
StackLeniency: 0.7
Mode: 0
LetterboxInBreaks: 0
WidescreenStoryboard: 1

[Editor]
Bookmarks: 16881,33152,49423,65694,81965,98237,114508,130779,147050,163321,179593,195864,212135,228406,244677,260948,277220,293491,309762,326033,342304,358576
DistanceSpacing: 0.5
BeatDivisor: 4
GridSize: 4
TimelineZoom: 1.6

[Metadata]
Title:GAZE IT
TitleUnicode:GAZE IT
Artist:signum/ii
ArtistUnicode:signum/ii
Creator:Reiji-RJ
Version:TONIGHT
Source:東方Project
Tags:tokiko Touhou 市松椿 Tsubaki Ichimatsu Shibayan cittan* ShibayanRecords ETHEREAL DIVIDE C88 Comiket 88 コミケット88 大空魔術 ~ Magical Astronomy Oozora Majutsu 天空のグリニッジ Greenwich in the Sky Team Shanghai Alice ZUN 太田順也 Ota Jun’ya
BeatmapID:1411365
BeatmapSetID:666943

[Difficulty]
HPDrainRate:7
CircleSize:5
OverallDifficulty:7
ApproachRate:8
SliderMultiplier:1.4
SliderTickRate:2

[Events]
//Background and Video events
0,0,"Touhou.full.1891749.jpg",0,0
//Break Periods
2,228606,260198
//Storyboard Layer 0 (Background)
//Storyboard Layer 1 (Fail)
//Storyboard Layer 2 (Pass)
//Storyboard Layer 3 (Foreground)
//Storyboard Sound Samples

[TimingPoints]
610,508.474576271186,4,2,0,40,1,0
1245,-100,4,2,0,20,0,0
2135,-100,4,2,0,40,0,0
3279,-100,4,2,0,20,0,0
4169,-100,4,2,0,40,0,0
5313,-100,4,2,0,20,0,0
6203,-100,4,2,0,40,0,0
9381,-100,4,2,0,20,0,0
10271,-100,4,2,0,40,0,0
11415,-100,4,2,0,20,0,0
12304,-100,4,2,0,40,0,0
13448,-100,4,2,0,20,0,0
14338,-100,4,2,0,40,0,0
17389,-100,4,2,1,40,0,0
17516,-100,4,2,0,20,0,0
17898,-100,4,2,1,20,0,0
18025,-100,4,2,0,20,0,0
18406,-100,4,2,1,40,0,0
18533,-100,4,2,0,40,0,0
19423,-100,4,2,1,40,0,0
19550,-100,4,2,0,20,0,0
19932,-100,4,2,1,20,0,0
20059,-100,4,2,0,20,0,0
20440,-100,4,2,1,40,0,0
20567,-100,4,2,0,40,0,0
21457,-100,4,2,1,40,0,0
21584,-100,4,2,0,20,0,0
21965,-100,4,2,1,20,0,0
22093,-100,4,2,0,20,0,0
22474,-100,4,2,1,40,0,0
22601,-100,4,2,0,40,0,0
25525,-100,4,2,1,40,0,0
25652,-100,4,2,0,20,0,0
26033,-100,4,2,1,20,0,0
26160,-100,4,2,0,20,0,0
26542,-100,4,2,1,40,0,0
26669,-100,4,2,0,40,0,0
27559,-100,4,2,1,40,0,0
27686,-100,4,2,0,20,0,0
28067,-100,4,2,1,20,0,0
28194,-100,4,2,0,20,0,0
28576,-100,4,2,1,40,0,0
28703,-100,4,2,0,40,0,0
29593,-100,4,2,1,40,0,0
29720,-100,4,2,0,20,0,0
30101,-100,4,2,1,20,0,0
30228,-100,4,2,0,20,0,0
30609,-100,4,2,1,40,0,0
30737,-100,4,2,0,40,0,0
33279,-100,4,2,0,30,0,0
35440,-100,4,2,0,20,0,0
35694,-100,4,2,0,30,0,0
35948,-100,4,2,0,20,0,0
36076,-100,4,2,0,30,0,0
43576,-100,4,2,0,20,0,0
43830,-100,4,2,0,30,0,0
44084,-100,4,2,0,20,0,0
44211,-100,4,2,0,30,0,0
49423,-100,4,2,0,40,0,0
51711,-100,4,2,0,30,0,0
51838,-100,4,2,0,40,0,0
52220,-100,4,2,0,30,0,0
52347,-100,4,2,0,40,0,0
59847,-100,4,2,0,30,0,0
59974,-100,4,2,0,40,0,0
60355,-100,4,2,0,30,0,0
60482,-100,4,2,0,40,0,0
65694,-100,4,2,1,30,0,0
81965,-100,4,2,0,30,0,0
98237,-83.3333333333333,4,1,0,40,0,1
113999,-100,4,1,0,40,0,0
114508,-83.3333333333333,4,1,0,40,0,1
130652,-83.3333333333333,4,1,0,40,0,0
130779,-83.3333333333333,4,1,0,40,0,1
130906,-83.3333333333333,4,2,0,40,0,0
134084,-83.3333333333333,4,2,0,30,0,0
134211,-83.3333333333333,4,2,0,40,0,0
142220,-83.3333333333333,4,2,0,30,0,0
142347,-83.3333333333333,4,2,0,40,0,0
150355,-83.3333333333333,4,2,0,30,0,0
150482,-83.3333333333333,4,2,0,40,0,0
158491,-83.3333333333333,4,2,0,30,0,0
158618,-83.3333333333333,4,2,0,40,0,0
163321,-133.333333333333,4,2,0,30,0,0
179593,-100,4,2,0,40,0,0
181881,-100,4,2,0,30,0,0
182008,-100,4,2,0,40,0,0
182389,-100,4,2,0,30,0,0
182516,-100,4,2,0,40,0,0
190016,-100,4,2,0,30,0,0
190143,-100,4,2,0,40,0,0
190525,-100,4,2,0,30,0,0
190652,-100,4,2,0,40,0,0
195864,-100,4,2,0,35,0,0
226118,-100,4,2,0,40,0,0
227135,-100,4,2,0,45,0,0
227643,-100,4,2,0,50,0,0
260948,-200,4,2,0,40,0,0
261076,-200,4,2,0,20,0,0
276711,-200,4,2,0,40,0,0
277220,-133.333333333333,4,2,0,25,0,0
292982,-133.333333333333,4,2,0,40,0,0
293491,-100,4,2,0,50,0,0
293618,-100,4,2,0,40,0,0
309762,-83.3333333333333,4,1,0,40,0,1
325906,-83.3333333333333,4,2,0,50,0,0
326033,-83.3333333333333,4,2,0,50,0,1
342177,-83.3333333333333,4,2,0,50,0,0
342304,-83.3333333333333,4,2,0,50,0,1
358448,-83.3333333333333,4,2,0,50,0,0
358576,-83.3333333333333,4,2,0,50,0,1
358703,-83.3333333333333,4,2,0,50,0,0

[Colours]
Combo1 : 142,83,223
Combo2 : 44,136,239
Combo3 : 91,91,247
Combo4 : 225,81,114

[HitObjects]
56,60,610,6,0,P|48:132|76:196,1,140,4|8,1:0|0:0,0:0:0:0:
172,348,1372,1,2,0:0:0:0:
172,348,1626,2,0,P|188:312|192:280,1,70,0|2,1:0|0:0,0:0:0:0:
184,272,2008,1,0,0:0:0:0:
176,264,2135,2,0,L|106:256,1,70,12|0,0:0|0:0,0:0:0:0:
232,172,2516,6,0,L|301:179,1,70,4|0,1:0|0:0,0:0:0:0:
392,248,2898,1,2,0:0:0:0:
301,179,3152,1,8,0:0:0:0:
468,172,3406,2,0,P|477:137|480:104,1,70,6|0,0:0|1:0,0:0:0:0:
372,68,3915,1,2,0:0:0:0:
372,68,4042,1,0,0:0:0:0:
372,68,4169,2,0,L|288:52,1,70,12|4,0:0|3:0,0:0:0:0:
303,54,4677,6,0,L|448:48,1,140,4|8,1:0|0:0,0:0:0:0:
296,140,5440,1,2,0:0:0:0:
296,140,5694,2,0,L|208:144,1,70,0|2,1:0|0:0,0:0:0:0:
226,143,6076,1,0,0:0:0:0:
226,143,6203,1,4,0:0:0:0:
408,196,6457,1,0,0:0:0:0:
408,196,6584,5,4,1:0:0:0:
264,232,6838,1,0,0:0:0:0:
264,232,6965,1,0,1:0:0:0:
460,284,7220,1,4,1:3:0:0:
460,284,7347,1,0,1:0:0:0:
460,284,7474,1,0,0:0:0:0:
292,320,7728,1,0,1:0:0:0:
496,356,7982,1,8,0:0:0:0:
292,320,8237,2,0,P|248:332|228:348,1,70,12|4,0:0|3:0,0:0:0:0:
229,346,8745,6,0,L|216:196,1,140,4|8,1:0|0:0,0:0:0:0:
132,76,9508,2,0,P|100:100|81:131,1,70,2|0,2:0|1:0,0:0:0:0:
169,255,10016,1,2,0:0:0:0:
169,255,10143,1,0,0:0:0:0:
169,255,10271,2,0,P|201:231|220:200,1,70,6|0,2:0|0:0,0:0:0:0:
312,76,10652,6,0,L|336:148,1,70,4|0,1:0|0:0,0:0:0:0:
440,260,11033,2,0,L|480:196,1,70,2|8,0:0|0:0,0:0:0:0:
477,200,11542,2,0,L|407:193,1,70,6|0,0:0|1:0,0:0:0:0:
296,288,12050,1,2,0:0:0:0:
296,288,12177,1,0,0:0:0:0:
296,288,12304,2,0,L|367:294,1,70,4|4,0:0|3:0,0:0:0:0:
365,293,12813,6,0,L|225:301,1,140,4|8,1:0|0:0,0:0:0:0:
48,344,13576,2,0,L|124:340,1,70,2|0,0:0|1:0,0:0:0:0:
232,308,14084,1,0,0:0:0:0:
232,308,14211,1,0,0:0:0:0:
232,308,14338,1,12,0:0:0:0:
92,268,14593,1,0,0:0:0:0:
92,268,14720,5,4,1:0:0:0:
232,224,14974,1,0,0:0:0:0:
232,224,15101,1,0,1:0:0:0:
60,188,15355,1,4,1:3:0:0:
60,188,15482,1,0,1:0:0:0:
60,188,15609,1,0,0:0:0:0:
236,136,15864,1,0,1:0:0:0:
24,104,16118,1,8,0:0:0:0:
236,136,16372,1,12,0:0:0:0:
28,108,16626,1,4,3:0:0:0:
255,36,16881,6,0,P|325:32|395:31,1,140,4|10,1:0|0:0,0:0:0:0:
408,140,17643,1,2,0:0:0:0:
408,140,17898,2,0,L|404:220,1,70,2|2,1:2|0:0,0:0:0:0:
416,224,18279,1,0,0:0:0:0:
428,236,18406,2,0,L|424:316,1,70,14|0,0:0|0:0,0:0:0:0:
328,328,18787,6,0,L|332:258,1,70,4|0,1:0|0:0,0:0:0:0:
240,228,19169,2,0,L|236:297,1,70,2|10,0:0|0:0,0:0:0:0:
236,296,19677,2,0,P|201:301|167:294,1,70,6|2,0:0|1:2,0:0:0:0:
100,212,20186,1,2,0:0:0:0:
100,212,20313,1,0,0:0:0:0:
99,212,20440,2,0,P|134:207|168:214,1,70,14|4,0:0|3:0,0:0:0:0:
168,214,20948,6,0,L|175:74,1,140,4|10,1:0|0:0,0:0:0:0:
260,116,21711,1,2,0:0:0:0:
260,116,21965,2,0,B|329:108,1,70,2|2,1:2|0:0,0:0:0:0:
329,108,22347,1,0,0:0:0:0:
329,108,22474,1,14,0:0:0:0:
440,88,22728,5,0,0:0:0:0:
440,88,22855,1,4,1:0:0:0:
388,184,23109,1,0,0:0:0:0:
388,184,23237,1,0,1:0:0:0:
456,264,23491,1,4,1:3:0:0:
456,264,23618,1,0,1:0:0:0:
456,264,23745,1,0,0:0:0:0:
372,328,23999,1,0,1:0:0:0:
336,112,24254,1,8,0:0:0:0:
272,296,24508,2,0,L|268:368,1,70,12|4,0:0|3:0,0:0:0:0:
267,365,25016,6,0,P|198:367|130:350,1,140,4|10,1:0|0:0,0:0:0:0:
76,184,25779,1,2,0:0:0:0:
75,183,26033,2,0,P|81:218|70:251,1,70,2|2,1:2|0:0,0:0:0:0:
40,272,26415,1,0,0:0:0:0:
40,272,26542,2,0,L|109:268,1,70,14|0,0:0|0:0,0:0:0:0:
220,180,26923,2,0,L|150:176,1,70,4|0,1:0|0:0,0:0:0:0:
276,240,27304,5,2,0:0:0:0:
240,100,27559,1,10,0:0:0:0:
356,184,27813,2,0,L|425:180,1,70,6|2,0:0|1:2,0:0:0:0:
512,116,28321,1,2,0:0:0:0:
512,116,28448,1,0,0:0:0:0:
512,116,28576,2,0,L|442:109,1,70,14|4,0:0|3:0,0:0:0:0:
442,109,29084,6,0,P|441:180|445:248,1,140,4|10,1:0|0:0,0:0:0:0:
380,332,29847,1,2,0:0:0:0:
380,332,30101,2,0,L|310:328,1,70,2|2,1:2|0:0,0:0:0:0:
310,328,30482,1,0,0:0:0:0:
310,328,30609,1,6,0:0:0:0:
240,264,30864,5,0,0:0:0:0:
240,264,30991,1,4,1:0:0:0:
148,316,31245,1,0,0:0:0:0:
148,316,31372,1,0,1:0:0:0:
168,212,31626,1,4,1:3:0:0:
168,212,31754,1,0,1:0:0:0:
168,212,31881,1,0,0:0:0:0:
252,152,32135,1,0,1:0:0:0:
160,104,32389,1,8,1:3:0:0:
272,256,32643,5,4,0:0:0:0:
306,255,32770,1,4,3:0:0:0:
341,254,32897,1,4,0:3:0:0:
372,272,33024,1,4,0:3:0:0:
406,271,33152,6,0,L|416:204,2,46.6666666666667,4|0|0,1:0|3:0|0:0,0:0:0:0:
328,300,33660,2,0,L|320:356,2,46.6666666666667,8|0|0,0:0|0:0|0:0,0:0:0:0:
336,212,34169,1,0,1:0:0:0:
336,212,34677,1,8,0:0:0:0:
248,252,34932,1,2,0:0:0:0:
248,252,35059,6,0,P|224:196|224:144,1,105,4|4,1:2|0:0,0:0:0:0:
222,152,35694,2,0,L|146:160,1,70,8|6,0:0|0:0,0:0:0:0:
224,56,36203,2,0,L|304:48,1,70,0|0,1:0|3:0,0:0:0:0:
293,49,36584,1,0,0:0:0:0:
293,49,36711,1,8,0:0:0:0:
128,72,36965,1,4,1:3:0:0:
384,128,37220,6,0,L|436:120,2,46.6666666666667,0|0|0,1:0|0:0|0:0,0:0:0:0:
352,208,37728,2,0,L|300:220,2,46.6666666666667,8|0|0,0:0|0:0|0:0,0:0:0:0:
440,236,38237,2,0,P|440:288|420:344,1,105,0|0,1:0|0:0,0:0:0:0:
423,337,38745,1,8,0:0:0:0:
328,356,38999,1,0,0:0:0:0:
328,356,39126,6,0,B|300:340|300:340|224:352,1,105,4|0,1:0|1:0,0:0:0:0:
76,280,39762,1,8,1:2:0:0:
76,280,39889,2,0,B|104:296|104:296|180:284,1,105,0|0,1:0|1:0,0:0:0:0:
264,268,40525,1,10,0:0:0:0:
264,268,40652,1,0,0:0:0:0:
264,268,40779,1,8,0:0:0:0:
372,160,41033,1,4,1:2:0:0:
444,304,41287,6,0,L|436:352,2,46.6666666666667,0|0|0,1:0|0:0|0:0,0:0:0:0:
364,206,41796,2,0,L|372:158,2,46.6666666666667,8|0|0,0:0|0:0|0:0,0:0:0:0:
256,264,42304,1,0,1:0:0:0:
256,264,42813,1,8,0:0:0:0:
172,304,43067,1,2,0:0:0:0:
172,304,43194,6,0,P|152:260|152:204,1,105,4|4,1:2|0:0,0:0:0:0:
256,64,43830,2,0,L|243:138,1,70,8|6,0:0|0:0,0:0:0:0:
352,196,44338,2,0,L|364:128,1,70,0|0,1:0|3:0,0:0:0:0:
364,127,44720,1,0,0:0:0:0:
364,127,44847,1,8,0:0:0:0:
328,336,45101,1,4,1:3:0:0:
352,196,45355,6,0,P|416:168|488:172,2,140,0|8|0,1:0|0:0|1:0,0:0:0:0:
288,292,46626,1,2,0:0:0:0:
288,292,46754,1,0,0:0:0:0:
288,292,46881,1,8,0:0:0:0:
64,232,47135,1,0,0:0:0:0:
64,232,47262,6,0,B|96:220|96:220|172:240,1,105,4|0,1:0|1:0,0:0:0:0:
288,292,47898,1,8,1:2:0:0:
288,292,48025,1,0,1:0:0:0:
436,216,48406,1,0,1:0:0:0:
192,76,48660,5,8,0:0:0:0:
440,220,48915,1,8,0:0:0:0:
236,260,49169,1,6,1:2:0:0:
392,36,49423,5,0,1:0:0:0:
409,35,49550,1,0,0:0:0:0:
426,34,49677,1,0,0:0:0:0:
444,33,49804,1,0,0:0:0:0:
462,32,49932,6,0,L|510:20,2,46.6666666666667,8|0|0,0:0|0:0|0:0,0:0:0:0:
428,104,50440,2,0,B|412:140|412:140|434:201,1,105,0|0,1:0|0:0,0:0:0:0:
472,220,50948,2,0,L|474:185,2,35,8|2|2,0:0|0:0|0:0,0:0:0:0:
456,295,51330,6,0,P|421:296|387:287,1,70,4|0,1:2|0:0,0:0:0:0:
356,268,51711,1,4,0:0:0:0:
272,340,51965,1,8,0:0:0:0:
272,340,52220,2,0,L|224:336,1,35,6|0,0:0|0:0,0:0:0:0:
183,288,52474,2,0,P|188:253|182:218,1,70,0|0,1:0|3:0,0:0:0:0:
182,218,52855,1,0,0:0:0:0:
182,218,52982,1,8,0:0:0:0:
140,352,53237,1,4,1:3:0:0:
352,240,53491,6,0,L|345:193,2,46.6666666666667,0|0|0,1:0|0:0|0:0,0:0:0:0:
284,296,53999,2,0,L|277:342,2,46.6666666666667,8|0|0,0:0|0:0|0:0,0:0:0:0:
208,364,54508,2,0,P|173:362|140:352,1,70,0|0,1:0|0:0,0:0:0:0:
84,312,54889,1,0,0:0:0:0:
84,312,55016,1,10,0:0:0:0:
176,264,55271,1,0,0:0:0:0:
176,264,55398,6,0,B|180:172,1,70,4|0,1:0|0:0,0:0:0:0:
180,128,55779,2,0,L|214:124,1,35,0|0,1:0|0:0,0:0:0:0:
172,60,56033,1,8,1:2:0:0:
172,60,56160,2,0,L|132:56,2,35,0|0|0,1:0|0:0|0:0,0:0:0:0:
232,24,56542,1,0,1:0:0:0:
300,32,56796,1,8,0:0:0:0:
132,160,57050,1,8,0:0:0:0:
336,92,57304,1,4,1:2:0:0:
112,176,57559,6,0,L|50:172,2,46.6666666666667,0|0|0,1:0|0:0|0:0,0:0:0:0:
172,104,58067,2,0,L|234:100,2,46.6666666666667,8|0|0,0:0|0:0|0:0,0:0:0:0:
128,32,58576,2,0,P|75:27|23:30,1,105,0|0,1:0|0:0,0:0:0:0:
0,60,59084,2,0,L|-8:16,2,35,8|2|2,0:0|0:0|0:0,0:0:0:0:
16,128,59465,6,0,P|49:127|88:120,1,70,4|0,1:2|0:0,0:0:0:0:
112,100,59847,1,4,0:0:0:0:
80,204,60101,1,8,0:0:0:0:
80,204,60355,2,0,L|88:240,1,35,4|0,0:0|0:0,0:0:0:0:
127,295,60609,2,0,P|162:299|197:296,1,70,0|2,1:0|0:0,0:0:0:0:
197,296,60991,1,0,0:0:0:0:
197,296,61118,1,8,0:0:0:0:
87,238,61372,1,4,1:3:0:0:
327,220,61626,6,0,P|336:186|340:151,1,70,0|0,1:0|0:0,0:0:0:0:
388,48,62135,1,8,0:0:0:0:
388,48,62262,1,0,0:0:0:0:
428,168,62516,1,0,0:0:0:0:
427,167,62643,2,0,P|436:201|442:236,1,70,0|0,1:0|0:0,0:0:0:0:
400,300,63025,1,0,0:0:0:0:
400,300,63152,2,0,L|403:334,2,35,8|2|2,0:0|0:0|0:0,0:0:0:0:
351,247,63533,6,0,P|317:244|282:245,1,70,4|0,1:0|0:0,0:0:0:0:
252,260,63915,1,0,1:0:0:0:
324,140,64169,1,8,1:2:0:0:
324,140,64296,1,0,1:0:0:0:
324,140,64423,1,0,0:0:0:0:
312,56,64677,1,0,1:0:0:0:
140,236,64932,1,8,0:0:0:0:
180,164,65186,2,0,L|224:168,1,35,8|0,0:0|0:0,0:0:0:0:
116,240,65440,2,0,L|72:244,1,35,0|0,1:0|1:0,0:0:0:0:
4,256,65694,5,4,1:0:0:0:
4,256,66203,2,0,P|-13:197|-12:144,1,105,10|0,0:0|0:0,0:0:0:0:
0,136,66711,2,0,L|72:132,1,70,2|0,1:2|0:0,0:0:0:0:
69,132,67093,1,0,0:0:0:0:
69,132,67220,1,10,0:0:0:0:
320,120,67474,6,0,P|264:76|196:72,1,140,0|0,1:0|1:0,0:0:0:0:
68,68,68237,2,0,L|76:144,1,70,10|0,0:0|0:0,0:0:0:0:
144,236,68745,1,2,1:2:0:0:
268,160,68999,1,0,1:0:0:0:
280,156,69126,1,0,0:0:0:0:
292,152,69254,1,10,0:0:0:0:
376,296,69508,1,0,1:0:0:0:
492,152,69762,5,2,1:2:0:0:
492,152,70271,2,0,L|384:144,1,105,10|0,0:0|0:0,0:0:0:0:
372,152,70779,1,2,1:2:0:0:
292,204,71033,1,0,0:0:0:0:
288,220,71160,1,0,0:0:0:0:
284,236,71287,1,10,0:0:0:0:
116,328,71542,6,0,P|84:268|80:192,1,140,0|0,1:0|1:0,0:0:0:0:
79,197,72304,2,0,L|151:189,1,70,10|0,0:0|0:0,0:0:0:0:
148,189,72686,1,0,0:0:0:0:
148,189,72813,1,2,1:2:0:0:
260,236,73067,1,8,0:0:0:0:
460,200,73321,1,10,0:0:0:0:
260,236,73576,1,0,1:0:0:0:
508,272,73830,5,2,1:2:0:0:
508,272,74338,2,0,B|480:252|480:252|404:264,1,105,10|0,0:0|0:0,0:0:0:0:
410,263,74847,2,0,L|402:335,1,70,2|0,1:2|0:0,0:0:0:0:
402,332,75228,1,0,0:0:0:0:
402,332,75355,1,10,0:0:0:0:
292,200,75609,6,0,L|308:60,1,140,0|0,1:0|1:0,0:0:0:0:
388,28,76372,2,0,L|461:24,1,70,10|0,0:0|0:0,0:0:0:0:
216,100,76881,2,0,L|136:104,1,70,2|0,1:2|1:0,0:0:0:0:
332,216,77389,2,0,L|408:212,1,70,10|0,0:0|1:0,0:0:0:0:
192,296,77898,5,2,1:2:0:0:
192,296,78406,2,0,P|172:248|172:196,1,105,10|0,0:0|0:0,0:0:0:0:
172,195,78915,1,2,1:2:0:0:
272,160,79169,1,0,0:0:0:0:
288,156,79296,1,0,0:0:0:0:
304,152,79423,1,10,0:0:0:0:
500,128,79677,6,0,P|448:80|380:64,1,140,0|0,1:0|1:0,0:0:0:0:
304,152,80440,1,10,0:0:0:0:
356,280,80694,1,0,0:0:0:0:
356,280,80821,1,0,0:0:0:0:
356,280,80948,1,2,1:2:0:0:
304,152,81203,1,8,0:0:0:0:
184,264,81457,1,10,0:0:0:0:
172,56,81711,1,0,1:0:0:0:
8,224,81965,5,2,1:2:0:0:
8,223,82474,2,0,P|3:275|19:325,1,105,10|0,0:0|0:0,0:0:0:0:
44,340,82982,2,0,L|113:337,1,70,2|0,1:2|0:0,0:0:0:0:
113,337,83364,1,0,0:0:0:0:
120,344,83491,1,10,0:0:0:0:
228,200,83745,6,0,P|160:207|119:261,1,140,0|0,1:0|1:0,0:0:0:0:
208,344,84508,2,0,L|198:275,1,70,10|0,0:0|0:0,0:0:0:0:
176,100,85016,1,0,1:0:0:0:
104,176,85271,1,0,1:0:0:0:
108,164,85398,1,0,0:0:0:0:
112,152,85525,1,8,0:0:0:0:
244,36,85779,1,0,1:0:0:0:
328,192,86033,5,2,1:2:0:0:
328,192,86542,2,0,L|432:188,1,105,8|0,0:0|0:0,0:0:0:0:
460,188,87050,1,0,1:0:0:0:
396,276,87304,1,0,0:0:0:0:
388,288,87432,1,0,0:0:0:0:
380,300,87559,1,8,0:0:0:0:
224,359,87813,6,0,P|155:357|102:313,1,140,0|0,1:0|1:0,0:0:0:0:
32,309,88576,2,0,L|102:313,1,70,8|0,0:0|0:0,0:0:0:0:
32,309,88957,1,0,0:0:0:0:
32,309,89084,1,2,1:2:0:0:
264,232,89338,1,8,0:0:0:0:
20,200,89593,1,10,0:0:0:0:
192,288,89847,1,0,1:0:0:0:
12,184,90101,5,2,1:2:0:0:
12,184,90609,2,0,L|16:72,1,105,10|0,0:0|0:0,0:0:0:0:
32,56,91118,2,0,P|65:44|99:37,1,70,2|0,1:2|0:0,0:0:0:0:
99,36,91499,1,0,0:0:0:0:
99,36,91626,1,10,0:0:0:0:
288,64,91881,6,0,B|332:76|332:76|424:56,1,140,0|0,1:0|1:0,0:0:0:0:
443,30,92643,2,0,P|435:65|438:99,1,70,8|0,0:0|0:0,0:0:0:0:
347,208,93152,2,0,P|355:173|352:139,1,70,0|0,1:0|1:0,0:0:0:0:
248,43,93660,2,0,P|240:77|245:112,1,70,10|0,0:0|1:0,0:0:0:0:
180,275,94169,5,0,1:0:0:0:
180,275,94677,2,0,B|140:291|140:291|76:275,1,105,8|0,0:0|0:0,0:0:0:0:
80,276,95186,2,0,L|10:287,1,70,0|0,1:0|3:0,0:0:0:0:
11,287,95567,1,0,0:0:0:0:
11,287,95694,1,8,0:0:0:0:
144,123,95948,6,0,P|212:111|280:125,1,140,0|0,1:0|1:0,0:0:0:0:
400,248,96711,1,8,0:0:0:0:
276,124,96965,1,10,0:0:0:0:
232,288,97220,1,2,1:2:0:0:
132,40,97474,1,10,0:0:0:0:
64,120,97728,1,12,0:0:0:0:
64,120,97855,1,0,0:0:0:0:
64,120,97982,1,0,0:0:0:0:
64,120,98109,1,0,0:0:0:0:
64,120,98237,6,0,P|64:168|88:248,1,125.999996154785,6|0,0:0|2:0,0:0:0:0:
108,332,98745,2,0,L|200:316,1,83.9999974365235,0|2,0:0|2:0,0:0:0:0:
436,304,99254,2,0,P|380:272|316:268,1,125.999996154785
319,267,99762,2,0,L|336:176,1,83.9999974365235,2|2,0:0|2:0,0:0:0:0:
232,48,100143,6,0,L|216:132,1,83.9999974365235,6|0,0:0|0:0,0:0:0:0:
264,348,100525,2,0,L|284:264,1,83.9999974365235,2|0,0:0|0:0,0:0:0:0:
344,36,101033,1,0,3:0:0:0:
344,36,101160,1,0,3:0:0:0:
344,36,101287,1,0,0:0:0:0:
192,252,101542,1,2,2:0:0:0:
352,132,101796,2,0,P|388:108|432:104,1,83.9999974365235,2|4,0:0|0:3,0:0:0:0:
427,103,102304,6,0,L|408:280,1,167.999994873047,6|0,0:0|0:0,0:0:0:0:
308,292,103067,1,2,2:0:0:0:
308,292,103321,2,0,P|260:260|184:256,1,125.999996154785
44,336,103830,1,2,0:0:0:0:
44,336,103957,1,2,0:2:0:0:
44,336,104084,1,2,0:2:0:0:
44,336,104211,6,0,P|80:332|124:304,1,83.9999974365235,6|0,0:0|0:0,0:0:0:0:
269,282,104593,2,0,P|225:274|189:250,1,83.9999974365235,2|0,0:0|0:0,0:0:0:0:
116,228,104974,1,2,0:0:0:0:
348,192,105228,1,0,0:0:0:0:
348,192,105355,1,2,0:0:0:0:
112,224,105609,1,8,0:0:0:0:
348,192,105864,1,8,0:0:0:0:
348,192,106118,1,4,2:0:0:0:
348,192,106372,6,0,L|216:184,1,125.999996154785,6|0,0:0|2:0,0:0:0:0:
172,240,106881,2,0,L|80:234,1,83.9999974365235,0|2,0:0|2:0,0:0:0:0:
8,92,107389,2,0,L|140:100,1,125.999996154785
228,104,107898,1,2,0:0:0:0:
256,100,108025,1,2,0:2:0:0:
284,96,108152,1,2,0:2:0:0:
304,120,108279,6,0,P|332:144|376:160,1,83.9999974365235,6|0,0:0|0:0,0:0:0:0:
492,152,108660,1,2,0:0:0:0:
328,252,108915,1,0,0:0:0:0:
496,348,109169,1,2,2:0:0:0:
492,152,109423,1,0,0:0:0:0:
336,260,109677,1,0,3:0:0:0:
336,260,109804,1,0,3:0:0:0:
336,260,109932,2,0,L|320:348,1,83.9999974365235,2|4,0:0|3:0,0:0:0:0:
328,356,110440,6,0,L|356:190,1,167.999994873047,6|0,0:0|0:0,0:0:0:0:
324,48,111203,1,2,2:0:0:0:
212,24,111457,2,0,P|212:80|256:136,1,125.999996154785
368,200,111965,1,2,0:0:0:0:
368,200,112093,1,2,0:2:0:0:
368,200,112220,1,2,0:2:0:0:
368,200,112347,6,0,L|280:204,1,83.9999974365235,6|0,0:0|0:0,0:0:0:0:
128,304,112728,2,0,L|220:296,1,83.9999974365235,2|0,0:0|0:0,0:0:0:0:
336,344,113109,1,2,0:0:0:0:
128,304,113364,1,0,0:0:0:0:
128,304,113491,1,2,0:0:0:0:
412,272,113745,1,0,0:0:0:0:
412,272,113872,1,0,0:0:0:0:
412,272,113999,1,8,0:0:0:0:
352,312,114126,6,0,P|332:280|328:240,1,70,4|0,0:2|0:0,0:0:0:0:
376,132,114508,6,0,L|216:120,1,125.999996154785,6|0,0:0|2:0,0:0:0:0:
164,88,115016,2,0,B|176:120|176:120|160:168,1,83.9999974365235,0|2,0:0|2:0,0:0:0:0:
12,352,115525,2,0,P|24:296|8:216,1,125.999996154785
12,227,116033,2,0,P|54:236|95:229,1,83.9999974365235,2|2,0:0|2:0,0:0:0:0:
224,120,116415,6,0,P|182:111|141:118,1,83.9999974365235,6|0,0:0|0:0,0:0:0:0:
201,199,116796,2,0,P|219:161|223:119,1,83.9999974365235,2|0,0:0|0:0,0:0:0:0:
308,328,117305,1,0,3:0:0:0:
308,328,117432,1,0,3:0:0:0:
308,328,117560,1,0,0:0:0:0:
380,160,117813,1,2,2:0:0:0:
131,316,118067,2,0,P|90:320|50:309,1,83.9999974365235,2|4,0:0|0:3,0:0:0:0:
50,309,118576,6,0,B|80:260|80:260|61:151,1,167.999994873047,6|0,0:0|0:0,0:0:0:0:
176,184,119338,1,2,2:0:0:0:
175,184,119593,2,0,P|238:191|298:176,1,125.999996154785
460,124,120101,1,2,0:0:0:0:
460,124,120228,1,2,0:2:0:0:
460,124,120355,1,2,0:2:0:0:
460,124,120482,6,0,L|376:120,1,83.9999974365235,6|0,0:0|0:0,0:0:0:0:
328,36,120864,2,0,L|411:39,1,83.9999974365235,2|0,0:0|0:0,0:0:0:0:
448,40,121245,1,2,0:0:0:0:
392,200,121499,1,0,0:0:0:0:
392,200,121626,1,2,0:0:0:0:
512,164,121881,1,8,0:0:0:0:
448,328,122135,1,8,0:0:0:0:
448,328,122389,1,4,0:2:0:0:
448,327,122643,6,0,P|385:335|324:320,1,125.999996154785,6|0,0:0|2:0,0:0:0:0:
256,360,123152,2,0,P|214:355|173:364,1,83.9999974365235,0|2,0:0|2:0,0:0:0:0:
48,300,123660,2,0,P|49:236|54:174,1,125.999996154785
54,174,124169,2,0,P|104:176|168:152,1,83.9999974365235,2|2,0:0|0:2,0:0:0:0:
148,84,124550,6,0,P|188:93|230:90,1,83.9999974365235,6|0,0:0|0:0,0:0:0:0:
324,28,124932,1,2,0:0:0:0:
264,216,125186,1,0,0:0:0:0:
376,192,125440,1,2,2:0:0:0:
304,104,125694,1,0,0:0:0:0:
112,220,125948,1,0,3:0:0:0:
112,220,126076,1,0,3:0:0:0:
112,220,126203,2,0,P|111:261|115:303,1,83.9999974365235,2|4,0:0|0:3,0:0:0:0:
140,324,126711,6,0,P|147:240|147:156,1,167.999994873047,6|0,0:0|0:0,0:0:0:0:
236,12,127474,1,2,2:0:0:0:
284,91,127728,2,0,P|223:103|168:75,1,125.999996154785
44,48,128237,1,2,0:0:0:0:
44,48,128364,1,2,0:2:0:0:
44,48,128491,1,2,0:2:0:0:
44,48,128618,6,0,L|47:131,1,83.9999974365235,6|0,0:0|0:0,0:0:0:0:
180,260,128999,2,0,L|183:176,1,83.9999974365235,2|0,0:0|0:0,0:0:0:0:
260,60,129381,1,2,0:0:0:0:
180,260,129635,1,0,0:0:0:0:
180,260,129762,1,2,0:0:0:0:
360,224,130016,1,8,0:3:0:0:
127,311,130271,2,0,P|107:254|136:199,1,125.999996154785,8|0,0:3|0:0,0:0:0:0:
212,144,130779,5,4,0:0:0:0:
212,144,131287,2,0,P|220:99|224:56,1,83.9999974365235,8|2,0:0|0:0,0:0:0:0:
223,61,131669,1,2,0:0:0:0:
223,61,131796,1,0,1:0:0:0:
112,196,132050,1,2,0:0:0:0:
112,196,132177,1,0,0:0:0:0:
112,196,132304,2,0,P|112:238|120:280,1,83.9999974365235,12|2,0:0|0:0,0:0:0:0:
252,340,132686,5,4,1:0:0:0:
252,340,133067,1,2,0:0:0:0:
332,376,133321,2,0,P|348:344|348:296,1,83.9999974365235,8|2,0:0|0:0,0:0:0:0:
336,280,133703,1,2,0:0:0:0:
324,268,133830,2,0,L|240:264,1,83.9999974365235,0|6,1:0|0:0,0:0:0:0:
240,264,134211,1,0,0:0:0:0:
240,264,134338,1,8,0:0:0:0:
432,312,134593,1,4,1:3:0:0:
160,300,134847,6,0,P|123:225|134:143,1,167.999994873047,4|8,1:0|0:0,0:0:0:0:
208,32,135609,1,2,0:0:0:0:
232,36,135737,1,2,0:0:0:0:
264,48,135864,2,0,L|252:136,1,83.9999974365235,0|2,1:0|0:0,0:0:0:0:
252,131,136245,1,0,0:0:0:0:
252,131,136372,2,0,P|288:116|340:120,1,83.9999974365235,12|2,0:0|0:0,0:0:0:0:
456,228,136754,6,0,P|444:272|420:304,1,83.9999974365235,4|0,1:0|0:0,0:0:0:0:
252,328,137135,2,0,P|212:308|188:276,1,83.9999974365235,0|8,1:0|0:0,0:0:0:0:
188,277,137516,1,0,1:0:0:0:
188,277,137643,1,2,0:0:0:0:
276,60,137898,1,0,1:0:0:0:
456,228,138152,1,8,0:0:0:0:
160,160,138406,1,8,0:0:0:0:
416,100,138660,1,2,1:2:0:0:
340,320,138915,5,4,1:0:0:0:
344,324,139423,2,0,P|320:284|308:248,1,83.9999974365235,8|2,0:0|0:0,0:0:0:0:
308,248,139804,1,2,0:0:0:0:
308,248,139932,1,0,1:0:0:0:
392,48,140186,1,2,0:0:0:0:
392,48,140313,1,0,0:0:0:0:
392,48,140440,2,0,P|378:88|356:124,1,83.9999974365235,12|2,0:0|0:0,0:0:0:0:
224,160,140821,5,4,1:0:0:0:
224,160,141203,1,2,0:0:0:0:
284,236,141457,2,0,L|376:228,1,83.9999974365235,8|2,0:0|0:0,0:0:0:0:
367,228,141838,1,2,0:0:0:0:
367,228,141965,1,0,1:0:0:0:
304,332,142220,1,6,0:0:0:0:
304,332,142347,1,0,0:0:0:0:
304,332,142474,2,0,L|220:336,1,83.9999974365235,8|4,0:0|1:3,0:0:0:0:
392,364,142982,6,0,B|428:320|428:320|408:200,1,167.999994873047,4|8,1:0|0:0,0:0:0:0:
320,140,143745,1,2,0:0:0:0:
300,144,143872,1,2,0:0:0:0:
280,148,143999,1,0,1:0:0:0:
148,216,144254,1,2,0:0:0:0:
168,220,144381,1,0,0:0:0:0:
188,224,144508,1,12,0:0:0:0:
296,240,144762,1,2,0:0:0:0:
296,240,144889,6,0,L|280:328,1,83.9999974365235,4|0,1:0|0:0,0:0:0:0:
188,224,145271,2,0,L|204:136,1,83.9999974365235,0|8,1:0|0:0,0:0:0:0:
203,141,145652,1,0,1:0:0:0:
203,141,145779,1,2,0:0:0:0:
444,112,146033,1,0,1:0:0:0:
196,132,146287,1,8,0:0:0:0:
452,100,146542,1,8,0:0:0:0:
184,120,146796,1,2,1:2:0:0:
460,88,147050,5,4,0:0:0:0:
459,88,147559,2,0,P|468:47|459:6,1,83.9999974365235,8|2,0:0|0:0,0:0:0:0:
459,6,147940,1,2,0:0:0:0:
459,6,148067,1,0,1:0:0:0:
324,104,148321,1,2,0:0:0:0:
324,104,148448,1,0,0:0:0:0:
324,104,148576,2,0,L|326:187,1,83.9999974365235,12|2,0:0|0:0,0:0:0:0:
388,312,148957,5,4,1:0:0:0:
388,312,149338,1,2,0:0:0:0:
328,367,149593,2,0,P|286:372|244:367,1,83.9999974365235,8|2,0:0|0:0,0:0:0:0:
232,360,149974,1,2,0:0:0:0:
220,348,150101,2,0,L|226:264,1,83.9999974365235,0|6,1:0|0:0,0:0:0:0:
226,264,150482,1,0,0:0:0:0:
226,264,150609,1,8,0:0:0:0:
388,312,150864,1,4,1:3:0:0:
119,311,151118,6,0,P|112:228|119:144,1,167.999994873047,4|8,1:0|0:0,0:0:0:0:
200,48,151881,1,2,0:0:0:0:
216,56,152008,1,2,0:0:0:0:
232,64,152135,2,0,L|228:147,1,83.9999974365235,0|2,1:0|0:0,0:0:0:0:
232,152,152516,1,0,0:0:0:0:
236,156,152643,2,0,P|276:164|317:153,1,83.9999974365235,12|2,0:0|0:0,0:0:0:0:
180,251,153025,6,0,P|139:260|98:249,1,83.9999974365235,4|0,1:0|0:0,0:0:0:0:
243,335,153406,2,0,P|284:344|325:333,1,83.9999974365235,0|8,1:0|0:0,0:0:0:0:
325,333,153787,1,0,1:0:0:0:
325,333,153915,1,2,0:0:0:0:
180,251,154169,1,0,1:0:0:0:
96,300,154423,1,8,0:0:0:0:
188,56,154677,1,8,0:0:0:0:
256,128,154932,1,2,1:2:0:0:
44,200,155186,5,4,1:0:0:0:
44,200,155694,2,0,P|35:158|42:117,1,83.9999974365235,8|2,0:0|0:0,0:0:0:0:
42,117,156076,1,2,0:0:0:0:
42,117,156203,1,0,1:0:0:0:
236,20,156457,1,2,0:0:0:0:
236,20,156584,1,0,0:0:0:0:
236,20,156711,2,0,L|319:16,1,83.9999974365235,12|2,0:0|0:0,0:0:0:0:
453,62,157093,5,4,1:0:0:0:
453,62,157474,1,2,0:0:0:0:
384,124,157728,2,0,L|380:207,1,83.9999974365235,8|2,0:0|0:0,0:0:0:0:
380,207,158109,1,2,0:0:0:0:
380,207,158237,1,0,1:0:0:0:
512,280,158491,1,6,0:0:0:0:
512,280,158619,1,0,0:0:0:0:
512,280,158745,2,0,L|508:196,1,83.9999974365235,8|4,0:0|1:3,0:0:0:0:
396,356,159254,6,0,B|336:376|336:376|235:347,1,167.999994873047,4|8,1:0|0:0,0:0:0:0:
156,260,160016,1,2,0:0:0:0:
177,256,160143,1,2,0:0:0:0:
199,252,160271,1,0,1:0:0:0:
312,156,160525,1,2,0:0:0:0:
291,152,160652,1,0,0:0:0:0:
269,148,160780,1,12,0:0:0:0:
169,129,161033,1,2,0:0:0:0:
169,129,161160,6,0,L|175:45,1,83.9999974365235,4|0,1:0|0:0,0:0:0:0:
269,148,161542,2,0,L|275:231,1,83.9999974365235,0|8,1:0|0:0,0:0:0:0:
275,231,161923,1,0,1:0:0:0:
275,231,162050,1,2,0:0:0:0:
32,284,162304,1,0,1:0:0:0:
256,320,162559,1,8,1:3:0:0:
28,248,162813,5,4,0:0:0:0:
26,206,162940,1,4,3:0:0:0:
24,164,163067,1,4,0:3:0:0:
56,136,163194,1,4,0:3:0:0:
60,92,163321,5,4,1:0:0:0:
60,92,163830,1,8,0:0:0:0:
152,240,164720,1,0,3:0:0:0:
152,240,164847,1,8,0:0:0:0:
220,128,165228,2,0,P|260:120|304:116,1,78.7500030040742,2|0,3:2|3:0,0:0:0:0:
372,156,165864,1,8,0:0:0:0:
372,156,166499,1,2,0:0:0:0:
372,156,166626,1,0,3:0:0:0:
297,116,166881,1,8,0:0:0:0:
372,76,167135,1,0,0:0:0:0:
452,128,167389,5,0,3:0:0:0:
452,128,167898,1,8,0:0:0:0:
344,324,168787,1,0,3:0:0:0:
344,324,168915,1,8,0:0:0:0:
280,216,169296,2,0,P|256:212|200:208,1,78.7500030040742,2|0,3:2|3:0,0:0:0:0:
116,240,169932,1,8,0:0:0:0:
201,208,170186,1,0,0:0:0:0:
201,208,170313,1,0,0:0:0:0:
48,184,170567,5,2,0:0:0:0:
48,184,170694,1,0,3:0:0:0:
96,328,170948,1,8,0:0:0:0:
201,208,171203,1,4,3:0:0:0:
48,184,171457,5,4,3:0:0:0:
48,184,171965,1,8,0:0:0:0:
48,184,172855,1,0,3:0:0:0:
48,184,172982,1,8,0:0:0:0:
116,236,173364,2,0,P|144:228|212:224,1,78.7500030040742,2|0,3:2|3:0,0:0:0:0:
276,244,173999,1,8,0:0:0:0:
480,208,175016,1,8,0:0:0:0:
424,272,175398,6,0,P|400:268|336:264,1,78.7500030040742,0|0,3:0|0:0,0:0:0:0:
260,296,176033,1,8,0:0:0:0:
40,232,176923,1,0,3:0:0:0:
40,232,177050,1,8,0:0:0:0:
112,280,177432,6,0,P|136:276|192:272,1,78.7500030040742,2|0,3:0|0:0,0:0:0:0:
288,304,178067,1,8,0:0:0:0:
288,304,178194,1,0,3:0:0:0:
464,204,178576,1,2,3:0:0:0:
240,168,178830,1,4,1:3:0:0:
220,164,178957,1,0,0:0:0:0:
200,160,179084,1,0,1:0:0:0:
404,72,179338,1,8,3:0:0:0:
420,76,179465,1,8,3:0:0:0:
436,80,179593,5,4,3:0:0:0:
496,208,180101,2,0,L|500:256,2,46.6666666666667,8|0|0,0:0|0:0|0:0,0:0:0:0:
436,160,180609,2,0,B|332:144,1,105,0|0,1:0|0:0,0:0:0:0:
316,104,181118,2,0,L|352:92,2,35,8|2|2,0:0|0:0|0:0,0:0:0:0:
259,140,181499,6,0,P|251:173|259:207,1,70,4|0,1:2|0:0,0:0:0:0:
284,232,181881,1,4,0:0:0:0:
244,328,182135,1,8,0:0:0:0:
244,328,182389,2,0,L|209:325,1,35,6|0,0:0|0:0,0:0:0:0:
147,292,182643,2,0,P|160:259|163:224,1,70,0|0,1:0|3:0,0:0:0:0:
164,223,183024,1,0,0:0:0:0:
164,223,183151,1,8,0:0:0:0:
80,336,183406,1,4,1:3:0:0:
224,180,183660,6,0,L|221:133,2,46.6666666666667,0|0|0,1:0|0:0|0:0,0:0:0:0:
336,144,184169,1,8,0:0:0:0:
300,36,184423,1,0,0:0:0:0:
188,64,184677,2,0,L|118:56,1,70,0|0,1:0|0:0,0:0:0:0:
52,48,185059,1,0,0:0:0:0:
52,48,185186,1,10,0:0:0:0:
32,148,185440,1,0,0:0:0:0:
32,148,185567,6,0,B|104:140,1,70,4|0,1:0|0:0,0:0:0:0:
128,208,185948,2,0,L|94:212,1,35,0|0,1:0|0:0,0:0:0:0:
64,276,186202,1,8,1:2:0:0:
64,276,186329,2,0,L|29:272,2,35,0|0|0,1:0|0:0|0:0,0:0:0:0:
124,312,186711,1,0,1:0:0:0:
196,288,186965,1,8,0:0:0:0:
24,368,187219,1,8,0:0:0:0:
248,340,187473,1,4,1:2:0:0:
8,344,187728,6,0,L|4:296,2,46.6666666666667,0|0|0,1:0|0:0|0:0,0:0:0:0:
72,276,188237,2,0,L|76:224,2,46.6666666666667,8|0|0,0:0|0:0|0:0,0:0:0:0:
144,287,188745,2,0,P|194:273|246:268,1,105,0|0,1:0|0:0,0:0:0:0:
280,252,189254,2,0,L|276:204,2,35,8|2|2,0:0|0:0|0:0,0:0:0:0:
308,328,189635,6,0,B|377:321,1,70,4|0,1:2|0:0,0:0:0:0:
405,299,190017,1,4,0:0:0:0:
508,324,190271,1,8,0:0:0:0:
508,324,190525,2,0,L|511:289,1,35,4|0,0:0|0:0,0:0:0:0:
475,227,190779,2,0,P|442:219|407:216,1,70,0|2,1:0|0:0,0:0:0:0:
407,216,191161,1,0,0:0:0:0:
407,216,191288,1,8,0:0:0:0:
492,96,191542,1,4,1:3:0:0:
288,276,191796,6,0,P|269:246|257:213,1,70,0|0,1:0|0:0,0:0:0:0:
188,120,192304,1,8,0:0:0:0:
188,120,192431,1,0,0:0:0:0:
104,204,192686,1,0,0:0:0:0:
104,204,192813,2,0,L|92:276,1,70,0|0,1:0|0:0,0:0:0:0:
156,328,193195,1,0,0:0:0:0:
156,328,193322,2,0,L|159:362,2,35,8|2|2,0:0|0:0|0:0,0:0:0:0:
211,272,193703,6,0,P|246:269|281:273,1,70,4|0,1:0|0:0,0:0:0:0:
316,284,194084,1,0,1:0:0:0:
256,156,194339,1,8,1:2:0:0:
256,156,194466,1,0,1:0:0:0:
256,156,194593,1,0,0:0:0:0:
284,64,194847,1,0,1:0:0:0:
168,164,195102,1,8,0:0:0:0:
156,264,195356,2,0,L|152:298,1,35,8|0,0:0|0:0,0:0:0:0:
36,248,195610,2,0,L|29:213,1,35,0|0,1:0|1:0,0:0:0:0:
24,148,195864,5,4,1:0:0:0:
24,149,196372,2,0,L|136:128,1,105,10|0,0:0|0:0,0:0:0:0:
127,129,196881,2,0,P|160:144|200:152,1,70,2|0,1:2|0:0,0:0:0:0:
192,151,197262,1,0,0:0:0:0:
192,151,197389,1,10,0:0:0:0:
376,180,197643,6,0,P|308:188|248:228,1,140,0|0,1:0|1:0,0:0:0:0:
163,289,198406,1,8,0:0:0:0:
249,226,198660,1,0,0:0:0:0:
151,185,198915,1,0,1:0:0:0:
256,316,199169,1,0,1:0:0:0:
256,316,199296,1,0,0:0:0:0:
256,316,199423,1,10,0:0:0:0:
404,240,199677,1,0,1:0:0:0:
296,112,199932,1,0,1:0:0:0:
296,112,200440,6,0,P|296:164|316:216,1,105,8|0,0:0|0:0,0:0:0:0:
314,213,200948,1,2,1:2:0:0:
424,296,201203,1,0,0:0:0:0:
424,296,201330,1,0,0:0:0:0:
424,296,201457,1,10,0:0:0:0:
512,216,201711,6,0,P|452:176|380:176,1,140,0|0,1:0|1:0,0:0:0:0:
288,204,202474,2,0,L|308:272,1,70,8|0,0:0|0:0,0:0:0:0:
188,132,202982,2,0,L|212:52,1,70,2|8,1:2|0:0,0:0:0:0:
188,132,203491,1,8,0:0:0:0:
156,232,203745,1,0,1:0:0:0:
128,332,203999,1,0,1:0:0:0:
128,332,204508,6,0,L|100:224,1,105,10|0,0:0|0:0,0:0:0:0:
108,172,205016,2,0,L|92:248,1,70,0|0,1:0|0:0,0:0:0:0:
93,240,205398,1,0,0:0:0:0:
93,240,205525,1,8,0:0:0:0:
20,92,205779,5,0,1:0:0:0:
20,92,206287,1,0,1:0:0:0:
104,152,206542,2,0,L|176:144,1,70,8|0,0:0|0:0,0:0:0:0:
173,144,206923,1,0,0:0:0:0:
173,144,207050,1,2,1:2:0:0:
340,76,207304,2,0,L|264:60,1,70,0|8,1:0|0:0,0:0:0:0:
308,192,207813,2,0,L|316:264,1,70,0|0,1:0|1:0,0:0:0:0:
315,261,208576,6,0,L|340:144,1,105,8|0,0:0|0:0,0:0:0:0:
336,158,209084,1,0,1:0:0:0:
424,304,209338,1,0,0:0:0:0:
428,320,209465,1,0,0:0:0:0:
432,336,209593,1,8,0:0:0:0:
296,328,209847,6,0,P|252:304|192:304,1,105,0|0,1:0|0:0,0:0:0:0:
198,302,210355,2,0,L|184:370,1,70,0|8,1:0|0:0,0:0:0:0:
84,272,210864,1,0,0:0:0:0:
84,272,211118,2,0,L|97:203,1,70,2|8,1:2|0:0,0:0:0:0:
188,40,211626,1,8,0:0:0:0:
296,228,211881,1,0,1:0:0:0:
420,36,212135,5,0,1:0:0:0:
419,36,212643,2,0,P|367:35|317:22,1,105,10|0,0:0|0:0,0:0:0:0:
317,22,213152,2,0,P|283:13|248:8,1,70,2|0,1:2|0:0,0:0:0:0:
248,8,213533,1,0,0:0:0:0:
248,8,213660,1,10,0:0:0:0:
75,68,213915,6,0,P|68:137|86:204,1,140,0|0,1:0|1:0,0:0:0:0:
172,264,214677,1,8,0:0:0:0:
276,248,214932,1,0,0:0:0:0:
348,164,215186,1,0,1:0:0:0:
360,252,215440,1,0,1:0:0:0:
360,252,215567,1,0,0:0:0:0:
360,252,215694,1,10,0:0:0:0:
264,168,215948,1,0,1:0:0:0:
340,16,216203,1,0,1:0:0:0:
340,16,216711,6,0,P|335:68|324:119,1,105,8|0,0:0|0:0,0:0:0:0:
324,119,217220,1,2,1:2:0:0:
452,72,217474,1,0,0:0:0:0:
452,72,217601,1,0,0:0:0:0:
452,72,217728,1,10,0:0:0:0:
391,184,217982,6,0,P|404:252|432:320,1,140,0|0,1:0|1:0,0:0:0:0:
504,232,218745,2,0,L|507:162,1,70,8|0,0:0|0:0,0:0:0:0:
336,268,219254,2,0,L|327:339,1,70,2|8,1:2|0:0,0:0:0:0:
336,268,219762,1,8,0:0:0:0:
236,296,220016,1,0,1:0:0:0:
140,252,220271,1,0,1:0:0:0:
140,251,220779,6,0,P|144:199|139:147,1,105,10|0,0:0|0:0,0:0:0:0:
100,88,221287,2,0,L|30:84,1,70,0|0,1:0|0:0,0:0:0:0:
30,84,221669,1,0,0:0:0:0:
30,84,221796,1,8,0:0:0:0:
200,44,222050,5,0,1:0:0:0:
200,44,222559,1,0,1:0:0:0:
284,104,222813,2,0,L|280:173,1,70,8|0,0:0|0:0,0:0:0:0:
280,173,223194,1,0,0:0:0:0:
280,173,223321,1,0,1:0:0:0:
484,124,223576,2,0,L|488:54,1,70,0|8,1:0|0:0,0:0:0:0:
382,151,224084,2,0,L|379:220,1,70,0|0,1:0|1:0,0:0:0:0:
379,221,224847,6,0,P|326:221|274:217,1,105,8|0,0:0|0:0,0:0:0:0:
274,217,225355,1,0,1:0:0:0:
412,120,225609,1,0,0:0:0:0:
416,104,225737,1,0,0:0:0:0:
420,88,225864,1,8,0:0:0:0:
288,132,226118,6,0,B|244:144|244:144|188:123,1,105,0|0,1:0|0:0,0:0:0:0:
188,123,226626,2,0,L|118:116,1,70,0|8,1:0|0:0,0:0:0:0:
0,204,227135,1,4,0:0:0:0:
0,204,227389,2,0,L|3:273,1,70,0|8,1:0|0:0,0:0:0:0:
152,376,227898,2,0,L|186:372,1,35,12|0,0:0|0:0,0:0:0:0:
248,336,228152,1,0,1:0:0:0:
252,320,228279,1,0,0:0:0:0:
256,304,228406,5,4,0:0:0:0:
256,192,260948,5,4,1:0:0:0:
460,288,262474,1,0,1:0:0:0:
396,324,262855,1,0,1:0:0:0:
392,252,263237,1,0,1:0:0:0:
428,124,264508,1,0,1:0:0:0:
392,252,265016,5,0,1:0:0:0:
88,104,266542,1,0,1:0:0:0:
112,184,266923,1,0,1:0:0:0:
168,124,267304,1,0,1:0:0:0:
144,44,267686,1,0,1:0:0:0:
60,32,268067,1,0,1:0:0:0:
112,184,268576,1,0,1:0:0:0:
264,128,269084,5,0,1:0:0:0:
440,132,270609,1,0,1:0:0:0:
440,52,270991,1,0,1:0:0:0:
372,92,271372,1,0,1:0:0:0:
128,56,272643,1,0,1:0:0:0:
372,92,273152,5,0,1:0:0:0:
500,228,274677,1,0,1:0:0:0:
460,332,275059,1,0,1:0:0:0:
304,304,275440,1,0,1:0:0:0:
300,208,275821,1,0,1:0:0:0:
196,144,276203,1,0,1:0:0:0:
92,136,276457,1,0,0:0:0:0:
92,136,276584,1,0,0:0:0:0:
92,136,276711,2,0,L|24:148,1,70,4|4,1:2|1:0,0:0:0:0:
23,148,277728,5,8,0:0:0:0:
48,332,278618,1,0,0:0:0:0:
48,332,278745,1,8,1:2:0:0:
164,324,279126,1,0,1:0:0:0:
284,316,279508,1,0,1:0:0:0:
276,196,279762,1,8,0:0:0:0:
279,199,280652,1,0,0:0:0:0:
279,199,280779,1,8,1:2:0:0:
472,232,281287,5,0,1:0:0:0:
404,88,281796,1,8,0:0:0:0:
388,272,282686,1,0,0:0:0:0:
388,272,282813,1,8,1:2:0:0:
272,268,283194,1,0,1:0:0:0:
152,260,283576,1,0,1:0:0:0:
232,156,283830,5,8,0:0:0:0:
232,156,283957,1,0,1:0:0:0:
356,128,284338,1,0,1:0:0:0:
432,176,284593,1,0,0:0:0:0:
432,176,284720,1,0,0:0:0:0:
432,176,284847,2,0,L|426:228,1,52.5000020027161,8|0,1:2|0:0,0:0:0:0:
412,332,285355,5,0,1:0:0:0:
256,280,285864,1,8,0:0:0:0:
80,336,286754,1,0,0:0:0:0:
80,336,286881,1,8,1:2:0:0:
116,224,287262,1,0,1:0:0:0:
152,112,287643,1,0,1:0:0:0:
268,144,287898,1,8,0:0:0:0:
271,147,288787,1,0,0:0:0:0:
271,147,288915,1,8,1:2:0:0:
256,348,289423,5,0,1:0:0:0:
424,328,289932,1,8,2:0:0:0:
260,248,290821,1,0,0:0:0:0:
260,248,290948,1,8,1:2:0:0:
136,288,291330,1,0,1:0:0:0:
24,244,291711,1,0,1:0:0:0:
100,136,291965,5,8,0:0:0:0:
100,136,292093,1,0,1:0:0:0:
208,216,292474,1,0,1:0:0:0:
296,172,292728,1,0,0:0:0:0:
296,172,292855,1,0,0:0:0:0:
296,172,292982,2,0,L|348:169,1,52.5000020027161,4|0,1:2|0:0,0:0:0:0:
456,168,293364,1,0,0:0:0:0:
456,168,293491,6,0,P|460:216|444:272,1,105,4|0,1:0|0:0,0:0:0:0:
452,276,293999,1,0,1:0:0:0:
320,336,294508,2,0,L|212:316,1,105,0|0,1:0|0:0,0:0:0:0:
216,316,295016,2,0,P|180:328|148:332,1,70,4|0,1:2|0:0,0:0:0:0:
80,360,295398,6,0,P|60:312|68:252,1,105,4|0,1:0|1:0,0:0:0:0:
88,180,296033,1,0,1:0:0:0:
156,232,296287,1,2,0:0:0:0:
176,148,296542,2,0,P|240:140|316:132,1,140,0|4,1:0|1:2,0:0:0:0:
396,152,297304,1,4,3:0:0:0:
388,236,297559,6,0,P|324:244|248:252,1,140,4|0,1:0|1:0,0:0:0:0:
252,256,298576,2,0,P|272:209|264:157,1,105,0|0,1:0|0:0,0:0:0:0:
264,157,299084,2,0,L|158:149,2,105,4|4|0,1:2|1:0|1:0,0:0:0:0:
340,124,300101,1,0,1:0:0:0:
340,124,300228,1,0,1:0:0:0:
460,168,300609,5,0,1:0:0:0:
368,204,300864,1,8,0:0:0:0:
460,168,301118,1,8,0:0:0:0:
340,124,301372,1,4,1:2:0:0:
244,208,301626,6,0,P|240:264|260:312,1,105,4|0,1:0|0:0,0:0:0:0:
252,316,302135,1,0,1:0:0:0:
412,204,302643,2,0,P|416:148|396:100,1,105,0|0,1:0|0:0,0:0:0:0:
398,103,303152,2,0,L|328:120,1,70,4|0,1:2|0:0,0:0:0:0:
264,144,303533,6,0,L|148:120,1,105,4|0,1:0|1:0,0:0:0:0:
36,96,304169,2,0,L|104:84,1,70,0|2,1:0|0:0,0:0:0:0:
184,144,304677,2,0,P|244:172|324:168,1,140,0|4,1:0|1:2,0:0:0:0:
404,128,305440,1,4,3:0:0:0:
332,64,305694,6,0,P|272:36|192:40,1,140,4|0,1:0|1:0,0:0:0:0:
203,42,306711,2,0,L|220:149,1,105,0|0,1:0|0:0,0:0:0:0:
219,145,307220,2,0,L|112:129,2,105,4|4|0,1:2|1:0|1:0,0:0:0:0:
316,124,308237,1,0,1:0:0:0:
316,124,308364,1,0,1:0:0:0:
216,232,308745,5,0,1:0:0:0:
312,252,308999,1,8,0:0:0:0:
236,316,309254,1,8,0:0:0:0:
236,316,309381,2,0,L|164:308,1,70,4|0,0:0|0:0,0:0:0:0:
332,332,309762,6,0,L|457:343,1,125.999996154785,6|0,0:0|2:0,0:0:0:0:
508,264,310271,2,0,P|496:224|500:182,1,83.9999974365235,0|2,0:0|2:0,0:0:0:0:
272,239,310779,2,0,P|209:243|146:238,1,125.999996154785
145,237,311287,2,0,P|152:279|139:318,1,83.9999974365235,2|2,0:0|2:0,0:0:0:0:
48,172,311669,6,0,P|41:130|54:91,1,83.9999974365235,6|0,0:0|0:0,0:0:0:0:
127,157,312050,2,0,P|88:173|47:171,1,83.9999974365235,2|0,0:0|0:0,0:0:0:0:
208,332,312559,1,0,3:0:0:0:
208,332,312686,1,0,3:0:0:0:
208,332,312813,1,0,0:0:0:0:
392,284,313067,1,2,2:0:0:0:
146,238,313321,2,0,P|104:234|62:234,1,83.9999974365235,2|4,0:0|0:3,0:0:0:0:
61,233,313830,6,0,P|56:150|63:66,1,167.999994873047,6|0,0:0|0:0,0:0:0:0:
174,126,314593,1,2,2:0:0:0:
174,126,314847,2,0,P|236:116|299:115,1,125.999996154785
416,164,315355,1,2,0:0:0:0:
416,164,315482,1,2,2:0:0:0:
416,164,315609,1,2,2:0:0:0:
416,164,315737,6,0,L|412:247,1,83.9999974365235,6|0,0:0|0:0,0:0:0:0:
284,260,316118,2,0,L|288:176,1,83.9999974365235,2|0,0:0|0:0,0:0:0:0:
292,140,316499,1,2,0:0:0:0:
256,16,316754,1,0,0:0:0:0:
256,16,316881,1,2,0:0:0:0:
292,140,317135,1,8,0:0:0:0:
4,104,317389,1,8,0:0:0:0:
4,104,317643,1,4,0:2:0:0:
4,104,317898,6,0,B|-16:152|-16:152|1:223,1,125.999996154785,6|0,0:0|2:0,0:0:0:0:
68,284,318406,2,0,L|151:280,1,83.9999974365235,0|2,0:0|2:0,0:0:0:0:
259,212,318915,2,0,P|272:150|266:87,1,125.999996154785
266,87,319423,2,0,P|224:80|182:76,1,83.9999974365235,2|2,0:0|0:2,0:0:0:0:
48,159,319804,6,0,P|87:146|129:140,1,83.9999974365235,6|0,0:0|0:0,0:0:0:0:
20,248,320186,1,2,0:0:0:0:
195,328,320440,1,0,0:0:0:0:
380,276,320694,1,2,2:0:0:0:
184,224,320948,1,0,0:0:0:0:
84,292,321203,1,0,3:0:0:0:
84,292,321330,1,0,3:0:0:0:
84,292,321457,2,0,P|84:250|87:208,1,83.9999974365235,2|4,0:0|0:3,0:0:0:0:
116,180,321965,6,0,P|119:263|119:347,1,167.999994873047,6|0,0:0|0:0,0:0:0:0:
256,240,322728,1,2,2:0:0:0:
310,313,322982,2,0,P|250:328|192:305,1,125.999996154785
108,188,323491,1,2,0:0:0:0:
108,188,323618,1,2,0:2:0:0:
108,188,323745,1,2,0:2:0:0:
108,188,323872,6,0,L|104:104,1,83.9999974365235,6|0,0:0|0:0,0:0:0:0:
252,20,324254,2,0,L|256:104,1,83.9999974365235,2|0,0:0|0:0,0:0:0:0:
256,140,324635,1,2,0:0:0:0:
364,84,324889,1,0,0:0:0:0:
364,84,325016,1,2,0:0:0:0:
328,296,325271,1,8,0:3:0:0:
48,216,325525,2,0,P|103:185|164:175,1,125.999996154785,8|0,0:3|0:0,0:0:0:0:
256,216,326033,5,4,1:0:0:0:
256,216,326542,1,8,0:0:0:0:
280,221,326669,1,0,0:0:0:0:
304,224,326796,1,2,0:0:0:0:
329,225,326923,1,0,0:0:0:0:
354,223,327050,1,0,1:0:0:0:
378,215,327177,1,0,0:0:0:0:
399,202,327304,1,2,0:0:0:0:
416,183,327432,1,0,0:0:0:0:
430,162,327559,6,0,L|344:131,1,83.9999974365235,2|0,1:0|0:0,0:0:0:0:
91,42,327940,2,0,L|124:126,1,83.9999974365235,6|0,1:0|0:0,0:0:0:0:
176,378,328321,2,0,L|219:298,1,83.9999974365235,2|8,1:0|0:0,0:0:0:0:
240,188,328703,5,0,0:0:0:0:
259,181,328830,1,2,0:0:0:0:
279,178,328957,1,0,0:0:0:0:
299,178,329084,1,0,1:0:0:0:
319,182,329211,1,2,0:0:0:0:
338,189,329338,1,2,0:0:0:0:
355,199,329465,1,0,0:0:0:0:
372,214,329593,5,2,1:0:0:0:
60,149,329847,1,4,1:3:0:0:
372,214,330101,1,6,1:0:0:0:
385,198,330228,5,0,0:0:0:0:
393,178,330355,1,2,0:0:0:0:
395,157,330482,1,0,0:0:0:0:
392,136,330609,1,8,0:0:0:0:
384,116,330737,1,0,0:0:0:0:
365,126,330864,1,2,0:0:0:0:
350,140,330991,1,0,0:0:0:0:
337,157,331118,1,0,1:0:0:0:
328,176,331245,1,0,0:0:0:0:
323,196,331372,1,2,0:0:0:0:
322,216,331499,1,0,0:0:0:0:
320,232,331626,6,0,L|299:313,1,83.9999974365235,2|0,1:0|0:0,0:0:0:0:
261,174,332008,2,0,L|320:232,1,83.9999974365235,2|0,1:0|0:0,0:0:0:0:
180,197,332389,2,0,L|260:174,1,83.9999974365235,2|8,1:0|0:0,0:0:0:0:
157,277,332771,2,0,L|180:196,1,83.9999974365235,2|0,1:0|0:0,0:0:0:0:
217,336,333152,2,0,L|153:273,1,83.9999974365235,2|8,1:0|0:0,0:0:0:0:
218,336,333660,2,0,L|299:314,1,83.9999974365235,8|4,0:0|0:0,0:0:0:0:
413,335,334169,5,4,1:0:0:0:
413,335,334423,1,2,0:0:0:0:
405,311,334550,1,0,0:0:0:0:
398,286,334677,1,8,0:0:0:0:
399,260,334804,1,0,0:0:0:0:
404,235,334932,1,2,0:0:0:0:
408,210,335059,1,0,0:0:0:0:
399,181,335186,1,0,1:0:0:0:
376,161,335313,1,0,0:0:0:0:
348,151,335440,1,2,0:0:0:0:
318,154,335567,1,0,0:0:0:0:
292,168,335694,6,0,P|251:162|221:133,1,83.9999974365235,2|0,1:0|0:0,0:0:0:0:
306,34,336076,2,0,L|395:21,1,83.9999974365235,6|0,1:0|0:0,0:0:0:0:
126,148,336457,2,0,L|19:131,1,83.9999974365235,2|8,1:0|0:0,0:0:0:0:
17,153,336838,5,0,0:0:0:0:
19,173,336965,1,2,0:0:0:0:
21,194,337093,1,0,0:0:0:0:
23,214,337220,1,0,1:0:0:0:
25,234,337347,1,2,0:0:0:0:
28,254,337474,1,2,0:0:0:0:
30,274,337601,1,0,0:0:0:0:
33,294,337728,5,2,1:0:0:0:
244,344,337982,1,4,1:3:0:0:
448,280,338237,1,6,1:0:0:0:
437,266,338364,5,0,0:0:0:0:
424,254,338491,1,2,0:0:0:0:
408,246,338618,1,0,0:0:0:0:
391,241,338745,1,8,0:0:0:0:
374,238,338872,1,0,0:0:0:0:
357,237,338999,1,2,0:0:0:0:
333,228,339126,1,0,0:0:0:0:
310,216,339254,1,0,1:0:0:0:
292,197,339381,1,0,0:0:0:0:
278,175,339508,1,2,0:0:0:0:
271,150,339635,1,0,0:0:0:0:
273,124,339762,6,0,L|356:92,1,83.9999974365235,2|0,1:0|0:0,0:0:0:0:
169,70,340143,2,0,L|248:40,1,83.9999974365235,2|0,1:0|0:0,0:0:0:0:
80,56,340525,2,0,L|120:132,1,83.9999974365235,2|8,1:0|0:0,0:0:0:0:
36,160,340906,2,0,L|76:236,1,83.9999974365235,2|0,1:0|0:0,0:0:0:0:
119,130,341287,1,2,1:0:0:0:
232,208,341542,1,8,0:0:0:0:
312,88,341796,1,12,0:0:0:0:
460,196,342050,1,0,1:0:0:0:
124,136,342304,5,4,1:0:0:0:
124,136,342813,1,8,0:0:0:0:
146,146,342940,1,0,0:0:0:0:
171,152,343067,1,2,0:0:0:0:
196,150,343194,1,0,0:0:0:0:
220,142,343321,1,0,1:0:0:0:
243,132,343448,1,0,0:0:0:0:
267,124,343575,1,2,0:0:0:0:
292,123,343702,1,0,0:0:0:0:
317,128,343830,6,0,B|348:140|348:140|413:124,1,83.9999974365235,2|0,1:0|0:0,0:0:0:0:
256,360,344211,2,0,B|224:376|224:376|176:364,1,83.9999974365235,6|0,1:0|0:0,0:0:0:0:
16,144,344593,2,0,B|4:112|4:112|23:66,1,83.9999974365235,2|8,1:0|0:0,0:0:0:0:
212,136,344974,5,0,0:0:0:0:
232,149,345101,1,2,0:0:0:0:
244,171,345228,1,0,0:0:0:0:
245,196,345355,1,0,1:0:0:0:
233,219,345482,1,2,0:0:0:0:
213,233,345609,1,2,0:0:0:0:
188,237,345736,1,0,0:0:0:0:
165,228,345863,5,2,1:0:0:0:
456,108,346118,1,4,1:3:0:0:
165,228,346372,1,6,1:0:0:0:
142,219,346499,5,0,0:0:0:0:
117,223,346626,1,2,0:0:0:0:
97,237,346753,1,0,0:0:0:0:
85,260,346880,1,8,0:0:0:0:
86,285,347007,1,0,0:0:0:0:
98,307,347134,1,2,0:0:0:0:
119,321,347261,1,0,0:0:0:0:
144,324,347389,1,0,1:0:0:0:
169,323,347516,1,0,0:0:0:0:
194,322,347643,1,2,0:0:0:0:
219,321,347770,1,0,0:0:0:0:
244,320,347898,6,0,B|256:232,1,83.9999974365235,2|0,1:0|0:0,0:0:0:0:
440,272,348279,2,0,L|356:256,1,83.9999974365235,2|0,1:0|0:0,0:0:0:0:
392,160,348660,2,0,B|309:142,1,83.9999974365235,2|0,1:0|0:0,0:0:0:0:
144,116,349041,2,0,B|228:104,1,83.9999974365235,2|0,1:0|0:0,0:0:0:0:
160,24,349423,2,0,B|243:12,1,83.9999974365235,2|8,1:0|0:0,0:0:0:0:
440,272,349932,2,0,B|356:252,1,83.9999974365235,12|0,0:0|0:0,0:0:0:0:
202,136,350440,5,4,1:0:0:0:
202,136,350694,1,2,0:0:0:0:
224,148,350821,1,0,0:0:0:0:
248,154,350948,1,8,0:0:0:0:
273,150,351075,1,0,0:0:0:0:
296,141,351202,1,2,0:0:0:0:
320,134,351329,1,0,0:0:0:0:
346,134,351457,1,0,1:0:0:0:
365,149,351584,1,0,0:0:0:0:
377,171,351711,1,2,0:0:0:0:
378,196,351838,1,0,0:0:0:0:
368,220,351965,6,0,P|359:260|352:302,1,83.9999974365235,2|0,1:0|0:0,0:0:0:0:
176,271,352347,2,0,P|216:259|257:255,1,83.9999974365235,6|0,1:0|0:0,0:0:0:0:
468,368,352728,2,0,P|426:365|386:351,1,83.9999974365235,2|8,1:0|0:0,0:0:0:0:
364,336,353109,5,0,0:0:0:0:
340,324,353236,1,2,0:0:0:0:
312,320,353363,1,0,0:0:0:0:
288,324,353490,1,0,1:0:0:0:
268,340,353617,1,2,0:0:0:0:
244,352,353744,1,2,0:0:0:0:
216,352,353871,1,0,0:0:0:0:
188,340,353998,5,2,1:0:0:0:
24,192,354254,1,4,1:3:0:0:
136,20,354508,5,6,1:0:0:0:
158,9,354635,1,0,0:0:0:0:
182,15,354762,1,2,0:0:0:0:
197,34,354889,1,0,0:0:0:0:
197,59,355016,1,8,0:0:0:0:
168,84,355143,1,0,0:0:0:0:
168,128,355270,1,2,0:0:0:0:
200,156,355397,1,0,0:0:0:0:
237,151,355525,1,0,1:0:0:0:
261,175,355651,1,0,0:0:0:0:
273,207,355779,1,2,0:0:0:0:
269,243,355905,1,0,0:0:0:0:
248,272,356033,6,0,P|252:313|263:354,1,83.9999974365235,2|0,1:0|0:0,0:0:0:0:
120,276,356415,2,0,P|132:236|139:194,1,83.9999974365235,2|0,1:0|0:0,0:0:0:0:
352,112,356796,2,0,P|355:153|368:193,1,83.9999974365235,2|8,1:0|0:0,0:0:0:0:
184,108,357177,2,0,P|196:67|203:26,1,83.9999974365235,2|0,1:0|0:0,0:0:0:0:
256,192,357559,1,2,1:0:0:0:
444,160,357813,1,8,0:3:0:0:
316,20,358067,1,12,0:0:0:0:
412,56,358321,1,0,1:0:0:0:
256,192,358576,5,4,1:0:0:0:
