osu file format v14

[General]
AudioFilename: audio.mp3
AudioLeadIn: 0
PreviewTime: 2452
Countdown: 0
SampleSet: Soft
StackLeniency: 0.7
Mode: 2
LetterboxInBreaks: 0
WidescreenStoryboard: 0

[Editor]
DistanceSpacing: 1.3
BeatDivisor: 4
GridSize: 32
TimelineZoom: 1

[Metadata]
Title:dorime.
TitleUnicode:dorime.
Artist:sigma
ArtistUnicode:sigma
Creator:Jemzuu
Version:sacrum orationis.
Source:
Tags:ajamez Ameno +eRa+ Era Enminential Rhythm of the Ancestors Éric Jacques Lévi Levisalles Guy Protheroe 初音ミクV4X Hatsune Miku V4X Vocaloid Cover MurdockCakeLie Doge Meme New-Age Pop Electronic Novelty piano violin
BeatmapID:2276632
BeatmapSetID:1088840

[Difficulty]
HPDrainRate:6
CircleSize:4.5
OverallDifficulty:7.5
ApproachRate:7.5
SliderMultiplier:1.8
SliderTickRate:1

[Events]
//Background and Video events
0,0,"ameno..jpg",0,0
//Break Periods
//Storyboard Layer 0 (Background)
//Storyboard Layer 1 (Fail)
//Storyboard Layer 2 (Pass)
//Storyboard Layer 3 (Foreground)
//Storyboard Layer 4 (Overlay)
//Storyboard Sound Samples

[TimingPoints]
109,625,4,2,10,50,1,0
109,-100,4,2,10,50,0,0
421,-100,4,2,1,50,0,0
2609,600,4,2,1,50,1,0
3209,-100,4,2,1,50,0,0
5009,571.428571428571,4,2,1,50,1,0
5580,618.556701030928,4,2,1,50,1,0
6198,555.555555555556,4,2,1,50,1,0
7316,594.059405940594,4,2,31,50,1,0
7316,-100,4,2,31,50,0,0
7910,-100,4,2,1,50,0,0
9692,571.428571428571,4,2,1,50,1,0
11977,606.060606060606,4,2,12,50,1,0
11977,-100,4,2,12,50,0,0
12280,-100,4,2,1,50,0,0
12583,576.923076923077,4,2,1,50,1,0
12583,-100,4,2,1,50,0,0
14025,-100,4,2,1,35,0,0
14308,571.428571428571,4,2,1,50,1,0
14308,-100,4,2,21,50,0,0
14879,652.173913043478,4,2,1,50,1,0
14879,-100,4,2,1,50,0,0
15368,-100,4,2,1,35,0,0
15532,571.428571428571,4,2,1,50,1,0
15532,-100,4,2,1,50,0,0
16674,588.235294117647,4,2,13,50,1,0
16674,-100,4,2,17,50,0,0
17262,-100,4,2,1,50,0,0
17850,-100,4,2,2,50,0,0
20056,-100,4,2,1,35,0,0
20203,588.235294117647,4,2,14,80,1,0
20203,-100,4,2,14,80,0,1
20497,-100,4,2,1,80,0,1
20791,582.52427184466,4,2,2,70,1,0
20791,-100,4,2,2,70,0,0
21373,-100,4,2,2,70,0,0
22247,-100,4,2,1,70,0,0
22538,-100,4,2,3,70,0,0
23703,631.578947368421,4,2,3,70,1,0
24018,571.428571428571,4,2,1,70,1,0
24303,-100,4,2,3,70,0,0
24589,576.923076923077,4,2,1,70,1,0
24877,-100,4,2,11,70,0,0
25165,-100,4,2,1,70,0,0
25454,-100,4,2,3,70,0,0
26031,-100,4,2,2,70,0,0
27185,-100,4,2,3,70,0,0
27762,600,4,2,3,70,1,0
28362,-100,4,2,3,70,0,0
29562,-100,4,2,12,70,0,0
29862,-100,4,2,1,70,0,0
30162,-100,4,2,2,70,0,0
31662,-100,4,2,1,30,0,0
31812,576.923076923077,4,2,1,70,1,0
31812,-100,4,2,15,70,0,0
32100,618.556701030928,4,2,1,70,1,0
32409,594.059405940594,4,2,1,70,1,0
32409,-90.9090909090909,4,2,2,70,0,0
32706,-90.9090909090909,4,2,1,70,0,0
33003,-100,4,2,2,70,0,0
33597,618.556701030928,4,2,2,70,1,0
34215,-100,4,2,13,70,0,0
34834,-100,4,2,7,70,0,0
35452,-100,4,2,7,50,0,0
36071,-100,4,2,7,40,0,0
36689,-100,4,2,7,20,0,0
37308,-100,4,2,7,10,0,0
37926,-100,4,2,7,5,0,0
38236,-100,4,2,4,7,0,0

[Colours]
Combo1 : 1,254,254
Combo2 : 5,254,149
Combo3 : 1,172,254

[HitObjects]
277,343,109,6,0,B|454:338|454:338|325:313|233:274|225:151|351:91|462:120,1,630,14|0,0:0|0:0,0:0:0:0:
180,71,2609,6,0,L|79:65,1,90,2|0,0:0|0:0,0:0:0:0:
236,141,3209,2,2,P|306:167|155:360,1,450,2|0,0:0|0:0,0:0:0:0:
21,258,5009,6,0,L|135:238,1,90,2|0,0:0|0:0,0:0:0:0:
224,144,5580,2,0,L|234:48,1,90,2|0,0:0|0:0,0:0:0:0:
96,64,6198,1,2,0:0:0:0:
223,30,6475,1,2,0:0:0:0:
479,186,6753,1,2,0:0:0:0:
345,164,7031,1,2,0:0:0:0:
56,69,7316,6,0,L|154:88,1,90,14|0,0:0|0:0,0:0:0:0:
282,59,7910,2,0,P|179:59|197:284,1,360,2|2,0:0|0:0,0:0:0:0:
406,340,9692,5,2,0:0:0:0:
492,280,9977,1,0,0:0:0:0:
375,251,10263,1,2,0:0:0:0:
159,228,10834,1,2,0:0:0:0:
275,190,11120,1,0,0:0:0:0:
40,144,11406,1,2,0:0:0:0:
244,87,11977,6,0,L|128:69,1,90,6|0,0:0|0:0,0:0:0:0:
314,35,12583,2,0,P|405:71|250:325,1,495,2|0,0:0|0:0,0:0:0:0:
115,355,14308,5,14,0:0:0:0:
28,268,14593,1,0,0:0:0:0:
135,191,14879,2,0,L|310:182,1,135,2|0,0:0|0:0,0:0:0:0:
186,214,15532,2,0,P|102:133|252:80,1,315,2|0,0:0|0:0,0:0:0:0:
448,57,16674,5,14,0:0:0:0:
343,90,16968,1,0,0:0:0:0:
472,143,17262,2,0,P|388:308|437:71,1,855
223,53,20203,5,2,0:0:0:0:
109,63,20497,1,0,0:0:0:0:
356,136,20791,2,0,P|358:232|65:365,1,450
310,374,22538,6,0,L|327:262,1,90,2|0,0:0|0:0,0:0:0:0:
63,256,23121,2,0,L|47:151,1,90,2|0,0:0|0:0,0:0:0:0:
142,117,23703,1,2,0:0:0:0:
263,102,24018,1,0,0:0:0:0:
36,57,24303,1,2,0:0:0:0:
143,25,24589,1,0,0:0:0:0:
396,28,24877,5,14,0:0:0:0:
249,14,25165,1,0,0:0:0:0:
492,117,25454,2,0,P|470:206|248:346,1,360,2|0,0:0|0:0,0:0:0:0:
491,355,27185,5,2,0:0:0:0:
451,260,27473,1,0,0:0:0:0:
221,209,27762,1,2,0:0:0:0:
389,162,28362,1,2,0:0:0:0:
298,108,28662,1,0,0:0:0:0:
53,80,28962,1,2,0:0:0:0:
298,30,29562,6,0,L|193:24,1,90,14|0,0:0|0:0,0:0:0:0:
79,164,30162,2,0,P|34:204|243:342,1,450
469,347,31812,5,14,0:0:0:0:
369,326,32100,1,0,0:0:0:0:
475,252,32409,2,0,L|452:144,1,99.0000030212403,2|0,0:0|0:0,0:0:0:0:
177,112,33003,2,0,L|369:86,1,180,2|2,0:0|0:0,0:0:0:0:
31,348,34215,6,0,L|19:250,1,90,14|0,0:0|0:0,0:0:0:0:
269,191,34834,1,6,0:0:0:0:
256,192,34988,12,2,38236,0:0:0:0:
