osu file format v14

[General]
AudioFilename: audio.mp3
AudioLeadIn: 0
PreviewTime: 2363
Countdown: 0
SampleSet: Soft
StackLeniency: 0.7
Mode: 3
LetterboxInBreaks: 0
SpecialStyle: 0
WidescreenStoryboard: 1

[Editor]
DistanceSpacing: 1.3
BeatDivisor: 4
GridSize: 8
TimelineZoom: 2.7

[Metadata]
Title:dorime.
TitleUnicode:dorime.
Artist:sigma
ArtistUnicode:sigma
Creator:ERA Akiri
Version:The Holy Grail
Source:
Tags:Ameno +eRa+ Era Enminential Rhythm of the Ancestors Éric Jacques Lévi Levisalles Guy Protheroe 初音ミクV4X Hatsune Miku V4X Vocaloid Cover MurdockCakeLie Doge Meme New-Age Novelty pseudo-latin pseudo latin other piano violin a kiwi akiwi
BeatmapID:4239342
BeatmapSetID:2033544

[Difficulty]
HPDrainRate:7
CircleSize:5
OverallDifficulty:6.5
ApproachRate:5
SliderMultiplier:1.4
SliderTickRate:1

[Events]
//Background and Video events
0,0,"dorime.jpg",0,0
//Break Periods
//Storyboard Layer 0 (Background)
//Storyboard Layer 1 (Fail)
//Storyboard Layer 2 (Pass)
//Storyboard Layer 3 (Foreground)
//Storyboard Layer 4 (Overlay)
//Storyboard Sound Samples

[TimingPoints]
176,625,4,2,1,25,1,0
176,-92.3076923076923,4,2,1,25,0,0
2676,600,4,2,1,25,1,0
2676,-96.1538461538461,4,2,1,25,0,0
2957,618.556701030928,4,2,1,25,1,0
2957,-93.2692307692307,4,2,1,25,0,0
3266,618.556701030928,4,2,1,25,1,0
3266,-93.2692307692307,4,2,1,25,0,0
5076,535.714285714285,4,2,1,25,1,0
5076,-107.692307692308,4,2,1,25,0,0
5647,618.556701030928,4,2,1,25,1,8
5647,-93.2692307692307,4,2,1,25,0,0
6265,555.555555555556,4,2,1,25,1,8
6265,-103.846153846154,4,2,1,25,0,0
6808,555.555555555556,4,2,1,25,1,0
6808,-103.846153846154,4,2,1,25,0,0
7383,594.059405940594,4,2,1,25,1,0
7383,-97.1153846153846,4,2,1,25,0,0
9759,571.428571428571,4,2,1,25,1,0
9759,-100.961538461539,4,2,1,25,0,0
11467,571.428571428571,4,2,1,25,1,0
11467,-100.961538461539,4,2,1,25,0,0
12044,606.060606060606,4,2,1,25,1,0
12044,-95.1923076923077,4,2,1,25,0,0
12650,576.923076923077,4,2,1,25,1,8
12650,-100,4,2,1,25,0,0
14375,517.241379310345,4,2,1,25,1,0
14375,-111.538461538461,4,2,1,25,0,0
14956,652.173913043478,4,2,1,25,1,8
14956,-88.4615384615385,4,2,1,25,0,0
15599,571.428571428571,4,2,1,25,1,8
15599,-100.961538461539,4,2,1,25,0,0
16741,550.45871559633,4,2,1,25,1,0
16741,-104.807692307692,4,2,1,25,0,0
17335,588.235294117647,4,2,1,25,1,0
17335,-98.0769230769231,4,2,1,25,0,0
19093,588.235294117647,4,2,1,25,1,8
19093,-98.0769230769231,4,2,1,25,0,0
20270,588.235294117647,4,2,1,25,1,1
20270,-98.0769230769231,4,2,1,25,0,1
20858,582.52427184466,4,2,1,25,1,9
20858,-99.0384615384616,4,2,1,25,0,1
22605,582.52427184466,4,2,1,25,1,1
22605,-99.0384615384616,4,2,1,25,0,1
23770,631.578947368421,4,2,1,25,1,9
23770,-91.3461538461538,4,2,1,25,0,1
24085,571.428571428571,4,2,1,25,1,9
24085,-100.961538461539,4,2,1,25,0,1
24370,571.428571428571,4,2,1,25,1,1
24370,-100.961538461539,4,2,1,25,0,1
24656,576.923076923077,4,2,1,25,1,9
24656,-100,4,2,1,25,0,1
24944,576.923076923077,4,2,1,25,1,1
24944,-100,4,2,1,25,0,1
27829,600,4,2,1,25,1,9
27829,-96.1538461538461,4,2,1,25,0,1
29629,521.739130434783,4,2,1,25,1,1
29629,-110.576923076923,4,2,1,25,0,1
30229,625,4,2,1,25,1,1
30229,-92.3076923076923,4,2,1,25,0,1
31869,576.923076923077,4,2,1,25,1,1
31869,-100,4,2,1,25,0,1
32132,631.578947368421,4,2,1,25,1,9
32132,-91.3461538461538,4,2,1,25,0,1
32476,594.059405940594,4,2,1,25,1,9
32476,-97.1153846153846,4,2,1,25,0,1
33664,618.556701030928,4,2,1,25,1,9
33664,-93.2692307692307,4,2,1,25,0,1
34282,618.556701030928,4,2,1,25,1,1
34282,-93.2692307692307,4,2,1,25,0,1
38302,-100,4,2,1,25,0,0

[HitObjects]
358,192,176,128,0,7363:0:0:0:0:
51,192,2676,128,0,2957:0:0:0:0:
153,192,2957,128,0,3111:0:0:0:0:
153,192,3266,128,0,3575:0:0:0:0:
51,192,5076,128,0,5343:0:0:0:0:
256,192,5343,128,0,5477:0:0:0:0:
256,192,5647,128,0,5956:0:0:0:0:
153,192,5956,128,0,6265:0:0:0:0:
51,192,6265,128,0,6403:0:0:0:0:
153,192,6542,128,0,6681:0:0:0:0:
256,192,6808,128,0,6946:0:0:0:0:
256,192,7085,128,0,7224:0:0:0:0:
153,192,7383,128,0,7680:0:0:0:0:
51,192,7383,128,0,12044:0:0:0:0:
256,192,7680,128,0,7828:0:0:0:0:
256,192,7977,128,0,8422:0:0:0:0:
460,192,9759,128,0,10044:0:0:0:0:
358,192,10044,128,0,10187:0:0:0:0:
358,192,10330,128,0,10616:0:0:0:0:
460,192,10901,128,0,11187:0:0:0:0:
358,192,11187,128,0,11330:0:0:0:0:
358,192,11467,128,0,11752:0:0:0:0:
153,192,12044,128,0,14375:0:0:0:0:
358,192,12044,128,0,12195:0:0:0:0:
256,192,12347,128,0,12498:0:0:0:0:
256,192,12650,128,0,12938:0:0:0:0:
460,192,14375,128,0,16741:0:0:0:0:
358,192,14375,128,0,14504:0:0:0:0:
256,192,14633,128,0,14762:0:0:0:0:
256,192,14956,128,0,15445:0:0:0:0:
256,192,15599,128,0,16170:0:0:0:0:
358,192,16741,128,0,24944:0:0:0:0:
51,192,16741,128,0,17016:0:0:0:0:
153,192,17016,128,0,17153:0:0:0:0:
153,192,17335,128,0,17629:0:0:0:0:
153,192,20270,128,0,20564:0:0:0:0:
460,192,20564,128,0,20711:0:0:0:0:
460,192,20858,128,0,21149:0:0:0:0:
153,192,22605,128,0,22896:0:0:0:0:
460,192,22896,128,0,23041:0:0:0:0:
460,192,23187,128,0,23333:0:0:0:0:
460,192,23478,128,0,23770:0:0:0:0:
153,192,23770,128,0,24085:0:0:0:0:
460,192,24085,128,0,24227:0:0:0:0:
460,192,24370,128,0,24512:0:0:0:0:
460,192,24656,128,0,24944:0:0:0:0:
51,192,24944,128,0,29629:0:0:0:0:
153,192,24944,128,0,25232:0:0:0:0:
460,192,25232,128,0,25376:0:0:0:0:
460,192,25520,128,0,25953:0:0:0:0:
460,192,27251,128,0,27395:0:0:0:0:
256,192,27540,128,0,27684:0:0:0:0:
256,192,27829,128,0,28129:0:0:0:0:
460,192,28429,128,0,28579:0:0:0:0:
256,192,28729,128,0,28879:0:0:0:0:
256,192,29029,128,0,29329:0:0:0:0:
153,192,29629,128,0,34282:0:0:0:0:
358,192,29629,128,0,29759:0:0:0:0:
51,192,29889,128,0,30020:0:0:0:0:
51,192,30229,128,0,30697:0:0:0:0:
358,192,31869,128,0,32013:0:0:0:0:
51,192,32132,128,0,32289:0:0:0:0:
51,192,32476,128,0,32773:0:0:0:0:
51,192,33070,128,0,33664:0:0:0:0:
256,192,34282,128,0,38302:0:0:0:0:
51,192,34282,128,0,34591:0:0:0:0:
358,192,34591,128,0,34745:0:0:0:0:
358,192,34900,128,0,35364:0:0:0:0:
