osu file format v14

[General]
AudioFilename: audio.mp3
AudioLeadIn: 0
PreviewTime: 2659
Countdown: 0
SampleSet: Soft
StackLeniency: 0.5
Mode: 0
LetterboxInBreaks: 0
WidescreenStoryboard: 1

[Editor]
DistanceSpacing: 1.3
BeatDivisor: 4
GridSize: 8
TimelineZoom: 1

[Metadata]
Title:dorime.
TitleUnicode:dorime.
Artist:sigma
ArtistUnicode:sigma
Creator:-Mikan
Version:DeviousPanda's Provectus.
Source:
Tags:Ducky- Lulu- Joe Castle DeviousPanda Fixxis Black man GillStar Ameno +eRa+ Era Enminential Rhythm of the Ancestors Éric Jacques Lévi Levisalles Guy Protheroe 初音ミクV4X Hatsune Miku V4X Vocaloid Cover MurdockCakeLie Doge Meme New-Age Pop Electronic Novelty
BeatmapID:2272149
BeatmapSetID:1086044

[Difficulty]
HPDrainRate:4.2
CircleSize:3.3
OverallDifficulty:6
ApproachRate:6.8
SliderMultiplier:1.4
SliderTickRate:1

[Events]
//Background and Video events
Video,50,"dorime.1.mp4"
0,0,"d92815d59b1494412a8d477b13b5d2da.jpg",0,0
//Break Periods
//Storyboard Layer 0 (Background)
//Storyboard Layer 1 (Fail)
//Storyboard Layer 2 (Pass)
//Storyboard Layer 3 (Foreground)
//Storyboard Layer 4 (Overlay)
//Storyboard Sound Samples

[TimingPoints]
159,625,4,2,1,50,1,0
159,-95.2380952380952,4,2,1,50,0,0
2346,-100,4,2,1,5,0,0
2659,600,4,2,1,50,1,0
2659,-100,4,2,1,50,0,0
4909,-100,4,2,1,5,0,0
5059,571.428571428571,4,2,1,50,1,0
5630,618.556701030928,4,2,1,50,1,0
6248,555.555555555556,4,2,1,50,1,0
7366,594.059405940594,4,2,1,50,1,0
9742,571.428571428571,4,2,1,50,1,0
12027,606.060606060606,4,2,1,50,1,0
12633,576.923076923077,4,2,1,50,1,0
14075,-100,4,2,1,5,0,0
14358,571.428571428571,4,2,1,50,1,0
14929,652.173913043478,4,2,1,50,1,0
15418,-100,4,2,1,5,0,0
15582,571.428571428571,4,2,1,50,1,0
16439,-100,4,2,1,5,0,0
16724,588.235294117647,4,2,1,50,1,0
20106,-100,4,2,1,5,0,0
20253,588.235294117647,4,2,1,80,1,0
20841,582.52427184466,4,2,1,70,1,0
23753,631.578947368421,4,2,1,70,1,0
24068,571.428571428571,4,2,1,70,1,0
24639,576.923076923077,4,2,1,70,1,0
27812,600,4,2,1,70,1,0
31412,-100,4,2,1,5,0,0
31862,576.923076923077,4,2,1,70,1,0
32150,618.556701030928,4,2,1,70,1,0
32459,594.059405940594,4,2,1,70,1,0
33647,618.556701030928,4,2,1,70,1,0
34884,-111.111111111111,4,2,1,70,0,0
38286,-111.111111111111,4,2,1,5,0,0

[Colours]
Combo1 : 0,189,0
Combo2 : 138,197,255
Combo3 : 255,191,223
Combo4 : 193,0,0

[HitObjects]
65,56,159,6,0,B|201:32|266:154|255:194|247:232|323:347|462:314,1,514.499984298707,2|0,0:0|0:0,0:0:0:0:
463,309,2659,6,0,P|457:267|457:224,1,70,2|0,0:0|0:0,0:0:0:0:
378,157,3259,2,0,B|318:130|252:177|256:192|258:206|197:263|123:233,1,280,2|0,0:0|0:0,0:0:0:0:
86,116,5059,37,2,0:0:0:0:
86,116,5344,1,0,0:0:0:0:
86,116,5630,2,0,P|61:151|73:187,1,70,2|0,0:0|0:0,0:0:0:0:
196,141,6248,5,2,0:0:0:0:
196,141,6525,1,2,0:0:0:0:
196,141,6803,1,2,0:0:0:0:
196,141,7081,1,2,0:0:0:0:
196,141,7366,2,0,P|184:67|184:51,1,70,2|0,0:0|0:0,0:0:0:0:
292,16,7960,2,0,P|282:90|269:301,1,280,2|0,0:0|0:0,0:0:0:0:
204,370,9742,37,2,0:0:0:0:
292,367,10027,1,0,0:0:0:0:
374,366,10313,1,0,0:0:0:0:
484,260,10884,5,2,0:0:0:0:
402,259,11170,1,0,0:0:0:0:
314,256,11455,1,0,0:0:0:0:
205,157,12027,37,2,0:0:0:0:
205,157,12330,1,0,0:0:0:0:
205,157,12633,2,0,P|233:152|147:55,1,280,2|0,0:0|0:0,0:0:0:0:
44,102,14358,5,2,0:0:0:0:
44,102,14643,1,0,0:0:0:0:
44,102,14929,2,0,P|57:140|61:181,1,70,2|0,0:0|0:0,0:0:0:0:
106,235,15582,2,0,P|93:264|219:308,1,210,2|0,0:0|0:0,0:0:0:0:
323,266,16724,38,0,P|353:257|394:261,1,70,2|0,0:0|0:0,0:0:0:0:
454,360,17312,2,0,B|318:358|251:221|255:191|264:156|203:24|45:34,1,560,2|0,0:0|0:0,0:0:0:0:
46,33,20253,21,2,0:0:0:0:
93,139,20547,1,2,0:0:0:0:
27,240,20841,2,0,P|139:233|325:252,1,280,2|0,0:0|0:0,0:0:0:0:
306,248,22588,5,2,0:0:0:0:
380,303,22879,1,0,0:0:0:0:
386,216,23171,2,0,P|383:183|393:129,1,70,2|0,0:0|0:0,0:0:0:0:
477,41,23753,37,2,0:0:0:0:
477,41,24068,1,0,0:0:0:0:
477,41,24353,1,2,0:0:0:0:
477,41,24639,1,0,0:0:0:0:
371,64,24927,5,2,0:0:0:0:
291,24,25215,1,2,0:0:0:0:
301,109,25504,2,0,P|312:157|311:252,2,140,2|0|0,0:0|0:0|0:0,0:0:0:0:
196,61,27235,37,2,0:0:0:0:
110,70,27523,1,0,0:0:0:0:
23,79,27812,1,0,0:0:0:0:
67,182,28412,5,2,0:0:0:0:
157,195,28712,1,0,0:0:0:0:
243,207,29012,1,0,0:0:0:0:
92,291,29612,37,2,0:0:0:0:
120,369,29912,1,0,0:0:0:0:
175,305,30212,2,0,P|197:221|208:17,1,280,2|0,0:0|0:0,0:0:0:0:
299,102,31862,5,2,0:0:0:0:
359,46,32150,1,0,0:0:0:0:
377,125,32459,2,0,P|445:132|526:162,2,140,2|2|0,0:0|0:0|0:0,0:0:0:0:
504,8,34266,37,2,0:0:0:0:
504,8,34575,1,2,0:0:0:0:
504,8,34884,2,0,B|374:-77|234:105|254:192|266:255|206:421|1:380,1,692.999978851319,2|0,0:0|0:0,0:0:0:0:
