osu file format v14

[General]
AudioFilename: audio.mp3
AudioLeadIn: 0
PreviewTime: 106389
Countdown: 0
SampleSet: Soft
StackLeniency: 0.7
Mode: 0
LetterboxInBreaks: 0
WidescreenStoryboard: 1

[Editor]
Bookmarks: 68556,87472,106389,146586,165502,196832,234664,253581,268950,311506
DistanceSpacing: 1
BeatDivisor: 4
GridSize: 32
TimelineZoom: 2.9

[Metadata]
Title:Gareki no Shuuon
TitleUnicode:瓦礫の終音
Artist:shoujo byou
ArtistUnicode:少女病
Creator:Lyruke
Version:Solitude
Source:
Tags:jrock j-rock japanese 中恵光城 nakae mitsuki the final tone of rubble Souhaku Sisferia 蒼白シスフェリア ピクセルビー 岸田 岸田教団 光収容 そうる透・村石雅行 Riene
BeatmapID:3088775
BeatmapSetID:1445131

[Difficulty]
HPDrainRate:5.7
CircleSize:4
OverallDifficulty:9
ApproachRate:9.6
SliderMultiplier:1.84
SliderTickRate:1

[Events]
//Background and Video events
0,0,"gareki bg.png",0,0
//Break Periods
2,178138,185852
//Storyboard Layer 0 (Background)
//Storyboard Layer 1 (Fail)
//Storyboard Layer 2 (Pass)
//Storyboard Layer 3 (Foreground)
//Storyboard Layer 4 (Overlay)
//Storyboard Sound Samples

[TimingPoints]
969,857.142857142857,4,2,1,25,1,0
26683,960,4,2,1,25,1,0
27403,-100,4,2,1,5,0,0
27643,-100,4,2,1,25,0,0
29323,-100,4,2,1,5,0,0
29563,591.133004926108,4,2,1,30,1,0
29563,-156.25,4,2,1,30,0,0
31336,-156.25,4,2,1,5,0,0
31484,-156.25,4,2,1,30,0,0
31927,-156.25,4,2,1,30,0,0
46114,-106.382978723404,4,2,1,35,0,0
46410,-106.382978723404,4,2,1,20,0,0
46705,-106.382978723404,4,2,1,25,0,0
47001,-106.382978723404,4,2,1,30,0,0
47296,-106.382978723404,4,2,1,35,0,0
47592,-106.382978723404,4,2,1,40,0,0
47888,-106.382978723404,4,2,1,45,0,0
48183,-106.382978723404,4,2,1,50,0,0
48480,295.566502463054,4,2,1,65,1,0
48480,-185.185185185185,4,2,1,65,0,0
49071,-135.135135135135,4,2,1,65,0,0
49662,-96.1538461538461,4,2,1,75,0,0
59046,-96.1538461538461,4,2,1,5,0,0
59120,-96.1538461538461,4,2,1,75,0,0
66213,-96.1538461538461,4,2,1,80,0,0
68578,-119.047619047619,4,2,1,65,0,0
85130,-96.1538461538461,4,2,1,70,0,0
87494,-106.382978723404,4,2,1,75,0,0
105598,-106.382978723404,4,2,1,5,0,0
105672,-106.382978723404,4,2,1,100,0,0
105893,-106.382978723404,4,2,1,5,0,0
105967,-106.382978723404,4,2,1,100,0,0
106411,-74.6268656716418,4,2,1,80,0,1
106706,-87.719298245614,4,2,1,75,0,1
120450,-87.719298245614,4,2,1,65,0,1
120524,-106.382978723404,4,2,1,65,0,1
125327,-106.382978723404,4,2,1,75,0,1
125918,-96.153846153846,4,2,1,80,0,1
126361,-106.382978723404,4,2,1,85,0,1
127100,-106.382978723404,4,2,1,70,0,1
127691,-96.153846153846,4,2,1,65,0,0
134489,-227.272727272727,4,2,1,55,0,0
134785,-96.1538461538461,4,2,1,60,0,0
135819,-87.719298245614,4,2,1,65,0,0
137149,-87.719298245614,4,2,1,70,0,0
137445,-96.1538461538461,4,2,1,70,0,0
146608,-96.1538461538461,4,2,1,75,0,0
155992,-96.1538461538461,4,2,1,5,0,0
156066,-96.1538461538461,4,2,1,75,0,0
165524,-96.1538461538461,4,2,1,60,0,0
172617,-96.1538461538461,4,2,1,65,0,0
177938,295.566502463054,4,2,1,75,1,0
186361,-74.6268656716418,4,2,1,80,0,0
187396,-106.382978723404,4,2,1,65,0,0
196854,-106.382978723404,4,2,1,70,0,0
215770,-74.6268656716418,4,2,1,80,0,1
216066,-87.719298245614,4,2,1,75,0,1
229809,-106.382978723404,4,2,1,65,0,1
234686,-96.1538461538461,4,2,1,60,0,0
234982,-87.719298245614,4,2,1,70,0,0
235425,-96.1538461538461,4,2,1,70,0,0
253603,-87.719298245614,4,2,1,75,0,1
261731,-106.382978723404,4,2,1,80,0,0
262026,-106.382978723404,4,2,1,60,0,0
262396,-106.382978723404,4,2,1,5,0,0
262470,-106.382978723404,4,2,1,70,0,0
264095,-185.185185185185,4,2,1,75,0,0
265425,-106.382978723404,4,2,1,70,0,0
268972,-74.6268656716418,4,2,1,80,0,1
269268,-87.719298245614,4,2,1,75,0,1
278282,-156.25,4,2,1,80,0,0
279624,295.566502463054,4,2,1,65,1,0
279624,-156.25,4,2,1,65,0,0
280510,-106.382978723404,4,2,1,75,0,0
280806,-64.9350649350649,4,2,1,80,0,0
281692,-60.9756097560976,4,2,1,80,0,0
282136,-57.4712643678161,4,2,1,80,0,0
282579,-54.3478260869565,4,2,1,80,0,0
283162,295.566502463054,4,2,1,70,1,0
283162,-74.6268656716418,4,2,1,70,0,0
283605,-87.719298245614,4,2,1,65,0,0
284196,-106.382978723404,4,2,1,65,0,0
285526,-69.4444444444443,4,2,1,70,0,0
285822,-96.153846153846,4,2,1,70,0,0
286413,-119.047619047619,4,2,1,70,0,0
286708,-87.719298245614,4,2,1,80,0,0
287883,295.566502463054,4,2,1,65,1,0
287883,-106.382978723404,4,2,1,65,0,0
292612,-106.382978723404,4,2,1,60,0,0
292907,-87.7192982456139,4,2,1,70,0,0
293350,-96.1538461538461,4,2,1,70,0,0
297341,-87.7192982456139,4,2,1,80,0,0
297636,-96.153846153846,4,2,1,70,0,0
311528,-96.1538461538461,4,2,1,75,0,0
320912,-96.1538461538461,4,2,1,5,0,0
320986,-96.1538461538461,4,2,1,75,0,0
323277,-96.1538461538461,4,2,1,5,0,0
323350,-96.1538461538461,4,2,1,75,0,0
325641,-96.1538461538461,4,2,1,5,0,0
325715,-96.1538461538461,4,2,1,75,0,0
330482,295.566502463054,4,2,1,80,1,0
330482,-96.1538461538461,4,2,1,80,0,0
331664,-96.1538461538461,4,2,1,65,0,0
332846,-96.1538461538461,4,2,1,50,0,0
334028,-96.1538461538461,4,2,1,35,0,0
335211,-96.1538461538461,4,2,1,30,0,0
336393,-96.1538461538461,4,2,1,25,0,0
337575,-96.1538461538461,4,2,1,20,0,0
338757,-96.1538461538461,4,2,1,10,0,0
339940,-96.1538461538461,4,2,1,5,0,0

[Colours]
Combo1 : 202,81,84
Combo2 : 193,16,203
Combo3 : 92,92,239
Combo4 : 124,109,156

[HitObjects]
272,212,969,6,2,L|283:260,1,46,0|0,0:0|0:0,0:0:0:0:
371,332,1397,6,2,P|415:319|476:309,2,92,0|0|0,0:0|0:0|0:0,0:0:0:0:
268,384,2469,2,2,B|196:376|213:326|142:317,1,138,0|0,0:0|0:0,0:0:0:0:
38,356,3540,1,2,0:0:0:0:
38,356,3969,1,2,0:0:0:0:
38,356,4397,6,2,B|50:285|50:285|80:250|80:250|91:173,1,184,0|0,0:0|0:0,0:0:0:0:
107,76,5683,1,2,0:0:0:0:
107,76,6111,2,2,B|202:86|171:156|270:164,1,184,2|0,0:0|0:0,0:0:0:0:
353,69,7397,2,2,L|291:54,1,46,0|0,0:0|0:0,0:0:0:0:
355,186,7826,6,2,P|400:182|434:153,2,92,0|0|0,0:0|0:0|0:0,0:0:0:0:
254,133,9111,1,2,0:0:0:0:
254,133,9326,2,2,L|265:236,1,92,0|0,0:0|0:0,0:0:0:0:
298,315,9968,1,2,0:0:0:0:
389,252,10183,2,2,L|397:190,1,46,2|0,0:0|0:0,0:0:0:0:
411,97,10826,1,2,0:0:0:0:
411,97,11254,6,2,B|355:84|315:124|315:124|278:161|226:147,1,184,0|0,0:0|0:0,0:0:0:0:
148,98,12540,1,2,0:0:0:0:
148,98,12968,1,2,0:0:0:0:
148,98,13397,1,2,0:0:0:0:
263,27,13611,2,2,L|255:90,1,46,2|0,0:0|0:0,0:0:0:0:
153,143,14254,6,2,L|145:80,1,46,0|0,0:0|0:0,0:0:0:0:
136,4,14683,1,2,0:0:0:0:
136,4,15111,1,2,0:0:0:0:
61,41,15326,1,2,0:0:0:0:
147,97,15540,2,2,L|131:283,1,184,0|0,0:0|0:0,0:0:0:0:
122,370,16826,1,2,0:0:0:0:
122,370,17254,1,2,0:0:0:0:
43,312,17683,1,2,0:0:0:0:
144,259,18111,6,2,B|237:268|215:334|321:340,2,184,0|0|0,0:0|0:0|0:0,0:0:0:0:
43,312,20254,1,2,0:0:0:0:
147,384,20468,2,2,L|153:331,1,46,2|0,0:0|0:0,0:0:0:0:
161,245,21111,1,2,0:0:0:0:
74,219,21540,5,2,0:0:0:0:
163,151,21968,2,2,L|263:135,2,92,0|0|0,0:0|0:0|0:0,0:0:0:0:
23,110,23254,2,2,B|2:63|54:31|110:57|111:125|63:182,1,184,0|0,0:0|0:0,0:0:0:0:
14,219,24540,1,2,0:0:0:0:
14,219,24968,6,2,B|115:210|77:144|198:133,1,184,0|0,0:0|0:0,0:0:0:0:
288,121,26254,1,2,0:0:0:0:
288,121,26683,2,2,L|270:265,1,138,0|0,0:0|0:0,0:0:0:0:
183,301,27643,6,2,B|105:337|58:259|103:173|194:176|279:266,1,322,0|0,0:0|0:0,0:0:0:0:
360,384,29563,6,2,B|367:312|367:312|389:278|389:278|397:199,1,176.64,0|0,0:0|0:0,0:0:0:0:
286,100,30745,2,2,P|213:100|168:155,1,147.2,0|0,0:0|0:0,0:0:0:0:
227,285,31927,6,2,B|385:264|329:166|498:144,1,294.4,0|0,0:0|0:0,0:0:0:0:
454,262,33700,1,2,0:0:0:0:
454,262,34292,6,2,B|332:250|381:163|251:152,1,235.52,0|0,0:0|0:0,0:0:0:0:
149,204,35769,1,2,0:0:0:0:
221,274,36065,2,2,L|298:264,1,58.88,0|0,0:0|0:0,0:0:0:0:
433,172,36656,6,2,B|485:100|397:41|301:74|303:182|397:260,1,323.84,0|0,0:0|0:0,0:0:0:0:
495,355,39021,6,2,L|421:346,1,58.88,0|0,0:0|0:0,0:0:0:0:
360,284,39464,1,2,0:0:0:0:
335,287,39612,2,2,L|277:297,1,58.88,0|0,0:0|0:0,0:0:0:0:
228,384,40055,1,2,0:0:0:0:
203,381,40203,2,2,L|86:361,1,117.76,0|0,0:0|0:0,0:0:0:0:
0,216,41090,1,2,0:0:0:0:
23,210,41237,1,2,0:0:0:0:
48,205,41385,6,2,B|110:211|88:253|154:259,1,117.76,0|0,0:0|0:0,0:0:0:0:
251,201,42272,1,2,0:0:0:0:
257,178,42420,1,2,0:0:0:0:
264,154,42567,2,2,L|255:81,2,58.88,0|0|0,0:0|0:0|0:0,0:0:0:0:
433,236,43750,6,2,B|310:248|360:334|226:344,1,235.52,0|2,0:0|0:0,0:0:0:0:
138,312,45523,1,2,0:0:0:0:
138,312,46114,5,2,0:0:0:0:
252,215,46410,2,0,L|259:273,1,43.23999934021,2|0,0:0|0:0,0:0:0:0:
133,187,46705,2,0,L|126:245,1,43.23999934021,2|0,0:0|0:0,0:0:0:0:
291,153,47001,2,0,L|298:211,1,43.23999934021,2|0,0:0|0:0,0:0:0:0:
104,111,47296,2,0,L|97:169,1,43.23999934021,2|0,0:0|0:0,0:0:0:0:
320,73,47592,2,0,L|327:131,1,43.23999934021,2|0,0:0|0:0,0:0:0:0:
76,32,47888,2,0,L|69:90,1,43.23999934021,2|0,0:0|0:0,0:0:0:0:
352,0,48183,2,0,L|359:58,1,43.23999934021,2|0,0:0|0:0,0:0:0:0:
238,231,48480,6,0,P|277:159|357:173,1,173.880004245117,6|0,0:0|0:0,0:0:0:0:
380,202,49071,6,0,L|374:259,1,34.0400008310547,8|8,0:0|0:0,0:0:0:0:
248,384,49218,2,0,L|242:327,1,34.0400008310547,8|8,0:0|0:0,0:0:0:0:
112,141,49366,5,8,0:0:0:0:
79,133,49439,1,8,0:0:0:0:
47,145,49513,1,8,0:0:0:0:
26,171,49587,1,8,0:0:0:0:
23,205,49662,6,0,B|136:217|88:286|193:295,1,191.359998832031,6|12,3:2|0:0,0:0:0:0:
385,171,50105,1,2,0:0:0:0:
185,114,50253,1,0,3:0:0:0:
299,299,50401,1,0,3:0:0:0:
400,82,50548,2,0,L|511:64,1,95.6799994160156,10|0,0:0|0:0,0:0:0:0:
394,268,50844,5,0,3:0:0:0:
293,82,50992,1,0,3:0:0:0:
494,172,51140,2,0,L|476:287,1,95.6799994160156,10|0,0:0|3:0,0:0:0:0:
300,384,51435,2,0,L|282:269,1,95.6799994160156,2|0,0:0|3:0,0:0:0:0:
183,96,51731,1,10,0:0:0:0:
110,303,51879,1,0,0:0:0:0:
333,189,52026,6,0,B|324:111|324:111|339:70|339:70|329:-3,1,191.359998832031,2|10,3:2|0:0,0:0:0:0:
211,197,52470,1,0,0:0:0:0:
417,114,52617,1,2,3:2:0:0:
205,212,52765,1,0,3:0:0:0:
404,297,52913,2,0,L|420:182,1,95.6799994160156,10|0,0:0|0:0,0:0:0:0:
253,51,53209,5,0,3:0:0:0:
311,261,53356,1,0,3:0:0:0:
426,72,53504,2,0,P|465:45|512:42,1,95.6799994160156,10|0,0:0|3:0,0:0:0:0:
360,186,53800,2,0,P|317:165|291:126,1,95.6799994160156,2|0,0:0|3:0,0:0:0:0:
492,178,54095,2,0,P|495:225|474:267,1,95.6799994160156,8|0,0:0|0:0,0:0:0:0:
264,384,54391,6,0,B|158:372|194:302|84:292,1,191.359998832031,6|10,3:2|0:0,0:0:0:0:
273,157,54834,1,0,0:0:0:0:
364,350,54982,1,2,3:2:0:0:
425,127,55130,1,0,3:0:0:0:
291,269,55278,2,0,L|194:247,1,95.6799994160156,10|0,0:0|0:0,0:0:0:0:
42,113,55573,5,0,3:0:0:0:
251,65,55721,1,0,3:0:0:0:
27,122,55869,2,0,L|42:225,1,95.6799994160156,10|0,0:0|3:0,0:0:0:0:
198,372,56164,2,0,L|213:269,1,95.6799994160156,2|0,0:0|3:0,0:0:0:0:
341,97,56460,1,8,0:0:0:0:
402,329,56608,1,0,0:0:0:0:
247,156,56755,6,0,P|158:135|104:207,1,191.359998832031,2|8,3:2|0:0,0:0:0:0:
232,384,57199,1,2,0:0:0:0:
340,195,57346,1,0,3:0:0:0:
163,303,57494,1,0,3:0:0:0:
366,384,57642,2,0,L|351:264,1,95.6799994160156,10|0,0:0|0:0,0:0:0:0:
260,62,57938,5,8,0:3:0:0:
428,227,58085,1,8,0:0:0:0:
192,296,58233,1,8,0:3:0:0:
362,97,58381,5,0,3:0:0:0:
362,97,58455,1,0,3:0:0:0:
362,97,58529,1,8,0:0:0:0:
143,217,58677,5,0,3:0:0:0:
129,214,58750,1,0,3:0:0:0:
115,210,58824,2,0,B|88:170|88:170|101:104|172:84,1,143.519999124023,8|0,0:0|0:0,0:0:0:0:
244,28,59120,6,0,L|227:222,1,191.359998832031,6|14,3:2|0:0,0:0:0:0:
372,384,59563,1,0,0:0:0:0:
330,170,59711,1,2,3:2:0:0:
225,349,59859,1,0,3:0:0:0:
415,210,60007,2,0,L|425:322,1,95.6799994160156,10|0,0:0|0:0,0:0:0:0:
227,218,60302,5,0,3:0:0:0:
417,116,60450,1,0,3:0:0:0:
243,22,60598,2,0,P|195:18|152:37,1,95.6799994160156,10|0,0:0|3:0,0:0:0:0:
33,213,60893,2,0,P|80:216|123:197,1,95.6799994160156,2|0,0:0|3:0,0:0:0:0:
311,98,61189,1,10,0:0:0:0:
116,32,61337,1,0,0:0:0:0:
261,225,61484,6,0,P|351:224|392:143,1,191.359998832031,2|10,3:2|0:0,0:0:0:0:
246,0,61928,1,0,0:0:0:0:
154,201,62076,1,2,3:2:0:0:
330,72,62223,1,0,3:0:0:0:
127,2,62371,2,0,L|139:111,1,95.6799994160156,10|0,0:0|0:0,0:0:0:0:
217,301,62667,5,0,3:0:0:0:
299,103,62814,1,0,3:0:0:0:
125,222,62962,2,0,L|233:206,1,95.6799994160156,10|0,0:0|3:0,0:0:0:0:
339,37,63258,2,0,L|298:138,1,95.6799994160156,2|0,0:0|3:0,0:0:0:0:
390,314,63553,2,0,L|322:228,1,95.6799994160156,10|0,0:0|0:0,0:0:0:0:
457,34,63849,6,0,B|501:80|501:80|438:202,1,191.359998832031,6|10,3:2|0:0,0:0:0:0:
295,354,64292,1,0,0:0:0:0:
373,152,64440,1,2,3:2:0:0:
480,347,64588,1,0,3:0:0:0:
301,215,64736,2,0,L|200:200,1,95.6799994160156,10|0,0:0|0:0,0:0:0:0:
46,88,65031,5,2,3:2:0:0:
121,256,65179,1,0,0:0:0:0:
235,89,65327,1,8,0:0:0:0:
55,190,65475,1,0,3:0:0:0:
192,0,65622,5,8,0:0:0:0:
269,229,65770,1,0,3:0:0:0:
93,15,65918,1,8,0:3:0:0:
344,144,66066,1,0,3:0:0:0:
62,223,66213,5,12,3:2:0:0:
42,231,66509,5,8,0:0:0:0:
244,331,66657,1,8,0:3:0:0:
255,348,66952,5,4,0:3:0:0:
184,127,67100,1,4,0:3:0:0:
177,113,67396,6,0,L|83:93,1,95.6799994160156,8|0,0:0|3:0,0:0:0:0:
117,349,67691,5,8,0:3:0:0:
324,186,67839,1,4,0:3:0:0:
48,215,67987,1,8,0:0:0:0:
293,334,68135,1,8,0:0:0:0:
293,334,68578,6,0,B|205:306|224:383|140:355,1,154.559995283203,6|2,3:2|3:2,0:0:0:0:
163,265,69021,1,2,3:2:0:0:
52,370,69169,2,0,P|47:327|38:292,1,77.2799976416016,8|0,0:0|0:0,0:0:0:0:
171,181,69465,2,0,P|157:217|149:255,1,77.2799976416016,0|0,3:0|0:0,0:0:0:0:
80,123,69760,6,0,P|126:81|224:88,1,154.559995283203,0|2,3:0|3:2,0:0:0:0:
258,176,70204,1,0,3:0:0:0:
358,67,70351,2,0,P|330:44|284:46,1,77.2799976416016,10|0,0:0|0:0,0:0:0:0:
365,162,70647,2,0,P|402:161|432:138,1,77.2799976416016,2|0,0:0|0:0,0:0:0:0:
273,171,70943,6,0,P|283:217|302:327,1,154.559995283203,2|2,3:2|3:2,0:0:0:0:
398,241,71386,1,2,3:2:0:0:
454,358,71534,2,0,P|412:376|380:368,1,77.2799976416016,8|0,0:0|0:0,0:0:0:0:
185,277,71829,2,0,P|219:259|312:321,1,154.559995283203,0|0,3:0|3:0,0:0:0:0:
206,363,72273,2,0,P|161:355|123:347,2,77.2799976416016,0|2|0,3:0|3:2|3:0,0:0:0:0:
59,228,72716,2,0,P|43:268|48:306,1,77.2799976416016,10|0,0:0|0:0,0:0:0:0:
198,270,73012,2,0,P|200:231|185:196,1,77.2799976416016,8|0,0:0|0:0,0:0:0:0:
33,134,73307,6,0,B|125:134|73:82|171:80,1,154.559995283203,2|2,3:2|3:2,0:0:0:0:
285,154,73750,1,2,3:2:0:0:
270,0,73898,2,0,P|260:40|251:79,1,77.2799976416016,8|0,0:0|0:0,0:0:0:0:
378,206,74194,2,0,P|371:152|358:43,1,154.559995283203,0|0,3:0|3:2,0:0:0:0:
486,156,74637,5,8,0:0:0:0:
349,129,74785,2,0,P|308:140|257:152,1,77.2799976416016,0|0,3:0|3:0,0:0:0:0:
365,289,75080,1,10,0:0:0:0:
250,250,75228,1,8,0:3:0:0:
394,205,75376,1,4,0:3:0:0:
394,205,75672,6,0,P|442:249|418:349,1,154.559995283203,6|2,3:2|3:2,0:0:0:0:
279,376,76115,1,0,3:2:0:0:
353,276,76263,2,0,P|303:267|263:260,1,77.2799976416016,8|0,0:0|0:0,0:0:0:0:
159,179,76558,1,8,0:0:0:0:
187,335,76706,2,0,P|193:291|199:246,1,77.2799976416016,8|4,0:3|0:3,0:0:0:0:
243,145,77002,1,8,0:0:0:0:
88,244,77149,2,0,P|82:200|76:155,1,77.2799976416016,0|0,3:0|3:0,0:0:0:0:
157,24,77445,5,8,0:0:0:0:
226,139,77593,1,8,0:0:0:0:
50,82,77741,1,8,0:3:0:0:
50,82,78036,6,0,B|142:55|104:138|204:115,1,154.559995283203,6|2,3:2|3:2,0:0:0:0:
358,80,78479,1,2,3:2:0:0:
259,16,78627,2,0,P|270:69|276:99,1,77.2799976416016,8|0,0:0|0:0,0:0:0:0:
446,210,78923,2,0,P|416:170|304:190,1,154.559995283203,0|0,3:0|3:0,0:0:0:0:
268,322,79366,5,8,0:0:0:0:
368,245,79514,2,0,P|381:305|389:342,1,77.2799976416016,2|0,3:2|3:0,0:0:0:0:
183,246,79810,2,0,P|191:208|199:170,1,77.2799976416016,10|0,0:0|0:0,0:0:0:0:
259,342,80105,2,0,P|224:368|183:371,1,77.2799976416016,2|0,0:0|0:0,0:0:0:0:
14,290,80401,6,0,P|74:274|176:249,1,154.559995283203,2|2,3:2|3:2,0:0:0:0:
219,180,80844,1,2,3:2:0:0:
64,105,80992,2,0,P|50:143|59:185,1,77.2799976416016,8|0,0:0|0:0,0:0:0:0:
153,56,81287,2,0,P|125:13|12:22,1,154.559995283203,0|0,3:0|3:0,0:0:0:0:
136,156,81731,6,0,P|191:139|220:131,1,77.2799976416016,8|2,0:0|3:2,0:0:0:0:
340,183,82026,1,0,3:0:0:0:
292,99,82174,2,0,P|286:56|280:18,1,77.2799976416016,10|0,0:0|0:0,0:0:0:0:
411,122,82470,2,0,P|405:79|399:41,1,77.2799976416016,2|2,3:2|0:0,0:0:0:0:
262,218,82765,6,0,P|300:264|392:255,1,154.559995283203,2|0,3:2|3:2,0:0:0:0:
340,183,83209,1,0,3:2:0:0:
222,299,83356,2,0,P|184:316|150:313,1,77.2799976416016,8|0,0:0|0:0,0:0:0:0:
69,171,83652,1,2,3:2:0:0:
69,171,83800,1,2,0:0:0:0:
172,231,83947,5,2,3:2:0:0:
55,344,84095,2,0,P|62:300|68:261,1,77.2799976416016,8|0,0:0|3:0,0:0:0:0:
212,383,84391,1,0,3:0:0:0:
132,205,84539,2,0,P|94:185|46:189,1,77.2799976416016,10|8,0:0|0:3,0:0:0:0:
207,295,84834,1,4,0:3:0:0:
43,352,84982,1,0,3:0:0:0:
143,191,85130,6,0,B|254:144|217:255|329:217,1,191.359998832031,12|0,3:2|3:0,0:0:0:0:
476,69,85573,1,8,0:0:0:0:
309,135,85721,1,0,3:0:0:0:
457,180,85869,1,0,3:0:0:0:
339,42,86016,5,14,0:0:0:0:
397,241,86164,2,0,P|441:271|483:268,1,95.6799994160156,2|0,0:0|3:0,0:0:0:0:
317,36,86460,2,0,P|270:35|232:63,1,95.6799994160156,10|2,0:0|3:2,0:0:0:0:
146,251,86755,5,8,0:0:0:0:
212,67,86903,1,8,0:0:0:0:
235,302,87051,5,8,0:0:0:0:
140,32,87199,1,8,0:0:0:0:
70,305,87346,1,8,0:0:0:0:
265,132,87494,6,0,B|362:141|331:203|423:213,2,172.95999736084,4|12|2,3:2|0:0|3:2,0:0:0:0:
67,221,88233,1,0,3:0:0:0:
160,66,88381,2,0,L|170:151,1,86.47999868042,8|0,0:0|3:0,0:0:0:0:
272,324,88677,1,2,0:0:0:0:
352,131,88824,1,0,3:0:0:0:
170,252,88972,2,0,L|255:238,1,86.47999868042,8|0,0:0|0:0,0:0:0:0:
465,156,89268,2,0,P|422:151|389:124,1,86.47999868042,2|0,3:2|3:0,0:0:0:0:
214,0,89563,2,0,P|256:4|289:31,1,86.47999868042,10|0,0:0|0:0,0:0:0:0:
123,189,89859,6,0,L|104:5,2,172.95999736084,0|10|0,3:0|0:0|3:0,0:0:0:0:
223,340,90598,1,2,3:2:0:0:
334,157,90746,2,0,L|230:171,1,86.47999868042,10|0,0:0|3:0,0:0:0:0:
373,338,91041,2,0,L|477:352,1,86.47999868042,0|0,0:0|3:0,0:0:0:0:
350,176,91337,1,8,0:0:0:0:
238,363,91484,2,0,L|134:377,1,86.47999868042,0|0,0:0|3:0,0:0:0:0:
0,268,91780,1,0,3:0:0:0:
177,183,91928,2,0,L|165:269,1,86.47999868042,10|2,0:0|0:0,0:0:0:0:
31,103,92223,6,0,P|87:42|168:59,2,172.95999736084,6|10|0,3:2|0:0|3:0,0:0:0:0:
155,214,92962,1,2,3:2:0:0:
273,46,93110,2,0,L|261:149,1,86.47999868042,10|0,0:0|3:0,0:0:0:0:
180,322,93406,5,0,0:0:0:0:
115,130,93553,1,0,3:0:0:0:
0,309,93701,2,0,L|101:295,1,86.47999868042,10|0,0:0|0:0,0:0:0:0:
270,179,93997,1,2,3:2:0:0:
56,222,94145,1,0,3:0:0:0:
209,382,94292,2,0,L|220:296,1,86.47999868042,10|0,0:0|0:0,0:0:0:0:
349,73,94588,6,0,P|432:65|485:130,2,172.95999736084,2|8|0,3:2|0:0|3:0,0:0:0:0:
185,191,95327,1,0,3:0:0:0:
374,272,95475,2,0,L|389:177,1,86.47999868042,8|0,0:0|0:0,0:0:0:0:
271,326,95770,1,0,3:0:0:0:
466,240,95918,1,0,3:0:0:0:
277,136,96066,2,0,L|292:231,1,86.47999868042,8|0,0:0|3:0,0:0:0:0:
126,384,96361,5,14,0:0:0:0:
245,128,96509,1,2,3:2:0:0:
49,324,96657,1,14,0:0:0:0:
324,223,96805,1,2,0:0:0:0:
105,90,96952,6,0,L|128:277,2,172.95999736084,4|8|2,3:2|0:0|3:2,0:0:0:0:
230,217,97691,1,0,3:0:0:0:
320,32,97839,2,0,L|227:14,1,86.47999868042,8|0,0:0|3:0,0:0:0:0:
145,181,98135,1,2,0:0:0:0:
327,117,98282,1,0,3:0:0:0:
137,4,98430,2,0,L|155:97,1,86.47999868042,8|0,0:0|0:0,0:0:0:0:
218,282,98726,1,2,3:2:0:0:
300,110,98874,1,0,3:0:0:0:
146,205,99021,2,0,L|239:187,1,86.47999868042,10|0,0:0|0:0,0:0:0:0:
437,95,99317,6,0,B|373:73|373:73|354:41|354:41|284:17,2,172.95999736084,0|10|0,3:0|0:0|3:0,0:0:0:0:
323,223,100056,1,0,3:0:0:0:
197,69,100204,2,0,L|209:168,1,86.47999868042,10|2,0:0|0:0,0:0:0:0:
286,344,100499,5,4,3:2:0:0:
145,208,100647,1,8,0:0:0:0:
356,298,100795,1,8,0:0:0:0:
117,365,100943,1,8,0:0:0:0:
299,132,101090,5,10,0:0:0:0:
205,363,101238,1,8,0:0:0:0:
118,115,101386,1,10,0:0:0:0:
327,296,101534,1,10,0:0:0:0:
214,60,101681,5,4,3:2:0:0:
108,232,101829,2,0,L|202:218,1,86.47999868042,0|0,3:0|0:0,0:0:0:0:
352,128,102125,1,0,3:0:0:0:
223,0,102273,2,0,B|179:44|179:44|221:150,1,172.95999736084,8|0,0:0|0:0,0:0:0:0:
336,288,102716,1,0,3:0:0:0:
387,113,102864,5,0,3:0:0:0:
272,207,103012,2,0,L|365:196,1,86.47999868042,0|0,3:0|0:0,0:0:0:0:
499,283,103307,1,0,3:0:0:0:
329,384,103455,2,0,B|234:375|282:309|172:295,1,172.95999736084,8|2,0:0|0:0,0:0:0:0:
21,328,103898,1,2,3:2:0:0:
230,213,104046,5,8,0:0:0:0:
21,130,104194,2,0,L|37:228,1,86.47999868042,8|0,0:3|0:0,0:0:0:0:
208,338,104489,2,0,L|224:240,1,86.47999868042,8|0,0:3|0:0,0:0:0:0:
308,22,104785,1,8,0:3:0:0:
384,246,104933,1,4,0:3:0:0:
163,84,105080,1,4,0:3:0:0:
163,84,105376,6,0,B|233:93|210:137|275:146,1,129.71999802063,12|0,3:2|0:0,0:0:0:0:
389,105,105672,2,0,P|350:153|366:214,1,129.71999802063,12|0,3:2|0:0,0:0:0:0:
499,229,105967,6,0,B|439:250|439:250|420:282|420:282|350:306,1,172.95999736084,12|0,3:2|0:0,0:0:0:0:
210,168,106411,6,0,B|110:129|137:226|29:189,1,184.919991252869,4|0,3:2|0:0,0:0:0:0:
19,175,106706,2,0,B|1:126|1:126|19:75,1,104.879998719727,14|0,0:0|0:0,0:0:0:0:
183,247,107002,1,2,3:2:0:0:
128,43,107149,1,0,3:0:0:0:
62,278,107297,1,10,0:0:0:0:
209,88,107445,6,0,P|264:63|342:175,1,209.759997439453,2|0,3:2|3:0,0:0:0:0:
219,330,107888,2,0,P|156:347|105:360,1,104.879998719727,10|0,0:0|0:0,0:0:0:0:
262,157,108184,1,2,3:2:0:0:
322,351,108332,1,0,3:0:0:0:
156,203,108479,2,0,B|135:155|135:155|156:102,1,104.879998719727,10|0,0:0|0:0,0:0:0:0:
430,327,108775,6,0,B|344:309|344:309|308:333|308:333|214:314,1,209.759997439453,2|8,3:2|0:0,0:0:0:0:
56,170,109218,1,0,0:0:0:0:
264,66,109366,2,0,P|255:122|245:174,1,104.879998719727,2|0,3:2|3:0,0:0:0:0:
65,277,109662,1,10,0:0:0:0:
158,45,109810,6,0,B|200:0|262:17|262:17|296:61|366:57,1,209.759997439453,4|0,3:2|3:0,0:0:0:0:
502,203,110253,2,0,P|447:175|392:167,1,104.879998719727,8|0,0:0|0:0,0:0:0:0:
223,347,110548,1,0,3:0:0:0:
303,150,110696,1,2,3:2:0:0:
303,150,110770,1,0,3:0:0:0:
303,150,110844,1,10,0:0:0:0:
387,282,110992,1,2,0:0:0:0:
222,97,111140,6,0,B|190:116|171:127|171:127|201:185|217:226,1,157.31999807959,4|0,3:2|0:0,0:0:0:0:
172,277,111435,2,0,P|233:263|285:249,1,104.879998719727,10|0,0:0|0:0,0:0:0:0:
494,151,111731,1,2,3:2:0:0:
308,49,111879,1,0,3:0:0:0:
464,252,112026,1,10,0:0:0:0:
403,0,112174,6,0,P|396:54|388:111,1,104.879998719727,2|0,3:2|0:0,0:0:0:0:
285,272,112470,1,2,3:2:0:0:
485,163,112617,1,10,0:0:0:0:
300,38,112765,2,0,B|173:5|213:107|99:70,1,209.759997439453,2|0,0:0|3:0,0:0:0:0:
216,204,113209,2,0,P|257:163|258:118,1,104.879998719727,10|0,0:0|0:0,0:0:0:0:
5,27,113504,6,0,P|17:81|30:136,1,104.879998719727,2|0,3:2|0:0,0:0:0:0:
125,262,113800,2,0,P|137:210|148:159,1,104.879998719727,8|0,0:0|0:0,0:0:0:0:
29,321,114095,1,2,3:2:0:0:
226,214,114243,1,0,3:0:0:0:
10,125,114391,1,10,0:0:0:0:
192,339,114539,6,0,P|247:346|304:352,1,104.879998719727,6|0,3:2|0:0,0:0:0:0:
206,94,114834,1,2,3:2:0:0:
53,323,114982,2,0,P|27:275|39:222,1,104.879998719727,10|0,0:0|0:0,0:0:0:0:
275,143,115278,5,8,0:3:0:0:
78,31,115425,1,0,3:0:0:0:
78,31,115499,1,0,3:0:0:0:
78,31,115573,1,10,0:0:0:0:
161,231,115721,1,2,0:0:0:0:
255,38,115869,6,0,P|297:14|361:24,1,104.879998719727,4|0,3:2|0:0,0:0:0:0:
104,147,116164,2,0,P|52:152|7:128,1,104.879998719727,10|2,0:0|0:0,0:0:0:0:
265,234,116460,1,0,3:0:0:0:
167,26,116608,1,0,3:0:0:0:
76,265,116755,1,8,0:0:0:0:
260,134,116903,6,0,B|376:127|329:220|455:215,1,209.759997439453,0|0,0:0|3:0,0:0:0:0:
366,32,117346,2,0,P|312:26|267:66,1,104.879998719727,8|0,0:0|0:0,0:0:0:0:
136,318,117642,5,2,3:2:0:0:
291,231,117790,1,0,3:0:0:0:
131,109,117938,2,0,P|122:164|114:225,1,104.879998719727,10|0,0:0|0:0,0:0:0:0:
374,201,118233,6,0,P|403:157|404:104,1,104.879998719727,2|0,3:2|0:0,0:0:0:0:
191,18,118529,2,0,P|162:62|161:115,1,104.879998719727,8|0,0:0|0:0,0:0:0:0:
366,294,118824,1,2,3:2:0:0:
277,109,118972,1,0,3:0:0:0:
133,311,119120,2,0,P|74:318|18:323,1,104.879998719727,8|0,0:0|0:0,0:0:0:0:
273,90,119415,5,10,0:0:0:0:
209,360,119563,1,8,0:0:0:0:
198,39,119711,5,10,0:0:0:0:
288,328,119859,1,10,0:0:0:0:
324,22,120007,5,8,0:0:0:0:
202,346,120154,1,8,0:0:0:0:
115,16,120302,5,8,0:0:0:0:
281,313,120450,2,0,B|402:276|362:381|491:352,1,209.759997439453,4|0,3:2|0:0,0:0:0:0:
343,131,120893,2,0,P|312:178|312:216,1,86.47999868042,2|0,3:2|0:0,0:0:0:0:
455,267,121189,2,0,P|429:216|396:197,1,86.47999868042,10|0,0:0|0:0,0:0:0:0:
247,80,121484,1,2,0:0:0:0:
351,33,121632,1,0,3:0:0:0:
238,186,121780,6,0,P|184:174|62:149,1,172.95999736084,2|0,3:2|3:0,0:0:0:0:
116,0,122223,1,0,3:0:0:0:
116,0,122297,1,0,3:0:0:0:
116,0,122371,2,0,P|124:44|133:86,1,86.47999868042,10|0,0:0|0:0,0:0:0:0:
324,138,122667,2,0,P|333:95|340:53,1,86.47999868042,2|2,3:2|0:0,0:0:0:0:
146,185,122962,5,8,0:0:0:0:
356,249,123110,1,0,3:0:0:0:
356,249,123184,1,0,3:0:0:0:
356,249,123258,1,8,0:0:0:0:
215,77,123406,1,0,3:0:0:0:
282,323,123553,1,8,0:3:0:0:
403,118,123701,1,0,3:0:0:0:
176,271,123849,1,4,0:3:0:0:
410,341,123997,1,0,3:0:0:0:
212,170,124145,6,0,P|162:158|71:255,1,172.95999736084,8|4,0:3|0:3,0:0:0:0:
275,313,124588,1,0,3:0:0:0:
275,313,124662,1,0,3:0:0:0:
275,313,124736,1,8,0:0:0:0:
196,80,124883,1,0,3:0:0:0:
79,247,125031,1,8,0:3:0:0:
61,238,125327,5,8,0:0:0:0:
184,71,125475,2,0,P|193:139|199:177,1,86.47999868042,4|0,3:2|0:0,0:0:0:0:
232,338,125770,1,8,0:0:0:0:
84,126,125918,2,0,P|76:179|69:230,1,95.6799994160156,4|0,3:2|0:0,0:0:0:0:
38,353,126213,1,8,0:0:0:0:
207,169,126361,6,0,B|302:143|263:228|383:201,1,172.95999736084,4|8,3:2|0:0,0:0:0:0:
386,43,126805,2,0,P|332:44|301:71,1,86.47999868042,4|0,3:2|0:0,0:0:0:0:
443,265,127100,6,0,P|453:217|472:125,1,129.71999802063,14|0,3:2|0:0,0:0:0:0:
386,43,127396,2,0,P|400:114|414:185,1,129.71999802063,14|0,3:2|0:0,0:0:0:0:
395,329,127691,6,0,P|448:350|503:332,1,95.6799994160156,6|0,3:2|0:0,0:0:0:0:
331,182,127987,1,8,0:0:0:0:
268,363,128135,2,0,P|211:353|74:331,1,191.359998832031,0|0,3:0|3:0,0:0:0:0:
158,189,128578,1,10,0:0:0:0:
234,275,128726,1,2,0:0:0:0:
69,225,128874,6,0,P|57:178|76:133,1,95.6799994160156,0|0,3:0|0:0,0:0:0:0:
248,60,129169,2,0,P|213:93|164:99,1,95.6799994160156,8|0,0:0|3:0,0:0:0:0:
17,52,129465,2,0,P|60:30|169:112,1,191.359998832031,2|10,0:0|0:0,0:0:0:0:
137,271,129908,1,2,0:0:0:0:
247,168,130056,6,0,P|296:175|350:182,1,95.6799994160156,0|2,3:2|0:0,0:0:0:0:
441,80,130351,2,0,P|393:86|346:92,1,95.6799994160156,8|0,0:0|3:0,0:0:0:0:
332,87,130573,1,0,3:0:0:0:
319,79,130647,2,0,P|294:55|305:-2,1,95.6799994160156,2|0,0:0|0:0,0:0:0:0:
454,167,130943,2,0,P|444:217|434:266,1,95.6799994160156,10|0,0:0|0:0,0:0:0:0:
212,353,131238,6,0,P|224:302|346:264,1,191.359998832031,2|8,3:2|0:0,0:0:0:0:
454,167,131681,1,0,3:0:0:0:
454,167,131829,2,0,P|396:154|353:144,1,95.6799994160156,2|0,0:0|0:0,0:0:0:0:
212,45,132125,2,0,P|270:32|313:22,1,95.6799994160156,10|0,0:0|0:0,0:0:0:0:
233,173,132420,6,0,B|123:142|149:227|35:188,1,191.359998832031,2|8,3:2|0:0,0:0:0:0:
0,23,132864,2,0,B|26:2|60:0|60:0|120:55|85:112,1,191.359998832031,0|0,3:0|0:0,0:0:0:0:
20,270,133307,2,0,P|-2:317|3:365,1,95.6799994160156,10|0,0:0|0:0,0:0:0:0:
267,323,133603,2,0,B|224:289|224:289|76:325,1,191.359998832031,2|8,3:2|0:0,0:0:0:0:
0,169,134046,2,0,P|55:232|167:190,1,191.359998832031,2|0,3:2|0:0,0:0:0:0:
322,124,134489,6,0,P|314:93|308:64,1,60.7200018530274,10|0,0:0|0:0,0:0:0:0:
243,22,134785,6,0,B|216:65|216:65|239:112,1,95.6799994160156,12|2,3:2|0:0,0:0:0:0:
435,240,135080,1,2,3:2:0:0:
308,64,135228,1,8,0:0:0:0:
361,290,135376,1,0,0:3:0:0:
461,59,135524,1,12,0:3:0:0:
255,187,135672,1,4,0:3:0:0:
499,299,135819,6,0,B|452:273|407:326|407:326|403:316|403:316|378:352|318:337,1,209.759997439453,4|0,3:2|0:0,0:0:0:0:
92,216,136263,1,10,0:0:0:0:
92,216,136337,1,0,3:0:0:0:
92,216,136411,2,0,P|97:247|103:288,1,52.4399993598633,0|0,3:0|3:0,0:0:0:0:
240,181,136558,1,10,0:0:0:0:
240,181,136632,1,0,3:0:0:0:
240,181,136706,2,0,P|245:150|251:109,1,52.4399993598633,0|0,3:0|3:0,0:0:0:0:
14,82,136854,5,10,0:0:0:0:
55,113,136927,1,8,0:0:0:0:
106,118,137001,1,10,0:0:0:0:
153,95,137075,1,8,0:0:0:0:
181,52,137149,6,0,P|241:22|329:69,1,157.31999807959,4|0,3:2|0:0,0:0:0:0:
359,121,137445,2,0,P|371:74|386:29,1,95.6799994160156,10|0,0:0|3:0,0:0:0:0:
248,129,137741,2,0,P|260:175|275:220,1,95.6799994160156,2|0,0:0|0:0,0:0:0:0:
475,312,138036,1,10,0:0:0:0:
354,140,138184,1,2,0:0:0:0:
229,320,138332,6,0,P|179:349|138:346,1,95.6799994160156,0|0,3:0|0:0,0:0:0:0:
233,123,138627,1,8,0:0:0:0:
96,265,138775,1,0,3:0:0:0:
289,223,138923,2,0,P|336:231|381:245,1,95.6799994160156,2|0,0:0|0:0,0:0:0:0:
98,148,139218,2,0,P|50:139|5:125,1,95.6799994160156,8|0,0:0|0:0,0:0:0:0:
215,26,139514,6,0,P|202:96|184:238,1,191.359998832031,2|8,3:2|0:0,0:0:0:0:
440,79,139957,2,0,P|392:56|283:133,1,191.359998832031,0|0,3:0|0:0,0:0:0:0:
415,271,140401,2,0,P|464:283|522:296,1,95.6799994160156,8|0,0:0|0:0,0:0:0:0:
278,135,140696,6,0,P|218:151|133:168,1,143.519999124023,2|0,3:2|0:0,0:0:0:0:
116,161,140992,1,8,0:0:0:0:
288,235,141140,1,0,3:0:0:0:
156,92,141287,2,0,P|142:40|130:-2,1,95.6799994160156,2|0,0:0|0:0,0:0:0:0:
65,236,141583,2,0,P|51:288|39:330,1,95.6799994160156,10|0,0:0|0:0,0:0:0:0:
285,126,141879,5,0,3:0:0:0:
296,116,142174,1,8,0:0:0:0:
67,65,142322,1,0,3:0:0:0:
317,237,142470,1,8,0:0:0:0:
222,15,142617,1,0,3:0:0:0:
74,279,142765,1,8,0:0:0:0:
247,186,142913,1,0,3:0:0:0:
59,76,143061,5,8,0:3:0:0:
59,75,143135,1,0,3:0:0:0:
59,75,143209,2,0,P|50:45|42:21,1,47.8399997080078,0|0,3:0|3:0,0:0:0:0:
169,156,143356,1,4,0:3:0:0:
169,155,143430,1,0,3:0:0:0:
169,155,143504,2,0,P|178:125|186:101,1,47.8399997080078,0|0,3:0|3:0,0:0:0:0:
13,326,143652,5,8,0:0:0:0:
254,235,143800,1,0,3:0:0:0:
46,158,143947,1,4,0:3:0:0:
311,323,144095,1,0,3:0:0:0:
205,53,144243,5,8,0:0:0:0:
155,384,144391,1,0,3:0:0:0:
166,376,145130,6,0,P|159:338|145:271,1,95.6799994160156,8|0,0:0|0:0,0:0:0:0:
43,71,145425,1,4,3:2:0:0:
210,203,145573,5,8,0:0:0:0:
228,198,145647,1,8,0:0:0:0:
246,193,145721,2,0,P|286:183|310:177,1,47.8399997080078,8|8,3:2|0:0,0:0:0:0:
384,82,145869,1,8,0:0:0:0:
366,77,145943,1,8,0:0:0:0:
348,72,146017,2,0,P|308:62|284:56,1,47.8399997080078,12|8,3:2|0:0,0:0:0:0:
35,158,146164,5,8,0:0:0:0:
25,119,146237,1,8,0:0:0:0:
35,81,146311,1,8,0:0:0:0:
63,53,146385,1,8,0:0:0:0:
100,41,146459,1,8,0:0:0:0:
139,49,146533,1,8,0:0:0:0:
169,75,146608,6,0,L|140:280,1,191.359998832031,6|12,3:2|0:0,0:0:0:0:
300,384,147051,1,2,0:0:0:0:
245,185,147199,1,0,3:0:0:0:
124,359,147346,1,0,3:0:0:0:
334,263,147494,2,0,L|323:162,1,95.6799994160156,10|0,0:0|0:0,0:0:0:0:
174,18,147790,5,0,3:0:0:0:
328,132,147938,1,0,3:0:0:0:
145,237,148085,2,0,L|45:213,1,95.6799994160156,10|0,0:0|3:0,0:0:0:0:
232,76,148381,2,0,L|332:52,1,95.6799994160156,2|0,0:0|3:0,0:0:0:0:
445,230,148677,1,10,0:0:0:0:
244,166,148824,1,0,0:0:0:0:
446,38,148972,6,0,B|494:82|494:82|434:216,1,191.359998832031,2|10,3:2|0:0,0:0:0:0:
270,324,149415,1,0,0:0:0:0:
465,266,149563,1,2,3:2:0:0:
282,154,149711,1,0,3:0:0:0:
371,338,149859,2,0,L|382:228,1,95.6799994160156,10|0,0:0|0:0,0:0:0:0:
442,41,150154,5,0,3:0:0:0:
495,239,150302,1,0,3:0:0:0:
348,89,150450,2,0,P|307:64|260:65,1,95.6799994160156,10|0,0:0|3:0,0:0:0:0:
168,249,150746,2,0,P|209:225|232:184,1,95.6799994160156,2|0,0:0|3:0,0:0:0:0:
132,8,151041,2,0,P|131:55|155:95,1,95.6799994160156,8|0,0:0|0:0,0:0:0:0:
308,272,151337,6,0,B|319:184|319:184|339:159|339:159|350:72,1,191.359998832031,6|10,3:2|0:0,0:0:0:0:
185,197,151780,1,0,0:0:0:0:
293,18,151928,1,2,3:2:0:0:
405,200,152076,1,0,3:0:0:0:
232,93,152223,2,0,L|131:76,1,95.6799994160156,10|0,0:0|0:0,0:0:0:0:
0,233,152519,5,0,3:0:0:0:
200,168,152667,1,0,3:0:0:0:
38,48,152814,2,0,L|53:142,1,95.6799994160156,10|0,0:0|3:0,0:0:0:0:
211,282,153110,2,0,L|226:187,1,95.6799994160156,2|0,0:0|3:0,0:0:0:0:
311,7,153406,1,8,0:0:0:0:
372,208,153553,1,0,0:0:0:0:
512,21,153701,6,0,B|411:32|450:95|335:106,1,191.359998832031,2|8,3:2|0:0,0:0:0:0:
156,28,154145,1,2,0:0:0:0:
253,210,154292,1,0,3:0:0:0:
333,19,154440,1,0,3:0:0:0:
151,118,154588,2,0,L|164:223,1,95.6799994160156,10|0,0:0|3:0,0:0:0:0:
167,236,154810,1,0,3:0:0:0:
167,236,154883,5,8,0:3:0:0:
320,384,155031,1,0,3:0:0:0:
367,149,155179,1,4,0:3:0:0:
228,328,155327,1,0,3:0:0:0:
228,328,155401,1,0,3:0:0:0:
228,328,155475,1,8,0:0:0:0:
148,93,155622,1,0,3:0:0:0:
154,80,155696,1,0,3:0:0:0:
160,67,155770,2,0,B|199:43|199:43|257:55|303:107,1,143.519999124023,12|0,0:0|0:0,0:0:0:0:
356,172,156066,6,0,B|253:181|278:248|159:255,1,191.359998832031,6|14,3:2|0:0,0:0:0:0:
18,137,156509,1,0,0:0:0:0:
215,80,156657,1,2,3:2:0:0:
72,239,156805,1,0,3:0:0:0:
125,36,156952,2,0,L|142:146,1,95.6799994160156,10|0,0:0|0:0,0:0:0:0:
244,326,157248,5,0,3:0:0:0:
295,133,157396,1,0,3:0:0:0:
157,281,157544,2,0,L|54:263,1,95.6799994160156,10|0,0:0|3:0,0:0:0:0:
195,112,157839,2,0,L|298:94,1,95.6799994160156,2|0,0:0|3:0,0:0:0:0:
450,201,158135,1,10,0:0:0:0:
358,14,158282,1,0,0:0:0:0:
234,201,158430,6,0,P|142:191|95:112,1,191.359998832031,2|10,3:2|0:0,0:0:0:0:
265,0,158874,1,0,0:0:0:0:
345,201,159021,1,2,3:2:0:0:
177,84,159169,1,0,3:0:0:0:
380,6,159317,2,0,L|362:115,1,95.6799994160156,10|0,0:0|0:0,0:0:0:0:
253,267,159613,5,0,3:0:0:0:
253,267,159686,1,0,3:0:0:0:
253,267,159760,1,0,3:0:0:0:
438,152,159908,2,0,L|452:259,1,95.6799994160156,10|0,0:0|0:0,0:0:0:0:
288,153,160204,1,2,3:2:0:0:
288,153,160277,1,0,3:0:0:0:
288,153,160351,1,0,3:0:0:0:
481,26,160499,6,0,L|472:91,1,47.8399997080078,10|8,0:0|0:0,0:0:0:0:
343,279,160647,2,0,L|334:214,1,47.8399997080078,8|8,0:0|0:0,0:0:0:0:
203,15,160795,6,0,P|110:9|46:76,1,191.359998832031,6|10,3:2|0:0,0:0:0:0:
170,254,161238,1,0,0:0:0:0:
264,68,161386,1,2,3:2:0:0:
74,165,161534,1,0,3:0:0:0:
260,284,161681,2,0,L|249:172,1,95.6799994160156,10|0,0:0|0:0,0:0:0:0:
358,15,161977,5,0,3:2:0:0:
400,215,162125,1,0,3:0:0:0:
233,98,162273,2,0,L|337:112,1,95.6799994160156,10|0,0:0|0:0,0:0:0:0:
431,293,162568,2,0,L|336:305,1,95.6799994160156,2|0,3:2|3:0,0:0:0:0:
302,310,162790,1,0,3:0:0:0:
302,310,162864,1,10,0:0:0:0:
223,128,163012,1,0,0:0:0:0:
105,311,163159,6,0,B|204:296|176:232|272:222,1,191.359998832031,6|10,3:2|0:0,0:0:0:0:
379,384,163603,1,0,0:0:0:0:
453,194,163750,1,2,3:2:0:0:
302,310,163898,1,0,3:0:0:0:
491,384,164046,2,0,L|507:263,1,95.6799994160156,8|0,0:0|0:0,0:0:0:0:
406,66,164342,5,8,0:0:0:0:
402,54,164637,1,8,0:3:0:0:
239,135,164785,1,8,0:3:0:0:
418,214,164933,1,4,0:3:0:0:
308,29,165080,1,4,0:3:0:0:
249,228,165228,1,4,3:3:0:0:
396,137,165376,1,4,3:3:0:0:
223,45,165524,6,0,P|179:62|155:114,1,95.6799994160156,6|0,3:2|0:0,0:0:0:0:
181,183,165819,1,8,0:0:0:0:
64,88,165967,2,0,P|70:138|98:176,1,95.6799994160156,2|0,0:0|3:0,0:0:0:0:
232,243,166263,1,0,3:0:0:0:
51,286,166411,2,0,P|106:273|152:262,1,95.6799994160156,10|0,0:0|0:0,0:0:0:0:
354,187,166706,6,0,P|307:175|260:164,1,95.6799994160156,2|0,3:2|3:0,0:0:0:0:
376,304,167002,1,8,0:0:0:0:
450,151,167149,2,0,P|424:119|370:97,1,95.6799994160156,2|0,3:2|0:0,0:0:0:0:
289,313,167445,1,0,3:0:0:0:
449,236,167593,2,0,P|462:286|476:337,1,95.6799994160156,10|0,0:0|0:0,0:0:0:0:
270,166,167888,6,0,P|278:110|283:67,2,95.6799994160156,2|0|8,3:2|0:0|0:0,0:0:0:0:
172,202,168332,2,0,P|188:90|198:11,1,191.359998832031,2|0,0:0|3:0,0:0:0:0:
244,263,168775,2,0,P|204:293|144:297,1,95.6799994160156,8|0,0:0|0:0,0:0:0:0:
14,145,169071,5,0,3:0:0:0:
14,145,169218,1,0,3:0:0:0:
172,202,169366,2,0,P|122:212|65:223,1,95.6799994160156,10|0,0:0|3:0,0:0:0:0:
222,118,169662,1,2,0:0:0:0:
159,299,169810,1,2,3:2:0:0:
114,109,169957,1,10,0:0:0:0:
244,263,170105,1,2,0:0:0:0:
42,312,170253,6,0,P|49:264|55:217,1,95.6799994160156,2|0,3:2|0:0,0:0:0:0:
211,371,170548,1,10,0:0:0:0:
34,195,170696,2,0,B|138:161|110:262|223:228,1,191.359998832031,2|0,0:0|3:0,0:0:0:0:
332,119,171140,2,0,P|338:65|343:21,1,95.6799994160156,8|0,0:0|0:0,0:0:0:0:
391,233,171435,1,0,3:0:0:0:
391,233,171583,1,0,0:0:0:0:
255,99,171731,6,0,P|205:110|183:152,1,95.6799994160156,10|0,0:0|0:0,0:0:0:0:
470,271,172026,2,0,P|485:222|460:182,1,95.6799994160156,10|0,0:0|0:0,0:0:0:0:
230,346,172322,2,0,P|264:383|311:381,1,95.6799994160156,10|0,0:0|0:0,0:0:0:0:
345,110,172617,5,10,0:0:0:0:
189,256,172765,2,0,P|180:207|168:159,1,95.6799994160156,0|8,3:0|0:3,0:0:0:0:
324,283,173061,1,8,0:3:0:0:
216,95,173209,2,0,P|163:80|118:95,1,95.6799994160156,4|4,0:3|0:3,0:0:0:0:
80,296,173504,1,0,3:0:0:0:
267,203,173652,1,8,0:0:0:0:
42,75,173800,2,0,P|56:134|65:179,1,95.6799994160156,8|0,3:3|3:0,0:0:0:0:
187,274,174095,5,8,0:0:0:0:
185,288,174169,1,8,0:0:0:0:
183,302,174243,1,8,0:0:0:0:
181,316,174317,1,8,0:0:0:0:
179,330,174391,1,8,0:0:0:0:
324,283,174539,1,8,0:0:0:0:
69,215,174686,1,8,0:3:0:0:
60,228,174982,6,0,P|116:215|179:201,1,95.6799994160156,12|0,3:0|0:0,0:0:0:0:
337,160,175278,1,8,0:3:0:0:
153,22,175425,2,0,P|147:71|141:124,1,95.6799994160156,8|0,0:3|0:0,0:0:0:0:
240,290,175721,1,4,0:3:0:0:
42,219,175869,1,4,0:3:0:0:
249,86,176016,1,4,3:2:0:0:
263,94,176460,6,0,P|271:53|280:-5,2,95.6799994160156,8|8|4,0:3|0:3|0:3,0:0:0:0:
193,149,176903,1,4,0:3:0:0:
102,142,177051,1,4,0:3:0:0:
51,71,177199,1,0,3:0:0:0:
142,223,177346,5,8,0:0:0:0:
159,49,177938,5,4,3:2:0:0:
176,85,186361,6,0,P|123:54|51:71,1,123.279994168579,12|0,3:2|0:0,0:0:0:0:
289,243,186657,2,0,P|342:274|414:257,1,123.279994168579,12|0,3:2|0:0,0:0:0:0:
270,41,186952,2,0,B|273:200|184:119|182:294,1,246.559988337159,12|0,3:2|0:0,0:0:0:0:
12,346,187396,6,0,P|0:303|97:255,1,172.95999736084,6|2,3:2|3:2,0:0:0:0:
164,346,187839,1,2,3:2:0:0:
164,346,187987,2,0,P|206:351|258:357,1,86.47999868042,8|0,0:0|0:0,0:0:0:0:
335,309,188282,1,0,3:0:0:0:
204,186,188430,2,0,P|214:230|239:363,1,172.95999736084,0|0,3:0|0:0,0:0:0:0:
408,249,188873,6,0,P|374:224|319:219,1,86.47999868042,2|0,0:2|0:0,0:0:0:0:
187,187,189169,2,0,P|225:170|257:124,1,86.47999868042,10|0,0:0|0:0,0:0:0:0:
342,49,189465,2,0,P|337:90|360:141,1,86.47999868042,2|0,0:0|0:0,0:0:0:0:
436,168,189760,5,2,3:2:0:0:
259,45,189908,2,0,B|151:45|203:114|94:106,1,172.95999736084,0|2,3:0|0:2,0:0:0:0:
38,37,190351,2,0,P|26:90|17:131,1,86.47999868042,8|0,0:0|0:0,0:0:0:0:
195,237,190647,1,0,3:0:0:0:
195,237,190795,2,0,P|159:194|51:207,1,172.95999736084,0|0,3:0|0:0,0:0:0:0:
146,366,191238,5,0,3:2:0:0:
146,366,191386,1,0,3:0:0:0:
257,289,191534,2,0,P|244:330|234:378,1,86.47999868042,10|0,0:0|0:0,0:0:0:0:
111,271,191829,2,0,P|101:228|88:187,1,86.47999868042,0|0,3:2|0:0,0:0:0:0:
194,78,192125,1,2,3:2:0:0:
242,200,192272,6,0,P|304:184|433:157,1,172.95999736084,0|0,3:2|0:0,0:0:0:0:
375,6,192716,2,0,P|362:57|352:94,1,86.47999868042,8|0,0:0|0:0,0:0:0:0:
491,209,193011,1,2,3:2:0:0:
491,209,193159,2,0,P|512:159|440:81,1,172.95999736084,2|8,0:0|0:0,0:0:0:0:
330,217,193603,5,0,3:0:0:0:
330,217,193750,1,0,3:0:0:0:
425,306,193898,2,0,P|471:315|518:324,1,86.47999868042,10|0,0:0|3:0,0:0:0:0:
403,155,194194,1,2,0:0:0:0:
335,349,194341,1,0,3:0:0:0:
179,164,194489,6,0,P|201:125|320:145,1,172.95999736084,12|0,3:2|3:0,0:0:0:0:
173,308,194933,2,0,P|121:315|77:323,2,86.47999868042,8|0|0,0:0|3:0|3:0,0:0:0:0:
329,361,195376,1,14,0:0:0:0:
256,189,195524,2,0,P|247:244|241:288,1,86.47999868042,2|0,0:0|3:0,0:0:0:0:
403,155,195819,1,10,0:0:0:0:
403,155,195893,1,8,0:0:0:0:
403,155,195967,1,2,3:2:0:0:
475,302,196115,1,8,0:0:0:0:
330,249,196263,1,8,0:3:0:0:
497,128,196410,5,8,0:0:0:0:
483,94,196483,1,8,0:0:0:0:
459,68,196557,1,8,0:0:0:0:
426,53,196631,1,8,0:0:0:0:
391,50,196705,1,8,0:0:0:0:
356,60,196779,1,8,0:0:0:0:
328,83,196854,6,0,B|308:260,2,172.95999736084,4|12|2,3:2|0:0|3:2,0:0:0:0:
186,210,197593,1,0,3:0:0:0:
122,22,197740,2,0,L|221:43,1,86.47999868042,8|0,0:0|3:0,0:0:0:0:
347,176,198036,1,2,0:0:0:0:
154,115,198184,1,0,3:0:0:0:
339,0,198332,2,0,L|325:101,1,86.47999868042,8|0,0:0|0:0,0:0:0:0:
249,272,198627,2,0,P|212:294|170:298,1,86.47999868042,2|0,3:2|3:0,0:0:0:0:
26,157,198923,2,0,P|68:160|104:183,1,86.47999868042,10|0,0:0|0:0,0:0:0:0:
234,374,199218,6,0,B|306:357|306:357|327:333|327:333|401:316,2,172.95999736084,0|10|0,3:0|0:0|3:0,0:0:0:0:
94,263,199957,1,2,3:2:0:0:
269,148,200105,2,0,L|255:252,1,86.47999868042,10|0,0:0|3:0,0:0:0:0:
95,356,200401,2,0,L|81:252,1,86.47999868042,2|0,0:0|3:0,0:0:0:0:
0,106,200696,1,8,0:0:0:0:
173,211,200844,2,0,L|184:125,1,86.47999868042,2|0,0:0|3:0,0:0:0:0:
1,142,201139,1,0,3:0:0:0:
149,292,201287,2,0,P|192:294|231:275,1,86.47999868042,10|0,0:0|0:0,0:0:0:0:
415,166,201583,6,0,B|351:144|351:144|332:112|332:112|262:88,2,172.95999736084,6|10|0,3:2|0:0|3:0,0:0:0:0:
512,332,202322,1,2,3:2:0:0:
335,239,202470,1,10,0:0:0:0:
512,142,202617,2,0,L|494:235,1,86.47999868042,0|0,3:0|0:0,0:0:0:0:
332,324,202913,1,0,3:0:0:0:
512,384,203061,2,0,L|494:291,1,86.47999868042,10|0,0:0|0:0,0:0:0:0:
367,156,203356,1,2,3:2:0:0:
294,335,203504,1,0,3:0:0:0:
232,148,203652,2,0,L|146:132,1,86.47999868042,10|0,0:0|0:0,0:0:0:0:
21,307,203947,6,0,B|121:297|81:242|179:233,2,172.95999736084,2|8|0,3:2|0:0|3:0,0:0:0:0:
111,130,204686,1,0,3:0:0:0:
171,322,204834,1,8,0:0:0:0:
101,111,204982,2,0,P|62:92|19:85,1,86.47999868042,4|0,3:2|0:0,0:0:0:0:
113,264,205277,1,0,3:0:0:0:
208,91,205425,2,0,P|246:72|289:65,1,86.47999868042,8|0,0:0|0:0,0:0:0:0:
475,180,205721,5,8,0:3:0:0:
470,214,205794,1,0,3:0:0:0:
465,248,205868,1,0,3:0:0:0:
460,282,205942,1,0,3:0:0:0:
455,316,206016,6,0,P|434:323|413:327,1,43.23999934021,8|8,0:0|0:0,0:0:0:0:
274,147,206164,2,0,P|295:150|315:158,1,43.23999934021,8|8,0:0|0:0,0:0:0:0:
210,357,206312,6,0,L|194:178,2,172.95999736084,4|12|2,3:2|0:0|3:2,0:0:0:0:
345,185,207051,1,0,3:0:0:0:
437,347,207199,2,0,L|326:331,1,86.47999868042,8|0,0:0|3:0,0:0:0:0:
215,209,207494,1,2,0:0:0:0:
297,384,207642,1,0,3:0:0:0:
425,208,207790,2,0,P|426:165|406:127,1,86.47999868042,8|0,0:0|0:0,0:0:0:0:
240,9,208085,2,0,L|258:97,1,86.47999868042,2|0,3:2|3:0,0:0:0:0:
108,238,208381,2,0,L|126:150,1,86.47999868042,10|0,0:0|0:0,0:0:0:0:
269,297,208676,6,0,B|205:313|205:313|183:343|183:343|111:361,1,172.95999736084,0|10,3:0|0:0,0:0:0:0:
230,191,209120,2,0,L|315:203,1,86.47999868042,2|0,0:2|3:0,0:0:0:0:
368,342,209415,1,0,3:0:0:0:
494,165,209563,2,0,L|377:182,1,86.47999868042,10|0,0:0|0:0,0:0:0:0:
263,326,209859,5,4,3:2:0:0:
367,87,210006,1,8,0:0:0:0:
453,302,210154,1,8,0:0:0:0:
267,81,210302,1,8,0:0:0:0:
150,358,210450,1,8,0:3:0:0:
371,204,210745,5,8,0:0:0:0:
164,113,211041,5,8,3:2:0:0:
124,351,212814,5,8,0:0:0:0:
124,351,213405,5,8,0:0:0:0:
86,177,213553,2,0,L|-23:156,1,86.47999868042,8|0,0:3|0:0,0:0:0:0:
124,351,213849,2,0,B|187:334|187:334|209:304|209:304|281:286,1,172.95999736084,4|8,3:2|0:3,0:0:0:0:
448,128,214292,1,4,0:3:0:0:
350,348,214440,1,4,3:2:0:0:
72,276,214883,5,8,0:3:0:0:
68,293,214956,1,0,3:0:0:0:
65,310,215030,1,0,3:0:0:0:
62,327,215104,1,0,3:0:0:0:
59,344,215179,5,8,0:0:0:0:
100,355,215252,1,8,0:0:0:0:
142,349,215326,1,8,0:0:0:0:
178,326,215400,1,8,0:0:0:0:
199,288,215474,1,8,0:0:0:0:
235,265,215548,1,8,0:0:0:0:
277,259,215622,1,8,0:0:0:0:
318,271,215695,1,8,0:0:0:0:
342,305,215770,6,0,L|364:111,1,184.919991252869,4|0,3:2|0:0,0:0:0:0:
367,94,216066,2,0,P|406:61|457:49,1,104.879998719727,14|0,0:0|0:0,0:0:0:0:
310,238,216361,1,2,3:2:0:0:
268,15,216509,1,0,3:0:0:0:
411,197,216657,1,10,0:0:0:0:
192,84,216804,6,0,B|73:96|115:166|-13:176,1,209.759997439453,2|0,3:2|3:0,0:0:0:0:
189,308,217248,2,0,P|239:299|277:264,1,104.879998719727,10|0,0:0|0:0,0:0:0:0:
347,79,217543,1,2,3:2:0:0:
186,199,217691,1,0,3:0:0:0:
390,285,217839,2,0,L|374:173,1,104.879998719727,10|0,0:0|0:0,0:0:0:0:
187,3,218135,6,0,P|85:10|29:94,2,209.759997439453,2|8|2,3:2|0:0|3:2,0:0:0:0:
288,224,218873,1,0,3:0:0:0:
134,88,219021,1,10,0:0:0:0:
369,4,219169,6,0,B|420:49|420:49|355:188,1,209.759997439453,4|0,3:2|3:0,0:0:0:0:
181,318,219612,2,0,L|78:296,1,104.879998719727,8|0,0:0|0:0,0:0:0:0:
225,137,219908,1,0,3:0:0:0:
281,321,220056,1,2,3:2:0:0:
281,321,220130,1,0,3:0:0:0:
281,321,220204,1,10,0:0:0:0:
383,128,220351,1,2,0:0:0:0:
211,244,220499,6,0,B|119:235|156:179|65:167,1,157.31999807959,4|0,3:2|0:0,0:0:0:0:
51,171,220795,2,0,L|33:281,1,104.879998719727,10|0,0:0|0:0,0:0:0:0:
225,137,221090,1,2,3:2:0:0:
36,52,221238,1,0,3:0:0:0:
132,254,221386,1,10,0:0:0:0:
229,47,221534,6,0,L|348:27,1,104.879998719727,2|0,3:2|0:0,0:0:0:0:
496,206,221829,1,2,3:2:0:0:
311,109,221977,1,10,0:0:0:0:
501,15,222125,2,0,L|484:126,1,104.879998719727,2|0,0:0|3:0,0:0:0:0:
302,217,222420,1,0,3:0:0:0:
495,338,222568,2,0,L|478:227,1,104.879998719727,10|0,0:0|0:0,0:0:0:0:
386,43,222864,5,8,0:3:0:0:
254,263,223011,2,0,L|357:244,1,104.879998719727,8|0,0:3|0:0,0:0:0:0:
229,47,223307,1,4,0:3:0:0:
125,273,223455,2,0,L|21:254,1,104.879998719727,4|0,0:3|0:0,0:0:0:0:
222,132,223750,1,8,0:0:0:0:
343,348,223898,2,0,L|358:233,1,104.879998719727,8|0,0:0|0:0,0:0:0:0:
489,62,224194,1,8,0:0:0:0:
276,203,224341,2,0,L|261:88,1,104.879998719727,8|0,0:0|0:0,0:0:0:0:
71,20,224637,5,8,0:0:0:0:
89,57,224710,1,8,0:0:0:0:
91,98,224784,1,8,0:0:0:0:
77,138,224858,1,8,0:0:0:0:
49,170,224933,1,10,0:0:0:0:
30,207,225006,1,8,0:0:0:0:
28,248,225080,1,10,0:0:0:0:
42,288,225154,1,8,0:0:0:0:
75,312,225228,6,0,B|159:301|128:253|215:240,1,157.31999807959,4|0,3:2|0:0,0:0:0:0:
278,281,225524,2,0,P|251:238|255:186,1,104.879998719727,6|2,3:2|0:0,0:0:0:0:
424,343,225819,1,0,3:0:0:0:
512,128,225967,1,0,3:0:0:0:
329,218,226115,2,0,L|439:205,1,104.879998719727,8|0,0:0|3:0,0:0:0:0:
295,23,226410,6,0,L|312:143,1,104.879998719727,2|0,0:0|3:0,0:0:0:0:
498,267,226706,2,0,L|515:147,1,104.879998719727,8|0,0:0|0:0,0:0:0:0:
284,287,227002,5,2,3:2:0:0:
343,86,227149,1,0,3:0:0:0:
459,273,227297,2,0,L|337:240,1,104.879998719727,10|0,0:0|0:0,0:0:0:0:
132,179,227593,5,2,3:2:0:0:
342,123,227740,1,0,3:0:0:0:
158,0,227888,2,0,L|170:117,1,104.879998719727,8|0,0:0|0:0,0:0:0:0:
254,304,228184,1,2,3:2:0:0:
326,99,228332,1,0,3:0:0:0:
237,320,228479,2,0,P|195:349|143:352,1,104.879998719727,8|0,0:0|0:0,0:0:0:0:
250,106,228775,5,10,0:0:0:0:
381,360,228923,1,0,3:0:0:0:
381,360,228997,1,0,3:0:0:0:
381,360,229071,1,10,0:0:0:0:
482,81,229218,1,2,3:2:0:0:
233,293,229366,1,8,0:0:0:0:
352,0,229514,1,8,0:0:0:0:
509,279,229662,1,8,0:0:0:0:
249,123,229809,6,0,B|152:134|194:190|86:201,1,172.95999736084,4|0,3:2|0:0,0:0:0:0:
16,70,230253,2,0,P|58:69|94:92,1,86.47999868042,2|0,3:2|0:0,0:0:0:0:
2,241,230548,2,0,L|14:146,1,86.47999868042,10|0,0:0|0:0,0:0:0:0:
155,284,230844,1,2,0:0:0:0:
99,199,230992,1,0,3:0:0:0:
77,384,231139,6,0,L|253:348,1,172.95999736084,2|0,3:2|3:0,0:0:0:0:
356,192,231583,1,0,3:0:0:0:
356,192,231657,1,0,3:0:0:0:
356,192,231731,2,0,P|326:223|315:264,1,86.47999868042,10|0,0:0|0:0,0:0:0:0:
448,384,232026,2,0,P|416:354|375:343,1,86.47999868042,2|2,3:2|0:0,0:0:0:0:
201,192,232322,5,8,0:0:0:0:
433,107,232470,1,0,3:0:0:0:
433,107,232543,1,0,3:0:0:0:
433,107,232617,1,8,0:0:0:0:
241,288,232765,1,0,3:0:0:0:
319,53,232913,1,8,0:3:0:0:
429,263,233061,1,0,3:0:0:0:
512,32,233208,1,4,0:3:0:0:
322,227,233356,1,0,3:0:0:0:
322,227,233430,1,0,3:0:0:0:
322,227,233504,6,0,B|228:218|265:154|166:146,1,172.95999736084,8|8,0:0|0:0,0:0:0:0:
15,244,233947,1,0,3:0:0:0:
184,360,234095,5,12,3:2:0:0:
226,370,234168,1,8,0:0:0:0:
268,362,234242,1,8,0:0:0:0:
303,337,234316,1,8,0:0:0:0:
328,301,234391,1,8,0:0:0:0:
363,276,234465,1,8,0:0:0:0:
405,268,234539,1,8,0:0:0:0:
447,278,234612,1,8,0:0:0:0:
482,309,234686,6,0,P|411:300|400:212,1,143.519999124023,10|0,2:0|0:0,0:0:0:0:
475,230,234982,2,0,B|356:233|431:138|285:153,1,209.759997439453,6|2,3:2|3:2,0:0:0:0:
139,278,235425,1,2,3:2:0:0:
46,119,235573,1,8,0:0:0:0:
223,232,235721,1,0,0:0:0:0:
26,324,235869,5,2,3:2:0:0:
26,324,236016,2,0,P|33:271|39:220,1,95.6799994160156,2|8,3:2|0:0,0:0:0:0:
198,66,236312,2,0,P|154:125|35:110,1,191.359998832031,2|0,0:0|3:0,0:0:0:0:
274,16,236755,2,0,P|288:69|270:120,1,95.6799994160156,8|0,0:0|0:0,0:0:0:0:
115,246,237051,5,2,3:2:0:0:
201,189,237199,2,0,P|250:200|300:208,1,95.6799994160156,2|8,3:2|0:0,0:0:0:0:
453,328,237494,2,0,P|476:288|463:234,1,95.6799994160156,2|0,0:0|3:0,0:0:0:0:
262,281,237790,2,0,P|238:320|251:374,1,95.6799994160156,2|8,3:2|0:0,0:0:0:0:
371,135,238085,1,2,0:0:0:0:
352,282,238233,5,0,3:0:0:0:
354,291,238307,1,0,3:0:0:0:
356,300,238381,1,0,3:0:0:0:
358,309,238455,1,0,3:0:0:0:
360,318,238529,2,0,P|414:347|452:305,1,95.6799994160156,8|0,0:0|0:0,0:0:0:0:
374,119,238824,5,0,3:0:0:0:
376,109,238898,1,0,3:0:0:0:
378,99,238972,1,0,3:0:0:0:
380,89,239046,1,0,3:0:0:0:
382,79,239120,1,8,0:0:0:0:
266,221,239268,5,2,0:0:0:0:
461,160,239415,1,6,3:2:0:0:
311,28,239563,2,0,B|199:-8|236:93|116:46,1,191.359998832031,2|0,3:2|0:0,0:0:0:0:
250,203,240006,2,0,P|281:167|274:104,1,95.6799994160156,2|0,3:2|3:0,0:0:0:0:
35,229,240302,1,10,0:0:0:0:
187,313,240450,1,2,0:0:0:0:
123,67,240598,5,2,3:2:0:0:
50,325,240745,1,0,3:0:0:0:
271,202,240893,1,10,0:0:0:0:
8,107,241041,1,2,0:0:0:0:
271,326,241189,5,2,3:2:0:0:
318,59,241337,1,2,3:2:0:0:
174,327,241484,1,10,0:0:0:0:
91,23,241632,1,2,0:0:0:0:
335,277,241780,5,2,3:2:0:0:
78,157,241928,1,2,3:2:0:0:
343,46,242075,1,10,0:0:0:0:
266,344,242223,6,0,B|244:259|244:259|262:233|262:233|245:162,1,191.359998832031,2|2,0:0|3:2,0:0:0:0:
360,37,242667,2,0,B|383:84|383:84|365:133,1,95.6799994160156,8|2,0:0|0:0,0:0:0:0:
69,208,242962,1,0,3:2:0:0:
71,198,243036,1,0,3:0:0:0:
74,188,243110,1,2,3:2:0:0:
77,178,243184,1,0,3:0:0:0:
80,168,243258,2,0,P|123:144|150:177,1,95.6799994160156,10|2,0:0|0:0,0:0:0:0:
185,358,243553,5,0,3:0:0:0:
175,356,243627,1,0,3:0:0:0:
165,354,243701,1,0,3:0:0:0:
155,352,243775,1,0,3:0:0:0:
145,350,243849,6,0,P|107:343|85:340,1,47.8399997080078,8|8,0:3|0:3,0:0:0:0:
0,289,243997,2,0,P|38:282|60:279,1,47.8399997080078,8|8,0:3|0:3,0:0:0:0:
264,234,244144,6,0,P|204:243|169:172,1,143.519999124023,8|0,0:3|0:0,0:0:0:0:
179,165,244440,1,6,3:2:0:0:
273,354,244588,1,0,0:0:0:0:
339,117,244736,1,2,3:2:0:0:
169,343,244883,1,0,3:0:0:0:
246,76,245031,1,10,0:0:0:0:
368,309,245179,1,0,3:0:0:0:
368,309,245253,1,0,3:0:0:0:
368,309,245327,6,0,P|412:318|471:332,1,95.6799994160156,2|0,3:2|3:0,0:0:0:0:
319,31,245622,1,10,0:0:0:0:
210,253,245770,2,0,P|160:272|109:259,1,95.6799994160156,2|0,0:0|3:0,0:0:0:0:
356,113,246066,2,0,P|402:106|446:124,1,95.6799994160156,2|8,3:2|0:0,0:0:0:0:
169,25,246361,1,0,0:0:0:0:
308,264,246509,6,0,B|299:191|299:191|269:164|269:164|255:72,1,191.359998832031,2|8,3:2|0:0,0:0:0:0:
22,297,246952,2,0,B|71:279|119:303|119:303|141:265|199:248,1,191.359998832031,2|0,0:0|3:0,0:0:0:0:
373,339,247396,2,0,P|322:363|275:350,1,95.6799994160156,10|2,0:0|0:0,0:0:0:0:
389,195,247691,1,2,3:2:0:0:
398,196,247765,1,0,3:0:0:0:
407,198,247839,1,2,3:2:0:0:
416,200,247913,1,0,3:0:0:0:
425,202,247987,2,0,P|460:241|440:275,1,95.6799994160156,10|2,0:0|0:0,0:0:0:0:
269,110,248282,5,0,3:0:0:0:
259,112,248356,1,0,3:0:0:0:
249,114,248430,1,0,3:0:0:0:
239,116,248504,1,0,3:0:0:0:
229,118,248578,2,0,P|167:106|120:96,1,95.6799994160156,10|0,0:0|0:0,0:0:0:0:
9,283,248873,6,0,P|73:267|161:246,1,143.519999124023,6|0,3:2|0:0,0:0:0:0:
223,268,249169,2,0,P|247:313|240:359,1,95.6799994160156,10|0,0:0|0:0,0:0:0:0:
172,175,249465,2,0,P|198:131|242:114,1,95.6799994160156,2|0,3:2|3:2,0:0:0:0:
104,262,249760,2,0,P|53:260|16:231,1,95.6799994160156,10|0,0:0|0:0,0:0:0:0:
154,35,250056,5,0,3:0:0:0:
154,35,250204,1,0,3:0:0:0:
251,197,250351,2,0,P|257:143|261:92,1,95.6799994160156,10|0,0:0|0:0,0:0:0:0:
85,256,250647,2,0,P|70:196|60:153,1,95.6799994160156,2|0,3:2|3:0,0:0:0:0:
252,313,250942,1,10,0:0:0:0:
170,146,251090,1,0,0:0:0:0:
131,361,251238,5,8,0:3:0:0:
240,83,251386,1,0,3:0:0:0:
325,374,251534,5,4,0:3:0:0:
154,55,251681,1,0,3:0:0:0:
37,359,251829,5,8,0:0:0:0:
337,212,251977,1,8,0:0:0:0:
25,83,252125,1,8,0:0:0:0:
9,90,252420,6,0,P|29:51|77:62,1,95.6799994160156,8|0,0:3|3:3,0:0:0:0:
76,149,252642,1,0,3:3:0:0:
76,149,252716,2,0,P|67:186|60:246,1,95.6799994160156,4|0,0:3|3:3,0:0:0:0:
275,118,253011,5,8,0:0:0:0:
115,339,253159,1,8,0:0:0:0:
169,45,253307,1,10,0:0:0:0:
161,38,253603,6,0,L|52:19,1,104.879998719727,10|0,0:0|0:0,0:0:0:0:
174,240,253898,1,10,0:0:0:0:
309,25,254046,2,0,L|290:134,1,104.879998719727,2|8,3:2|0:0,0:0:0:0:
416,288,254341,1,2,3:2:0:0:
195,137,254489,2,0,L|214:246,1,104.879998719727,10|0,0:2|3:0,0:0:0:0:
0,384,254785,5,8,0:0:0:0:
290,249,254933,1,0,3:0:0:0:
33,107,255080,5,8,0:0:0:0:
186,364,255228,1,0,3:0:0:0:
226,56,255376,5,8,0:0:0:0:
91,329,255524,1,0,3:0:0:0:
108,12,255671,5,10,0:0:0:0:
211,280,255819,1,0,3:0:0:0:
338,30,255967,6,0,P|383:4|435:0,1,104.879998719727,10|0,0:0|3:0,0:0:0:0:
317,227,256263,1,10,0:2:0:0:
211,29,256410,2,0,L|90:8,1,104.879998719727,2|8,3:2|0:0,0:0:0:0:
194,239,256706,1,2,3:2:0:0:
338,30,256854,2,0,L|320:133,1,104.879998719727,10|0,0:2|3:0,0:0:0:0:
448,384,257149,5,8,0:0:0:0:
232,131,257297,1,0,3:0:0:0:
512,96,257445,5,8,0:0:0:0:
319,358,257593,1,0,3:0:0:0:
252,45,257740,5,8,0:0:0:0:
512,192,257888,1,2,3:2:0:0:
211,294,258036,5,8,0:0:0:0:
348,40,258184,1,2,3:2:0:0:
427,363,258332,5,4,3:2:0:0:
314,114,258479,1,0,3:0:0:0:
192,384,258627,5,10,0:2:0:0:
476,280,258775,1,2,3:2:0:0:
225,118,258923,5,8,0:0:0:0:
336,384,259071,1,0,3:0:0:0:
385,66,259218,5,10,0:2:0:0:
270,329,259366,1,2,3:2:0:0:
172,43,259514,5,8,0:0:0:0:
422,182,259662,1,0,3:0:0:0:
78,278,259809,5,10,0:2:0:0:
350,141,259957,1,2,3:2:0:0:
37,60,260105,5,8,0:0:0:0:
346,223,260253,1,2,3:2:0:0:
12,183,260401,5,8,0:0:0:0:
317,63,260548,2,0,B|287:304,1,209.759997439453,12|8,3:2|0:3,0:0:0:0:
86,130,260992,5,8,0:3:0:0:
233,361,261139,2,0,P|324:377|386:268,1,209.759997439453,4|8,3:2|0:3,0:0:0:0:
116,220,261583,5,8,0:3:0:0:
370,38,261731,1,4,3:2:0:0:
386,31,262026,5,8,0:3:0:0:
348,151,262174,2,0,B|405:143|405:143|422:123|422:123|485:113,1,129.71999802063,8|0,0:3|0:0,0:0:0:0:
512,64,262470,6,0,L|500:167,1,86.47999868042,4|0,3:3|0:0,0:0:0:0:
369,303,262765,1,8,0:0:0:0:
512,224,262913,1,8,0:0:0:0:
512,224,264095,6,0,B|315:237|386:351|190:363,1,347.760008490235,4|8,3:2|0:3,0:0:0:0:
103,197,265425,6,0,P|186:188|243:249,2,172.95999736084,4|0|8,3:2|3:0|0:0,0:0:0:0:
20,351,266312,1,0,3:0:0:0:
20,351,266460,6,0,B|92:344|92:344|118:318|118:318|192:311,1,172.95999736084,4|8,3:2|0:0,0:0:0:0:
399,161,266903,5,0,3:0:0:0:
272,351,267051,1,0,3:0:0:0:
194,98,267199,1,8,0:0:0:0:
363,327,267346,1,0,3:0:0:0:
317,48,267494,1,8,0:0:0:0:
170,305,267790,5,4,3:2:0:0:
201,276,267863,1,8,0:0:0:0:
219,237,267937,1,8,0:0:0:0:
219,194,268011,1,8,0:0:0:0:
201,155,268085,1,8,0:0:0:0:
169,126,268159,1,8,0:0:0:0:
128,114,268233,1,8,0:0:0:0:
85,119,268307,1,8,0:0:0:0:
54,149,268381,5,8,0:3:0:0:
93,166,268454,1,0,3:0:0:0:
135,162,268528,1,0,3:0:0:0:
170,137,268602,1,0,3:0:0:0:
200,106,268676,5,8,0:0:0:0:
235,82,268750,1,8,0:0:0:0:
278,76,268824,1,8,0:0:0:0:
318,91,268897,1,8,0:0:0:0:
341,136,268972,6,0,P|335:196|322:336,1,184.919991252869,4|0,3:2|0:0,0:0:0:0:
386,384,269268,2,0,P|409:346|400:289,1,104.879998719727,14|0,0:0|0:0,0:0:0:0:
248,178,269563,1,2,3:2:0:0:
468,266,269711,1,0,3:0:0:0:
220,360,269859,1,10,0:0:0:0:
512,185,270006,6,0,B|384:139|424:267|285:196,1,209.759997439453,2|0,3:2|3:0,0:0:0:0:
181,47,270450,2,0,P|226:15|274:24,1,104.879998719727,10|0,0:0|0:0,0:0:0:0:
182,237,270745,1,2,3:2:0:0:
350,136,270893,1,0,3:0:0:0:
87,24,271041,2,0,P|100:78|111:134,1,104.879998719727,10|0,0:0|0:0,0:0:0:0:
285,348,271337,6,0,B|298:258|298:258|324:233|324:233|339:133,1,209.759997439453,2|8,3:2|0:0,0:0:0:0:
449,313,271780,1,0,0:0:0:0:
368,76,271928,2,0,P|317:65|274:95,1,104.879998719727,2|0,3:2|3:0,0:0:0:0:
205,318,272223,1,10,0:0:0:0:
457,221,272371,2,0,P|389:208|242:182,1,209.759997439453,0|0,3:2|3:0,0:0:0:0:
44,303,272814,6,0,P|56:243|66:194,1,104.879998719727,8|0,0:0|0:0,0:0:0:0:
201,63,273110,1,0,3:0:0:0:
2,131,273258,1,2,3:2:0:0:
2,131,273332,1,0,3:0:0:0:
2,131,273405,1,10,0:0:0:0:
249,256,273553,1,2,0:0:0:0:
125,0,273701,6,0,B|81:59|81:59|134:146,1,157.31999807959,4|0,3:2|0:0,0:0:0:0:
107,161,273997,2,0,P|164:146|225:137,1,104.879998719727,10|0,0:0|0:0,0:0:0:0:
412,81,274292,1,2,3:2:0:0:
239,245,274440,1,0,3:0:0:0:
329,23,274588,1,10,0:0:0:0:
451,258,274736,6,0,P|462:196|472:139,1,104.879998719727,2|0,3:2|3:0,0:0:0:0:
230,261,275031,1,2,3:2:0:0:
442,361,275179,1,10,0:0:0:0:
265,176,275327,2,0,P|206:163|135:279,1,209.759997439453,2|0,3:2|3:0,0:0:0:0:
334,375,275770,2,0,P|389:361|450:347,1,104.879998719727,10|0,0:0|0:0,0:0:0:0:
297,87,276066,5,2,3:2:0:0:
242,273,276213,1,0,3:0:0:0:
485,174,276361,2,0,P|430:160|369:146,1,104.879998719727,8|0,0:0|0:0,0:0:0:0:
208,53,276657,5,2,3:2:0:0:
327,267,276804,1,0,3:0:0:0:
383,4,276952,1,10,0:0:0:0:
171,201,277100,6,0,P|106:189|50:177,1,104.879998719727,6|0,3:2|0:0,0:0:0:0:
272,1,277396,1,2,3:2:0:0:
324,285,277543,2,0,P|389:273|445:261,1,104.879998719727,10|0,0:0|0:0,0:0:0:0:
147,106,277839,5,0,3:0:0:0:
338,198,277987,1,0,3:0:0:0:
131,286,278135,1,8,0:0:0:0:
278,75,278282,6,0,B|309:1|421:-23|526:-9|588:104|535:186|440:203|380:159|382:112,1,471.04,12|0,3:2|0:0,0:0:0:0:
231,243,279624,1,8,0:3:0:0:
231,243,279771,2,0,P|224:206|219:177,1,58.88,8|0,0:3|0:0,0:0:0:0:
370,334,280067,1,8,0:3:0:0:
321,197,280215,1,8,0:3:0:0:
265,354,280362,1,4,0:3:0:0:
398,250,280510,2,0,P|442:261|488:273,1,86.47999868042,4|0,0:3|0:0,0:0:0:0:
239,112,280806,6,0,B|226:177|329:228|397:192|414:89|319:90,1,283.359994379151,14|0,3:2|3:0,0:0:0:0:
129,218,281249,2,0,B|85:216|48:245|48:245|-50:156|37:57,1,283.359994379151,10|0,0:0|3:0,0:0:0:0:
121,114,281619,1,0,3:0:0:0:
135,128,281692,2,0,B|207:168|275:101|246:90|324:10|423:78,1,301.760004604492,10|0,0:0|3:0,0:0:0:0:
288,298,282136,6,0,B|285:373|378:391|416:304|432:266|328:142,1,320.16000268689,10|2,0:0|3:2,0:0:0:0:
237,96,282505,1,0,3:0:0:0:
223,91,282579,2,0,B|270:17|270:17|362:55,1,169.279994317383,10|0,0:0|3:0,0:0:0:0:
451,134,282801,1,0,3:0:0:0:
465,139,282875,2,0,B|418:213|418:213|326:175,1,169.279994317383,10|2,0:0|0:0,0:0:0:0:
74,344,283162,6,0,B|128:379|188:336|188:336|137:284|140:218,1,246.559988337159,4|0,3:2|3:2,0:0:0:0:
208,96,283605,1,0,3:2:0:0:
31,196,283753,2,0,P|0:149|106:133,1,209.759997439453,8|0,0:0|0:0,0:0:0:0:
235,236,284196,1,0,3:2:0:0:
235,236,284344,2,0,B|339:205|291:295|420:262,1,172.95999736084,0|0,3:2|0:0,0:0:0:0:
399,83,284787,5,0,3:2:0:0:
391,86,284861,1,0,3:2:0:0:
383,91,284935,2,0,P|371:150|362:195,1,86.47999868042,10|0,0:0|0:0,0:0:0:0:
502,310,285230,2,0,P|493:267|484:225,1,86.47999868042,2|2,3:2|0:0,0:0:0:0:
237,344,285526,6,0,B|105:335|200:263|23:259,1,198.720004851563,12|0,0:0|0:0,0:0:0:0:
45,270,285822,1,8,0:3:0:0:
245,133,285969,2,0,P|236:188|227:243,1,95.6799994160156,8|0,0:3|0:0,0:0:0:0:
70,107,286265,1,4,0:3:0:0:
70,107,286413,2,0,P|61:52|52:-3,1,77.2799976416016,4|0,0:3|0:0,0:0:0:0:
322,59,286708,6,0,P|240:43|192:33,1,104.879998719727,12|0,3:2|3:0,0:0:0:0:
137,150,286930,1,0,3:0:0:0:
132,163,287004,2,0,P|214:147|262:137,1,104.879998719727,12|0,0:0|3:0,0:0:0:0:
391,237,287226,1,0,3:0:0:0:
396,250,287299,2,0,P|314:234|266:224,1,104.879998719727,8|0,0:0|3:0,0:0:0:0:
109,334,287521,1,0,3:0:0:0:
104,347,287595,2,0,P|186:331|236:322,1,104.879998719727,8|0,0:0|0:0,0:0:0:0:
494,215,287883,6,0,P|471:170|343:165,1,172.95999736084,4|0,3:2|3:0,0:0:0:0:
276,237,288326,1,0,3:0:0:0:
276,237,288474,2,0,P|290:288|300:337,1,86.47999868042,8|0,0:0|0:0,0:0:0:0:
444,375,288769,2,0,P|453:332|465:291,1,86.47999868042,0|0,3:0|3:0,0:0:0:0:
298,337,289065,1,0,3:0:0:0:
426,206,289213,2,0,P|473:193|510:216,2,86.47999868042,8|0|0,0:0|0:0|3:0,0:0:0:0:
234,119,289656,6,0,P|212:81|217:35,1,86.47999868042,8|0,0:0|3:0,0:0:0:0:
369,8,289951,2,0,P|391:46|386:92,1,86.47999868042,0|0,3:0|3:0,0:0:0:0:
257,242,290247,5,8,0:0:0:0:
306,62,290395,1,0,3:0:0:0:
306,62,290469,1,0,3:0:0:0:
306,62,290543,1,8,0:3:0:0:
398,275,290690,1,0,3:0:0:0:
185,154,290838,1,4,0:3:0:0:
412,82,290986,1,0,3:0:0:0:
249,255,291134,2,0,P|259:308|269:355,1,86.47999868042,8|0,0:0|0:0,0:0:0:0:
96,102,291429,5,4,3:2:0:0:
289,177,291577,1,8,0:0:0:0:
321,148,291650,1,8,0:0:0:0:
334,108,291724,1,8,0:0:0:0:
324,66,291798,1,8,0:0:0:0:
294,36,291872,1,8,0:0:0:0:
252,26,291946,1,8,0:0:0:0:
211,39,292020,2,0,P|202:77|196:102,1,43.23999934021,4|0,0:0|0:0,0:0:0:0:
30,221,292168,5,8,0:0:0:0:
66,197,292241,1,8,0:0:0:0:
108,191,292315,1,8,0:0:0:0:
150,201,292389,1,8,0:0:0:0:
183,228,292463,1,8,0:0:0:0:
204,266,292537,1,8,0:0:0:0:
207,308,292612,6,0,P|235:363|318:348,1,129.71999802063,4|0,3:2|0:0,0:0:0:0:
442,309,292907,2,0,P|383:277|298:373,1,209.759997439453,12|0,3:2|3:0,0:0:0:0:
178,214,293350,1,0,3:0:0:0:
103,368,293498,2,0,P|92:317|77:270,1,95.6799994160156,8|0,0:0|0:0,0:0:0:0:
134,111,293794,5,2,3:2:0:0:
220,283,293942,1,0,3:0:0:0:
37,199,294089,1,8,0:0:0:0:
208,80,294237,2,0,B|316:58|275:162|392:128,1,191.359998832031,2|0,3:2|3:0,0:0:0:0:
444,6,294681,2,0,P|399:10|364:50,1,95.6799994160156,8|0,0:0|0:0,0:0:0:0:
477,327,294976,6,0,B|521:269|521:269|476:187,1,143.519999124023,2|0,3:2|0:0,0:0:0:0:
469,196,295272,2,0,P|411:204|360:212,1,95.6799994160156,8|0,0:0|0:0,0:0:0:0:
184,291,295567,1,2,3:2:0:0:
262,142,295715,1,2,3:2:0:0:
378,337,295863,2,0,P|320:329|269:321,1,95.6799994160156,8|0,0:0|0:0,0:0:0:0:
89,141,296158,5,0,3:0:0:0:
87,131,296232,1,0,3:0:0:0:
85,121,296306,1,0,3:0:0:0:
83,111,296380,1,0,3:0:0:0:
81,101,296454,2,0,P|100:72|156:95,1,95.6799994160156,8|0,0:0|0:0,0:0:0:0:
115,269,296749,5,0,3:0:0:0:
113,278,296823,1,0,3:0:0:0:
111,287,296897,1,0,3:0:0:0:
109,296,296971,1,0,3:0:0:0:
108,305,297045,2,0,P|102:346|99:366,1,47.8399997080078,8|8,0:0|0:0,0:0:0:0:
213,301,297193,2,0,P|207:260|204:240,1,47.8399997080078,8|8,0:0|0:0,0:0:0:0:
0,230,297341,6,0,P|64:215|182:189,1,157.31999807959,6|0,3:2|0:0,0:0:0:0:
170,183,297636,2,0,P|200:136|185:89,1,95.6799994160156,8|0,0:0|0:0,0:0:0:0:
1,20,297932,1,0,3:0:0:0:
52,137,298080,1,0,3:0:0:0:
138,26,298227,2,0,P|191:16|240:8,1,95.6799994160156,8|0,0:0|0:0,0:0:0:0:
449,147,298523,6,0,P|409:198|330:183,1,143.519999124023,2|0,3:2|0:0,0:0:0:0:
321,170,298818,1,8,0:0:0:0:
476,286,298966,1,0,3:0:0:0:
274,320,299114,2,0,P|263:267|251:222,1,95.6799994160156,2|0,0:0|3:0,0:0:0:0:
435,141,299410,2,0,P|422:187|413:234,1,95.6799994160156,8|0,0:0|0:0,0:0:0:0:
150,159,299705,6,0,P|179:111|273:113,1,143.519999124023,2|0,3:2|0:0,0:0:0:0:
318,157,300001,2,0,P|276:185|218:175,1,95.6799994160156,10|0,0:0|0:0,0:0:0:0:
61,179,300296,2,0,P|57:128|95:83,1,95.6799994160156,2|0,3:2|3:0,0:0:0:0:
138,283,300592,2,0,P|96:310|38:301,1,95.6799994160156,10|0,0:0|0:0,0:0:0:0:
190,53,300887,5,0,3:0:0:0:
189,62,300961,1,0,3:0:0:0:
188,71,301035,1,0,3:0:0:0:
187,80,301109,1,0,3:0:0:0:
186,89,301183,2,0,P|228:122|261:102,1,95.6799994160156,8|0,0:0|0:0,0:0:0:0:
341,250,301479,5,0,3:0:0:0:
339,260,301552,1,0,3:0:0:0:
337,270,301626,1,0,3:0:0:0:
335,280,301700,1,0,3:0:0:0:
333,290,301774,2,0,P|285:300|229:308,1,95.6799994160156,8|0,0:0|0:0,0:0:0:0:
418,116,302070,6,0,P|379:76|255:110,1,191.359998832031,6|8,3:2|0:0,0:0:0:0:
460,198,302513,2,0,P|500:168|511:118,1,95.6799994160156,2|0,0:0|3:0,0:0:0:0:
336,164,302809,1,2,3:2:0:0:
418,282,302956,2,0,P|463:300|513:284,1,95.6799994160156,10|0,0:0|0:0,0:0:0:0:
236,220,303252,6,0,P|248:273|260:334,1,95.6799994160156,0|0,3:0|3:0,0:0:0:0:
355,176,303548,2,0,P|364:129|375:82,1,95.6799994160156,10|0,0:0|3:0,0:0:0:0:
129,178,303843,2,0,P|186:194|236:208,1,95.6799994160156,2|0,0:0|3:0,0:0:0:0:
321,18,304139,2,0,P|274:30|228:43,1,95.6799994160156,10|0,0:0|0:0,0:0:0:0:
480,204,304434,6,0,B|357:153|404:264|278:211,1,191.359998832031,2|8,3:2|0:0,0:0:0:0:
209,119,304878,1,0,0:0:0:0:
359,301,305025,1,2,3:2:0:0:
403,80,305173,1,2,3:2:0:0:
284,256,305321,2,0,P|246:279|191:267,1,95.6799994160156,8|0,0:0|0:0,0:0:0:0:
100,54,305616,5,0,3:0:0:0:
288,163,305764,1,0,3:0:0:0:
93,266,305912,1,8,0:0:0:0:
184,19,306060,2,0,P|194:86|201:133,1,95.6799994160156,2|0,3:2|0:0,0:0:0:0:
11,233,306355,1,0,3:0:0:0:
11,233,306429,1,0,3:0:0:0:
11,233,306503,2,0,P|21:166|28:119,1,95.6799994160156,8|0,0:0|0:0,0:0:0:0:
207,316,306799,6,0,P|200:236|188:116,2,191.359998832031,6|10|2,3:2|0:0|3:2,0:0:0:0:
291,204,307538,1,2,3:2:0:0:
133,338,307685,2,0,P|87:354|35:328,1,95.6799994160156,8|0,0:0|0:0,0:0:0:0:
194,175,307981,1,2,3:2:0:0:
282,343,308129,1,0,3:0:0:0:
93,266,308277,1,8,0:0:0:0:
291,162,308424,2,0,P|281:222|274:265,1,95.6799994160156,0|2,3:0|0:0,0:0:0:0:
186,69,308720,1,0,3:0:0:0:
74,264,308868,2,0,P|66:217|59:170,1,95.6799994160156,8|0,0:0|0:0,0:0:0:0:
283,60,309163,6,0,P|338:56|388:189,2,191.359998832031,6|8|0,3:2|0:0|3:0,0:0:0:0:
200,153,309902,1,0,3:0:0:0:
115,16,310050,1,10,0:0:0:0:
308,153,310198,5,0,3:0:0:0:
308,153,310272,1,0,3:0:0:0:
308,153,310346,1,8,0:3:0:0:
92,231,310493,2,0,P|66:237|34:245,2,47.8399997080078,0|0|4,3:0|3:0|0:3,0:0:0:0:
193,55,310789,1,0,3:0:0:0:
238,325,310937,2,0,P|229:272|221:223,1,95.6799994160156,8|0,0:0|0:0,0:0:0:0:
28,23,311232,5,8,0:0:0:0:
7,65,311305,1,8,0:0:0:0:
16,111,311379,1,8,0:0:0:0:
52,142,311453,1,8,0:0:0:0:
98,146,311528,6,0,B|179:133|179:133|204:106|204:106|287:92,1,191.359998832031,6|12,3:2|0:0,0:0:0:0:
480,0,311971,1,2,0:0:0:0:
372,172,312119,1,0,3:0:0:0:
315,0,312267,1,0,3:0:0:0:
482,122,312415,2,0,L|471:224,1,95.6799994160156,10|0,0:0|0:0,0:0:0:0:
334,364,312710,5,0,3:0:0:0:
364,146,312858,1,0,3:0:0:0:
496,311,313006,2,0,L|391:295,1,95.6799994160156,10|0,0:0|3:0,0:0:0:0:
269,160,313301,2,0,L|374:144,1,95.6799994160156,2|0,0:0|3:0,0:0:0:0:
260,319,313597,1,10,0:0:0:0:
179,135,313745,1,0,0:0:0:0:
53,326,313892,6,0,B|162:318|122:248|247:239,1,191.359998832031,2|10,3:2|0:0,0:0:0:0:
390,137,314336,1,0,0:0:0:0:
220,57,314483,1,2,3:2:0:0:
311,229,314631,1,0,3:0:0:0:
382,31,314779,2,0,P|422:5|469:0,1,95.6799994160156,10|0,0:0|0:0,0:0:0:0:
397,223,315075,5,0,3:0:0:0:
299,32,315222,1,0,3:0:0:0:
175,219,315370,2,0,L|69:197,1,95.6799994160156,10|0,0:0|0:0,0:0:0:0:
220,57,315666,2,0,L|253:159,1,95.6799994160156,2|0,3:2|3:0,0:0:0:0:
57,106,315961,2,0,L|129:25,1,95.6799994160156,8|0,0:0|0:0,0:0:0:0:
262,236,316257,6,0,P|201:304|112:283,1,191.359998832031,6|10,3:2|0:0,0:0:0:0:
288,384,316700,1,0,0:0:0:0:
175,219,316848,1,2,3:2:0:0:
96,384,316996,1,0,3:0:0:0:
338,269,317144,2,0,P|344:222|324:179,1,95.6799994160156,10|0,0:0|0:0,0:0:0:0:
184,70,317439,5,0,3:0:0:0:
252,275,317587,1,0,3:0:0:0:
366,84,317735,2,0,L|264:99,1,95.6799994160156,10|0,0:0|3:0,0:0:0:0:
157,261,318030,2,0,L|259:276,1,95.6799994160156,2|0,0:0|3:0,0:0:0:0:
448,224,318326,1,8,0:0:0:0:
263,133,318474,1,0,0:0:0:0:
352,352,318621,6,0,L|376:157,1,191.359998832031,2|8,3:2|0:0,0:0:0:0:
238,1,319065,1,2,0:0:0:0:
294,208,319213,1,0,3:0:0:0:
417,29,319360,1,0,3:0:0:0:
417,29,319434,1,0,3:0:0:0:
417,29,319508,2,0,P|457:4|504:0,1,95.6799994160156,10|0,0:0|0:0,0:0:0:0:
353,222,319804,5,0,3:0:0:0:
338,219,319878,1,0,3:0:0:0:
324,215,319952,1,0,3:0:0:0:
309,211,320025,1,0,3:0:0:0:
294,208,320099,2,0,L|282:105,1,95.6799994160156,10|0,0:0|0:0,0:0:0:0:
105,5,320395,5,2,3:2:0:0:
90,3,320469,1,0,3:0:0:0:
75,5,320543,1,0,3:0:0:0:
63,12,320616,1,0,3:0:0:0:
53,22,320690,2,0,L|73:165,1,143.519999124023,10|0,0:0|0:0,0:0:0:0:
125,261,320986,6,0,B|240:269|195:339|320:347,1,191.359998832031,6|14,3:2|0:0,0:0:0:0:
462,216,321429,1,0,0:0:0:0:
359,384,321577,1,2,3:2:0:0:
285,186,321725,1,0,3:0:0:0:
418,313,321873,2,0,L|526:298,1,95.6799994160156,10|0,0:0|0:0,0:0:0:0:
389,122,322168,5,0,3:0:0:0:
299,312,322316,1,0,3:0:0:0:
226,102,322464,2,0,P|184:78|137:76,1,95.6799994160156,10|0,0:0|3:0,0:0:0:0:
233,261,322759,1,2,0:0:0:0:
331,67,322907,1,0,3:0:0:0:
331,67,322981,1,0,3:0:0:0:
331,67,323055,2,0,B|362:104|362:104|307:211,1,143.519999124023,10|0,0:0|0:0,0:0:0:0:
233,261,323350,6,0,B|157:240|157:240|133:212|133:212|55:192,1,191.359998832031,6|10,3:2|0:0,0:0:0:0:
202,15,323794,1,0,0:0:0:0:
270,189,323942,1,2,3:2:0:0:
128,95,324089,1,0,3:0:0:0:
319,11,324237,2,0,L|305:111,1,95.6799994160156,10|0,0:0|0:0,0:0:0:0:
398,306,324533,5,0,3:0:0:0:
413,308,324607,1,0,3:0:0:0:
428,306,324681,1,0,3:0:0:0:
440,299,324754,1,0,3:0:0:0:
448,287,324828,2,0,L|438:184,1,95.6799994160156,10|0,0:0|0:0,0:0:0:0:
319,11,325124,5,2,3:2:0:0:
304,14,325198,1,0,3:0:0:0:
290,18,325272,1,0,3:0:0:0:
275,22,325345,1,0,3:0:0:0:
260,25,325419,2,0,B|186:33|221:81|127:90,1,143.519999124023,10|0,0:0|0:0,0:0:0:0:
36,18,325715,6,0,L|56:211,1,191.359998832031,6|10,3:2|0:0,0:0:0:0:
204,372,326158,1,0,0:0:0:0:
164,180,326306,1,2,3:2:0:0:
71,346,326454,1,0,3:0:0:0:
253,226,326602,2,0,L|240:114,1,95.6799994160156,10|0,0:0|0:0,0:0:0:0:
90,245,326897,6,0,P|130:270|177:272,1,95.6799994160156,2|0,3:2|0:0,0:0:0:0:
266,49,327193,2,0,P|218:50|178:76,1,95.6799994160156,8|0,0:0|0:0,0:0:0:0:
335,291,327488,1,0,3:0:0:0:
438,49,327636,1,0,3:0:0:0:
458,307,327784,1,8,0:0:0:0:
355,75,327932,1,0,3:0:0:0:
214,281,328080,6,0,L|119:266,1,95.6799994160156,12|0,3:2|0:0,0:0:0:0:
287,131,328375,1,8,0:0:0:0:
340,330,328523,2,0,L|435:315,1,95.6799994160156,8|0,0:3|0:0,0:0:0:0:
367,155,328818,1,4,0:3:0:0:
250,365,328966,2,0,P|159:361|121:278,1,191.359998832031,8|0,0:0|3:0,0:0:0:0:
380,233,329410,5,8,0:0:0:0:
184,159,329557,1,8,0:0:0:0:
423,80,329705,1,8,0:0:0:0:
188,240,329853,1,8,0:0:0:0:
483,306,330001,1,8,0:0:0:0:
315,135,330482,5,4,3:2:0:0:
256,192,330555,12,0,339940,0:0:0:0:
