osu file format v14

[General]
AudioFilename: audio.mp3
AudioLeadIn: 0
PreviewTime: 106407
Countdown: 0
SampleSet: Soft
StackLeniency: 0.7
Mode: 0
LetterboxInBreaks: 0
WidescreenStoryboard: 0

[Editor]
Bookmarks: 106407,127687
DistanceSpacing: 0.5
BeatDivisor: 4
GridSize: 4
TimelineZoom: 2.500001

[Metadata]
Title:Gareki no Shuuon
TitleUnicode:瓦礫の終音
Artist:shoujo byou
ArtistUnicode:少女病
Creator:Kibbleru
Version:Flore Albo
Source:
Tags:mitsuki the final tone of rubble Souhaku Sisferia 蒼白シスフェリア ピクセルビー 岸田 岸田教団 光収容 そうる透・村石雅行 yoshimaro -_yoshimaro_- yoshi
BeatmapID:1303380
BeatmapSetID:618290

[Difficulty]
HPDrainRate:7
CircleSize:4
OverallDifficulty:9
ApproachRate:9.5
SliderMultiplier:1.74
SliderTickRate:1

[Events]
//Background and Video events
0,0,"libris gladio.png",0,0
//Break Periods
//Storyboard Layer 0 (Background)
//Storyboard Layer 1 (Fail)
//Storyboard Layer 2 (Pass)
//Storyboard Layer 3 (Foreground)
//Storyboard Sound Samples

[TimingPoints]
947,857.142857142857,4,2,1,20,1,0
26661,960,4,2,1,20,1,0
27621,-28.5714285714286,4,2,1,5,0,0
27741,-50,4,2,1,7,0,0
27861,-50,4,2,1,9,0,0
27981,-50,4,2,1,11,0,0
28101,-50,4,2,1,13,0,0
28221,-50,4,2,1,15,0,0
28341,-50,4,2,1,17,0,0
28461,-50,4,2,1,19,0,0
28581,-50,4,2,1,21,0,0
28701,-50,4,2,1,23,0,0
28821,-50,4,2,1,25,0,0
28941,-50,4,2,1,27,0,0
29061,-50,4,2,1,29,0,0
29181,-50,4,2,1,31,0,0
29301,-50,4,2,1,33,0,0
29421,-50,4,2,1,35,0,0
29541,591.133004926108,4,2,1,50,1,0
29541,-200,4,2,1,50,0,0
36043,-142.857142857143,4,2,1,50,0,0
36634,-125,4,2,1,50,0,0
37225,-100,4,2,1,50,0,0
42545,-76.9230769230769,4,2,1,50,0,0
43728,-200,4,2,1,50,0,0
46388,-100,4,2,1,50,0,0
46683,-86.9565217391304,4,2,1,50,0,0
46979,-76.9230769230769,4,2,1,54,0,0
47274,-68.9655172413793,4,2,1,58,0,0
47570,-62.5,4,2,1,62,0,0
47866,-57.1428571428571,4,2,1,66,0,0
48161,-52.6315789473684,4,2,1,70,0,0
48458,295.566502463054,4,2,1,80,1,0
48458,-142.857142857143,4,2,1,80,0,0
49049,-100,4,2,1,80,0,0
49344,-83.3333333333333,4,2,1,80,0,0
49640,-100,4,2,1,80,0,0
57916,-83.3333333333333,4,2,1,80,0,0
58802,-100,4,2,1,80,0,0
65600,-83.3333333333333,4,2,1,80,0,0
67078,-125,4,2,1,80,0,0
67669,-83.3333333333333,4,2,1,80,0,0
67965,-71.4285714285714,4,2,1,80,0,0
68556,-125,4,2,2,60,0,0
78014,-125,4,2,2,60,0,0
78310,-125,4,2,2,60,0,0
85108,-125,4,2,2,80,0,0
86142,-100,4,2,1,80,0,0
86881,-100,4,2,2,80,0,0
87029,-100,4,2,1,70,0,0
87177,-100,4,2,2,80,0,0
87324,-100,4,2,1,70,0,0
87472,-100,4,2,1,80,0,0
87694,-100,4,2,1,5,0,0
87768,-100,4,2,1,80,0,0
95748,-100,4,2,1,60,0,0
96044,-100,4,2,1,65,0,0
96339,-100,4,2,1,70,0,0
96635,-100,4,2,1,75,0,0
96930,-100,4,2,1,80,0,0
100625,-100,4,2,1,62,0,0
100773,-100,4,2,1,66,0,0
100921,-100,4,2,1,70,0,0
101068,-100,4,2,1,74,0,0
101216,-100,4,2,1,78,0,0
101364,-100,4,2,1,82,0,0
101512,-100,4,2,1,86,0,0
101659,-125,4,2,1,80,0,0
105354,-83.3333333333333,4,2,1,60,0,0
105650,-83.3333333333333,4,2,1,70,0,0
105945,-83.3333333333333,4,2,1,80,0,0
106389,-90.9090909090909,4,2,1,80,0,1
109935,-83.3333333333333,4,2,1,80,0,1
111118,-90.9090909090909,4,2,1,80,0,1
119393,-90.9090909090909,4,2,1,62,0,1
119541,-90.9090909090909,4,2,1,66,0,1
119689,-90.9090909090909,4,2,1,70,0,1
119836,-90.9090909090909,4,2,1,74,0,1
119837,-90.9090909090909,4,2,1,74,0,1
119984,-90.9090909090909,4,2,1,78,0,1
119985,-90.9090909090909,4,2,1,78,0,1
120132,-90.9090909090909,4,2,1,82,0,1
120280,-90.9090909090909,4,2,1,86,0,1
120428,-100,4,2,1,80,0,0
120871,-125,4,2,1,80,0,0
122940,-125,4,2,1,80,0,1
125009,-83.3333333333333,4,2,1,80,0,1
125453,-100,4,2,1,80,0,1
126339,-90.9090909090909,4,2,1,80,0,1
127078,-166.666666666666,4,2,1,80,0,0
127669,-111.111111111111,4,2,1,60,0,0
135797,-100,4,2,1,70,0,0
137127,-111.111111111111,4,2,1,70,0,0
143630,-83.3333333333333,4,2,1,80,0,0
145551,-100,4,2,1,80,0,0
146290,-83.3333333333333,4,2,1,80,0,0
146586,-100,4,2,1,80,0,0
160477,-83.3333333333333,4,2,1,80,0,0
160773,-100,4,2,1,80,0,0
165502,-111.111111111111,4,2,1,80,0,0
165650,-111.111111111111,4,2,1,60,0,0
171709,-142.857142857143,4,2,1,50,0,0
172004,-117.647058823529,4,2,1,55,0,0
172300,-100,4,2,1,60,0,0
172595,-111.111111111111,4,2,1,80,0,0
172891,-111.111111111111,4,2,1,60,0,0
173187,-111.111111111111,4,2,1,45,0,0
174073,-111.111111111111,4,2,1,50,0,0
174369,-83.3333333333333,4,2,1,80,0,0
174960,-111.111111111111,4,2,1,60,0,0
176438,-111.111111111111,4,2,1,50,0,0
177177,-142.857142857143,4,2,1,50,0,0
177916,295.566502463054,4,2,1,50,1,0
177916,-142.857142857143,4,2,1,50,0,0
186339,-100,4,2,1,80,0,0
187374,-125,4,2,2,60,0,0
194467,-100,4,2,1,80,0,0
195502,-83.3333333333333,4,2,1,80,0,0
196832,-100,4,2,1,80,0,0
210428,-166.666666666667,4,2,1,80,0,0
211167,-166.666666666667,4,2,1,50,0,0
211315,-166.666666666667,4,2,1,52,0,0
211462,-166.666666666667,4,2,1,54,0,0
211610,-166.666666666667,4,2,1,56,0,0
211758,-166.666666666667,4,2,1,58,0,0
211906,-166.666666666667,4,2,1,60,0,0
212053,-166.666666666667,4,2,1,62,0,0
212201,-166.666666666667,4,2,1,64,0,0
212349,-166.666666666667,4,2,1,66,0,0
212497,-166.666666666667,4,2,1,68,0,0
212645,-166.666666666667,4,2,1,70,0,0
212792,-166.666666666667,4,2,1,72,0,0
212940,-166.666666666667,4,2,1,74,0,0
213088,-166.666666666667,4,2,1,76,0,0
213236,-166.666666666667,4,2,1,78,0,0
213383,-166.666666666667,4,2,1,80,0,0
214418,-100,4,2,1,80,0,0
215452,-83.3333333333333,4,2,1,80,0,0
215748,-90.9090909090909,4,2,1,80,0,1
219443,-71.4285714285714,4,2,1,80,0,1
219590,-90.9090909090909,4,2,1,80,0,1
224615,-83.3333333333333,4,2,1,80,0,1
225206,-90.9090909090909,4,2,1,80,0,1
228753,-83.3333333333333,4,2,1,80,0,1
229344,-71.4285714285714,4,2,1,80,0,1
229787,-100,4,2,1,80,0,0
230231,-125,4,2,1,80,0,0
232300,-125,4,2,1,80,0,1
233186,-83.3333333333333,4,2,1,80,0,1
234369,-71.4285714285714,4,2,1,80,0,1
234664,-90.9090909090909,4,2,1,80,0,0
244122,-83.3333333333333,4,2,1,80,0,0
251216,-111.111111111111,4,2,1,80,0,0
251807,-83.3333333333333,4,2,1,80,0,0
253581,-100,4,2,1,80,0,0
263186,-125,4,2,1,60,0,0
264073,-250,4,2,1,80,0,0
265034,-250,4,2,1,5,0,0
265108,-142.857142857143,4,2,1,80,0,0
265403,-100,4,2,1,80,0,0
265699,-125,4,2,1,80,0,0
265994,-100,4,2,1,80,0,0
268950,-90.9090909090909,4,2,1,80,0,1
278113,-71.4285714285714,4,2,1,80,0,1
278260,-71.4285714285714,4,2,1,80,0,0
279602,295.566502463054,4,2,1,80,1,0
280488,-125,4,2,1,80,0,0
280784,-100,4,2,1,80,0,1
282409,-83.3333333333333,4,2,1,80,0,1
283140,295.566502463054,4,2,1,80,1,0
283140,-125,4,2,1,80,0,0
286686,-125,4,2,1,80,0,1
287861,295.566502463054,4,2,1,80,1,0
287861,-111.111111111111,4,2,1,80,0,0
290225,-111.111111111111,4,2,1,80,0,1
291407,-83.3333333333333,4,2,1,80,0,1
292590,-111.111111111111,4,2,1,70,0,0
296136,-90.9090909090909,4,2,1,70,0,0
296432,-111.111111111111,4,2,1,70,0,0
296727,-90.9090909090909,4,2,1,70,0,0
297023,-111.111111111111,4,2,1,70,0,0
300865,-90.9090909090909,4,2,1,70,0,0
301161,-111.111111111111,4,2,1,70,0,0
301457,-90.9090909090909,4,2,1,70,0,0
301752,-111.111111111111,4,2,1,70,0,0
310324,-83.3333333333333,4,2,1,80,0,0
311506,-100,4,2,1,80,0,0
327466,-83.3333333333333,4,2,1,80,0,0
329240,-125,4,2,1,80,0,0
329388,-125,4,2,1,50,0,0
329683,-125,4,2,1,60,0,0
329831,-125,4,2,1,70,0,0
329979,-125,4,2,1,80,0,0
330460,295.566502463054,4,2,1,80,1,0
330460,-225,4,2,1,80,0,0
330533,-225,4,2,1,20,0,0
332824,-225,4,2,1,15,0,0
335189,-225,4,2,1,10,0,0
337553,-225,4,2,1,5,0,0

[Colours]
Combo1 : 202,81,84
Combo2 : 193,16,203
Combo3 : 92,92,239
Combo4 : 124,109,156

[HitObjects]
268,129,947,6,0,L|158:120,1,87,0|2,0:1|0:0,0:0:0:0:
94,87,1804,2,0,P|93:129|84:181,1,87,2|2,0:0|0:0,0:0:0:0:
41,237,2447,2,0,P|87:209|187:230,1,130.5,2|0,0:0|0:0,0:0:0:0:
259,196,3518,2,0,P|245:233|242:283,1,87,2|2,0:0|0:0,0:0:0:0:
503,237,4375,6,0,B|423:210|425:278|333:249,1,174,2|2,0:0|0:0,0:0:0:0:
280,178,5661,1,2,0:0:0:0:
195,242,6089,2,0,P|192:159|126:99,1,174,2|0,0:0|0:0,0:0:0:0:
1,55,7375,1,2,0:0:0:0:
49,131,7589,1,0,0:0:0:0:
11,212,7804,6,0,P|17:254|19:305,1,87,2|2,0:0|0:0,0:0:0:0:
230,266,8661,2,0,P|231:222|238:179,1,87,2|0,0:0|0:0,0:0:0:0:
112,121,9304,2,0,L|116:254,1,130.5,2|0,0:0|0:0,0:0:0:0:
119,338,10161,1,2,0:0:0:0:
119,338,10804,1,2,0:0:0:0:
201,287,11232,6,0,P|263:232|354:248,1,174,2|2,0:0|0:0,0:0:0:0:
399,318,12518,1,2,0:0:0:0:
492,157,12946,2,0,P|450:164|398:158,1,87,2|2,0:0|0:0,0:0:0:0:
341,100,13589,1,2,0:0:0:0:
341,100,14232,1,2,0:0:0:0:
270,240,14661,6,0,L|261:137,1,87,2|2,0:0|0:0,0:0:0:0:
188,100,15304,1,0,0:0:0:0:
9,166,15518,2,0,B|100:144|89:214|176:196,1,174,2|2,0:0|0:0,0:0:0:0:
239,133,16804,1,2,0:0:0:0:
293,214,17232,2,0,P|300:255|299:305,1,87,2|0,0:0|0:0,0:0:0:0:
238,132,18089,6,0,P|302:185|392:181,1,174,2|2,0:0|0:0,0:0:0:0:
434,97,19375,1,0,0:0:0:0:
362,36,19804,2,0,L|274:29,1,87,2|0,0:0|0:0,0:0:0:0:
201,78,20446,1,0,0:0:0:0:
109,43,20661,2,0,P|118:84|121:136,1,87,2|2,0:0|0:0,0:0:0:0:
262,268,21518,6,0,P|266:225|278:174,1,87,2|2,0:0|0:0,0:0:0:0:
447,236,22375,2,0,L|357:240,1,87,2|2,0:0|0:0,0:0:0:0:
201,147,23232,2,0,P|282:156|342:93,1,174,2|2,0:0|0:0,0:0:0:0:
289,10,24518,1,2,0:0:0:0:
172,38,24946,6,0,B|140:73|133:163|202:142|211:244|167:290,1,261,2|2,0:0|0:0,0:0:0:0:
71,181,26661,2,0,P|58:140|55:95,1,87,2|2,0:0|0:0,0:0:0:0:
285,169,27621,2,0,P|284:190|279:222,30,38.0625003629923,2|2|2|2|2|2|2|2|2|2|2|2|2|2|2|2|2|2|2|2|2|2|2|2|2|2|2|2|2|2|2,0:0|0:0|0:0|0:0|0:0|0:0|0:0|0:0|0:0|0:0|0:0|0:0|0:0|0:0|0:0|0:0|0:0|0:0|0:0|0:0|0:0|0:0|0:0|0:0|0:0|0:0|0:0|0:0|0:0|0:0|0:0,0:0:0:0:
321,93,29541,6,0,P|259:148|167:143,1,174,2|2,0:0|0:0,0:0:0:0:
54,322,31462,1,2,0:0:0:0:
16,223,31905,2,0,B|127:198|109:281|224:260,1,217.5,2|2,0:0|0:0,0:0:0:0:
285,196,33678,1,2,0:0:0:0:
285,196,34270,6,0,P|355:196|422:277,1,174,2|2,0:0|0:0,0:0:0:0:
260,284,35747,1,2,0:0:0:0:
193,218,36043,2,0,P|191:188|196:154,1,60.8999981414796,2|0,0:0|0:0,0:0:0:0:
101,179,36634,6,0,L|8:161,1,69.6,2|0,0:0|0:0,0:0:0:0:
100,279,37225,2,0,L|13:297,1,87,2|2,0:0|0:0,0:0:0:0:
221,262,38112,5,0,0:0:0:0:
210,248,38260,1,2,0:0:0:0:
198,234,38407,2,0,P|238:246|284:247,1,87,2|2,0:0|0:0,0:0:0:0:
509,241,38999,6,0,P|450:183|355:191,1,174,2|2,0:0|0:0,0:0:0:0:
266,164,39885,1,0,0:0:0:0:
266,164,40033,1,2,0:0:0:0:
266,164,40181,2,0,P|278:204|281:252,1,87,2|2,0:0|0:0,0:0:0:0:
173,124,40772,1,2,0:0:0:0:
14,186,41068,1,2,0:0:0:0:
14,186,41215,1,2,0:0:0:0:
14,186,41363,6,0,B|104:163|89:233|180:217,1,174,2|0,0:0|0:0,0:0:0:0:
267,183,42250,2,0,L|259:280,1,87,2|2,0:0|0:0,0:0:0:0:
255,361,42693,1,0,0:0:0:0:
356,355,42841,2,0,P|357:326|363:282,1,56.5499974113466,2|0,0:0|0:0,0:0:0:0:
373,208,43137,1,2,0:0:0:0:
507,195,43728,6,0,L|323:182,1,174,2|2,0:0|0:0,0:0:0:0:
234,161,45501,2,0,P|246:201|246:254,1,87,2|0,0:0|0:0,0:0:0:0:
242,333,46388,1,2,0:0:0:0:
136,367,46683,6,0,P|141:343|144:318,1,50.0250009541512,2|0,0:0|0:0,0:0:0:0:
343,348,46979,2,0,P|337:324|334:291,1,56.5499974113466,2|0,0:0|0:0,0:0:0:0:
108,243,47274,2,0,P|113:219|117:175,1,63.0750019248963,2|0,0:0|0:0,0:0:0:0:
390,225,47570,2,0,P|384:201|381:157,1,69.6,2|0,0:0|0:0,0:0:0:0:
62,105,47866,2,0,P|67:81|72:30,1,76.1250007259846,2|0,0:0|0:0,0:0:0:0:
456,96,48161,2,0,P|446:49|444:4,1,82.649997793007,2|0,0:0|0:0,0:0:0:0:
249,16,48458,6,0,B|208:119|294:109|249:233,1,213.149993495178,4|0,0:1|0:0,0:0:0:0:
222,301,49049,5,8,0:0:0:0:
240,262,49123,1,8,0:0:0:0:
274,237,49196,1,8,0:0:0:0:
315,228,49270,1,8,0:0:0:0:
356,238,49344,2,0,P|358:212|364:187,1,52.1999984069825,8|8,0:0|0:0,0:0:0:0:
137,138,49492,2,0,P|134:112|128:87,1,52.1999984069825,8|8,0:0|0:0,0:0:0:0:
197,14,49640,5,4,1:1:0:0:
35,136,49788,1,2,0:0:0:0:
234,205,49935,1,12,1:2:0:0:
128,87,50083,1,2,0:0:0:0:
247,181,50231,1,4,1:2:0:0:
109,234,50379,1,2,1:2:0:0:
362,144,50526,2,0,P|352:185|348:239,1,87,12|0,1:2|0:0,0:0:0:0:
257,316,50822,5,4,1:2:0:0:
257,316,50970,1,2,1:2:0:0:
129,255,51118,2,0,P|125:211|114:169,1,87,12|0,1:2|0:0,0:0:0:0:
226,82,51413,2,0,P|143:80|89:14,1,174,6|12,1:2|1:2,0:0:0:0:
226,82,51857,1,0,0:0:0:0:
281,0,52004,5,4,1:2:0:0:
407,143,52152,1,2,0:0:0:0:
208,186,52300,1,12,1:2:0:0:
323,91,52448,1,2,0:0:0:0:
201,160,52595,1,4,1:2:0:0:
328,234,52743,1,2,1:2:0:0:
96,201,52891,2,0,P|93:158|85:112,1,87,12|0,1:2|0:0,0:0:0:0:
182,260,53187,5,4,1:2:0:0:
182,260,53334,1,2,1:2:0:0:
259,38,53482,2,0,P|205:50|165:53,1,87,12|0,1:2|0:0,0:0:0:0:
341,224,53778,2,0,P|287:161|197:160,1,174,6|12,1:2|1:2,0:0:0:0:
201,159,54221,1,0,0:0:0:0:
383,118,54369,5,4,1:1:0:0:
240,251,54517,1,2,0:0:0:0:
429,316,54664,1,12,1:2:0:0:
326,207,54812,1,2,0:0:0:0:
432,293,54960,1,4,1:2:0:0:
308,342,55108,1,2,1:2:0:0:
512,185,55256,2,0,P|470:194|423:197,1,87,12|0,1:2|0:0,0:0:0:0:
352,119,55551,5,4,1:2:0:0:
352,119,55699,1,2,1:2:0:0:
142,273,55847,2,0,P|183:263|230:261,1,87,12|0,1:2|0:0,0:0:0:0:
351,275,56142,2,0,P|319:198|356:114,1,174,6|12,1:2|1:2,0:0:0:0:
453,89,56586,1,0,0:0:0:0:
299,19,56733,6,0,P|341:17|386:9,1,87,6|0,1:2|0:0,0:0:0:0:
194,72,57029,1,12,1:2:0:0:
217,173,57177,1,0,1:0:0:0:
217,173,57251,1,0,1:0:0:0:
217,173,57324,2,0,L|84:165,1,130.5,6|0,1:2|0:0,0:0:0:0:
62,148,57620,2,0,P|75:188|80:246,1,87,14|0,1:2|0:0,0:0:0:0:
188,20,57916,6,0,L|196:91,1,52.1999984069825,8|0,0:3|0:0,0:0:0:0:
181,269,58063,2,0,P|173:293|167:323,2,52.1999984069825,10|8|0,0:0|0:0|1:0,0:0:0:0:
383,93,58359,2,0,L|371:156,1,52.1999984069825,0|0,1:0|1:0,0:0:0:0:
378,313,58507,2,0,P|385:340|390:382,2,69.5999978759766,10|0|0,0:0|1:0|1:0,0:0:0:0:
428,230,58802,6,0,P|470:244|513:248,1,87,8|0,1:2|1:0,0:0:0:0:
326,230,59098,2,0,P|263:197|199:205,1,130.5,4|0,1:1|0:0,0:0:0:0:
184,187,59393,2,0,P|197:227|200:274,1,87,14|0,1:2|0:0,0:0:0:0:
85,144,59689,1,4,1:2:0:0:
85,144,59837,1,0,1:2:0:0:
3,244,59985,2,0,L|93:247,1,87,14|0,1:2|0:0,0:0:0:0:
115,340,60280,5,4,1:2:0:0:
115,340,60428,1,0,0:0:0:0:
181,170,60576,2,0,P|189:211|190:258,1,87,14|0,1:2|0:0,0:0:0:0:
265,65,60871,2,0,P|296:37|336:13,1,87,6|0,1:2|1:2,0:0:0:0:
130,48,61167,2,0,P|90:34|49:11,1,87,14|0,1:2|0:0,0:0:0:0:
312,178,61462,6,0,P|373:187|438:153,1,130.5,4|0,1:2|0:0,0:0:0:0:
186,135,61758,2,0,P|199:172|203:224,1,87,14|0,1:2|0:0,0:0:0:0:
270,82,62054,1,4,1:2:0:0:
93,196,62201,1,0,1:2:0:0:
288,273,62349,1,14,1:2:0:0:
100,163,62497,5,0,1:0:0:0:
98,180,62571,1,0,1:0:0:0:
93,196,62645,1,4,1:2:0:0:
203,219,62792,1,0,0:0:0:0:
133,381,62940,2,0,P|126:338|128:294,1,87,14|0,1:2|0:0,0:0:0:0:
373,177,63236,2,0,P|339:204|300:223,1,87,6|0,1:2|1:2,0:0:0:0:
76,93,63531,2,0,P|116:108|152:132,1,87,14|0,1:2|0:0,0:0:0:0:
270,0,63827,6,0,P|290:62|275:126,1,130.5,4|0,1:1|0:0,0:0:0:0:
216,236,64123,2,0,P|257:224|301:224,1,87,14|0,1:2|0:0,0:0:0:0:
138,158,64418,1,4,1:2:0:0:
272,327,64566,1,0,1:2:0:0:
410,186,64714,2,0,P|398:227|396:271,1,87,14|0,1:2|0:0,0:0:0:0:
163,296,65009,6,0,P|217:230|301:223,1,174,4|12,1:2|1:2,0:0:0:0:
417,293,65453,1,0,1:0:0:0:
409,308,65526,1,0,1:0:0:0:
401,323,65600,6,0,L|396:272,3,52.1999984069825,8|0|0|0,1:2|1:0|1:0|1:0,0:0:0:0:
229,178,65896,2,0,L|234:118,3,52.1999984069825,8|0|0|0,1:2|1:0|1:0|1:0,0:0:0:0:
428,24,66191,1,12,1:3:0:0:
428,24,66487,5,8,1:3:0:0:
126,147,66635,1,2,1:3:0:0:
126,147,66930,5,2,1:3:0:0:
467,265,67078,2,0,L|354:248,1,104.4,2|0,1:3|0:0,0:0:0:0:
350,229,67374,1,8,1:2:0:0:
330,243,67448,1,0,1:0:0:0:
307,250,67522,1,0,1:0:0:0:
282,251,67595,1,0,1:0:0:0:
259,245,67669,6,0,P|255:270|252:296,1,52.1999984069825,0|0,1:0|1:0,0:0:0:0:
481,216,67817,2,0,P|484:241|487:267,1,52.1999984069825,0|0,1:0|1:0,0:0:0:0:
360,75,67965,2,0,L|363:151,1,60.8999981414796,10|0,1:2|0:0,0:0:0:0:
383,345,68113,1,10,1:2:0:0:
383,345,68556,6,0,P|328:310|249:315,1,139.2,4|4,1:0|0:0,0:0:0:0:
169,276,68999,2,0,P|135:283|100:287,1,69.6,2|12,1:2|1:2,0:0:0:0:
176,181,69295,1,0,0:0:0:0:
254,225,69443,2,0,P|287:217|322:213,1,69.6,4|2,1:2|0:0,0:0:0:0:
397,161,69738,5,4,1:2:0:0:
397,161,69886,1,0,0:0:0:0:
321,46,70034,2,0,P|316:81|315:127,1,69.6,6|0,1:2|1:0,0:0:0:0:
213,5,70329,2,0,L|227:160,1,139.2,14|4,0:0|1:2,0:0:0:0:
2,126,70921,6,0,P|66:128|126:84,1,139.2,6|4,1:2|0:0,0:0:0:0:
124,86,71364,2,0,P|118:120|115:155,1,69.6,2|12,1:2|0:0,0:0:0:0:
193,21,71659,1,0,0:0:0:0:
284,140,71807,2,0,P|280:105|274:71,1,69.6,4|2,0:0|0:0,0:0:0:0:
374,87,72103,5,4,1:2:0:0:
374,87,72251,1,0,0:0:0:0:
234,220,72398,2,0,P|288:178|356:180,1,139.2,6|12,1:2|0:0,0:0:0:0:
327,356,72842,1,0,1:0:0:0:
317,267,72990,2,0,P|351:273|383:286,1,69.6,10|0,0:0|0:0,0:0:0:0:
242,321,73285,6,0,L|101:328,1,139.2,6|4,1:2|0:0,0:0:0:0:
102,327,73728,2,0,P|111:292|112:248,1,69.6,2|12,1:2|0:0,0:0:0:0:
135,169,74024,1,0,0:0:0:0:
53,119,74172,2,0,P|44:154|43:198,1,69.6,4|2,0:0|0:0,0:0:0:0:
204,240,74467,1,4,1:2:0:0:
263,171,74615,6,0,P|298:166|332:158,1,69.6,10|4,0:0|1:2,0:0:0:0:
328,349,74911,1,0,1:0:0:0:
412,311,75058,2,0,P|359:263|291:261,1,139.2,14|2,0:0|1:3,0:0:0:0:
270,249,75650,6,0,P|280:282|283:316,1,69.6,4|0,1:1|0:0,0:0:0:0:
90,205,75945,2,0,P|158:208|212:166,1,139.2,6|12,1:2|0:0,0:0:0:0:
112,16,76389,1,0,1:0:0:0:
128,111,76536,2,0,P|93:107|59:100,1,69.6,14|0,0:0|0:0,0:0:0:0:
203,48,76832,5,4,1:2:0:0:
283,104,76980,2,0,P|317:97|351:94,1,69.6,10|4,0:0|0:0,0:0:0:0:
330,187,77275,1,0,1:0:0:0:
203,48,77423,1,10,0:0:0:0:
330,187,77571,1,10,0:0:0:0:
398,12,77719,1,2,1:3:0:0:
398,11,78014,6,0,P|359:67|292:79,1,139.2,4|4,1:1|0:0,0:0:0:0:
203,47,78457,2,0,P|195:81|193:116,1,69.6,2|12,1:2|0:0,0:0:0:0:
256,193,78753,1,0,0:0:0:0:
107,71,78901,1,4,0:0:0:0:
45,254,79049,6,0,P|96:208|164:207,1,139.2,2|8,0:0|0:0,0:0:0:0:
20,119,79492,2,0,P|18:84|10:50,1,69.6,6|0,0:0|1:0,0:0:0:0:
111,21,79788,2,0,L|104:160,1,139.2,14|4,0:0|0:0,0:0:0:0:
191,188,80231,1,0,0:0:0:0:
318,137,80379,6,0,P|266:92|197:95,1,139.2,6|4,1:2|0:0,0:0:0:0:
191,188,80822,2,0,P|198:223|200:257,1,69.6,2|12,1:2|0:0,0:0:0:0:
284,293,81118,1,0,0:0:0:0:
318,139,81265,2,0,P|311:173|309:207,1,69.6,4|2,1:2|0:0,0:0:0:0:
404,187,81561,5,4,1:2:0:0:
217,163,81709,2,0,L|130:154,1,69.6,10|4,0:0|0:0,0:0:0:0:
196,71,82004,1,0,1:0:0:0:
110,288,82152,2,0,P|169:254|238:258,1,139.2,14|4,0:0|1:2,0:0:0:0:
252,347,82595,1,0,0:0:0:0:
350,232,82743,6,0,P|340:265|335:299,1,69.6,6|0,1:2|0:0,0:0:0:0:
437,285,83039,1,4,1:2:0:0:
437,285,83187,2,0,L|514:299,1,69.6,2|12,1:2|0:0,0:0:0:0:
442,185,83482,1,0,0:0:0:0:
442,185,83630,2,0,L|527:173,1,69.6,6|0,0:0|0:0,0:0:0:0:
350,232,83925,5,4,1:2:0:0:
350,232,84073,2,0,P|286:200|201:215,1,139.2,10|0,0:0|0:0,0:0:0:0:
188,291,84517,1,12,0:0:0:0:
124,160,84664,2,0,P|122:194|114:228,1,69.6,2|4,1:2|0:2,0:0:0:0:
32,184,84960,1,0,1:0:0:0:
220,205,85108,6,0,L|370:196,1,139.2,4|4,1:1|1:2,0:0:0:0:
373,90,85551,2,0,L|234:98,1,139.2,12|0,0:1|1:0,0:0:0:0:
141,142,85994,1,12,0:1:0:0:
207,291,86142,6,0,P|215:248|219:205,1,87,0|0,1:0|1:0,0:0:0:0:
481,242,86438,2,0,B|398:214|405:288|313:259,1,174,8|8,0:0|0:0,0:0:0:0:
219,204,86881,1,8,1:2:0:0:
350,364,87029,1,8,1:2:0:0:
311,158,87177,1,8,1:2:0:0:
156,367,87324,1,8,1:2:0:0:
16,147,87472,6,0,L|154:133,1,130.5,4|0,1:1|0:0,0:0:0:0:
145,133,87768,2,0,P|133:174|128:217,1,87,4|0,1:1|0:0,0:0:0:0:
95,48,88063,1,6,1:2:0:0:
229,191,88211,1,0,1:0:0:0:
32,263,88359,2,0,P|27:219|15:178,1,87,12|0,1:2|0:0,0:0:0:0:
254,3,88655,6,0,P|242:44|237:87,1,87,6|0,1:2|1:0,0:0:0:0:
370,260,88950,2,0,P|317:198|224:192,1,174,12|6,1:2|1:2,0:0:0:0:
271,286,89393,1,0,1:0:0:0:
54,134,89541,2,0,P|97:133|139:122,1,87,14|0,1:2|0:0,0:0:0:0:
229,191,89837,6,0,L|244:51,1,130.5,4|0,1:2|0:0,0:0:0:0:
242,61,90132,2,0,L|340:78,1,87,14|0,1:2|0:0,0:0:0:0:
421,26,90428,1,6,1:2:0:0:
321,174,90576,1,2,0:3:0:0:
510,183,90724,1,12,1:2:0:0:
426,128,90871,6,0,P|414:168|410:213,2,87,2|4|0,0:0|1:2|0:0,0:0:0:0:
327,77,91315,2,0,L|271:65,1,43.5,10|0,1:2|0:0,0:0:0:0:
321,174,91462,2,0,L|226:185,1,87,2|4,1:2|1:2,0:0:0:0:
127,167,91758,1,0,1:0:0:0:
125,184,91832,1,0,1:0:0:0:
123,201,91906,1,14,1:2:0:0:
194,89,92054,1,2,1:2:0:0:
10,328,92201,6,0,P|84:285|167:303,1,174,4|12,1:0|1:2,0:0:0:0:
273,275,92645,2,0,P|263:318|259:361,1,87,2|4,0:0|1:2,0:0:0:0:
192,205,92940,1,0,1:0:0:0:
363,333,93088,2,0,L|456:327,1,87,14|0,1:2|0:0,0:0:0:0:
157,320,93310,1,2,0:0:0:0:
166,302,93384,6,0,L|79:307,1,87,6|0,1:2|0:0,0:0:0:0:
191,204,93679,2,0,P|275:209|339:147,1,174,12|6,1:2|1:2,0:0:0:0:
241,112,94123,1,0,1:0:0:0:
444,120,94270,2,0,P|433:162|430:205,1,87,14|0,1:2|0:0,0:0:0:0:
227,26,94566,6,0,P|238:68|241:111,1,87,6|0,1:2|0:0,0:0:0:0:
319,280,94861,2,0,L|337:140,1,130.5,12|0,1:2|0:0,0:0:0:0:
354,58,95157,1,6,1:2:0:0:
442,222,95305,1,0,1:0:0:0:
226,123,95453,2,0,P|222:166|214:208,1,87,12|0,1:2|0:0,0:0:0:0:
40,231,95748,5,4,1:1:0:0:
116,162,95896,1,0,1:0:0:0:
49,81,96044,5,4,1:1:0:0:
214,208,96191,1,0,1:0:0:0:
40,231,96339,5,4,1:1:0:0:
241,108,96487,1,0,1:0:0:0:
370,276,96635,5,8,1:2:0:0:
145,136,96783,1,0,1:0:0:0:
371,11,96930,6,0,P|346:71|350:137,1,130.5,4|0,1:1|0:0,0:0:0:0:
350,135,97226,2,0,P|303:125|250:126,1,87,12|0,1:2|0:0,0:0:0:0:
450,86,97522,1,6,1:2:0:0:
303,226,97669,1,0,1:0:0:0:
450,86,97817,2,0,L|507:81,1,43.5,14|0,1:2|0:0,0:0:0:0:
429,207,97965,2,0,L|512:231,1,87,2|4,0:0|1:2,0:0:0:0:
350,135,98260,5,0,0:0:0:0:
292,311,98408,2,0,P|303:268|302:225,1,87,12|0,1:2|0:0,0:0:0:0:
258,10,98704,2,0,P|247:52|248:95,1,87,6|0,1:2|1:0,0:0:0:0:
202,195,98999,1,12,1:2:0:0:
350,135,99147,1,0,0:0:0:0:
147,56,99295,6,0,P|63:50|5:111,1,174,6|12,1:2|1:2,0:0:0:0:
234,113,99738,2,0,P|250:72|252:29,1,87,2|4,0:0|1:2,0:0:0:0:
145,157,100034,1,0,1:0:0:0:
347,80,100182,1,12,1:2:0:0:
283,250,100329,1,0,1:0:0:0:
285,267,100403,1,0,1:0:0:0:
287,284,100477,5,4,1:1:0:0:
264,165,100625,1,8,0:0:0:0:
142,103,100773,1,8,0:0:0:0:
9,167,100921,1,8,0:0:0:0:
120,14,101068,5,8,0:0:0:0:
190,232,101216,1,8,0:0:0:0:
371,58,101364,1,8,0:0:0:0:
187,259,101512,1,8,0:0:0:0:
403,159,101659,5,4,1:1:0:0:
403,159,101807,2,0,P|330:156|279:98,1,139.2,8|4,1:2|0:0,0:0:0:0:
276,240,102251,1,8,0:0:0:0:
201,175,102398,2,0,P|132:169|67:212,1,139.2,0|4,1:2|0:0,0:0:0:0:
192,5,102842,6,0,P|199:38|201:73,1,69.6,8|0,1:2|0:0,0:0:0:0:
160,263,103137,1,0,1:0:0:0:
299,149,103285,1,4,1:2:0:0:
103,58,103433,2,0,L|23:51,1,69.6,8|0,1:2|0:0,0:0:0:0:
176,153,103728,1,0,1:0:0:0:
176,153,103876,1,0,1:0:0:0:
306,46,104024,5,8,1:3:0:0:
68,158,104172,1,2,1:3:0:0:
70,178,104246,1,2,1:3:0:0:
72,198,104320,1,2,1:3:0:0:
276,329,104467,2,0,L|290:175,1,139.2,8|0,1:3|1:0,0:0:0:0:
137,33,104911,1,0,1:0:0:0:
209,99,105058,2,0,P|256:104|314:84,1,104.4,8|0,1:3|0:0,0:0:0:0:
414,53,105354,6,0,P|409:79|406:105,1,52.1999984069825,4|0,1:1|0:0,0:0:0:0:
114,128,105650,6,0,P|118:153|121:179,1,52.1999984069825,4|0,1:1|0:0,0:0:0:0:
425,203,105945,6,0,P|420:228|417:254,1,52.1999984069825,4|0,1:1|0:0,0:0:0:0:
41,216,106241,5,8,1:2:0:0:
41,216,106315,1,8,1:2:0:0:
41,216,106389,6,0,L|195:193,1,143.550004380798,4|0,1:1|0:0,0:0:0:0:
281,156,106684,2,0,P|268:201|266:249,1,95.7000029205323,4|0,1:1|0:0,0:0:0:0:
175,304,106980,1,6,1:2:0:0:
281,156,107127,1,0,1:0:0:0:
349,327,107275,1,14,1:2:0:0:
512,288,107423,6,0,P|457:218|364:215,1,191.400005841065,2|0,1:2|1:0,0:0:0:0:
187,167,107866,2,0,P|234:167|282:155,1,95.7000029205323,14|0,1:2|0:0,0:0:0:0:
343,75,108162,1,6,1:2:0:0:
295,314,108310,1,0,1:0:0:0:
287,331,108384,1,0,1:0:0:0:
280,348,108457,2,0,L|276:250,1,95.7000029205323,14|0,1:2|0:0,0:0:0:0:
0,259,108753,6,0,B|96:236|80:320|181:297,1,191.400005841065,6|12,1:2|1:2,0:0:0:0:
138,109,109196,2,0,P|152:154|148:202,1,95.7000029205323,2|4,0:0|1:2,0:0:0:0:
259,95,109492,1,2,1:2:0:0:
256,113,109566,1,0,1:0:0:0:
254,131,109640,1,12,1:2:0:0:
187,15,109788,5,4,1:1:0:0:
352,122,109935,2,0,L|411:116,1,52.1999984069825,0|2,1:0|0:0,0:0:0:0:
138,109,110083,2,0,L|79:103,1,52.1999984069825,0|2,1:0|0:0,0:0:0:0:
240,272,110231,6,0,B|254:130|254:130|207:202,1,208.79999362793,4|0,1:1|0:0,0:0:0:0:
349,214,110674,1,2,1:2:0:0:
350,234,110748,1,0,1:0:0:0:
351,254,110822,1,4,1:2:0:0:
164,99,110970,1,0,0:0:0:0:
10,245,111118,6,0,P|65:200|135:201,1,143.550004380798,4|0,1:1|0:0,0:0:0:0:
254,178,111413,2,0,P|241:224|240:272,1,95.7000029205323,14|0,1:2|0:0,0:0:0:0:
164,99,111709,1,6,1:2:0:0:
343,233,111857,1,0,1:0:0:0:
143,307,112004,1,14,1:2:0:0:
374,138,112152,6,0,L|376:332,1,191.400005841065,2|0,1:2|1:2,0:0:0:0:
474,216,112595,1,12,1:2:0:0:
273,87,112743,2,0,P|276:134|271:193,1,95.7000029205323,2|4,0:0|1:2,0:0:0:0:
475,125,113039,1,0,1:0:0:0:
475,125,113113,1,0,1:0:0:0:
475,125,113187,2,0,P|471:77|476:18,1,95.7000029205323,14|0,1:2|0:0,0:0:0:0:
358,0,113482,6,0,P|286:59|192:48,2,191.400005841065,6|12|6,1:2|1:2|1:2,0:0:0:0:
373,130,114221,1,0,1:0:0:0:
371,149,114295,1,0,1:0:0:0:
370,168,114369,1,14,1:2:0:0:
477,69,114517,6,0,L|487:234,1,143.550004380798,4|0,1:1|0:0,0:0:0:0:
488,235,114812,1,0,1:0:0:0:
271,139,114960,2,0,P|223:135|175:128,1,95.7000029205323,4|0,1:1|0:0,0:0:0:0:
339,59,115256,1,8,1:3:0:0:
270,242,115403,1,0,1:0:0:0:
288,239,115477,1,0,1:0:0:0:
306,236,115551,1,0,1:0:0:0:
244,47,115699,1,2,1:3:0:0:
512,205,115847,6,0,P|449:138|358:152,1,191.400005841065,4|12,1:1|1:2,0:0:0:0:
64,115,116290,2,0,P|111:121|158:119,1,95.7000029205323,2|4,0:0|1:2,0:0:0:0:
263,100,116586,1,0,1:0:0:0:
262,118,116659,1,0,1:0:0:0:
261,137,116733,1,14,1:2:0:0:
362,37,116881,1,0,0:0:0:0:
179,216,117029,5,6,1:2:0:0:
369,141,117177,1,0,0:0:0:0:
193,8,117324,1,12,1:2:0:0:
284,258,117472,2,0,P|280:210|278:162,1,95.7000029205323,2|4,0:0|1:2,0:0:0:0:
37,81,117768,1,0,1:0:0:0:
47,64,117842,1,0,1:0:0:0:
57,47,117916,2,0,P|60:94|62:142,1,95.7000029205323,14|0,1:2|0:0,0:0:0:0:
337,65,118211,6,0,B|245:37|254:124|147:97,1,191.400005841065,6|12,1:2|1:2,0:0:0:0:
407,146,118655,1,0,0:0:0:0:
308,167,118802,5,6,1:2:0:0:
446,45,118950,1,0,1:0:0:0:
467,318,119098,2,0,P|479:271|477:224,1,95.7000029205323,14|0,1:2|1:0,0:0:0:0:
262,66,119393,5,8,1:2:0:0:
407,146,119541,1,8,1:2:0:0:
261,209,119689,1,8,1:2:0:0:
409,125,119837,1,8,1:2:0:0:
146,140,119985,5,8,1:2:0:0:
387,280,120132,1,8,1:2:0:0:
378,11,120280,1,8,1:2:0:0:
282,247,120428,6,0,P|337:183|426:185,1,174,4|0,1:1|0:0,0:0:0:0:
421,182,120871,2,0,P|412:215|407:250,1,69.6,2|0,1:2|0:0,0:0:0:0:
502,380,121167,2,0,L|509:240,1,139.2,10|0,0:2|0:0,0:0:0:0:
509,240,121610,1,0,1:0:0:0:
311,276,121758,6,0,P|317:310|320:344,1,69.6,6|0,1:2|0:0,0:0:0:0:
382,95,122054,1,0,0:0:0:0:
407,194,122201,1,0,1:0:0:0:
407,194,122275,1,0,1:0:0:0:
407,194,122349,2,0,P|339:188|291:139,1,139.2,10|0,1:2|1:0,0:0:0:0:
477,123,122792,1,0,1:0:0:0:
235,53,122940,5,8,1:2:0:0:
505,217,123088,1,2,1:2:0:0:
183,308,123236,1,8,1:0:0:0:
477,123,123384,1,2,1:2:0:0:
129,51,123531,6,0,L|141:143,1,69.6,8|2,1:3|1:2,0:0:0:0:
304,285,123753,1,0,1:0:0:0:
297,304,123827,2,0,L|287:234,1,69.6,8|2,1:2|0:2,0:0:0:0:
72,185,124123,5,2,1:3:0:0:
103,211,124196,1,0,1:0:0:0:
143,220,124270,1,0,1:0:0:0:
183,207,124344,1,0,1:0:0:0:
211,177,124419,1,2,1:3:0:0:
239,146,124492,1,0,1:0:0:0:
278,134,124566,1,0,1:0:0:0:
319,142,124640,1,0,1:0:0:0:
350,169,124714,5,0,1:3:0:0:
348,148,124788,1,0,1:0:0:0:
347,127,124861,1,0,1:0:0:0:
346,106,124935,1,0,1:0:0:0:
359,34,125009,6,0,L|352:85,1,52.1999984069825,2|0,1:3|1:0,0:0:0:0:
450,159,125157,2,0,L|456:210,1,52.1999984069825,0|0,1:0|1:0,0:0:0:0:
345,330,125305,1,8,1:2:0:0:
512,310,125453,6,0,B|427:283|431:357|345:330,1,174,4|8,1:1|1:2,0:0:0:0:
0,310,125896,2,0,B|84:283|80:357|166:330,1,174,4|8,1:1|0:0,0:0:0:0:
423,114,126339,6,0,B|403:155|415:202|415:202|397:211|373:233,1,143.550004380798,4|0,1:1|0:0,0:0:0:0:
373,233,126635,1,8,0:0:0:0:
89,114,126783,2,0,B|109:155|96:202|96:202|115:211|139:233,1,143.550004380798,4|0,1:1|0:0,0:0:0:0:
315,90,127078,6,0,L|321:12,1,78.2999976104737,4|0,1:1|0:0,0:0:0:0:
197,90,127374,2,0,L|191:12,1,78.2999976104737,4|0,1:1|0:0,0:0:0:0:
396,250,127669,6,0,P|337:202|258:207,1,156.599995220947,4|12,1:0|0:2,0:0:0:0:
215,288,128113,1,2,0:0:0:0:
172,167,128260,1,0,1:0:0:0:
111,280,128408,1,0,0:0:0:0:
74,195,128556,2,0,L|-4:185,1,78.2999976104737,14|0,1:2|0:0,0:0:0:0:
145,28,128852,6,0,P|186:92|170:167,1,156.599995220947,2|12,1:2|1:2,0:0:0:0:
89,108,129295,1,2,0:0:0:0:
275,135,129443,1,0,1:0:0:0:
170,167,129591,1,0,0:0:0:0:
157,344,129738,2,0,P|154:304|150:266,1,78.2999976104737,14|0,1:2|0:0,0:0:0:0:
281,57,130034,6,0,P|276:95|274:134,1,78.2999976104737,2|0,1:2|0:0,0:0:0:0:
334,208,130329,1,14,1:2:0:0:
369,119,130477,1,0,0:0:0:0:
238,222,130625,1,2,1:2:0:0:
410,270,130773,1,0,0:0:0:0:
334,207,130921,2,0,L|322:285,1,78.2999976104737,14|0,1:2|0:0,0:0:0:0:
451,175,131216,6,0,L|468:58,1,117.449996415711,2|0,1:2|0:0,0:0:0:0:
468,58,131512,2,0,P|432:75|394:84,1,78.2999976104737,14|0,1:2|0:0,0:0:0:0:
334,207,131807,2,0,P|299:189|265:153,1,78.2999976104737,2|0,1:2|0:0,0:0:0:0:
159,208,132103,2,0,P|145:171|140:117,1,78.2999976104737,14|0,1:2|0:0,0:0:0:0:
29,262,132398,6,0,P|82:207|158:207,1,156.599995220947,2|12,1:2|1:2,0:0:0:0:
192,298,132842,1,2,0:0:0:0:
251,178,132990,1,0,1:0:0:0:
293,306,133137,1,0,0:0:0:0:
420,228,133285,2,0,P|380:229|342:222,1,78.2999976104737,14|0,1:2|0:0,0:0:0:0:
209,96,133581,6,0,L|215:252,1,156.599995220947,2|12,1:2|1:2,0:0:0:0:
301,140,134024,1,2,0:0:0:0:
131,101,134172,2,0,P|170:102|208:95,1,78.2999976104737,0|0,1:0|0:0,0:0:0:0:
378,134,134467,2,0,P|338:132|300:139,1,78.2999976104737,14|0,1:2|0:0,0:0:0:0:
217,195,134763,1,4,1:1:0:0:
217,195,135206,5,8,1:2:0:0:
294,39,135354,1,8,1:3:0:0:
315,238,135502,5,8,1:2:0:0:
203,92,135650,1,2,1:3:0:0:
145,259,135797,6,0,P|202:206|296:219,1,174,4|0,1:1|0:0,0:0:0:0:
107,136,136241,2,0,L|20:126,1,87,2|0,1:2|0:0,0:0:0:0:
198,62,136536,5,0,1:0:0:0:
225,50,136609,1,0,1:0:0:0:
255,47,136684,1,0,1:0:0:0:
285,55,136758,1,0,1:0:0:0:
309,74,136832,1,0,1:0:0:0:
334,92,136906,1,0,1:0:0:0:
363,100,136980,1,0,1:0:0:0:
393,97,137054,1,0,1:0:0:0:
420,85,137127,6,0,L|410:209,1,117.449996415711,4|0,1:1|0:0,0:0:0:0:
401,229,137423,2,0,P|438:218|477:216,1,78.2999976104737,14|0,1:2|0:0,0:0:0:0:
320,135,137719,2,0,B|249:115|248:172|167:150,1,156.599995220947,6|12,1:2|1:2,0:0:0:0:
298,237,138162,1,0,0:0:0:0:
86,94,138310,6,0,P|136:150|132:227,1,156.599995220947,6|12,1:2|1:2,0:0:0:0:
32,181,138753,1,0,0:0:0:0:
55,358,138901,2,0,P|53:318|49:279,1,78.2999976104737,6|0,1:2|0:0,0:0:0:0:
266,34,139196,2,0,P|262:72|260:112,1,78.2999976104737,12|0,1:2|0:0,0:0:0:0:
32,181,139492,6,0,P|98:143|173:164,1,156.599995220947,6|12,1:2|1:2,0:0:0:0:
503,106,139935,2,0,P|442:59|366:65,1,156.599995220947,2|0,0:0|0:0,0:0:0:0:
266,34,140379,2,0,P|273:72|272:111,1,78.2999976104737,14|0,1:2|0:0,0:0:0:0:
160,239,140674,6,0,L|178:83,1,156.599995220947,6|12,1:2|1:2,0:0:0:0:
114,2,141118,1,0,0:0:0:0:
261,203,141265,2,0,L|343:222,1,78.2999976104737,6|0,1:2|0:0,0:0:0:0:
83,95,141561,2,0,L|1:114,1,78.2999976104737,14|0,1:2|0:0,0:0:0:0:
133,185,141857,5,4,1:2:0:0:
133,185,142004,1,0,0:0:0:0:
248,94,142152,1,12,1:2:0:0:
248,94,142300,1,0,0:0:0:0:
327,298,142448,5,12,1:2:0:0:
327,298,142522,2,0,P|331:259|336:220,1,78.2999976104737,2|0,1:2|0:0,0:0:0:0:
133,185,142743,5,12,1:2:0:0:
133,185,142817,2,0,P|128:146|123:107,1,78.2999976104737,2|0,1:2|0:0,0:0:0:0:
255,55,143039,6,0,P|251:74|247:93,3,39.1499988052369,8|0|0|0,1:3|1:0|1:0|1:0,0:0:0:0:
24,111,143334,2,0,P|28:130|31:149,3,39.1499988052369,8|0|0|0,1:3|1:0|1:0|1:0,0:0:0:0:
336,219,143630,6,0,P|337:246|339:272,3,52.1999984069825,2|0|0|0,1:3|1:0|1:0|1:0,0:0:0:0:
64,267,143925,2,0,P|62:293|60:319,3,52.1999984069825,2|0|0|0,1:3|1:0|1:0|1:0,0:0:0:0:
199,383,144221,6,0,L|203:273,1,104.399996813965,8|0,1:2|0:0,0:0:0:0:
196,122,144517,1,0,1:3:0:0:
196,142,144812,1,0,1:3:0:0:
197,162,145108,5,0,1:3:0:0:
92,94,145256,1,2,0:0:0:0:
299,95,145403,1,4,1:1:0:0:
116,284,145551,5,0,1:1:0:0:
141,300,145625,1,0,1:0:0:0:
171,303,145699,1,0,1:0:0:0:
200,294,145773,1,0,1:0:0:0:
228,285,145847,1,0,1:0:0:0:
258,289,145921,1,0,1:0:0:0:
284,305,145994,5,4,1:0:0:0:
283,283,146068,1,0,1:0:0:0:
281,261,146142,2,0,P|279:237|276:213,1,43.5,0|0,1:2|1:0,0:0:0:0:
362,165,146290,5,4,1:0:0:0:
363,134,146364,1,0,1:0:0:0:
365,103,146438,2,0,P|369:71|374:42,1,52.1999984069825,0|0,1:0|1:0,0:0:0:0:
279,2,146586,5,2,1:2:0:0:
461,120,146733,1,2,0:0:0:0:
256,203,146881,1,12,0:1:0:0:
256,203,146955,1,0,0:0:0:0:
256,203,147029,1,2,0:0:0:0:
342,105,147177,1,4,1:2:0:0:
198,84,147324,1,2,1:2:0:0:
264,313,147472,2,0,P|222:299|177:296,1,87,12|0,1:2|0:0,0:0:0:0:
345,249,147768,5,4,1:2:0:0:
345,249,147916,1,2,1:2:0:0:
204,104,148063,2,0,P|245:117|291:121,1,87,12|0,1:2|0:0,0:0:0:0:
512,230,148359,2,0,B|432:205|430:273|344:248,1,174,6|12,1:2|1:2,0:0:0:0:
345,249,148802,1,0,0:0:0:0:
226,23,148950,5,4,1:2:0:0:
382,144,149098,1,2,0:0:0:0:
200,217,149246,1,12,1:2:0:0:
297,97,149393,1,2,0:0:0:0:
195,191,149541,1,4,1:2:0:0:
345,249,149689,1,2,1:2:0:0:
91,151,149837,2,0,P|91:194|84:241,1,87,12|0,1:2|0:0,0:0:0:0:
183,86,150132,5,4,1:2:0:0:
183,86,150280,1,2,1:2:0:0:
43,342,150428,2,0,P|86:335|129:329,1,87,12|0,1:2|0:0,0:0:0:0:
379,234,150724,1,6,1:2:0:0:
362,236,150797,1,0,1:0:0:0:
344,239,150871,1,0,1:0:0:0:
241,195,151019,2,0,P|240:238|247:281,1,87,14|0,1:2|0:0,0:0:0:0:
179,349,151315,5,4,1:1:0:0:
344,239,151462,1,2,0:0:0:0:
136,151,151610,1,12,1:2:0:0:
247,281,151758,1,2,0:0:0:0:
133,177,151906,1,4,1:2:0:0:
289,120,152054,1,2,1:2:0:0:
33,293,152201,2,0,P|75:284|118:278,1,87,12|0,1:2|0:0,0:0:0:0:
191,49,152497,5,4,1:2:0:0:
191,49,152645,1,2,1:2:0:0:
374,134,152792,2,0,P|330:128|288:119,1,87,12|0,1:2|0:0,0:0:0:0:
190,48,153088,2,0,P|239:118|223:202,1,174,6|12,1:2|1:2,0:0:0:0:
223,202,153531,1,0,0:0:0:0:
134,147,153679,6,0,P|123:189|118:232,1,87,6|0,1:2|0:0,0:0:0:0:
68,68,153975,1,14,1:2:0:0:
60,310,154123,1,0,1:0:0:0:
60,310,154196,1,0,1:0:0:0:
60,310,154270,2,0,P|116:283|193:295,1,130.5,6|0,1:2|0:0,0:0:0:0:
196,303,154566,1,14,1:2:0:0:
310,213,154714,1,0,1:0:0:0:
305,229,154788,1,0,1:0:0:0:
303,246,154861,5,8,1:3:0:0:
240,123,155009,1,0,1:0:0:0:
410,251,155157,2,0,L|463:248,2,43.5,2|0|0,1:3|1:0|1:0,0:0:0:0:
196,303,155453,2,0,L|143:300,2,43.5,2|0|0,1:3|1:0|1:0,0:0:0:0:
219,39,155748,2,0,P|234:79|239:122,1,87,4|0,1:1|0:0,0:0:0:0:
319,293,156044,6,0,P|313:228|346:171,1,130.5,4|0,1:1|0:0,0:0:0:0:
343,143,156339,2,0,P|386:146|433:137,1,87,14|0,1:2|0:0,0:0:0:0:
486,214,156635,1,6,1:2:0:0:
376,48,156783,1,0,0:0:0:0:
272,224,156930,2,0,L|141:213,1,130.5,14|0,1:2|0:0,0:0:0:0:
50,206,157226,5,4,1:2:0:0:
50,206,157374,1,0,0:0:0:0:
161,30,157522,2,0,P|159:73|168:115,1,87,14|0,1:2|0:0,0:0:0:0:
349,260,157817,2,0,P|312:236|271:223,1,87,6|0,1:2|0:0,0:0:0:0:
74,310,158113,2,0,P|112:290|144:260,1,87,14|0,1:2|0:0,0:0:0:0:
282,102,158408,6,0,P|347:98|403:130,1,130.5,4|0,1:2|0:0,0:0:0:0:
164,76,158704,2,0,P|175:117|176:161,1,87,14|0,1:2|0:0,0:0:0:0:
242,13,158999,5,6,1:2:0:0:
72,140,159147,1,0,0:0:0:0:
258,226,159295,1,14,1:2:0:0:
194,121,159443,1,0,0:0:0:0:
75,106,159591,5,4,1:2:0:0:
75,123,159664,1,0,1:0:0:0:
72,140,159738,1,0,1:0:0:0:
151,316,159886,2,0,P|140:267|144:207,1,87,14|0,1:2|0:0,0:0:0:0:
335,58,160182,5,6,1:2:0:0:
321,68,160256,1,0,1:0:0:0:
309,80,160329,2,0,P|298:99|291:119,1,43.5,0|0,1:0|0:0,0:0:0:0:
406,139,160477,5,10,1:2:0:0:
391,159,160551,1,8,1:2:0:0:
387,182,160625,2,0,P|384:212|387:243,1,52.1999984069825,8|0,1:2|1:0,0:0:0:0:
445,285,160773,6,0,L|310:267,1,130.5,6|0,1:2|0:0,0:0:0:0:
210,331,161068,2,0,P|206:246|128:192,1,174,4|6,1:1|1:2,0:0:0:0:
50,240,161512,1,0,0:0:0:0:
169,82,161659,2,0,P|127:93|83:96,1,87,14|0,1:2|0:0,0:0:0:0:
264,141,161955,5,4,1:2:0:0:
264,141,162103,1,0,0:0:0:0:
405,23,162251,2,0,P|366:71|368:142,1,130.5,14|0,1:2|0:0,0:0:0:0:
171,184,162546,2,0,P|186:225|185:269,1,87,6|0,1:2|1:0,0:0:0:0:
302,354,162768,1,0,1:0:0:0:
288,369,162842,2,0,L|298:236,1,130.5,14|0,1:2|0:0,0:0:0:0:
400,158,163137,6,0,P|393:200|392:245,1,87,4|0,1:1|0:0,0:0:0:0:
200,194,163433,2,0,P|207:157|208:107,1,87,14|0,1:2|0:0,0:0:0:0:
309,46,163728,1,6,1:2:0:0:
309,46,163876,1,0,0:0:0:0:
21,154,164024,2,0,L|127:146,1,87,14|0,1:2|0:0,0:0:0:0:
312,144,164320,5,8,1:2:0:0:
430,224,164615,5,8,1:2:0:0:
386,218,164763,1,8,1:2:0:0:
334,42,164911,5,8,1:3:0:0:
308,46,165058,1,8,1:3:0:0:
215,187,165206,5,2,1:3:0:0:
206,185,165354,1,2,1:3:0:0:
132,126,165502,6,0,P|93:129|53:131,1,78.2999976104737,4|0,1:1|0:0,0:0:0:0:
219,91,165797,1,0,0:0:0:0:
219,91,165945,2,0,P|271:73|374:77,1,156.599995220947,2|0,0:0|1:2,0:0:0:0:
458,112,166389,2,0,P|460:72|466:34,1,78.2999976104737,14|0,0:0|0:0,0:0:0:0:
379,164,166684,6,0,P|376:203|370:241,1,78.2999976104737,2|0,1:2|0:0,0:0:0:0:
433,312,166980,1,12,0:0:0:0:
433,312,167127,2,0,P|380:286|260:281,1,156.599995220947,2|0,0:0|1:2,0:0:0:0:
191,256,167571,2,0,L|79:273,1,78.2999976104737,12|0,0:0|0:0,0:0:0:0:
42,329,167866,6,0,P|71:256|73:178,1,156.599995220947,2|12,1:2|0:0,0:0:0:0:
138,23,168310,2,0,P|130:61|128:101,1,78.2999976104737,2|0,0:0|1:2,0:0:0:0:
190,171,168605,1,0,0:2:0:0:
272,126,168753,1,12,0:0:0:0:
272,126,169049,6,0,L|359:119,1,78.2999976104737,2|0,1:2|0:0,0:0:0:0:
443,113,169344,1,14,0:0:0:0:
403,198,169492,1,0,1:2:0:0:
388,30,169640,1,2,0:0:0:0:
500,195,169788,1,0,1:2:0:0:
350,119,169935,1,14,0:0:0:0:
353,287,170083,6,0,P|356:320|360:371,2,78.2999976104737,2|0|0,0:0|1:2|0:0,0:0:0:0:
304,206,170526,1,12,0:0:0:0:
350,119,170674,2,0,P|291:163|184:155,1,156.599995220947,2|0,0:0|1:2,0:0:0:0:
126,122,171118,1,14,0:0:0:0:
126,122,171413,1,0,1:2:0:0:
126,121,171709,6,0,P|119:160|113:198,1,60.8999981414796,14|0,0:0|0:0,0:0:0:0:
227,109,172004,6,0,P|240:143|255:177,1,73.9500014104843,10|0,0:0|0:0,0:0:0:0:
288,18,172300,6,0,P|326:38|366:56,1,87,14|0,0:0|0:0,0:0:0:0:
504,214,172595,6,0,P|441:169|364:167,1,156.599995220947,8|0,1:3|1:0,0:0:0:0:
285,239,173039,1,8,1:3:0:0:
382,268,173187,5,2,1:3:0:0:
274,131,173334,1,2,1:3:0:0:
214,304,173482,1,2,1:3:0:0:
276,109,173630,1,2,1:3:0:0:
285,239,173778,6,0,P|201:269|109:241,1,156.599995220947,8|8,1:3|1:2,0:0:0:0:
109,259,174147,1,8,1:2:0:0:
129,225,174221,1,8,1:2:0:0:
136,187,174294,1,8,1:2:0:0:
128,149,174369,6,0,L|119:90,1,52.1999984069825,8|0,1:2|1:0,0:0:0:0:
317,73,174517,2,0,L|312:125,1,52.1999984069825,8|0,1:2|0:0,0:0:0:0:
219,99,174664,1,2,1:3:0:0:
219,99,174738,1,0,1:0:0:0:
219,99,174812,1,0,1:0:0:0:
367,253,174960,6,0,P|302:209|225:209,1,156.599995220947,2|8,1:3|1:2,0:0:0:0:
152,286,175403,1,8,1:2:0:0:
259,335,175698,5,2,1:3:0:0:
124,175,175846,1,2,1:3:0:0:
64,363,175994,1,4,1:1:0:0:
152,286,176438,5,8,1:3:0:0:
234,239,176586,1,8,1:3:0:0:
324,262,176733,1,8,1:3:0:0:
391,327,176881,1,2,1:3:0:0:
481,301,177029,1,2,1:3:0:0:
506,210,177177,2,0,P|497:171|496:138,1,60.8999981414796,2|8,1:3|1:2,0:0:0:0:
495,150,177916,6,0,P|438:126|378:129,1,121.799996282959,4|2,1:1|0:2,0:0:0:0:
331,199,178359,2,0,P|288:215|194:196,1,121.799996282959,2|2,0:2|0:2,0:0:0:0:
142,152,178802,2,0,L|131:219,1,60.8999981414796,2|0,0:2|0:2,0:0:0:0:
58,166,179098,1,2,0:2:0:0:
58,166,179689,6,0,L|-14:159,1,60.8999981414796,2|0,0:2|0:2,0:0:0:0:
142,152,179984,2,0,L|131:219,1,60.8999981414796,2|0,0:2|0:2,0:0:0:0:
219,193,180280,6,0,P|273:217|356:204,1,121.799996282959,2|2,0:2|0:2,0:0:0:0:
388,147,180723,2,0,P|441:126|510:128,1,121.799996282959,2|0,0:2|0:2,0:0:0:0:
505,126,181462,1,2,0:2:0:0:
452,236,181758,6,0,L|532:224,1,60.8999981414796,2|0,0:2|0:2,0:0:0:0:
450,331,182053,2,0,L|531:347,1,60.8999981414796,2|0,0:2|0:2,0:0:0:0:
372,283,182645,6,0,P|311:290|252:272,1,121.799996282959,2|2,0:2|0:2,0:0:0:0:
204,203,183088,2,0,P|137:195|79:215,1,121.799996282959,2|2,0:2|0:2,0:0:0:0:
3,234,183531,2,0,L|7:170,1,60.8999981414796,2|0,0:2|0:2,0:0:0:0:
13,87,183827,1,2,0:2:0:0:
87,218,184418,6,0,L|147:228,1,60.8999981414796,2|0,0:2|0:2,0:0:0:0:
97,129,184714,2,0,L|172:116,1,60.8999981414796,2|0,0:2|0:2,0:0:0:0:
228,186,185009,5,2,0:2:0:0:
228,186,185305,2,0,B|322:165|306:237|403:223,1,182.699994424439,2|2,0:2|0:2,0:0:0:0:
400,223,186339,6,0,P|407:265|423:306,1,87,4|0,1:1|0:0,0:0:0:0:
112,223,186635,2,0,P|104:265|88:306,1,87,4|0,1:1|0:0,0:0:0:0:
257,114,186930,2,0,B|224:190|287:199|254:283,1,174,10|0,1:2|0:0,0:0:0:0:
313,42,187374,6,0,P|251:73|181:75,1,139.2,4|0,1:1|1:0,0:0:0:0:
98,40,187817,2,0,L|28:30,1,69.6,2|12,1:2|1:2,0:0:0:0:
112,247,188260,1,2,1:2:0:0:
112,247,188408,2,0,L|42:237,1,69.6,2|0,1:2|0:0,0:0:0:0:
275,312,189147,2,0,P|216:309|139:347,1,139.2,12|4,0:2|1:2,0:0:0:0:
435,283,189738,5,2,1:2:0:0:
435,283,189886,2,0,L|365:273,1,69.6,2|0,1:2|0:0,0:0:0:0:
217,92,190329,1,12,0:2:0:0:
360,15,190625,1,2,1:2:0:0:
360,15,190773,2,0,L|290:25,1,69.6,2|0,1:2|0:2,0:0:0:0:
149,170,191216,1,0,1:0:0:0:
217,92,191364,1,0,1:0:0:0:
413,164,191512,2,0,B|346:146|347:193|277:176,1,139.2,12|4,1:2|0:2,0:0:0:0:
459,321,192103,5,6,1:2:0:0:
459,321,192250,2,0,L|389:331,1,69.6,2|0,1:2|0:0,0:0:0:0:
149,170,192694,1,12,1:2:0:0:
285,82,192989,1,6,1:2:0:0:
285,82,193137,2,0,L|215:92,1,69.6,2|0,1:2|1:0,0:0:0:0:
54,298,193433,5,8,0:2:0:0:
121,76,193581,1,0,1:0:0:0:
121,76,193728,1,0,1:0:0:0:
157,332,193876,1,12,0:2:0:0:
157,332,194024,2,0,P|159:294|163:262,1,69.6,0|0,1:0|1:0,0:0:0:0:
29,100,194319,1,0,1:0:0:0:
183,81,194467,6,0,B|130:55|130:55|96:100|29:100,1,174,4|0,1:1|0:0,0:0:0:0:
343,81,194911,2,0,B|396:55|396:55|430:100|497:101,1,174,4|2,1:2|1:3,0:0:0:0:
255,234,195354,1,8,1:2:0:0:
149,173,195502,5,0,1:2:0:0:
136,189,195576,1,0,1:0:0:0:
127,206,195649,2,0,P|121:232|118:258,1,52.1999984069825,4|0,1:1|1:0,0:0:0:0:
363,173,195797,1,0,1:0:0:0:
376,189,195871,1,0,1:0:0:0:
385,206,195945,2,0,P|391:232|393:268,1,52.1999984069825,4|0,1:2|1:0,0:0:0:0:
255,234,196093,5,0,1:0:0:0:
199,7,196241,1,8,1:3:0:0:
360,92,196388,1,8,1:2:0:0:
326,76,196462,1,8,1:2:0:0:
290,78,196536,1,8,1:2:0:0:
257,93,196610,1,8,1:2:0:0:
225,109,196684,1,8,1:2:0:0:
189,110,196758,1,8,1:2:0:0:
155,95,196832,6,0,L|165:225,1,130.5,4|0,1:1|0:0,0:0:0:0:
150,310,197127,2,0,P|152:266|164:225,1,87,4|0,1:1|0:0,0:0:0:0:
84,374,197423,1,6,1:2:0:0:
246,282,197571,1,0,1:0:0:0:
45,181,197718,2,0,P|57:222|59:265,1,87,12|0,1:2|0:0,0:0:0:0:
215,119,198014,6,0,P|171:117|130:102,1,87,6|0,1:2|1:0,0:0:0:0:
285,195,198310,2,0,P|369:191|428:251,1,174,12|6,1:2|1:2,0:0:0:0:
313,89,198753,1,0,1:0:0:0:
338,378,198901,2,0,L|332:280,1,87,14|0,1:2|0:0,0:0:0:0:
68,293,199196,6,0,B|159:273|145:340|233:324,1,174,6|12,1:2|1:2,0:0:0:0:
205,140,199640,2,0,P|213:182|211:225,1,87,2|4,0:0|1:2,0:0:0:0:
99,384,199935,1,0,1:0:0:0:
402,203,200083,2,0,L|310:191,1,87,14|0,1:2|0:0,0:0:0:0:
15,195,200379,6,0,L|107:183,1,87,6|0,1:2|0:0,0:0:0:0:
402,65,200674,2,0,L|315:76,1,87,14|0,1:2|0:0,0:0:0:0:
37,305,200970,6,0,L|129:293,1,87,6|0,1:2|1:0,0:0:0:0:
387,190,201191,1,0,1:0:0:0:
402,203,201265,2,0,L|315:214,1,87,14|0,1:2|0:0,0:0:0:0:
213,355,201561,6,0,P|160:288|173:205,1,174,4|12,1:1|1:2,0:0:0:0:
239,48,202004,2,0,P|251:89|251:138,1,87,2|4,0:0|1:2,0:0:0:0:
141,106,202300,1,0,1:0:0:0:
354,86,202448,2,0,L|440:78,1,87,14|0,1:2|0:0,0:0:0:0:
481,234,202743,6,0,P|425:201|361:204,1,130.5,4|0,1:2|0:0,0:0:0:0:
336,198,203039,2,0,P|347:239|349:283,1,87,14|0,1:2|0:0,0:0:0:0:
354,86,203334,2,0,P|384:54|420:31,1,87,6|0,1:2|1:0,0:0:0:0:
241,127,203630,2,0,P|198:116|160:96,1,87,14|0,1:2|0:0,0:0:0:0:
78,293,203925,6,0,P|144:240|230:243,2,174,6|12|4,1:2|1:2|1:2,0:0:0:0:
64,109,204664,1,0,1:0:0:0:
62,130,204738,1,0,1:0:0:0:
60,151,204812,1,12,1:2:0:0:
182,129,204960,6,0,L|280:120,1,87,4|4,0:1|1:2,0:0:0:0:
354,316,205255,1,0,0:0:0:0:
181,354,205403,2,0,L|279:363,1,87,12|0,0:1|0:0,0:0:0:0:
505,203,205699,5,8,1:3:0:0:
470,177,205773,1,0,1:0:0:0:
427,169,205847,1,0,1:0:0:0:
386,180,205920,1,0,1:0:0:0:
353,208,205994,1,2,1:3:0:0:
320,236,206068,1,0,1:0:0:0:
278,247,206142,1,0,1:0:0:0:
236,239,206216,1,0,1:0:0:0:
200,212,206290,6,0,L|210:75,1,130.5,2|0,1:3|0:0,0:0:0:0:
126,101,206585,2,0,P|169:97|209:81,1,87,4|0,1:1|0:0,0:0:0:0:
85,188,206881,1,6,1:2:0:0:
146,6,207029,1,0,1:0:0:0:
304,135,207177,2,0,P|304:91|312:48,1,87,12|0,1:2|0:0,0:0:0:0:
443,281,207472,6,0,P|442:324|434:367,1,87,6|0,1:2|0:0,0:0:0:0:
400,180,207768,2,0,P|334:233|248:224,1,174,12|6,1:2|1:2,0:0:0:0:
304,135,208211,1,0,1:0:0:0:
152,268,208359,2,0,P|149:224|140:182,1,87,14|0,1:2|0:0,0:0:0:0:
27,63,208654,6,0,B|117:41|107:105|195:89,1,174,6|12,1:2|1:2,0:0:0:0:
301,111,209098,1,2,1:2:0:0:
304,93,209172,1,0,1:0:0:0:
307,76,209246,5,4,1:2:0:0:
305,203,209393,1,0,1:2:0:0:
182,265,209541,1,12,1:2:0:0:
47,191,209689,1,0,1:2:0:0:
131,354,209837,5,4,1:1:0:0:
208,147,209984,1,8,0:3:0:0:
375,305,210132,1,2,1:3:0:0:
206,123,210280,1,2,0:3:0:0:
278,331,210428,6,0,L|285:253,1,78.2999976104737,8|0,1:2|0:0,0:0:0:0:
82,206,210723,2,0,L|74:128,1,78.2999976104737,8|0,1:2|0:0,0:0:0:0:
325,69,211019,5,8,1:2:0:0:
181,151,211167,1,2,1:3:0:0:
336,94,211315,5,2,1:3:0:0:
173,124,211463,1,2,1:3:0:0:
338,124,211610,5,2,1:3:0:0:
175,94,211758,1,2,1:3:0:0:
330,151,211906,5,2,1:3:0:0:
186,69,212054,1,2,1:3:0:0:
397,1,212201,5,2,1:3:0:0:
130,214,212349,1,2,1:3:0:0:
423,73,212497,5,2,1:3:0:0:
89,150,212645,1,2,1:3:0:0:
422,150,212792,5,8,1:2:0:0:
88,73,212940,1,2,1:3:0:0:
381,214,213088,5,0,1:0:0:0:
114,1,213236,1,2,1:3:0:0:
384,24,213383,5,12,1:3:0:0:
384,24,213531,2,0,L|389:101,1,52.1999984069825,8|0,1:0|0:0,0:0:0:0:
151,151,213827,2,0,L|138:265,1,104.399996813965,6|2,1:3|1:3,0:0:0:0:
342,347,214270,1,0,1:0:0:0:
73,95,214418,6,0,P|142:113|228:50,1,174,4|0,1:1|0:0,0:0:0:0:
419,270,214861,5,8,1:2:0:0:
383,245,214935,1,8,1:2:0:0:
341,237,215009,1,8,1:2:0:0:
299,246,215082,1,8,1:2:0:0:
264,272,215157,1,8,1:2:0:0:
229,297,215231,1,8,1:2:0:0:
187,307,215305,1,8,1:2:0:0:
145,299,215379,1,8,1:2:0:0:
59,303,215452,6,0,P|67:278|73:252,1,52.1999984069825,2|0,1:2|1:0,0:0:0:0:
180,190,215600,2,0,P|175:164|168:139,1,52.1999984069825,2|0,1:2|1:0,0:0:0:0:
92,87,215748,6,0,L|240:103,1,143.550004380798,4|0,1:1|0:0,0:0:0:0:
345,140,216044,2,0,P|334:95|338:45,1,95.7000029205323,4|0,1:1|0:0,0:0:0:0:
266,198,216339,1,6,1:2:0:0:
435,86,216487,1,0,0:0:0:0:
250,5,216635,1,14,1:2:0:0:
425,253,216782,6,0,P|359:189|260:200,1,191.400005841065,2|0,1:2|1:0,0:0:0:0:
90,97,217226,2,0,P|138:100|185:91,1,95.7000029205323,14|0,1:2|0:0,0:0:0:0:
250,5,217521,1,6,1:2:0:0:
131,255,217669,1,0,1:0:0:0:
144,241,217743,1,0,1:0:0:0:
157,227,217817,2,0,L|144:321,1,95.7000029205323,14|0,1:2|0:0,0:0:0:0:
240,186,218113,6,0,P|146:196|81:127,1,191.400005841065,6|12,1:2|1:2,0:0:0:0:
287,101,218556,2,0,L|396:95,1,95.7000029205323,0|6,0:0|1:2,0:0:0:0:
338,240,218851,1,0,1:0:0:0:
340,221,218925,1,0,1:0:0:0:
342,202,218999,1,14,1:2:0:0:
279,6,219147,6,0,P|288:53|287:101,1,95.7000029205323,4|0,1:1|0:0,0:0:0:0:
449,176,219443,2,0,P|441:199|437:260,1,60.8999981414796,0|0,1:0|1:0,0:0:0:0:
237,211,219590,6,0,B|144:184|153:259|53:233,1,191.400005841065,4|4,1:1|1:2,0:0:0:0:
198,346,220034,1,0,1:0:0:0:
201,327,220108,1,0,1:0:0:0:
204,308,220182,1,14,1:2:0:0:
93,134,220329,1,0,0:0:0:0:
336,131,220477,6,0,L|337:274,1,143.550004380798,6|0,1:2|0:0,0:0:0:0:
336,131,220773,2,0,P|292:150|244:153,1,95.7000029205323,14|0,1:2|0:0,0:0:0:0:
427,178,221068,1,6,1:2:0:0:
266,47,221216,1,0,1:2:0:0:
219,248,221364,1,12,1:2:0:0:
40,122,221512,1,2,1:2:0:0:
40,122,221585,1,0,1:0:0:0:
40,122,221659,6,0,L|136:118,1,95.7000029205323,6|0,1:2|0:0,0:0:0:0:
94,237,221955,1,12,1:2:0:0:
266,47,222103,2,0,P|252:92|249:140,1,95.7000029205323,2|4,0:0|1:2,0:0:0:0:
430,192,222398,1,0,1:0:0:0:
430,192,222472,1,0,1:0:0:0:
430,192,222546,2,0,P|443:146|446:98,1,95.7000029205323,14|0,1:2|0:0,0:0:0:0:
316,237,222842,5,8,1:3:0:0:
376,12,222989,1,8,1:3:0:0:
376,12,223285,5,2,1:3:0:0:
147,86,223433,1,2,1:3:0:0:
147,86,223728,5,8,1:2:0:0:
359,134,223876,2,0,P|288:129|228:175,1,143.550004380798,8|0,1:2|0:0,0:0:0:0:
224,192,224172,1,8,1:2:0:0:
461,189,224319,2,0,P|473:127|467:79,1,95.7000029205323,8|0,1:2|0:0,0:0:0:0:
484,341,224615,6,0,P|458:337|432:330,1,52.1999984069825,8|8,1:2|1:2,0:0:0:0:
353,235,224763,2,0,P|327:238|301:245,1,52.1999984069825,8|8,1:2|1:2,0:0:0:0:
200,349,224911,6,0,P|174:351|148:358,1,52.1999984069825,8|8,1:2|1:2,0:0:0:0:
131,139,225059,2,0,P|106:136|81:129,1,52.1999984069825,8|8,1:2|1:2,0:0:0:0:
12,240,225206,6,0,L|155:235,1,143.550004380798,4|0,1:1|0:0,0:0:0:0:
260,193,225502,2,0,P|244:233|242:294,1,95.7000029205323,4|0,1:1|0:0,0:0:0:0:
149,358,225797,1,6,1:2:0:0:
260,193,225945,1,0,0:0:0:0:
325,372,226093,1,14,1:2:0:0:
511,212,226241,6,0,P|445:275|349:264,1,191.400005841065,2|0,1:2|1:2,0:0:0:0:
344,71,226684,2,0,P|356:117|359:164,1,95.7000029205323,14|0,1:2|0:0,0:0:0:0:
418,0,226980,1,6,1:2:0:0:
240,189,227127,1,0,1:0:0:0:
243,170,227201,1,0,1:0:0:0:
246,151,227275,1,14,1:2:0:0:
172,57,227423,1,0,0:0:0:0:
50,160,227571,6,0,L|145:153,1,95.7000029205323,6|0,1:2|0:0,0:0:0:0:
507,223,227866,2,0,P|438:160|346:174,1,191.400005841065,12|6,1:2|1:2,0:0:0:0:
284,264,228310,1,0,0:0:0:0:
342,68,228457,1,14,1:2:0:0:
414,261,228605,1,0,0:0:0:0:
243,61,228753,6,0,P|249:86|255:111,3,52.1999984069825,8|0|0|0,1:2|1:0|1:0|1:0,0:0:0:0:
450,110,229049,2,0,P|443:135|437:160,3,52.1999984069825,8|0|0|0,1:2|1:0|1:0|1:0,0:0:0:0:
414,261,229344,6,0,P|418:291|424:320,1,60.8999981414796,2|0,1:2|1:0,0:0:0:0:
296,277,229492,2,0,P|283:313|276:334,1,60.8999981414796,2|0,1:2|1:0,0:0:0:0:
212,209,229640,2,0,P|183:218|154:226,1,60.8999981414796,6|0,1:2|1:0,0:0:0:0:
22,82,229787,6,0,P|77:40|197:71,1,174,4|0,1:1|0:0,0:0:0:0:
176,52,230231,2,0,P|166:85|162:120,1,69.6,2|0,1:2|0:0,0:0:0:0:
363,183,230526,2,0,P|372:114|357:46,1,139.2,10|0,0:2|0:0,0:0:0:0:
357,46,230970,1,0,1:2:0:0:
268,126,231117,6,0,P|265:162|259:225,1,69.6,2|0,1:2|0:0,0:0:0:0:
477,202,231413,2,0,P|472:167|469:132,1,69.6,2|0,0:2|1:0,0:0:0:0:
358,340,231709,2,0,L|363:179,1,139.2,10|0,1:2|0:0,0:0:0:0:
358,340,232152,1,0,1:0:0:0:
425,129,232300,5,8,1:3:0:0:
394,103,232373,1,0,1:0:0:0:
354,94,232447,1,0,1:0:0:0:
314,107,232521,1,0,1:0:0:0:
286,137,232596,1,8,1:3:0:0:
258,168,232669,1,0,1:0:0:0:
219,180,232743,1,0,1:0:0:0:
178,172,232817,1,0,1:0:0:0:
147,145,232891,5,2,1:3:0:0:
148,124,232965,1,0,1:0:0:0:
149,103,233038,1,0,1:0:0:0:
151,82,233112,1,0,1:0:0:0:
139,7,233186,6,0,L|146:58,1,52.1999984069825,2|0,1:3|1:0,0:0:0:0:
45,136,233334,2,0,L|39:187,1,52.1999984069825,0|0,1:0|1:0,0:0:0:0:
227,303,233482,5,2,1:3:0:0:
110,330,233630,1,0,1:0:0:0:
115,344,233704,1,0,1:0:0:0:
120,358,233778,2,0,L|128:247,1,104.399996813965,8|0,1:2|0:0,0:0:0:0:
45,136,234073,5,4,1:1:0:0:
92,156,234147,1,0,1:0:0:0:
144,151,234220,1,0,1:0:0:0:
187,124,234295,1,0,1:0:0:0:
213,79,234369,2,0,P|233:63|279:48,1,60.8999981414796,8|8,1:2|1:2,0:0:0:0:
372,103,234516,2,0,P|401:110|431:125,1,60.8999981414796,8|8,1:2|1:2,0:0:0:0:
391,19,234664,6,0,B|400:90|400:90|384:133|384:133|395:205,1,191.400005841065,0|4,1:1|1:1,0:0:0:0:
351,339,235108,1,2,1:0:0:0:
353,320,235182,1,0,1:0:0:0:
355,301,235255,1,4,1:2:0:0:
451,289,235403,1,2,0:2:0:0:
297,215,235551,1,12,1:2:0:0:
116,313,235699,6,2,B|252:308|252:308|177:263,1,191.400005841065,2|2,0:2|0:2,0:1:0:0:
131,205,236142,2,2,P|125:158|146:115,1,95.7000029205323,12|2,1:2|0:1,0:1:0:0:
161,103,236364,1,0,1:0:0:0:
179,96,236438,1,4,1:2:0:0:
233,181,236585,1,2,0:0:0:0:
43,118,236733,1,12,1:2:0:0:
43,118,236881,1,2,0:2:0:0:
89,304,237029,5,2,1:1:0:0:
122,200,237177,1,2,0:0:0:0:
233,181,237324,1,12,1:2:0:0:
309,262,237472,2,2,L|303:326,2,47.8500014602662,2|0|4,1:2|1:2|1:2,0:1:0:0:
416,289,237768,2,2,L|521:298,1,95.7000029205323,2|12,0:2|1:2,0:1:0:0:
204,279,238063,2,2,L|99:270,1,95.7000029205323,2|4,0:2|1:2,0:1:0:0:
48,188,238285,5,0,1:0:0:0:
74,167,238359,1,2,1:2:0:0:
106,159,238433,1,0,1:0:0:0:
139,164,238507,1,12,1:2:0:0:
256,22,238654,1,2,0:0:0:0:
451,139,238802,5,4,1:2:0:0:
431,111,238876,1,0,1:0:0:0:
404,92,238950,1,2,1:2:0:0:
371,84,239024,1,0,1:0:0:0:
338,88,239098,1,12,1:2:0:0:
294,238,239246,6,2,L|299:172,2,47.8500014602662,2|0|4,1:2|1:2|1:2,0:1:0:0:
395,217,239541,1,2,0:0:0:0:
220,117,239689,2,2,B|177:101|177:101|120:162|154:253,1,191.400005841065,12|4,1:2|1:2,0:1:0:0:
221,316,240132,1,2,0:0:0:0:
294,238,240280,2,2,B|340:223|340:223|388:235,1,95.7000029205323,12|2,1:2|0:2,0:1:0:0:
458,169,240576,5,2,0:0:0:0:
461,302,240723,1,4,1:2:0:0:
364,132,240871,5,14,1:2:0:0:
346,318,241019,1,2,0:0:0:0:
281,61,241167,5,4,1:2:0:0:
221,334,241315,1,2,0:0:0:0:
154,81,241462,5,14,1:2:0:0:
223,311,241610,1,2,0:0:0:0:
226,169,241758,6,2,P|184:191|132:186,1,95.7000029205323,4|2,1:2|0:2,0:1:0:0:
281,61,242053,1,12,1:2:0:0:
137,187,242201,2,2,B|236:160|228:245|327:221,1,191.400005841065,2|2,0:2|1:2,0:1:0:0:
443,162,242645,1,12,1:2:0:0:
432,257,242792,2,2,L|443:162,1,95.7000029205323,2|4,0:2|1:2,0:1:0:0:
435,45,243014,5,0,1:0:0:0:
410,66,243088,1,2,1:2:0:0:
378,75,243161,1,0,1:0:0:0:
346,68,243236,1,12,1:2:0:0:
252,260,243383,1,2,0:0:0:0:
51,149,243531,5,4,1:2:0:0:
71,175,243605,1,0,1:0:0:0:
99,192,243679,1,2,1:2:0:0:
132,196,243753,1,0,1:0:0:0:
162,187,243827,5,10,1:2:0:0:
205,159,243901,1,2,1:2:0:0:
256,152,243975,1,2,1:2:0:0:
305,166,244049,1,2,1:2:0:0:
341,202,244122,6,0,P|311:277|243:245,1,156.599995220947,2|0,1:3|0:0,0:0:0:0:
256,152,244418,2,0,L|259:99,2,52.1999984069825,14|0|2,0:1|1:0|1:2,0:0:0:0:
341,202,244714,1,4,1:2:0:0:
259,5,244861,1,2,0:2:0:0:
164,190,245009,1,10,1:1:0:0:
58,86,245157,6,2,B|108:69|108:69|156:85,1,104.399996813965,2|4,0:2|1:2,0:1:0:0:
411,107,245452,2,0,L|337:111,1,52.1999984069825,2|0,1:2|1:0,0:0:0:0:
258,99,245600,1,10,1:1:0:0:
259,119,245674,1,0,1:0:0:0:
260,139,245748,1,2,1:2:0:0:
321,305,245896,6,2,L|329:196,1,104.399996813965,4|2,1:2|0:1,0:1:0:0:
427,237,246191,2,0,L|422:289,1,52.1999984069825,12|0,1:2|1:0,0:0:0:0:
224,292,246339,2,0,L|219:344,1,52.1999984069825,2|0,1:2|1:0,0:0:0:0:
65,197,246487,6,2,L|179:201,1,104.399996813965,4|2,1:2|0:2,0:1:0:0:
260,139,246782,1,12,1:2:0:0:
48,184,246930,6,2,B|116:172|116:172|149:213|150:263|122:309,1,208.79999362793,2|2,0:2|0:2,0:1:0:0:
35,334,247374,2,0,L|37:267,1,52.1999984069825,10|0,1:1|1:0,0:0:0:0:
60,84,247521,1,2,1:2:0:0:
0,168,247669,5,4,1:2:0:0:
30,188,247743,1,0,1:0:0:0:
66,193,247817,1,2,1:2:0:0:
101,184,247891,1,0,1:0:0:0:
130,162,247964,1,12,1:2:0:0:
396,211,248113,1,2,0:1:0:0:
456,126,248261,5,4,1:2:0:0:
425,106,248335,1,0,1:0:0:0:
389,101,248409,1,2,1:2:0:0:
354,110,248483,1,0,1:0:0:0:
325,132,248556,1,12,1:2:0:0:
228,276,248704,2,0,L|232:212,1,52.1999984069825,2|0,0:1|0:0,0:0:0:0:
257,53,248851,6,2,B|219:21|219:21|227:142,1,156.599995220947,4|0,1:2|0:2,0:1:0:0:
128,79,249147,2,0,L|65:71,2,52.1999984069825,10|0|2,1:1|1:0|1:2,0:0:0:0:
325,132,249443,1,4,1:2:0:0:
139,181,249590,1,2,0:2:0:0:
230,87,249738,1,10,1:1:0:0:
228,107,249812,1,0,1:0:0:0:
226,127,249886,1,2,1:2:0:0:
128,79,250034,6,0,L|71:68,1,52.1999984069825,4|0,1:2|1:0,0:0:0:0:
139,181,250182,2,0,L|64:200,1,52.1999984069825,2|0,1:2|1:0,0:0:0:0:
325,132,250329,1,12,1:2:0:0:
325,132,250477,2,2,B|435:109|413:197|518:185,1,208.79999362793,2|2,0:2|0:2,0:1:0:0:
498,11,250920,2,0,P|495:36|493:63,1,52.1999984069825,10|0,1:1|1:0,0:0:0:0:
339,275,251068,1,0,1:2:0:0:
344,254,251142,1,0,1:0:0:0:
350,234,251216,6,0,L|356:335,1,78.2999976104737,8|0,1:3|0:0,0:0:0:0:
115,78,251512,2,0,L|109:179,1,78.2999976104737,8|0,1:3|0:0,0:0:0:0:
53,256,251807,6,0,L|48:326,1,52.1999984069825,8|0,1:2|1:0,0:0:0:0:
346,181,251955,2,0,L|351:251,1,52.1999984069825,8|0,1:2|1:0,0:0:0:0:
228,113,252103,1,8,1:2:0:0:
91,113,252398,5,2,1:3:0:0:
138,132,252472,1,0,1:0:0:0:
189,122,252546,1,0,1:0:0:0:
226,87,252620,1,0,1:0:0:0:
228,113,252694,5,2,1:3:0:0:
275,93,252768,1,0,1:0:0:0:
326,103,252842,1,0,1:0:0:0:
363,138,252915,1,0,1:0:0:0:
387,128,252989,6,0,P|381:153|378:179,1,52.1999984069825,8|0,1:2|1:0,0:0:0:0:
487,106,253137,2,0,P|498:129|518:160,1,52.1999984069825,8|0,1:2|1:0,0:0:0:0:
413,27,253285,1,8,1:2:0:0:
413,27,253581,6,0,L|326:22,1,87,12|0,1:2|1:0,0:0:0:0:
453,324,253876,2,0,L|366:319,1,87,12|0,1:2|1:0,0:0:0:0:
218,67,254172,2,0,L|131:62,1,87,12|0,1:2|1:0,0:0:0:0:
277,259,254467,2,0,L|190:254,1,87,12|0,1:2|1:0,0:0:0:0:
425,134,254763,6,0,L|338:129,1,87,12|0,1:2|1:0,0:0:0:0:
202,352,255058,2,0,L|115:347,1,87,12|0,1:2|1:0,0:0:0:0:
453,324,255354,2,0,L|366:319,1,87,12|0,1:2|1:0,0:0:0:0:
256,76,255649,2,0,L|169:71,1,87,12|0,2:2|1:0,0:0:0:0:
49,43,255871,1,0,1:0:0:0:
49,43,255945,6,0,L|57:129,1,87,12|0,1:2|1:0,0:0:0:0:
255,215,256241,2,0,L|263:301,1,87,12|0,1:2|1:0,0:0:0:0:
84,268,256536,2,0,L|92:354,1,87,12|0,1:2|1:0,0:0:0:0:
316,48,256832,2,0,L|324:134,1,87,12|0,1:2|1:0,0:0:0:0:
162,17,257127,6,0,L|170:103,1,87,12|0,1:2|1:0,0:0:0:0:
486,237,257423,2,0,L|494:323,1,87,12|0,1:2|1:0,0:0:0:0:
263,301,257718,2,0,L|255:215,1,87,12|0,1:2|1:0,0:0:0:0:
431,67,257940,1,0,1:0:0:0:
420,46,258014,2,0,L|428:132,1,87,12|0,1:2|1:0,0:0:0:0:
486,237,258236,1,0,1:0:0:0:
486,237,258310,6,0,L|399:232,1,87,12|0,1:1|1:0,0:0:0:0:
293,52,258605,2,0,L|206:47,1,87,12|0,1:2|1:0,0:0:0:0:
501,102,258901,2,0,L|414:97,1,87,12|0,1:2|1:0,0:0:0:0:
190,330,259196,2,0,L|103:325,1,87,12|0,1:2|1:0,0:0:0:0:
457,353,259492,6,0,L|370:348,1,87,12|0,1:2|1:0,0:0:0:0:
232,223,259787,2,0,L|145:218,1,87,12|0,1:2|1:0,0:0:0:0:
325,28,260083,2,0,L|238:23,1,87,12|0,1:2|1:0,0:0:0:0:
151,105,260379,1,12,1:2:0:0:
1,254,260526,6,0,B|32:205|82:192|82:192|106:218|147:217,1,174,4|2,1:1|1:3,0:0:0:0:
361,105,260970,1,2,1:3:0:0:
512,254,261117,6,0,B|480:205|430:192|430:192|407:218|365:217,1,174,4|8,1:1|1:3,0:0:0:0:
256,312,261561,1,8,1:3:0:0:
253,32,261709,6,0,B|223:110|288:118|256:201,1,174,8|2,1:3|1:3,0:0:0:0:
256,312,262152,1,2,1:3:0:0:
256,312,262448,1,0,1:0:0:0:
253,32,262743,5,8,1:2:0:0:
253,32,262891,1,8,1:2:0:0:
351,99,263186,2,0,P|384:107|419:112,2,69.6,2|2|2,0:0|0:0|0:0,0:0:0:0:
146,177,263778,2,0,P|112:185|77:190,1,69.6,2|2,0:0|0:0,0:0:0:0:
220,254,264073,6,0,B|337:226|321:321|433:296,1,226.2,4|0,1:1|0:0,0:0:0:0:
452,280,265108,6,0,L|442:340,1,60.8999981414796,8|0,1:3|0:0,0:0:0:0:
401,104,265403,2,0,L|387:200,1,87,4|0,1:0|0:0,0:0:0:0:
275,170,265699,2,0,L|264:238,1,69.6,0|0,1:0|0:0,0:0:0:0:
217,79,265994,2,0,P|134:61|70:115,1,174,10|0,0:0|1:0,0:0:0:0:
95,218,266438,6,0,B|188:194|180:256|263:238,1,174,4|0,1:1|0:0,0:0:0:0:
339,310,266881,1,12,0:2:0:0:
298,150,267029,1,0,1:0:0:0:
205,350,267177,5,12,0:2:0:0:
357,63,267324,1,0,1:0:0:0:
363,341,267472,5,12,0:2:0:0:
249,50,267620,1,0,1:0:0:0:
31,263,267768,5,4,1:1:0:0:
66,227,267842,1,0,1:0:0:0:
112,210,267915,1,0,1:0:0:0:
161,215,267989,1,0,1:0:0:0:
203,240,268063,1,8,1:2:0:0:
244,265,268137,1,0,1:0:0:0:
293,269,268211,1,0,1:0:0:0:
340,252,268285,1,0,1:0:0:0:
373,216,268359,5,8,1:3:0:0:
339,183,268433,1,0,1:0:0:0:
326,135,268507,1,0,1:0:0:0:
342,88,268581,1,0,1:0:0:0:
380,57,268654,1,2,1:3:0:0:
428,50,268728,1,0,1:0:0:0:
472,72,268802,1,0,1:0:0:0:
500,113,268876,1,0,1:0:0:0:
500,161,268950,6,0,L|337:142,1,143.550004380798,4|0,1:1|0:0,0:0:0:0:
270,191,269246,2,0,P|269:143|252:99,1,95.7000029205323,4|0,1:1|0:0,0:0:0:0:
358,251,269541,1,6,1:2:0:0:
252,99,269689,1,0,1:0:0:0:
193,263,269837,1,14,1:2:0:0:
0,219,269984,6,0,P|66:154|159:158,1,191.400005841065,2|0,1:2|1:0,0:0:0:0:
448,267,270428,2,0,P|403:247|355:251,1,95.7000029205323,14|0,1:2|0:0,0:0:0:0:
287,329,270723,1,6,1:2:0:0:
252,99,270871,1,0,1:0:0:0:
265,85,270945,1,0,1:0:0:0:
279,71,271019,2,0,L|270:166,1,95.7000029205323,14|0,1:2|0:0,0:0:0:0:
195,16,271315,5,6,1:2:0:0:
369,126,271462,1,0,0:0:0:0:
192,232,271610,1,12,1:2:0:0:
321,347,271758,2,0,L|329:251,1,95.7000029205323,2|4,0:0|1:2,0:0:0:0:
409,128,272053,1,2,1:2:0:0:
389,127,272127,1,0,1:0:0:0:
369,126,272201,1,12,1:2:0:0:
82,116,272349,6,0,B|185:96|169:171|265:159,1,191.400005841065,2|0,1:2|1:0,0:0:0:0:
243,57,272792,1,12,1:2:0:0:
113,314,272940,2,0,P|118:266|114:218,1,95.7000029205323,2|4,0:2|1:2,0:0:0:0:
365,102,273236,1,0,1:0:0:0:
365,102,273310,1,0,1:0:0:0:
365,102,273383,2,0,P|359:149|363:197,1,95.7000029205323,14|0,1:2|0:0,0:0:0:0:
242,327,273679,6,0,L|235:183,1,143.550004380798,4|0,1:1|0:0,0:0:0:0:
254,90,273975,2,0,P|206:89|160:76,1,95.7000029205323,14|0,1:2|0:0,0:0:0:0:
337,25,274270,1,6,1:2:0:0:
235,183,274418,1,0,1:0:0:0:
423,175,274566,1,14,1:2:0:0:
334,131,274714,1,2,1:2:0:0:
332,149,274787,1,0,1:0:0:0:
330,168,274861,5,4,1:2:0:0:
437,61,275009,1,0,0:0:0:0:
231,59,275157,1,12,1:2:0:0:
396,274,275305,2,0,P|335:213|225:223,1,191.400005841065,2|0,0:0|1:0,0:0:0:0:
143,157,275748,2,0,P|126:201|129:256,1,95.7000029205323,14|0,1:2|0:0,0:0:0:0:
67,77,276044,5,6,1:2:0:0:
235,216,276191,1,0,0:0:0:0:
27,338,276339,2,0,P|76:294|206:311,1,191.400005841065,14|4,1:2|1:2,0:0:0:0:
335,207,276782,2,0,L|430:201,1,95.7000029205323,2|12,1:2|1:2,0:0:0:0:
197,117,277078,6,0,B|207:183|207:183|184:231|184:231|194:302,1,191.400005841065,4|2,1:1|1:3,0:0:0:0:
96,156,277521,2,0,L|0:150,1,95.7000029205323,12|0,1:2|0:0,0:0:0:0:
290,29,277817,6,0,P|290:52|292:76,1,47.8500014602662,8|0,1:2|0:0,0:0:0:0:
96,156,277965,2,0,P|95:179|93:203,1,47.8500014602662,0|0,1:2|0:0,0:0:0:0:
214,360,278113,6,0,L|215:293,1,60.8999981414796,2|0,1:2|0:0,0:0:0:0:
216,176,278260,1,4,1:1:0:0:
216,176,279602,5,8,1:3:0:0:
216,176,279749,1,8,1:3:0:0:
149,248,280045,5,8,1:3:0:0:
217,80,280193,1,2,1:3:0:0:
287,249,280340,1,2,1:3:0:0:
118,136,280488,2,0,L|37:126,1,69.6,2|2,1:3|1:3,0:0:0:0:
313,133,280784,6,0,P|376:110|478:188,1,174,4|0,1:1|0:0,0:0:0:0:
211,58,281227,2,0,L|216:208,1,130.5,4|0,1:1|0:0,0:0:0:0:
269,355,281523,2,0,L|273:299,1,43.5,0|0,1:0|1:0,0:0:0:0:
309,221,281670,6,0,B|225:192|227:258|140:234,1,174,4|0,1:1|1:0,0:0:0:0:
82,152,282114,2,0,P|89:91|161:70,1,130.5,10|0,1:2|0:0,0:0:0:0:
250,82,282409,6,0,P|235:103|224:127,1,52.1999984069825,0|0,1:0|1:0,0:0:0:0:
314,169,282557,2,0,P|309:194|308:220,1,52.1999984069825,10|0,0:2|0:0,0:0:0:0:
431,279,282705,1,0,1:0:0:0:
421,297,282779,1,0,1:0:0:0:
411,315,282853,2,0,L|409:190,1,104.399996813965,10|0,0:2|0:0,0:0:0:0:
512,61,283140,6,0,P|449:105|382:101,1,139.2,4|0,1:1|0:0,0:0:0:0:
329,36,283583,1,0,1:0:0:0:
269,104,283731,2,0,B|172:79|176:164|71:141,1,208.8,14|0,0:2|1:0,0:0:0:0:
108,58,284322,6,0,P|117:126|120:196,1,139.2,4|0,1:2|1:0,0:0:0:0:
207,300,284765,1,0,1:0:0:0:
207,300,284839,1,0,1:0:0:0:
207,300,284913,2,0,L|219:207,1,69.6,14|0,0:2|0:0,0:0:0:0:
26,134,285208,2,0,L|17:203,1,69.6,2|0,1:2|0:0,0:0:0:0:
84,308,285504,1,4,1:1:0:0:
378,85,285800,5,2,1:3:0:0:
385,174,285947,1,2,1:3:0:0:
134,85,286243,5,8,1:2:0:0:
127,174,286390,1,8,1:2:0:0:
261,163,286686,6,0,L|264:264,1,69.6,4|0,1:1|1:0,0:0:0:0:
32,66,286908,1,0,1:0:0:0:
23,51,286982,2,0,L|20:152,1,69.6,4|0,1:1|1:0,0:0:0:0:
355,50,287203,1,0,1:0:0:0:
364,35,287277,2,0,L|367:136,1,69.6,4|0,1:1|1:0,0:0:0:0:
136,189,287499,1,0,1:0:0:0:
127,174,287573,2,0,L|124:275,1,69.6,4|0,1:1|0:0,0:0:0:0:
77,323,287861,6,0,P|139:276|216:284,1,156.599995220947,4|4,1:1|1:2,0:0:0:0:
467,189,288452,2,0,P|405:142|322:154,1,156.599995220947,14|4,1:2|1:2,0:0:0:0:
315,244,288895,1,0,1:0:0:0:
211,103,289043,6,0,P|222:140|224:179,1,78.2999976104737,6|8,1:2|0:2,0:0:0:0:
30,221,289338,2,0,P|18:183|16:144,1,78.2999976104737,6|0,1:2|0:0,0:0:0:0:
121,160,289634,1,6,1:2:0:0:
121,160,289782,2,0,L|133:329,1,156.599995220947,8|0,1:3|0:0,0:0:0:0:
245,243,290225,6,0,P|240:282|237:321,1,78.2999976104737,8|0,1:2|1:0,0:0:0:0:
15,144,290521,2,0,P|19:182|22:221,1,78.2999976104737,8|0,1:3|1:0,0:0:0:0:
379,101,290816,2,0,P|375:139|372:178,1,78.2999976104737,8|0,1:3|1:0,0:0:0:0:
120,48,291112,2,0,P|124:86|127:125,1,78.2999976104737,2|0,1:3|0:0,0:0:0:0:
274,383,291407,6,0,P|275:356|279:331,1,52.1999984069825,4|0,1:1|1:0,0:0:0:0:
371,178,291555,1,0,1:0:0:0:
344,210,291629,1,0,1:0:0:0:
307,228,291703,1,8,1:2:0:0:
266,230,291777,1,0,1:0:0:0:
226,215,291851,2,0,P|226:188|223:163,1,52.1999984069825,0|0,1:0|1:0,0:0:0:0:
89,53,291998,5,4,1:1:0:0:
57,79,292072,1,8,1:2:0:0:
44,118,292146,1,8,1:2:0:0:
52,159,292220,1,8,1:2:0:0:
79,191,292294,1,2,1:3:0:0:
105,222,292368,1,2,1:3:0:0:
114,263,292442,1,2,1:3:0:0:
100,302,292516,1,2,1:3:0:0:
69,330,292590,6,0,P|133:305|202:322,1,117.449996415711,6|0,1:2|0:0,0:0:0:0:
211,293,292885,2,0,P|201:330|199:369,1,78.2999976104737,4|0,1:1|0:0,0:0:0:0:
410,361,293181,2,0,P|408:321|398:284,1,78.2999976104737,4|0,1:2|1:2,0:0:0:0:
306,340,293476,1,12,1:2:0:0:
306,340,293624,1,0,0:0:0:0:
379,173,293772,6,0,P|343:189|305:196,1,78.2999976104737,6|0,1:2|0:0,0:0:0:0:
103,236,294067,1,12,1:2:0:0:
57,147,294215,2,0,P|110:140|200:217,1,156.599995220947,2|0,1:2|1:2,0:0:0:0:
247,106,294659,2,0,L|242:18,1,78.2999976104737,14|0,1:2|0:0,0:0:0:0:
444,8,294954,6,0,L|434:127,1,117.449996415711,6|0,1:2|0:0,0:0:0:0:
434,125,295250,2,0,L|512:115,1,78.2999976104737,12|0,1:2|0:0,0:0:0:0:
338,59,295545,1,6,1:2:0:0:
338,59,295693,1,0,1:2:0:0:
283,162,295841,2,0,P|288:201|283:240,1,78.2999976104737,14|0,1:2|0:0,0:0:0:0:
386,254,296136,6,0,L|450:271,1,47.8500014602662,4|0,1:2|1:0,0:0:0:0:
385,153,296284,2,0,L|457:142,1,47.8500014602662,0|0,1:0|1:0,0:0:0:0:
176,196,296432,2,0,P|170:157|177:115,1,78.2999976104737,14|0,1:2|0:0,0:0:0:0:
75,196,296727,6,0,L|11:209,1,47.8500014602662,4|0,1:2|1:0,0:0:0:0:
82,93,296875,2,0,L|36:80,1,47.8500014602662,0|0,1:0|1:0,0:0:0:0:
281,162,297023,1,10,1:2:0:0:
312,137,297097,1,8,1:2:0:0:
349,126,297171,1,8,1:2:0:0:
388,129,297245,1,8,1:2:0:0:
423,146,297319,6,0,P|394:197|390:255,1,117.449996415711,2|0,1:2|0:0,0:0:0:0:
493,308,297614,2,0,L|506:204,1,78.2999976104737,12|0,1:2|0:0,0:0:0:0:
389,254,297910,1,6,1:2:0:0:
389,254,298058,1,0,1:2:0:0:
283,219,298205,2,0,L|292:296,1,78.2999976104737,14|0,1:2|0:0,0:0:0:0:
292,296,298501,6,0,L|195:291,1,78.2999976104737,6|0,1:2|0:0,0:0:0:0:
170,159,298796,1,12,1:2:0:0:
34,195,298944,2,0,P|91:149|187:171,1,156.599995220947,2|0,1:2|1:2,0:0:0:0:
262,114,299388,2,0,P|271:152|268:193,1,78.2999976104737,14|0,1:2|0:0,0:0:0:0:
131,331,299683,6,0,P|121:292|124:251,1,78.2999976104737,6|0,1:2|0:0,0:0:0:0:
33,109,299979,2,0,P|91:157|182:152,1,156.599995220947,14|4,1:2|1:2,0:0:0:0:
261,215,300422,1,0,1:2:0:0:
311,126,300570,2,0,P|313:87|305:49,1,78.2999976104737,14|0,1:2|0:0,0:0:0:0:
414,37,300865,6,0,L|486:25,1,47.8500014602662,4|0,1:2|1:0,0:0:0:0:
418,131,301013,2,0,L|478:145,1,47.8500014602662,0|0,1:0|1:0,0:0:0:0:
197,100,301161,2,0,P|189:134|192:182,1,78.2999976104737,14|0,1:2|0:0,0:0:0:0:
94,90,301457,6,0,L|30:72,1,47.8500014602662,4|0,1:2|1:0,0:0:0:0:
90,187,301604,2,0,L|28:202,1,47.8500014602662,0|0,1:0|1:0,0:0:0:0:
296,142,301752,2,0,L|380:140,1,78.2999976104737,14|0,1:2|0:0,0:0:0:0:
477,293,302048,6,0,P|412:250|336:258,1,156.599995220947,4|12,1:1|1:2,0:0:0:0:
254,304,302491,2,0,P|215:310|176:315,1,78.2999976104737,2|4,0:0|1:2,0:0:0:0:
93,268,302787,1,0,1:2:0:0:
21,328,302934,2,0,P|49:253|39:172,1,156.599995220947,14|4,1:2|1:2,0:0:0:0:
94,100,303378,5,0,0:0:0:0:
184,55,303526,2,0,P|180:93|183:133,1,78.2999976104737,14|0,1:2|0:0,0:0:0:0:
259,186,303821,2,0,P|295:169|333:159,1,78.2999976104737,6|0,1:2|1:2,0:0:0:0:
465,308,304117,2,0,P|405:257|327:260,1,156.599995220947,14|4,1:2|1:2,0:0:0:0:
281,339,304560,5,0,0:0:0:0:
202,287,304708,2,0,L|122:282,1,78.2999976104737,12|0,1:2|0:0,0:0:0:0:
36,316,305003,2,0,P|26:278|23:239,1,78.2999976104737,6|0,1:2|1:2,0:0:0:0:
150,102,305299,2,0,P|159:139|162:178,1,78.2999976104737,14|0,1:2|0:0,0:0:0:0:
63,151,305594,5,4,1:2:0:0:
63,151,305742,1,0,0:0:0:0:
255,137,305890,2,0,L|343:134,1,78.2999976104737,14|0,1:2|0:0,0:0:0:0:
425,112,306186,2,0,P|415:149|412:188,1,78.2999976104737,6|0,1:2|0:0,0:0:0:0:
413,189,306407,1,0,1:0:0:0:
413,189,306481,1,12,1:2:0:0:
472,261,306629,1,0,0:0:0:0:
386,302,306777,6,0,P|322:261|243:272,1,156.599995220947,4|12,1:1|1:2,0:0:0:0:
183,200,307220,2,0,P|143:197|103:187,2,78.2999976104737,2|4|0,0:0|1:2|1:2,0:0:0:0:
286,88,307663,2,0,P|276:119|271:176,1,78.2999976104737,14|0,1:2|0:0,0:0:0:0:
176,97,307959,5,6,1:2:0:0:
176,97,308107,1,0,0:0:0:0:
371,143,308255,1,12,1:2:0:0:
371,143,308402,2,0,B|394:211|351:221|375:297,1,156.599995220947,2|0,1:2|1:2,0:0:0:0:
461,250,308846,2,0,P|470:218|475:161,1,78.2999976104737,14|0,1:2|0:0,0:0:0:0:
428,62,309141,6,0,P|368:108|284:99,1,156.599995220947,4|12,1:1|1:2,0:0:0:0:
199,76,309585,1,0,0:0:0:0:
150,155,309732,2,0,P|111:146|72:142,1,78.2999976104737,6|0,1:2|0:0,0:0:0:0:
219,229,310028,1,12,1:2:0:0:
96,278,310176,1,0,1:0:0:0:
101,292,310250,1,0,1:0:0:0:
106,306,310324,6,0,L|113:233,3,52.1999984069825,2|0|0|0,1:3|1:0|1:0|1:0,0:0:0:0:
327,250,310619,2,0,L|320:177,3,52.1999984069825,2|0|0|0,1:3|1:0|1:0|1:0,0:0:0:0:
211,120,310915,1,2,1:3:0:0:
291,77,311210,5,8,1:2:0:0:
252,92,311284,1,8,1:2:0:0:
211,89,311357,1,8,1:2:0:0:
176,68,311432,1,8,1:2:0:0:
154,32,311506,5,8,1:2:0:0:
284,178,311654,1,2,0:0:0:0:
109,220,311801,1,12,0:1:0:0:
109,220,311875,1,0,0:0:0:0:
109,220,311949,1,2,0:2:0:0:
211,120,312097,1,4,1:2:0:0:
73,97,312245,1,2,1:2:0:0:
156,313,312393,2,0,P|113:317|71:328,1,87,12|0,1:2|0:0,0:0:0:0:
282,205,312688,5,4,1:2:0:0:
282,205,312836,1,2,1:2:0:0:
125,106,312984,2,0,P|167:116|211:120,1,87,12|0,1:2|0:0,0:0:0:0:
394,141,313279,2,0,P|331:192|332:285,1,174,6|12,1:2|1:2,0:0:0:0:
329,279,313723,1,0,0:0:0:0:
252,99,313870,5,4,1:2:0:0:
419,234,314018,1,2,0:0:0:0:
214,298,314166,1,12,1:2:0:0:
326,187,314314,1,2,0:0:0:0:
209,271,314461,1,4,1:2:0:0:
343,349,314609,1,2,1:2:0:0:
104,213,314757,2,0,P|112:255|113:307,1,87,12|0,1:2|0:0,0:0:0:0:
295,274,315053,6,0,L|209:271,1,87,4|2,1:2|1:2,0:0:0:0:
68,92,315274,1,0,1:0:0:0:
53,106,315348,2,0,L|139:109,1,87,12|0,1:2|0:0,0:0:0:0:
373,104,315644,1,6,1:2:0:0:
355,106,315718,1,0,1:0:0:0:
337,108,315792,1,0,1:0:0:0:
229,160,315939,2,0,P|239:119|238:74,1,87,14|0,1:2|0:0,0:0:0:0:
312,2,316235,5,4,1:1:0:0:
139,109,316383,1,2,0:0:0:0:
327,206,316530,1,12,1:2:0:0:
238,74,316678,1,2,0:0:0:0:
330,180,316826,1,4,1:2:0:0:
197,211,316974,1,2,1:2:0:0:
439,142,317122,2,0,P|430:185|428:229,1,87,12|0,1:2|0:0,0:0:0:0:
255,113,317417,5,4,1:2:0:0:
255,113,317565,1,2,1:2:0:0:
207,297,317713,2,0,P|204:253|196:210,1,87,12|0,1:2|0:0,0:0:0:0:
254,113,318008,2,0,P|170:114|112:44,1,174,6|12,1:2|1:2,0:0:0:0:
255,113,318452,1,0,0:0:0:0:
362,61,318599,6,0,P|351:104|349:147,1,87,6|0,1:2|1:0,0:0:0:0:
410,246,318821,1,0,1:0:0:0:
410,246,318895,2,0,B|328:219|332:289|243:266,1,174,14|4,1:2|1:2,0:0:0:0:
136,296,319338,1,0,1:0:0:0:
136,296,319412,1,0,1:0:0:0:
136,296,319486,2,0,P|146:253|148:210,1,87,14|0,1:2|0:0,0:0:0:0:
93,120,319782,5,4,1:2:0:0:
120,86,319856,1,0,1:0:0:0:
158,65,319929,1,0,1:0:0:0:
201,61,320003,1,0,1:0:0:0:
242,75,320077,1,14,1:2:0:0:
250,205,320225,1,0,0:0:0:0:
499,202,320373,5,4,1:2:0:0:
472,168,320447,1,0,1:0:0:0:
434,147,320520,1,0,1:0:0:0:
391,143,320594,1,0,1:0:0:0:
349,156,320668,2,0,P|357:198|356:241,1,87,14|0,1:2|0:0,0:0:0:0:
242,334,320964,6,0,L|250:192,1,130.5,4|0,1:1|0:0,0:0:0:0:
250,204,321260,2,0,P|208:220|155:229,1,87,14|0,1:2|0:0,0:0:0:0:
337,254,321555,1,6,1:2:0:0:
177,130,321703,1,0,1:2:0:0:
70,281,321851,2,0,P|68:237|58:195,1,87,14|0,1:2|0:0,0:0:0:0:
174,29,322146,5,4,1:2:0:0:
174,29,322294,1,0,0:0:0:0:
270,76,322442,2,0,P|271:119|281:161,1,87,14|0,1:2|0:0,0:0:0:0:
193,336,322737,2,0,P|230:313|261:283,1,87,6|0,1:2|1:0,0:0:0:0:
455,272,322958,1,0,1:0:0:0:
455,272,323033,2,0,P|416:251|375:238,1,87,14|0,1:2|0:0,0:0:0:0:
56,180,323328,6,0,P|108:213|178:212,1,130.5,4|0,1:1|0:0,0:0:0:0:
281,174,323624,2,0,P|269:215|268:259,1,87,14|0,1:2|0:0,0:0:0:0:
194,109,323920,1,6,1:2:0:0:
375,238,324067,1,0,1:2:0:0:
178,316,324215,1,14,1:2:0:0:
178,316,324363,1,0,0:0:0:0:
464,176,324511,5,4,1:2:0:0:
436,142,324585,1,0,1:0:0:0:
397,123,324659,1,0,1:0:0:0:
354,121,324732,1,0,1:0:0:0:
314,137,324806,1,14,1:2:0:0:
288,263,324954,1,0,0:0:0:0:
41,252,325102,5,4,1:2:0:0:
68,218,325176,1,0,1:0:0:0:
107,199,325250,1,0,1:0:0:0:
150,197,325323,1,0,1:0:0:0:
190,212,325397,2,0,P|180:254|182:297,1,87,14|0,1:2|0:0,0:0:0:0:
41,252,325693,6,0,L|47:118,1,130.5,4|0,1:1|0:0,0:0:0:0:
84,99,325989,2,0,P|37:94|-10:73,1,87,14|0,1:2|0:0,0:0:0:0:
185,84,326284,1,6,1:2:0:0:
185,84,326432,1,0,1:2:0:0:
142,185,326580,6,0,B|231:165|220:230|308:216,1,174,14|4,1:2|1:2,0:0:0:0:
301,24,327023,2,0,P|290:64|288:114,1,87,2|12,0:0|1:2,0:0:0:0:
147,309,327318,1,0,1:0:0:0:
155,324,327392,1,0,1:0:0:0:
163,339,327466,6,0,L|168:287,3,52.1999984069825,2|0|0|0,1:3|1:0|1:0|1:0,0:0:0:0:
402,228,327762,2,0,L|396:176,3,52.1999984069825,2|0|0|0,1:3|1:0|1:0|1:0,0:0:0:0:
193,72,328058,1,4,1:1:0:0:
193,72,328353,5,8,1:3:0:0:
496,196,328501,1,8,1:3:0:0:
496,196,328796,5,2,1:3:0:0:
149,288,328944,1,2,1:3:0:0:
149,287,329240,2,0,P|146:322|140:362,1,69.6,4|0,0:2|0:0,0:0:0:0:
142,184,329535,5,10,0:2:0:0:
214,85,329683,1,10,0:2:0:0:
366,54,329831,1,10,0:2:0:0:
498,170,329979,1,10,0:2:0:0:
242,148,330460,6,0,B|196:164|204:232|247:272|334:220|368:172|332:96|296:68|244:60|188:88|188:88|88:112|4:12|4:12|24:88|104:148|104:148|68:184|0:180|0:180|68:212|132:216|132:216|88:248|56:324|56:324|104:268|152:252|152:252|224:276|256:372|256:372|288:276|360:252|360:252|408:268|456:324|456:324|424:248|380:216|380:216|444:212|512:180|512:180|444:184|408:148|408:148|488:88|508:12|508:12|428:120|324:88,1,2474.66666666667,4|0,1:1|0:0,0:0:0:0:
