osu file format v14

[General]
AudioFilename: audio.mp3
AudioLeadIn: 0
PreviewTime: 337
Countdown: 0
SampleSet: Soft
StackLeniency: 0.7
Mode: 0
LetterboxInBreaks: 0
WidescreenStoryboard: 0

[Editor]
Bookmarks: 16087,29801,53802,69444,100301,127729,134586,175096,177672,249679,257369,308797,325942,367084,394512,405572,405679,405786,423662,444240,466519,480233,507418,517660,548499,558795,572509,586223,598223,632060,666322,688634,716052,736629,746931,774341
DistanceSpacing: 1
BeatDivisor: 4
GridSize: 16
TimelineZoom: 2.2

[Metadata]
Title:Fukakutei Shinkirou wa Haiiro no Machi no Katasumi de
TitleUnicode:不確定蜃気楼は灰色の街の片隅で
Artist:shoujo byou
ArtistUnicode:少女病
Creator:102335
Version:melophobia
Source:
Tags:Seigai Melophobia C80 Lico Aoi Yuki Mitsuki Haruka Tomatsu Pixelbee Hikarisyuyo Toshino Tanabe Mi-cyan Daisensei Muroya Strings Hironobu Asano GIRL-1008 bor _83
BeatmapID:1414600
BeatmapSetID:668693

[Difficulty]
HPDrainRate:5.5
CircleSize:4
OverallDifficulty:8
ApproachRate:9.3
SliderMultiplier:1.8
SliderTickRate:1

[Events]
//Background and Video events
0,0,"fukakutei.jpg",0,0
//Break Periods
2,136544,173147
2,490774,506631
2,601266,631549
//Storyboard Layer 0 (Background)
//Storyboard Layer 1 (Fail)
//Storyboard Layer 2 (Pass)
//Storyboard Layer 3 (Foreground)
//Storyboard Sound Samples

[TimingPoints]
9273,428.571428571429,4,2,1,35,1,0
15487,-133.333333333333,4,2,1,35,0,0
29844,-100,4,2,1,40,0,0
43558,-90.9090909090909,4,2,1,40,0,0
50415,434.782608695652,4,2,1,40,1,0
50415,-90.9090909090909,4,2,1,40,0,0
51501,416.666666666667,4,2,1,40,1,0
51501,-90.9090909090909,4,2,1,40,0,0
52126,428.571428571429,4,2,1,45,1,0
52126,-90.9090909090909,4,2,1,45,0,0
53845,428.571428571429,3,2,1,60,1,0
53845,-133.333333333333,3,2,1,60,0,0
55130,419.58041958042,3,2,1,60,1,0
55130,-133.333333333333,3,2,1,60,0,0
56283,500,3,2,1,60,1,0
56408,428.571428571429,3,2,1,60,1,0
56408,-133.333333333333,3,2,1,60,0,0
57693,437.158469945355,3,2,1,60,1,0
58130,428.571428571429,3,2,1,60,1,0
58130,-100,3,2,1,60,0,0
58987,428.571428571429,3,2,1,60,1,0
58987,-50,3,2,1,60,0,0
68630,428.571428571429,4,2,1,60,1,0
68630,-50,3,2,1,60,0,0
69487,428.571428571429,4,2,1,50,1,0
69487,-50,3,2,1,50,0,0
175139,645.161290322581,4,2,0,30,1,0
175784,618.556701030928,4,2,0,30,1,0
176402,658.616904500549,4,2,0,30,1,0
177060,655.737704918033,4,2,0,30,1,0
177715,648.648648648649,4,2,1,30,1,0
178363,638.297872340426,4,2,1,30,1,0
180277,645.161290322581,4,2,1,30,1,0
182212,659.340659340659,4,2,0,30,1,0
182871,631.578947368421,4,2,1,30,1,0
183502,652.173913043478,4,2,1,30,1,0
183719,-100,4,2,1,5,0,0
184154,638.297872340426,4,2,1,30,1,0
184792,645.161290322581,4,2,1,30,1,0
186082,631.578947368421,4,2,1,30,1,0
186713,645.161290322581,4,2,1,30,1,0
187358,638.297872340426,4,2,1,30,1,0
188634,652.173913043478,4,2,1,30,1,0
189286,645.161290322581,4,2,1,30,1,0
189931,631.578947368421,4,2,1,30,1,0
190562,643.776824034335,4,2,1,30,1,0
192493,631.578947368421,4,2,1,30,1,0
193124,652.173913043478,4,2,1,30,1,0
194428,638.297872340426,4,2,1,30,1,0
195066,631.578947368421,4,2,1,30,1,0
195697,652.173913043478,4,2,1,30,1,0
196349,638.297872340426,4,2,1,30,1,0
196987,641.711229946524,4,2,1,30,1,0
198270,652.173913043478,4,2,1,30,1,0
198922,645.161290322581,4,2,1,30,1,0
199567,652.173913043478,4,2,1,30,1,0
200219,643.43163538874,4,2,1,30,1,0
200862,631.578947368421,4,2,1,30,1,0
201493,645.161290322581,4,2,1,30,1,0
202138,652.173913043478,4,2,1,30,1,0
202790,655.737704918033,4,2,1,30,1,0
203445,631.578947368421,4,2,1,30,1,0
204076,638.297872340426,4,2,1,30,1,0
204714,631.578947368421,4,2,1,30,1,0
205135,693.64161849711,4,2,1,30,1,0
205366,666.666666666667,4,2,1,30,1,0
205810,603.015075376884,4,2,1,30,1,0
206011,638.297872340426,4,2,1,30,1,0
206649,631.578947368421,4,2,1,30,1,0
206859,621.761658031088,4,2,1,30,1,0
207066,659.340659340659,4,2,1,30,1,0
207616,545.454545454546,4,2,1,30,1,0
207706,643.43163538874,4,2,1,30,1,0
207920,612.244897959184,4,2,1,30,1,0
208124,645.161290322581,4,2,1,30,1,0
208343,600,4,2,1,30,1,0
208543,643.43163538874,4,2,1,40,1,0
249293,429.491768074445,4,2,0,40,1,0
249722,416.666666666667,4,2,1,50,1,0
250347,446.096654275093,4,2,1,50,1,0
250570,428.571428571429,4,2,1,50,1,0
257412,-76.9230769230769,4,2,1,50,0,0
308748,370.37037037037,4,2,1,50,1,0
308840,441.176470588235,4,2,1,50,1,0
308840,-50,4,2,1,50,0,0
309501,416.666666666667,4,2,1,50,1,0
309501,-50,4,2,1,50,0,0
310126,444.444444444444,4,2,1,50,1,0
310126,-50,4,2,1,50,0,0
311014,416.666666666667,4,2,1,40,1,0
311014,-50,4,2,1,40,0,0
311847,424.028268551237,4,2,1,50,1,0
311847,-50,4,2,1,50,0,0
312271,428.571428571429,4,2,1,50,1,0
312271,-40,4,2,1,50,0,0
325985,428.571428571429,3,2,1,50,1,0
325985,-66.6666666666667,3,2,1,50,0,0
326627,468.75,3,2,1,35,1,0
326627,-66.6666666666667,3,2,1,35,0,0
326861,441.176470588235,4,2,1,35,1,0
326861,-66.6666666666667,3,2,1,35,0,0
327081,416.666666666667,3,2,1,35,1,0
327081,-66.6666666666667,3,2,1,35,0,0
327289,428.571428571429,3,2,1,35,1,0
327289,-66.6666666666667,3,2,1,35,0,0
327931,434.782608695652,3,2,1,35,1,0
327931,-66.6666666666667,3,2,1,35,0,0
328583,428.571428571429,3,2,1,35,1,0
328583,-66.6666666666667,3,2,1,35,0,0
329225,431.654676258993,3,2,1,35,1,0
329225,-66.6666666666667,3,2,1,35,0,0
329872,422.535211267606,3,2,1,35,1,0
329872,-66.6666666666667,3,2,1,35,0,0
331139,425.531914893617,3,2,1,35,1,0
331139,-66.6666666666667,3,2,1,35,0,0
331564,419.58041958042,3,2,1,35,1,0
331773,461.538461538462,3,2,1,35,1,0
331773,-66.6666666666667,3,2,1,35,0,0
332234,390.879478827362,3,2,1,35,1,0
332429,428.571428571429,3,2,1,35,1,0
332429,-66.6666666666667,3,2,1,35,0,0
333071,416.666666666667,3,2,1,35,1,0
333071,-66.6666666666667,3,2,1,35,0,0
333487,437.956204379562,3,2,1,35,1,0
333696,-66.6666666666667,3,2,1,35,0,0
333705,461.538461538462,3,2,1,35,1,0
333705,-66.6666666666667,3,2,1,35,0,0
334166,410.958904109589,3,2,1,35,1,0
334166,-66.6666666666667,3,2,1,35,0,0
334268,436.363636363636,3,2,1,35,1,0
334377,422.535211267606,3,2,1,35,1,0
334377,-66.6666666666667,3,2,1,35,0,0
335010,428.571428571429,3,2,1,35,1,0
335010,-66.6666666666667,3,2,1,35,0,0
335224,419.58041958042,3,2,1,35,1,0
335643,418.118466898955,3,2,1,35,1,0
335643,-66.6666666666667,3,2,1,35,0,0
336061,428.571428571429,3,2,1,35,1,0
336275,434.782608695652,3,2,1,35,1,0
336275,-66.6666666666667,3,2,1,35,0,0
336927,428.571428571429,3,2,1,35,1,0
336927,-66.6666666666667,3,2,1,35,0,0
337569,431.654676258993,3,2,1,35,1,0
337569,-66.6666666666667,3,2,1,35,0,0
338216,444.444444444444,3,2,1,35,1,0
338216,-66.6666666666667,3,2,1,35,0,0
338660,428.571428571429,3,2,1,35,1,0
338874,419.58041958042,3,2,1,35,1,0
338874,-66.6666666666667,3,2,1,35,0,0
339503,454.545454545455,3,2,1,35,1,0
339503,-66.6666666666667,3,2,1,35,0,0
339957,422.535211267606,3,2,1,35,1,0
340168,410.958904109589,3,2,1,35,1,0
340578,441.176470588235,3,2,1,35,1,0
340578,-66.6666666666667,3,2,1,35,0,0
340798,434.782608695652,3,2,1,35,1,0
341015,437.956204379562,3,2,1,35,1,0
341015,-66.6666666666667,3,2,1,35,0,0
341233,416.666666666667,3,2,1,35,1,0
341441,394.736842105263,3,2,1,35,1,0
341441,-66.6666666666667,3,2,1,35,0,0
341638,461.538461538462,3,2,1,35,1,0
341868,389.61038961039,3,2,1,35,1,0
341868,-66.6666666666667,3,2,1,35,0,0
342062,461.538461538462,3,2,1,35,1,0
342292,416.666666666667,3,2,1,35,1,0
342292,-66.6666666666667,3,2,1,35,0,0
342500,441.176470588235,3,2,1,35,1,0
342720,428.571428571429,3,2,1,35,1,0
342720,-66.6666666666667,3,2,1,35,0,0
343148,422.535211267606,3,2,1,35,1,0
343148,-66.6666666666667,3,2,1,35,0,0
343359,444.444444444444,3,2,1,35,1,0
343581,425.531914893617,3,2,1,35,1,0
343581,-66.6666666666667,3,2,1,35,0,0
343793,437.956204379562,3,2,1,35,1,0
344011,431.654676258993,3,2,1,35,1,0
344011,-66.6666666666667,3,2,1,35,0,0
344442,410.958904109589,3,2,1,35,1,0
344442,-66.6666666666667,3,2,1,35,0,0
344647,458.015267175573,3,2,1,35,1,0
344876,419.58041958042,3,2,1,35,1,0
344876,-66.6666666666667,3,2,1,35,0,0
345085,430.10752688172,3,2,1,35,1,0
345300,422.535211267606,3,2,1,35,1,0
345722,410.958904109589,3,2,1,35,1,0
345722,-66.6666666666667,3,2,1,35,0,0
345927,451.127819548872,3,2,1,35,1,0
346152,427.046263345196,3,2,1,35,1,0
346152,-66.6666666666667,3,2,1,35,0,0
346365,431.654676258993,3,2,1,35,1,0
346580,428.571428571429,3,2,1,35,1,0
346580,-66.6666666666667,3,2,1,35,0,0
346794,419.58041958042,3,2,1,35,1,0
346794,-66.6666666666667,3,2,1,35,0,0
347213,442.80442804428,3,2,1,35,1,0
347434,428.571428571429,3,2,1,35,1,0
347434,-66.6666666666667,3,2,1,35,0,0
347862,425.531914893617,3,2,1,35,1,0
347862,-66.6666666666667,3,2,1,35,0,0
348074,425.531914893617,3,2,1,35,1,0
348283,-66.6666666666667,3,2,1,35,0,0
348499,447.761194029851,3,2,1,35,1,0
348722,-66.6666666666667,3,2,1,35,0,0
348946,413.793103448276,3,2,1,35,1,0
349152,413.793103448276,3,2,1,35,1,0
349152,-66.6666666666667,3,2,1,35,0,0
349358,441.176470588235,3,2,1,35,1,0
349468,410.958904109589,3,2,1,35,1,0
349570,416.666666666667,3,2,1,35,1,0
349570,-66.6666666666667,3,2,1,35,0,0
349882,451.127819548872,3,2,1,35,1,0
349994,434.782608695652,3,2,1,35,1,0
349994,-66.6666666666667,3,2,1,35,0,0
350211,451.127819548872,3,2,1,35,1,0
350436,410.958904109589,3,2,1,35,1,0
350436,-66.6666666666667,3,2,1,35,0,0
350641,441.176470588235,3,2,1,35,1,0
350861,416.666666666667,3,2,1,35,1,0
351485,454.545454545455,3,2,1,35,1,0
351598,468.75,3,2,1,35,1,0
351715,428.571428571429,3,2,1,40,1,0
351715,-66.6666666666667,3,2,1,40,0,0
351929,416.666666666667,3,2,1,40,1,0
352137,-66.6666666666667,3,2,1,40,0,0
352345,454.545454545455,3,2,1,40,1,0
352572,-66.6666666666667,3,2,1,40,0,0
352799,428.571428571429,3,2,1,40,1,0
353013,422.535211267606,3,2,1,40,1,0
353013,-66.6666666666667,3,2,1,40,0,0
353224,428.571428571429,3,2,1,40,1,0
353438,422.535211267606,3,2,1,40,1,0
353438,-66.6666666666667,3,2,1,40,0,0
353649,441.176470588235,3,2,1,40,1,0
353869,428.571428571429,3,2,1,40,1,0
353869,-66.6666666666667,3,2,1,40,0,0
354297,428.571428571429,3,2,1,40,1,0
354297,-66.6666666666667,3,2,1,40,0,0
354511,422.535211267606,3,2,1,40,1,0
354722,-66.6666666666667,3,2,1,40,0,0
354933,451.127819548872,3,2,1,40,1,0
355158,416.666666666667,3,2,1,40,1,0
355158,-66.6666666666667,3,2,1,40,0,0
355366,468.75,3,2,1,40,1,0
355600,405.405405405405,3,2,1,40,1,0
356005,428.571428571429,3,2,1,40,1,0
356433,405.405405405405,3,2,1,40,1,0
356635,400,3,2,1,40,1,0
356735,454.545454545455,3,2,1,40,1,0
356848,434.782608695652,3,2,1,45,1,0
357282,454.545454545455,3,2,1,45,1,0
357509,441.176470588235,3,2,1,45,1,0
357729,416.666666666667,3,2,1,45,1,0
358145,427.807486631016,3,2,1,45,1,0
359428,416.666666666667,3,2,1,45,1,0
359844,447.761194029851,3,2,1,45,1,0
360291,428.571428571429,3,2,1,45,1,0
360933,431.654676258993,3,2,1,45,1,0
361364,405.405405405405,3,2,1,45,1,0
361465,389.61038961039,3,2,1,45,1,0
361562,431.654676258993,3,2,1,45,1,0
361669,416.666666666667,3,2,1,45,1,0
361877,451.127819548872,3,2,1,45,1,0
361989,428.571428571429,3,2,1,45,1,0
362203,461.538461538462,3,2,1,45,1,0
362433,428.571428571429,3,2,1,45,1,0
362647,461.538461538462,3,2,1,45,1,0
362877,394.736842105263,3,2,1,45,1,0
362975,416.666666666667,3,2,1,45,1,0
363079,428.571428571429,3,2,1,45,1,0
363293,428.571428571429,3,2,1,45,1,0
363507,419.58041958042,3,2,1,45,1,0
363716,431.654676258993,3,2,1,45,1,0
363931,422.535211267606,3,2,1,45,1,0
364564,428.571428571429,3,2,1,45,1,0
364992,446.096654275093,3,2,1,45,1,0
365215,428.571428571429,3,2,1,45,1,0
365643,441.176470588235,3,2,1,45,1,0
365863,416.666666666667,3,2,1,45,1,0
366279,447.761194029851,3,2,1,45,1,0
366502,428.571428571429,3,2,1,45,1,0
366930,405.405405405405,3,2,1,45,1,0
367031,454.545454545455,3,2,1,45,1,0
367144,415.22491349481,4,2,1,50,1,0
367766,431.654676258993,4,2,1,50,1,0
368845,428.571428571429,4,2,1,50,1,0
394559,447.761194029851,4,2,1,50,1,0
394559,-50,4,2,1,50,0,0
395118,472.44094488189,4,2,1,50,1,0
395236,437.956204379562,4,2,1,50,1,0
395236,-50,4,2,1,50,0,0
395454,425.531914893617,4,2,1,50,1,0
395454,-50,4,2,1,50,0,0
395879,413.793103448276,4,2,1,50,1,0
395879,-50,4,2,1,50,0,0
396292,434.782608695652,4,2,1,50,1,0
396292,-50,4,2,1,50,0,0
396509,428.571428571429,4,2,1,50,1,0
396509,-50,4,2,1,50,0,0
396723,422.535211267606,4,2,1,50,1,0
396723,-50,4,2,1,50,0,0
397145,431.654676258993,4,2,1,50,1,0
397145,-50,4,2,1,50,0,0
398008,428.571428571429,4,2,1,50,1,0
398008,-50,4,2,1,50,0,0
408293,461.538461538462,4,2,1,50,1,0
408293,-50,4,2,1,50,0,0
408523,434.782608695652,4,2,1,50,1,0
408523,-50,4,2,1,50,0,0
408849,405.405405405405,4,2,1,50,1,0
408849,-50,4,2,1,50,0,0
408950,428.571428571429,4,2,1,50,1,0
408950,-50,4,2,1,50,0,0
409164,434.782608695652,4,2,1,50,1,0
409164,-50,4,2,1,50,0,0
409598,416.666666666667,4,2,1,50,1,0
409598,-50,4,2,1,50,0,0
410014,416.666666666667,4,2,1,50,1,0
410014,-50,4,2,1,50,0,0
410222,422.535211267606,4,2,1,50,1,0
410222,-50,4,2,1,50,0,0
410433,433.212996389892,4,2,1,50,1,0
410433,-50,4,2,1,50,0,0
410866,422.535211267606,4,2,1,50,1,0
410866,-50,4,2,1,50,0,0
411077,428.571428571429,4,2,1,50,1,0
411077,-50,4,2,1,50,0,0
411719,428.571428571429,4,2,1,50,1,0
411719,-50,4,2,1,50,0,0
412147,425.531914893617,4,2,1,50,1,0
412147,-50,4,2,1,50,0,0
412998,447.761194029851,4,2,1,50,1,0
412998,-50,4,2,1,50,0,0
413445,428.571428571429,4,2,1,50,1,0
413445,-50,4,2,1,50,0,0
413980,444.444444444444,4,2,1,50,1,0
413980,-50,4,2,1,50,0,0
414091,434.782608695652,4,2,1,50,1,0
414091,-50,4,2,1,50,0,0
414525,389.61038961039,4,2,1,50,1,0
414525,-50,4,2,1,50,0,0
414817,444.444444444444,4,2,1,50,1,0
414817,-50,4,2,1,50,0,0
415150,428.571428571429,4,2,1,50,1,0
415150,-50,4,2,1,50,0,0
423292,413.793103448276,4,2,1,50,1,0
423292,-50,4,2,1,50,0,0
423705,447.761194029851,4,2,1,50,1,0
423705,-50,4,2,1,50,0,0
424152,422.535211267606,4,2,1,50,1,0
424152,-50,4,2,1,50,0,0
424363,428.571428571429,4,2,1,50,1,0
424363,-50,4,2,1,50,0,0
424577,428.571428571429,4,2,1,50,1,0
424577,-50,4,2,1,50,0,0
425434,428.571428571429,4,2,1,50,1,0
425434,-50,4,2,1,50,0,0
426719,400,4,2,1,50,1,0
426719,-50,4,2,1,50,0,0
427019,444.444444444444,4,2,1,50,1,0
427130,428.571428571429,4,2,1,50,1,0
427130,-50,4,2,1,50,0,0
436344,454.545454545455,4,2,1,50,1,0
436571,428.571428571429,4,2,1,50,1,0
437213,405.405405405405,4,2,1,50,1,0
437415,431.654676258993,4,2,1,50,1,0
437415,-50,4,2,1,50,0,0
440868,428.571428571429,4,2,1,50,1,0
440868,-50,4,2,1,50,0,0
441725,422.535211267606,4,2,1,50,1,0
441725,-50,4,2,1,50,0,0
442358,428.571428571429,4,2,1,50,1,0
442358,-50,4,2,1,50,0,0
442572,428.571428571429,4,2,1,50,1,0
442572,-50,4,2,1,50,0,0
443857,434.782608695652,4,2,1,50,1,0
443857,-50,4,2,1,50,0,0
444074,419.58041958042,4,2,1,50,1,0
444283,428.571428571429,4,2,1,50,1,0
444283,-50,4,2,1,50,0,0
450283,425.531914893617,4,2,1,50,1,0
450283,-50,4,2,1,50,0,0
451134,428.571428571429,4,2,1,50,1,0
451134,-50,4,2,1,50,0,0
457776,-40,4,2,1,60,0,0
466348,-66.6666666666667,4,2,1,50,0,0
480919,434.782608695652,4,2,1,50,1,0
480919,-66.6666666666667,4,2,1,50,0,0
481136,428.571428571429,4,2,1,50,1,0
481136,-66.6666666666667,4,2,1,50,0,0
481350,422.535211267606,4,2,1,50,1,0
481350,-66.6666666666667,4,2,1,50,0,0
481772,434.782608695652,4,2,1,50,1,0
481989,428.571428571429,4,2,1,50,1,0
481989,-66.6666666666667,4,2,1,50,0,0
484560,-57.1428571428571,4,2,1,50,0,0
484989,-50,4,2,1,50,0,0
485417,428.571428571429,3,2,1,50,1,0
507461,422.535211267606,3,2,1,50,1,0
507461,-66.6666666666667,4,2,1,50,0,0
511263,428.571428571429,3,2,1,50,1,0
511263,-66.6666666666667,3,2,1,50,0,0
516405,441.176470588235,3,2,1,50,1,0
517287,416.666666666667,3,2,1,50,1,0
517703,431.654676258993,3,2,1,50,1,0
517918,428.571428571429,3,2,1,50,1,0
518346,441.176470588235,3,2,1,50,1,0
518566,422.535211267606,3,2,1,50,1,0
518988,422.535211267606,3,2,1,50,1,0
519621,458.015267175573,3,2,1,50,1,0
519850,422.535211267606,3,2,1,50,1,0
520272,425.531914893617,3,2,1,50,1,0
520910,444.444444444444,3,2,1,50,1,0
521132,436.999271667881,3,2,1,50,1,0
521568,428.571428571429,3,2,1,50,1,0
524139,431.654676258993,3,2,1,50,1,0
524570,400,3,2,1,50,1,0
524770,428.571428571429,3,2,1,50,1,0
525412,428.571428571429,3,2,1,50,1,0
531626,447.761194029851,3,2,1,50,1,0
531849,422.535211267606,3,2,1,50,1,0
532271,428.571428571429,3,2,1,50,1,0
532699,416.666666666667,3,2,1,50,1,0
533115,428.571428571429,3,2,1,50,1,0
534400,434.782608695652,3,2,1,50,1,0
536791,447.761194029851,3,2,1,50,1,0
537014,410.958904109589,3,2,1,50,1,0
538041,452.830188679245,3,2,1,50,1,0
538267,428.571428571429,3,2,1,50,1,0
545981,441.176470588235,3,2,1,50,1,0
545981,-66.6666666666667,3,2,1,50,0,0
546642,422.535211267606,3,2,1,50,1,0
546642,-66.6666666666667,3,2,1,50,0,0
547275,422.535211267606,3,2,1,50,1,0
547275,-66.6666666666667,3,2,1,50,0,0
548542,451.127819548872,3,2,1,50,1,0
548542,-66.6666666666667,3,2,1,50,0,0
549444,413.793103448276,3,2,1,50,1,0
549444,-66.6666666666667,3,2,1,50,0,0
549857,422.535211267606,3,2,1,50,1,0
549857,-66.6666666666667,3,2,1,50,0,0
551124,428.571428571429,3,2,1,50,1,0
551124,-66.6666666666667,3,2,1,50,0,0
558838,428.571428571429,4,2,1,60,1,0
558838,-40,3,2,1,60,0,0
572552,-40,3,2,1,60,0,1
578873,-40,3,2,1,60,0,0
579409,-40,3,2,1,60,0,1
585730,-40,3,2,1,60,0,0
586266,-40,3,2,1,60,0,1
586480,-40,3,2,1,60,0,0
586909,-40,3,2,1,60,0,0
587123,-40,3,2,1,60,0,1
587338,-40,3,2,1,60,0,0
587766,-40,3,2,1,60,0,0
587980,-40,3,2,1,60,0,1
588195,-40,3,2,1,60,0,0
588623,-40,3,2,1,60,0,0
588838,-40,3,2,1,60,0,1
589052,-40,3,2,1,60,0,0
589480,-40,3,2,1,60,0,0
589695,-40,3,2,1,60,0,1
589909,-40,3,2,1,60,0,0
590338,-40,3,2,1,60,0,0
590552,-40,3,2,1,60,0,1
590766,-40,3,2,1,60,0,0
591195,-40,3,2,1,60,0,0
593123,-40,3,2,1,60,0,1
593338,-40,3,2,1,60,0,0
593766,-40,3,2,1,60,0,0
593980,-40,3,2,1,60,0,1
594195,-40,3,2,1,60,0,0
594623,-40,3,2,1,60,0,0
594838,-40,3,2,1,60,0,1
595052,-40,3,2,1,60,0,0
595480,-40,3,2,1,60,0,0
595695,-40,3,2,1,60,0,1
595909,-40,3,2,1,60,0,0
596338,-40,3,2,1,60,0,0
596552,-40,3,2,1,60,0,1
596766,-40,3,2,1,60,0,0
597195,-40,3,2,1,60,0,0
597409,-40,3,2,1,60,0,1
597623,-40,3,2,1,60,0,0
632103,428.571428571429,4,2,1,50,1,0
633817,419.58041958042,4,2,1,50,1,0
634131,454.545454545455,4,2,1,50,1,0
634699,454.545454545455,4,2,1,50,1,0
634812,400,4,2,1,50,1,0
635212,428.571428571429,4,2,1,60,1,0
635531,-50,3,2,1,60,0,0
635533,428.571428571429,4,2,1,60,1,0
635533,-50,3,2,1,60,0,0
648390,416.666666666667,4,2,1,60,1,0
648390,-50,3,2,1,60,0,0
649223,428.571428571429,4,2,1,60,1,0
649223,-50,3,2,1,60,0,0
668937,483.870967741935,4,2,1,60,1,0
669057,-50,3,2,1,60,0,0
669178,428.571428571429,4,2,1,60,1,0
669606,-50,3,2,1,60,0,0
669820,428.571428571429,4,2,1,60,1,0
669820,-50,3,2,1,60,0,0
686534,-40,3,2,1,70,0,0
688677,-40,3,2,1,70,0,1
714391,652.173913043478,4,2,1,70,1,1
714554,428.571428571429,4,2,1,70,1,1
714661,352.941176470588,4,2,1,70,1,1
714661,-40,3,2,1,70,0,1
714837,428.571428571429,4,2,1,70,1,1
714837,-40,3,2,1,70,0,1
715051,375,4,2,1,70,1,1
715051,-40,3,2,1,70,0,1
715238,428.571428571429,4,2,1,70,1,1
715238,-40,3,2,1,70,0,1
715773,-40,3,2,1,65,0,1
715880,-40,3,2,1,60,0,1
715988,-40,3,2,1,50,0,1
716095,428.571428571429,3,2,1,40,1,0
716095,-40,3,2,1,40,0,0
724880,476.190476190476,3,2,1,40,1,0
725118,428.571428571429,3,2,1,50,1,0
725332,422.535211267606,3,2,1,50,1,0
726177,441.176470588235,3,2,1,50,1,0
726397,428.571428571429,3,2,1,50,1,0
726611,422.535211267606,3,2,1,50,1,0
727244,428.571428571429,3,2,1,50,1,0
727886,434.782608695652,3,2,1,50,1,0
728538,428.571428571429,3,2,1,50,1,0
729609,394.736842105263,3,2,1,50,1,0
729806,434.782608695652,3,2,1,50,1,0
730892,425.531914893617,3,2,1,50,1,0
731104,434.782608695652,3,2,1,50,1,0
731538,428.571428571429,3,2,1,50,1,0
731966,422.535211267606,3,2,1,50,1,0
732177,434.782608695652,3,2,1,50,1,0
732829,434.782608695652,3,2,1,50,1,0
733481,416.666666666667,3,2,1,50,1,0
734106,428.571428571429,3,2,1,50,1,0
735177,476.190476190476,3,2,1,50,1,0
735415,365.853658536585,3,2,1,50,1,0
735597,461.538461538462,3,2,1,50,1,0
735827,422.535211267606,3,2,1,50,1,0
736672,428.571428571429,3,2,1,50,1,0
737743,441.176470588235,3,2,1,50,1,0
737963,428.571428571429,3,2,1,50,1,0
739034,441.176470588235,3,2,1,50,1,0
739254,428.571428571429,3,2,1,50,1,0
740539,419.58041958042,3,2,1,50,1,0
741797,428.571428571429,3,2,1,50,1,0
742225,454.545454545455,3,2,1,50,1,0
742452,428.571428571429,3,2,1,50,1,0
742880,444.444444444444,3,2,1,50,1,0
743102,428.571428571429,3,2,1,50,1,0
745459,441.176470588235,3,2,1,50,1,0
745679,441.176470588235,3,2,1,50,1,0
745900,428.571428571429,3,2,1,50,1,0
746757,434.782608695652,3,2,1,50,1,0
746974,428.571428571429,4,2,1,60,1,0
746974,-66.6666666666667,4,2,1,60,0,0
747616,410.958904109589,4,2,1,60,1,0
747616,-66.6666666666667,4,2,1,60,0,0
748026,447.761194029851,4,2,1,60,1,0
748249,416.666666666667,4,2,1,60,1,0
748249,-66.6666666666667,4,2,1,60,0,0
748457,442.80442804428,4,2,1,60,1,0
748678,416.666666666667,4,2,1,60,1,0
748678,-66.6666666666667,4,2,1,60,0,0
749303,444.444444444444,4,2,1,60,1,0
749303,-66.6666666666667,4,2,1,60,0,0
749525,441.176470588235,4,2,1,60,1,0
749525,-66.6666666666667,4,2,1,60,0,0
749745,428.571428571429,4,2,1,60,1,0
749745,-66.6666666666667,4,2,1,60,0,0
750387,422.535211267606,4,2,1,60,1,0
750387,-66.6666666666667,4,2,1,60,0,0
750809,428.571428571429,4,2,1,60,1,0
750809,-66.6666666666667,4,2,1,60,0,0
753380,422.535211267606,4,2,1,60,1,0
753696,449.438202247191,4,2,1,60,1,0
753808,428.571428571429,4,2,1,60,1,0
753808,-66.6666666666667,4,2,1,60,0,0
754236,454.545454545455,4,2,1,60,1,0
754236,-66.6666666666667,4,2,1,60,0,0
754690,428.571428571429,4,2,1,60,1,0
754690,-66.6666666666667,4,2,1,60,0,0
754904,416.666666666667,4,2,1,60,1,0
754904,-66.6666666666667,4,2,1,60,0,0
755529,428.571428571429,4,2,1,60,1,0
755529,-66.6666666666667,4,2,1,60,0,0
756171,422.535211267606,4,2,1,60,1,0
756171,-66.6666666666667,4,2,1,60,0,0
757227,422.535211267606,4,2,1,60,1,0
757227,-66.6666666666667,4,2,1,60,0,0
757860,441.176470588235,4,2,1,60,1,0
757860,-66.6666666666667,4,2,1,60,0,0
759404,400,4,2,1,60,1,0
759604,426.287744227353,4,2,1,60,1,0
760243,425.531914893617,4,2,1,60,1,0
760243,-66.6666666666667,4,2,1,60,0,0
760668,434.782608695652,4,2,1,60,1,0
760668,-66.6666666666667,4,2,1,60,0,0
761329,425.531914893617,4,2,1,60,1,0
761329,-66.6666666666667,4,2,1,60,0,0
761754,419.58041958042,4,2,1,60,1,0
761754,-66.6666666666667,4,2,1,60,0,0
762383,428.571428571429,4,2,1,60,1,0
762383,-66.6666666666667,4,2,1,60,0,0
765168,434.782608695652,4,2,1,60,1,0
765168,-66.6666666666667,4,2,1,60,0,0
765820,428.571428571429,4,2,1,60,1,0
765820,-66.6666666666667,4,2,1,60,0,0
767105,416.666666666667,4,2,1,60,1,0
767105,-66.6666666666667,4,2,1,60,0,0
767730,449.438202247191,4,2,1,60,1,0
767954,444.444444444444,4,2,1,60,1,0
767954,-66.6666666666667,4,2,1,60,0,0
768398,416.666666666667,4,2,1,60,1,0
768398,-66.6666666666667,4,2,1,60,0,0
768814,428.571428571429,4,2,1,60,1,0
768814,-66.6666666666667,4,2,1,60,0,0
769242,428.571428571429,4,2,1,60,1,0
769242,-66.6666666666667,4,2,1,60,0,0
774384,428.571428571429,6,2,1,60,1,0
774384,-66.6666666666667,4,2,1,60,0,0
780812,441.176470588235,6,2,1,60,1,0
780812,-66.6666666666667,6,2,1,60,0,0
781253,422.535211267606,6,2,1,60,1,0
781675,441.176470588235,6,2,1,60,1,0
782116,428.571428571429,6,2,1,60,1,0
782116,-66.6666666666667,6,2,1,60,0,0
783401,422.535211267606,4,2,1,60,1,0
784246,441.176470588235,4,2,1,60,1,0
784687,428.571428571429,4,2,1,60,1,0

[Colours]
Combo1 : 139,207,156
Combo2 : 122,177,171
Combo3 : 132,140,198
Combo4 : 222,73,73

[HitObjects]
131,135,15487,6,0,P|127:99|113:51,2,67.5000025749208
104,210,16130,6,0,P|137:224|185:236,1,67.5000025749208,2|0,0:0|0:0,0:0:0:0:
52,149,16558,2,0,P|22:170|-11:206,1,67.5000025749208,2|0,0:0|0:0,0:0:0:0:
220,81,17201,2,0,P|224:48|231:15,2,67.5000025749208
281,134,17844,6,0,P|311:113|344:77,1,67.5000025749208,2|0,0:0|0:0,0:0:0:0:
273,224,18273,2,0,P|239:208|192:197,1,67.5000025749208,2|0,0:0|0:0,0:0:0:0:
402,341,18915,2,0,P|465:315|502:248,1,135.000005149842,2|0,0:0|0:0,0:0:0:0:
365,318,19558,6,0,P|308:326|243:370,1,135.000005149842,2|0,0:0|0:0,0:0:0:0:
394,384,20201,2,0,P|397:316|383:238,1,135.000005149842,2|0,0:0|0:0,0:0:0:0:
337,170,20844,2,0,P|350:124|362:105,1,67.5000025749208
423,189,21273,6,0,P|361:202|303:271,1,135.000005149842,2|0,0:0|0:0,0:0:0:0:
368,318,21915,2,0,P|373:350|368:390,1,67.5000025749208,2|0,0:0|0:0,0:0:0:0:
163,366,22344,1,0,0:0:0:0:
98,318,22558,1,0,0:0:0:0:
78,239,22773,1,0,0:0:0:0:
135,182,22987,6,0,P|120:213|115:266,2,67.5000025749208,2|0|0,0:0|0:0|0:0,0:0:0:0:
209,226,23630,2,0,L|363:241,1,135.000005149842,2|0,0:0|0:0,0:0:0:0:
429,198,24273,2,0,P|440:161|436:130,1,67.5000025749208,2|0,0:0|0:0,0:0:0:0:
395,48,24701,5,2,0:0:0:0:
395,48,25344,1,2,0:0:0:0:
328,98,25558,2,0,P|291:68|271:28,1,67.5000025749208
258,148,25987,2,0,L|247:214,1,67.5000025749208,2|0,0:0|0:0,0:0:0:0:
176,115,26415,6,0,P|154:44|102:9,1,135.000005149842,2|0,0:0|0:0,0:0:0:0:
27,38,27058,2,0,B|2:99|37:152|37:152|74:216|34:296,1,270.000010299683,2|0,0:0|0:0,0:0:0:0:
0,373,28130,5,2,0:0:0:0:
181,106,28773,1,2,0:0:0:0:
248,55,28987,2,0,P|301:64|332:80,1,67.5000025749208,2|0,0:0|0:0,0:0:0:0:
370,136,29415,1,2,0:0:0:0:
452,169,29630,1,2,0:0:0:0:
445,38,29844,6,0,P|426:82|434:135,1,90,6|0,3:2|0:0,0:0:0:0:
476,199,30273,2,0,P|495:243|487:296,1,90,2|0,0:0|0:0,0:0:0:0:
265,308,30915,2,0,P|310:311|362:335,2,90,0|2|0,0:0|0:0|0:0,0:0:0:0:
391,384,31558,6,0,P|385:348|400:281,1,90,2|0,3:2|0:0,0:0:0:0:
295,358,31987,2,0,L|177:379,1,90,2|0,0:0|0:0,0:0:0:0:
33,364,32630,2,0,P|82:321|-4:294,1,180,2|0,0:0|0:0,0:0:0:0:
12,351,33273,6,0,P|45:246|44:157,1,180,2|0,3:2|0:0,0:0:0:0:
9,82,33915,2,0,P|57:160|165:164,2,180,2|0|0,0:0|0:0|0:0,0:0:0:0:
85,0,34987,5,0,3:0:0:0:
85,0,35630,1,2,0:0:0:0:
284,50,36058,1,0,0:0:0:0:
186,65,36273,2,0,P|222:44|274:35,1,90,2|0,0:0|0:0,0:0:0:0:
355,73,36701,6,0,P|399:42|423:-1,1,90,2|0,3:2|0:0,0:0:0:0:
418,12,37130,1,0,0:0:0:0:
402,146,37344,2,0,P|395:196|430:257,1,90,2|0,0:0|0:0,0:0:0:0:
512,124,37773,2,0,P|444:177|347:167,1,180,2|0,0:0|0:0,0:0:0:0:
270,126,38415,6,0,P|188:143|177:235,1,180,2|0,3:2|0:0,0:0:0:0:
235,294,39058,1,0,0:0:0:0:
61,173,39487,2,0,P|89:215|95:268,2,90
0,220,40130,5,2,3:2:0:0:
297,364,40773,1,0,0:0:0:0:
302,272,40987,2,0,P|278:322|232:355,1,90,2|0,0:0|0:0,0:0:0:0:
251,202,41415,2,0,L|273:88,1,90,2|2,0:0|0:0,0:0:0:0:
354,164,41844,6,0,B|403:201|472:182|472:182|461:142|400:125,1,180,2|10,0:0|0:0,0:0:0:0:
350,84,42487,2,0,L|385:-15,1,90,2|4,0:0|3:0,0:0:0:0:
485,217,42915,1,0,3:0:0:0:
485,217,43023,1,8,0:0:0:0:
485,217,43130,1,8,0:0:0:0:
403,331,43344,2,0,P|380:340|329:347,1,45,2|0,0:0|0:0,0:0:0:0:
332,328,43558,6,0,P|281:308|224:302,1,99.0000030212403,6|0,0:0|0:0,0:0:0:0:
89,327,43987,1,8,0:0:0:0:
166,367,44201,2,0,P|245:348|177:264,1,198.000006042481,2|0,3:2|3:0,0:0:0:0:
134,190,44844,2,0,P|170:234|186:291,1,99.0000030212403,10|0,0:0|0:0,0:0:0:0:
67,256,45273,6,0,P|101:172|170:81,1,198.000006042481,0|8,3:0|0:0,0:0:0:0:
245,8,45915,2,0,P|258:70|159:53,1,198.000006042481,0|0,3:0|3:0,0:0:0:0:
319,124,46558,2,0,P|362:98|443:80,1,99.0000030212403,8|2,0:0|0:0,0:0:0:0:
488,147,46987,6,0,P|397:103|370:5,1,198.000006042481,2|8,3:2|0:0,0:0:0:0:
279,139,47630,2,0,L|257:278,1,99.0000030212403,2|0,3:2|0:0,0:0:0:0:
393,276,48058,2,0,P|348:244|304:227,2,99.0000030212403,0|8|0,3:0|0:0|0:0,0:0:0:0:
407,378,48701,6,0,P|382:321|346:285,1,99.0000030212403,0|0,3:0|0:0,0:0:0:0:
267,362,49130,2,0,L|50:378,1,198.000006042481,8|0,0:0|0:0,0:0:0:0:
69,376,49773,1,0,3:0:0:0:
12,275,49987,2,0,P|37:222|51:157,1,99.0000030212403,8|0,0:0|0:0,0:0:0:0:
59,107,50415,6,0,L|41:317,1,198.000006042481,6|8,0:0|0:0,0:0:0:0:
138,151,51067,1,8,3:0:0:0:
138,151,51175,1,8,3:0:0:0:
138,151,51284,2,0,P|165:96|165:48,1,99.0000030212403,4|0,3:0|0:0,0:0:0:0:
89,26,51709,2,0,L|100:150,1,99.0000030212403,4|0,3:0|0:0,0:0:0:0:
257,0,52126,5,4,0:1:0:0:
236,12,53411,2,0,L|425:27,1,148.50000453186,2|0,0:0|0:0,0:0:0:0:
498,123,53845,6,0,B|450:119|450:119|394:138|394:138|300:105,2,202.500007724762,4|2|4,0:0|0:0|0:0,0:0:0:0:
461,299,55549,2,0,P|451:267|457:215,1,67.5000025749208,8|0,3:0|0:0,0:0:0:0:
355,361,55969,2,0,L|347:325,1,33.7500012874604,0|0,3:0|3:0,0:0:0:0:
282,370,56178,2,0,L|274:334,1,33.7500012874604,0|0,3:0|3:0,0:0:0:0:
206,381,56408,6,0,B|191:333|191:333|215:278|215:278|197:184,2,202.500007724762,4|2|4,0:0|0:0|0:0,0:0:0:0:
17,140,58130,2,0,P|60:171|63:248,1,135,8|0,0:0|0:0,0:0:0:0:
36,295,58558,5,8,0:0:0:0:
26,237,58665,1,8,0:0:0:0:
51,179,58772,1,8,0:0:0:0:
106,140,58880,1,8,0:0:0:0:
185,155,58987,6,0,P|225:176|291:195,1,90,4|0,0:1|0:0,0:0:0:0:
362,157,59201,1,0,3:0:0:0:
282,217,59308,2,0,P|266:258|261:328,1,90,8|0,0:0|0:0,0:0:0:0:
369,180,59522,5,0,3:0:0:0:
441,117,59629,2,0,P|448:68|430:-9,1,90,6|0,0:0|0:0,0:0:0:0:
297,100,59844,2,0,L|176:80,1,90,2|8,0:0|0:0,0:0:0:0:
109,28,60058,2,0,P|119:64|111:175,1,90,2|0,3:2|0:0,0:0:0:0:
55,212,60272,6,0,P|42:260|40:311,1,90,4|0,0:0|0:0,0:0:0:0:
126,384,60487,1,0,3:0:0:0:
76,306,60594,2,0,P|25:326|-12:366,1,90,8|0,0:0|0:0,0:0:0:0:
148,364,60808,5,0,3:0:0:0:
227,300,60915,2,0,P|236:250|229:180,1,90,4|0,0:0|0:0,0:0:0:0:
325,325,61129,2,0,L|455:355,1,90,2|8,0:0|0:0,0:0:0:0:
501,294,61344,2,0,L|373:322,1,90,2|0,0:0|0:0,0:0:0:0:
278,374,61558,6,0,P|310:313|353:286,1,90,4|0,0:1|0:0,0:0:0:0:
425,291,61772,1,0,3:0:0:0:
322,263,61879,2,0,P|273:277|214:279,1,90,8|0,0:0|0:0,0:0:0:0:
334,179,62094,5,0,3:0:0:0:
411,125,62201,2,0,P|458:137|523:179,1,90,4|0,0:0|0:0,0:0:0:0:
307,166,62415,2,0,P|264:187|205:198,1,90,2|8,0:0|0:0,0:0:0:0:
126,162,62629,2,0,L|103:298,1,90,2|0,3:2|0:0,0:0:0:0:
214,112,62844,6,0,P|232:56|212:-21,1,90,4|0,0:0|0:0,0:0:0:0:
122,13,63058,1,0,3:0:0:0:
230,0,63165,2,0,P|263:20|334:36,1,90,8|0,0:0|0:0,0:0:0:0:
141,38,63379,5,0,3:0:0:0:
179,109,63487,1,8,0:0:0:0:
176,190,63594,1,8,0:0:0:0:
113,241,63701,5,8,0:0:0:0:
152,150,63808,1,8,0:0:0:0:
244,115,63915,1,8,0:0:0:0:
338,145,64022,1,8,0:0:0:0:
451,118,64129,6,0,P|395:134|348:172,1,90,4|0,0:1|0:0,0:0:0:0:
347,240,64344,1,0,3:0:0:0:
413,301,64451,2,0,P|436:343|438:398,1,90,8|0,0:0|0:0,0:0:0:0:
330,258,64665,5,0,3:0:0:0:
246,298,64772,2,0,L|69:311,1,90
240,208,64987,2,0,P|241:162|205:75,1,90,2|8,0:0|0:0,0:0:0:0:
160,40,65201,2,0,L|24:20,1,90,2|0,3:2|0:0,0:0:0:0:
203,131,65415,6,0,P|237:115|331:117,1,90,4|0,0:0|0:0,0:0:0:0:
388,140,65629,1,0,3:0:0:0:
332,219,65737,2,0,L|305:340,1,90,8|0,0:0|0:0,0:0:0:0:
409,169,65951,5,0,0:0:0:0:
438,74,66058,2,0,P|422:28|366:-13,1,90,4|0,0:0|0:0,0:0:0:0:
263,32,66272,2,0,L|131:4,1,90,2|8,0:0|0:0,0:0:0:0:
289,131,66487,2,0,P|304:172|283:262,1,90,2|0,3:2|0:0,0:0:0:0:
185,309,66701,6,0,P|209:344|286:364,1,90,4|0,0:1|0:0,0:0:0:0:
353,362,66915,1,0,3:0:0:0:
389,268,67022,2,0,P|417:226|467:203,1,90,8|0,0:0|0:0,0:0:0:0:
339,338,67237,5,0,3:0:0:0:
261,299,67344,2,0,P|230:320|143:342,1,90,4|0,0:0|0:0,0:0:0:0:
82,292,67558,2,0,L|90:174,1,90,2|8,0:0|0:0,0:0:0:0:
55,112,67772,2,0,P|95:146|117:189,1,90,2|0,3:2|0:0,0:0:0:0:
113,32,67987,6,0,L|220:21,1,90,4|0,0:0|0:0,0:0:0:0:
312,39,68201,1,0,3:0:0:0:
249,127,68308,2,0,P|226:170|170:208,1,90,8|0,0:0|0:0,0:0:0:0:
329,68,68522,5,0,3:0:0:0:
426,111,68629,2,0,L|541:120,1,90,2|0,0:0|0:0,0:0:0:0:
421,200,68844,2,0,P|454:238|465:306,1,90,2|8,0:0|0:0,0:0:0:0:
397,359,69058,5,8,0:0:0:0:
303,305,69165,1,8,0:0:0:0:
198,333,69272,1,10,0:0:0:0:
104,279,69380,1,10,0:0:0:0:
0,307,69487,6,0,P|65:280|92:229,1,90,2|0,3:2|0:0,0:0:0:0:
65,255,69701,2,0,L|57:373,1,90,8|0,0:0|0:0,0:0:0:0:
8,177,69915,1,0,3:0:0:0:
8,177,70022,1,0,3:0:0:0:
8,177,70129,1,10,0:0:0:0:
97,160,70237,1,2,0:0:0:0:
35,94,70344,6,0,L|167:66,1,90,2|0,3:2|0:0,0:0:0:0:
173,184,70558,2,0,L|41:212,1,90,10|0,0:0|0:0,0:0:0:0:
63,56,70772,2,0,L|229:64,1,90,2|0,3:2|0:0,0:0:0:0:
198,206,70987,2,0,L|31:197,1,90,8|0,0:0|0:0,0:0:0:0:
24,293,71201,5,0,3:0:0:0:
24,293,71308,1,0,3:0:0:0:
24,293,71415,2,0,P|36:336|77:381,1,90,10|0,0:0|0:0,0:0:0:0:
180,333,71629,2,0,P|185:287|154:216,1,90,2|0,3:2|0:0,0:0:0:0:
283,383,71844,1,10,0:0:0:0:
357,315,71951,6,0,P|400:337|459:354,2,90,2|0|0,0:0|3:0|0:0,0:0:0:0:
344,323,72272,2,0,P|303:283|316:238,1,90,8|0,0:0|0:0,0:0:0:0:
491,247,72487,1,0,3:0:0:0:
491,247,72594,1,0,3:0:0:0:
491,247,72701,2,0,L|382:239,1,90,10|0,0:0|0:0,0:0:0:0:
475,98,72915,6,0,P|430:141|337:167,1,90,2|0,3:2|0:0,0:0:0:0:
364,31,73129,1,8,0:0:0:0:
364,31,73237,1,0,3:0:0:0:
364,31,73344,2,0,P|344:75|334:164,1,90,2|0,3:2|0:0,0:0:0:0:
266,185,73558,2,0,P|259:137|230:84,1,90,10|0,0:0|0:0,0:0:0:0:
154,65,73772,6,0,L|32:78,1,90,2|0,3:2|0:0,0:0:0:0:
13,157,73987,2,0,L|135:170,1,90,10|0,0:0|0:0,0:0:0:0:
154,249,74201,2,0,L|32:262,1,90,2|0,3:2|3:0,0:0:0:0:
13,341,74415,2,0,L|135:354,1,90,10|0,0:0|0:0,0:0:0:0:
114,362,74629,6,0,L|203:352,1,90,0|0,3:0|0:0,0:0:0:0:
214,338,74844,2,0,P|224:294|148:290,1,90,8|0,0:0|0:0,0:0:0:0:
106,258,75058,1,0,3:0:0:0:
106,258,75165,1,0,3:0:0:0:
106,258,75272,1,8,0:0:0:0:
59,105,75487,5,0,3:0:0:0:
59,105,75594,2,0,L|41:220,2,90,2|8|0,3:0|0:0|0:0,0:0:0:0:
150,21,75915,1,0,3:0:0:0:
150,21,76022,1,0,3:0:0:0:
150,21,76129,2,0,P|196:26|246:53,1,90,10|0,0:0|0:0,0:0:0:0:
271,190,76344,6,0,P|228:166|201:135,1,90,2|0,3:2|0:0,0:0:0:0:
201,121,76558,2,0,P|249:119|289:133,1,90,8|0,0:0|0:0,0:0:0:0:
366,25,76772,1,0,3:0:0:0:
366,25,76879,1,0,3:0:0:0:
366,25,76987,2,0,P|367:78|409:132,1,90,10|0,0:0|0:0,0:0:0:0:
399,112,77201,6,0,P|433:144|456:199,1,90,0|0,3:0|0:0,0:0:0:0:
351,285,77415,2,0,P|359:229|389:188,1,90,10|0,0:0|0:0,0:0:0:0:
252,268,77629,2,0,L|98:288,1,90,2|0,3:2|3:0,0:0:0:0:
107,151,77844,2,0,L|261:171,1,90,10|0,0:0|0:0,0:0:0:0:
1,200,78058,6,0,P|24:231|38:320,1,90,2|0,3:2|0:0,0:0:0:0:
20,283,78272,2,0,P|23:216|41:177,1,90,8|0,0:0|0:0,0:0:0:0:
61,365,78487,2,0,P|109:346|179:353,1,90,2|0,3:2|3:0,0:0:0:0:
240,372,78701,1,8,0:0:0:0:
92,113,78915,5,2,3:0:0:0:
280,351,79129,2,0,P|312:363|402:379,1,90,10|0,0:0|0:0,0:0:0:0:
217,296,79344,2,0,P|172:302|76:335,1,90,2|0,3:2|3:0,0:0:0:0:
39,283,79558,1,10,0:0:0:0:
24,185,79665,6,0,P|63:210|145:225,2,90,2|0|0,0:0|3:0|0:0,0:0:0:0:
114,141,79987,2,0,P|116:98|101:47,1,90,8|0,0:0|0:0,0:0:0:0:
199,171,80201,1,0,3:0:0:0:
199,171,80308,1,0,3:0:0:0:
199,171,80415,1,10,0:0:0:0:
221,89,80522,1,2,0:0:0:0:
174,0,80629,6,0,P|179:49|217:105,1,90,2|0,3:2|0:0,0:0:0:0:
402,44,80844,2,0,P|377:87|376:154,1,90,10|0,0:0|0:0,0:0:0:0:
266,230,81058,2,0,P|265:186|248:144,1,90,2|0,3:2|3:0,0:0:0:0:
484,150,81272,2,0,P|457:114|420:90,1,90,10|0,0:0|0:0,0:0:0:0:
407,336,81487,6,0,P|447:299|476:238,1,90,2|0,3:2|0:0,0:0:0:0:
322,336,81701,2,0,P|276:351|187:363,1,90,10|0,0:0|0:0,0:0:0:0:
218,370,81915,2,0,P|266:367|355:378,1,90,0|0,3:0|3:0,0:0:0:0:
141,312,82129,2,0,P|153:271|216:251,1,90,10|0,0:0|0:0,0:0:0:0:
318,298,82344,6,0,P|371:310|448:305,1,90,2|0,3:0|0:0,0:0:0:0:
277,216,82558,1,8,0:0:0:0:
188,154,82665,1,8,0:0:0:0:
80,148,82772,1,2,3:0:0:0:
367,185,82987,1,8,0:0:0:0:
456,125,83094,1,8,0:0:0:0:
471,18,83201,6,0,P|438:54|426:131,1,90,4|0,0:1|0:0,0:0:0:0:
445,102,83415,2,0,P|468:51|469:8,1,90,8|0,0:0|0:0,0:0:0:0:
356,27,83629,2,0,L|229:2,1,90,2|0,3:2|3:0,0:0:0:0:
114,83,83844,6,0,P|159:66|207:73,1,90,10|0,0:0|0:0,0:0:0:0:
206,88,84058,2,0,P|254:97|311:103,1,90,0|0,3:0|0:0,0:0:0:0:
88,166,84272,2,0,P|76:73|47:37,1,90,10|0,0:0|0:0,0:0:0:0:
78,78,84487,1,0,3:0:0:0:
78,78,84594,1,0,3:0:0:0:
0,159,84701,6,0,P|58:181|112:245,1,90,10|0,0:0|0:0,0:0:0:0:
69,208,84915,2,0,P|94:264|87:348,1,90,0|0,3:0|0:0,0:0:0:0:
165,366,85129,2,0,P|193:334|217:268,1,90,10|0,0:0|0:0,0:0:0:0:
291,221,85344,2,0,P|311:266|314:322,1,90,0|0,3:0|3:0,0:0:0:0:
272,384,85558,1,10,0:0:0:0:
376,384,85665,6,0,P|416:361|491:346,2,90,2|0|0,0:0|3:0|0:0,0:0:0:0:
471,273,85987,2,0,P|488:228|527:181,1,90,8|0,0:0|0:0,0:0:0:0:
470,106,86201,1,0,3:0:0:0:
470,106,86308,1,0,3:0:0:0:
470,106,86415,2,0,L|444:-12,1,90,10|0,0:0|0:0,0:0:0:0:
366,97,86629,6,0,P|379:152|354:239,1,90,2|0,3:2|0:0,0:0:0:0:
291,236,86844,2,0,P|247:227|184:188,1,90,10|0,0:0|0:0,0:0:0:0:
356,309,87058,2,0,P|319:329|290:407,1,90,2|0,3:2|0:0,0:0:0:0:
256,248,87272,1,10,0:0:0:0:
168,294,87379,6,0,P|113:291|47:269,2,90,2|0|0,0:0|3:0|0:0,0:0:0:0:
98,187,87701,2,0,P|50:205|2:244,1,90,10|0,0:0|0:0,0:0:0:0:
90,103,87915,2,0,L|126:-4,1,90,2|0,3:2|0:0,0:0:0:0:
198,15,88129,2,0,P|241:30|315:25,1,90,10|0,0:0|0:0,0:0:0:0:
292,11,88344,6,0,P|273:52|272:107,1,90,0|0,3:0|0:0,0:0:0:0:
329,186,88558,2,0,L|236:208,1,90,10|0,0:0|0:0,0:0:0:0:
437,199,88772,2,0,P|432:137|445:77,1,90,2|0,3:2|0:0,0:0:0:0:
450,103,88987,2,0,P|479:41|481:-5,1,90,8|0,0:0|0:0,0:0:0:0:
472,0,89201,6,0,P|438:11|452:95,1,90,0|0,3:0|0:0,0:0:0:0:
445,82,89415,2,0,P|479:71|465:-13,1,90,8|0,0:0|0:0,0:0:0:0:
462,46,89629,1,0,3:0:0:0:
462,46,89737,1,0,3:0:0:0:
462,46,89844,1,10,0:0:0:0:
436,132,89951,1,2,0:0:0:0:
501,216,90058,6,0,P|468:284|464:341,1,90,6|0,0:0|0:0,0:0:0:0:
475,308,90272,2,0,P|446:279|422:231,1,90,8|0,0:0|0:0,0:0:0:0:
512,384,90487,1,0,3:0:0:0:
512,384,90594,1,0,3:0:0:0:
512,384,90701,2,0,L|389:370,1,90,8|0,0:0|0:0,0:0:0:0:
409,365,90915,6,0,L|302:380,1,90,2|0,3:2|0:0,0:0:0:0:
230,346,91129,2,0,P|248:311|235:235,1,90,10|0,0:0|0:0,0:0:0:0:
144,208,91344,2,0,P|126:243|139:319,1,90,2|0,3:2|0:0,0:0:0:0:
63,179,91558,2,0,P|24:151|-10:92,1,90,10|0,0:0|0:0,0:0:0:0:
79,6,91772,6,0,P|92:57|77:116,1,90,2|0,3:2|0:0,0:0:0:0:
103,102,91987,2,0,P|137:68|162:11,1,90,8|0,0:0|0:0,0:0:0:0:
18,137,92201,2,0,P|5:188|20:247,1,90,2|0,3:2|0:0,0:0:0:0:
77,320,92415,2,0,P|72:288|21:233,1,90,10|0,0:0|0:0,0:0:0:0:
0,384,92629,5,0,3:0:0:0:
0,384,92737,1,0,3:0:0:0:
0,384,92844,2,0,L|116:366,1,90,10|0,0:0|0:0,0:0:0:0:
175,297,93058,2,0,P|198:326|261:369,1,90,2|0,3:2|0:0,0:0:0:0:
173,174,93272,2,0,P|156:134|104:73,1,90,10|0,0:0|0:0,0:0:0:0:
274,0,93487,6,0,P|244:46|224:110,1,90,2|0,3:2|0:0,0:0:0:0:
343,168,93701,2,0,P|379:141|420:122,1,90,10|0,0:0|0:0,0:0:0:0:
489,221,93915,2,0,P|466:174|396:158,1,90,2|0,3:2|3:0,0:0:0:0:
358,200,94129,2,0,P|379:237|371:290,1,90,10|0,0:2|0:0,0:0:0:0:
354,292,94344,6,0,P|402:282|450:288,1,90,0|0,3:0|0:0,0:0:0:0:
288,354,94558,2,0,L|172:375,1,90,10|0,0:0|0:0,0:0:0:0:
272,247,94772,2,0,P|241:209|220:146,1,90,2|0,3:2|3:0,0:0:0:0:
370,198,94987,2,0,P|388:161|476:120,1,90,10|0,0:0|0:0,0:0:0:0:
511,127,95201,6,0,P|435:94|391:51,1,90,2|0,3:2|0:0,0:0:0:0:
377,22,95415,2,0,P|408:4|455:36,1,90,10|0,0:0|0:0,0:0:0:0:
305,0,95629,2,0,P|323:47|319:107,1,90,2|0,3:2|3:0,0:0:0:0:
149,173,95844,2,0,P|232:110|260:111,1,90,10|0,0:0|0:0,0:0:0:0:
25,0,96058,6,0,P|43:39|48:92,1,90,2|0,3:2|0:0,0:0:0:0:
158,182,96272,2,0,P|241:119|269:120,1,90,10|0,0:0|0:0,0:0:0:0:
281,196,96487,2,0,P|286:242|279:342,1,90,0|0,3:2|3:0,0:0:0:0:
231,378,96701,1,10,0:0:0:0:
151,316,96808,6,0,P|112:342|37:354,2,90,2|4|0,0:0|3:2|0:0,0:0:0:0:
183,225,97129,2,0,P|235:190|330:153,1,90,8|0,0:0|0:0,0:0:0:0:
132,89,97344,1,0,3:0:0:0:
132,89,97451,1,0,3:0:0:0:
132,89,97558,2,0,L|105:203,1,90,8|0,0:0|0:0,0:0:0:0:
17,261,97772,6,0,P|52:291|125:309,1,90,0|0,3:0|0:0,0:0:0:0:
0,168,97987,2,0,P|15:211|69:263,1,90,8|0,0:0|0:0,0:0:0:0:
31,78,98201,2,0,P|22:123|43:195,1,90,0|0,3:0|3:0,0:0:0:0:
101,14,98415,2,0,P|70:48|52:121,1,90,8|0,0:0|0:0,0:0:0:0:
196,26,98629,6,0,P|238:39|318:38,1,90,2|0,3:0|0:0,0:0:0:0:
397,28,98844,1,12,0:0:0:0:
397,28,98951,2,0,P|371:86|365:152,1,90,2|0,3:2|0:0,0:0:0:0:
276,209,99165,1,8,0:0:0:0:
276,209,99272,2,0,P|260:159|253:73,1,90,2|0,3:0|0:0,0:0:0:0:
353,90,99487,5,8,0:0:0:0:
399,369,99701,2,0,P|447:359|515:301,1,90,2|0,3:0|0:0,0:0:0:0:
323,335,99915,1,8,0:0:0:0:
233,343,100022,1,8,0:0:0:0:
143,351,100129,1,8,3:0:0:0:
53,359,100237,1,4,3:0:0:0:
19,273,100344,6,0,L|166:285,1,90,4|0,0:1|0:0,0:0:0:0:
340,301,100558,1,8,0:0:0:0:
340,301,100987,6,0,P|406:180|500:249,1,270,6|0,0:0|0:0,0:0:0:0:
416,266,101415,2,0,P|428:213|422:156,1,90,0|0,3:0|0:0,0:0:0:0:
376,125,101629,1,8,0:0:0:0:
357,54,101737,1,8,0:0:0:0:
407,2,101844,1,8,3:0:0:0:
477,13,101951,1,8,3:0:0:0:
512,75,102058,6,0,P|485:112|448:137,1,90,2|0,3:2|0:0,0:0:0:0:
217,152,102272,1,8,0:0:0:0:
217,152,102701,6,0,P|177:47|50:105,1,270,6|0,0:0|0:0,0:0:0:0:
135,123,103129,2,0,P|195:133|251:122,1,90,0|0,3:0|0:0,0:0:0:0:
304,82,103344,2,0,P|239:165|226:260,1,180,8|2,0:0|0:0,0:0:0:0:
431,384,103772,6,0,P|446:302|339:268,1,180,4|0,0:0|0:0,0:0:0:0:
282,306,104094,1,0,3:0:0:0:
343,240,104201,2,0,P|463:229|526:196,2,180,8|0|0,0:0|0:0|0:0,0:0:0:0:
281,181,104737,6,0,P|307:132|368:167,1,90,2|0,0:0|3:0,0:0:0:0:
480,25,105058,2,0,P|428:126|341:140,1,180,8|0,0:0|3:0,0:0:0:0:
294,11,105487,6,0,L|67:40,1,180,0|0,3:0|0:0,0:0:0:0:
272,37,105808,1,0,3:0:0:0:
188,69,105915,2,0,P|160:105|143:196,1,90,8|0,0:0|0:0,0:0:0:0:
144,146,106129,1,0,3:0:0:0:
243,245,106344,6,0,P|203:206|133:176,1,90,0|8,3:0|0:0,0:0:0:0:
91,178,106558,1,0,3:0:0:0:
0,384,106772,2,0,P|77:334|30:283,1,180,8|0,0:0|0:0,0:0:0:0:
239,384,107201,6,0,P|326:339|457:299,1,180,4|0,0:0|0:0,0:0:0:0:
248,352,107522,1,0,3:0:0:0:
349,373,107629,1,8,0:0:0:0:
477,167,107844,2,0,P|439:252|428:352,1,180,0|0,3:0|0:0,0:0:0:0:
496,384,108165,6,0,P|512:336|502:258,1,90,2|0,3:0|0:0,0:0:0:0:
379,155,108487,2,0,P|410:51|487:86,1,180,8|0,0:0|0:0,0:0:0:0:
290,197,108915,6,0,P|251:113|177:14,1,180,0|0,3:0|0:0,0:0:0:0:
301,164,109237,1,0,3:0:0:0:
212,136,109344,1,8,0:0:0:0:
4,23,109558,2,0,P|72:51|29:132,1,180,2|0,0:0|0:0,0:0:0:0:
4,208,109879,6,0,P|35:170|117:138,1,90,10|0,0:0|3:0,0:0:0:0:
246,245,110201,2,0,P|150:261|66:309,1,180,8|0,0:0|0:0,0:0:0:0:
121,178,110629,6,0,L|145:-34,1,180,4|0,3:2|0:2,0:0:0:0:
98,149,110951,1,0,3:0:0:0:
166,92,111058,1,8,0:0:0:0:
363,24,111272,2,0,P|392:82|511:169,1,180,0|0,3:0|0:0,0:0:0:0:
507,57,111594,6,0,P|461:74|471:165,1,90,10|0,0:0|3:0,0:0:0:0:
501,308,111915,1,0,3:0:0:0:
501,308,112129,1,0,3:0:0:0:
501,308,112344,6,0,P|405:322|316:364,1,180,2|0,3:0|3:0,0:0:0:0:
457,280,112665,1,0,3:0:0:0:
416,359,112772,1,8,0:0:0:0:
167,350,112987,6,0,B|249:336|317:382|317:382|368:388,2,180,2|0|8,0:0|3:0|0:0,0:0:0:0:
20,193,113629,2,0,P|59:237|156:292,1,90,6|0,0:0|0:0,0:0:0:0:
48,116,113844,1,2,0:0:0:0:
48,116,113951,1,2,0:0:0:0:
142,30,114058,6,0,L|119:165,1,90,4|0,0:1|0:0,0:0:0:0:
83,346,114272,1,8,0:0:0:0:
83,346,114701,6,0,P|201:373|231:255,1,270,6|0,0:0|0:0,0:0:0:0:
155,299,115129,2,0,P|195:266|264:253,1,90,0|0,3:0|0:0,0:0:0:0:
302,264,115344,1,8,0:0:0:0:
369,239,115451,1,8,0:0:0:0:
398,173,115558,1,8,3:0:0:0:
371,105,115665,1,8,3:0:0:0:
406,42,115772,6,0,P|385:86|362:172,1,90,4|0,0:0|0:0,0:0:0:0:
365,357,115987,1,8,0:0:0:0:
365,357,116415,6,0,P|254:374|240:235,1,270,6|0,0:0|0:0,0:0:0:0:
298,300,116844,2,0,P|336:346|355:400,1,90,4|0,0:1|0:0,0:0:0:0:
332,205,117058,2,0,P|374:135|382:5,1,180,12|0,0:2|0:0,0:0:0:0:
174,6,117487,6,0,P|256:40|236:144,1,180,4|0,0:1|0:0,0:0:0:0:
175,172,117808,1,0,3:0:0:0:
99,104,117915,2,0,P|72:214|21:299,2,180,8|0|0,0:0|0:0|0:0,0:0:0:0:
54,27,118451,6,0,P|21:53|-4:124,1,90,2|0,0:0|3:0,0:0:0:0:
148,264,118772,2,0,P|239:288|220:355,1,180,8|0,0:0|0:0,0:0:0:0:
404,384,119201,6,0,P|365:273|345:185,1,180,0|0,3:0|0:0,0:0:0:0:
425,353,119522,1,0,3:0:0:0:
341,302,119629,2,0,P|309:322|250:339,1,90,8|0,0:0|0:0,0:0:0:0:
259,337,119844,1,0,3:0:0:0:
245,169,120058,6,0,P|296:189|371:186,1,90,0|8,3:0|0:0,0:0:0:0:
408,176,120272,1,0,3:0:0:0:
425,0,120487,2,0,P|443:76|513:21,1,180,8|0,0:0|0:0,0:0:0:0:
274,14,120915,6,0,P|180:47|36:78,1,180,4|0,0:0|0:0,0:0:0:0:
252,46,121237,1,0,3:0:0:0:
170,15,121344,1,8,0:0:0:0:
2,110,121558,2,0,P|90:107|114:189,1,180,0|0,3:0|0:0,0:0:0:0:
77,256,121879,6,0,P|66:294|84:373,1,90,2|0,0:0|3:0,0:0:0:0:
286,356,122201,2,0,P|223:260|195:172,1,180,8|0,0:0|0:0,0:0:0:0:
338,11,122629,6,0,L|323:229,1,180,4|0,3:2|0:0,0:0:0:0:
306,37,122951,1,0,3:0:0:0:
368,97,123058,1,8,0:0:0:0:
512,246,123272,2,0,P|480:184|375:197,1,180,0|0,3:0|0:0,0:0:0:0:
379,275,123594,6,0,P|436:242|441:171,1,90,2|0,0:0|3:0,0:0:0:0:
207,157,123915,2,0,P|227:240|220:364,1,180,8|0,0:0|0:0,0:0:0:0:
0,205,124344,6,0,P|45:133|145:190,1,180,4|0,0:0|0:0,0:0:0:0:
140,238,124665,2,0,P|172:177|210:132,1,90,8|0,0:0|3:0,0:0:0:0:
302,80,124987,2,0,P|286:20|166:61,1,180,2|0,0:0|0:0,0:0:0:0:
183,19,125308,5,0,3:0:0:0:
183,19,125415,1,0,3:0:0:0:
381,153,125629,2,0,P|446:70|554:37,1,180,12|0,0:0|0:0,0:0:0:0:
498,278,126058,6,0,P|456:254|377:229,1,90,2|0,0:0|0:0,0:0:0:0:
190,244,126272,1,8,0:0:0:0:
410,256,126487,1,2,3:0:0:0:
178,228,126701,1,8,0:0:0:0:
129,281,126808,1,8,0:0:0:0:
137,352,126915,5,4,3:0:0:0:
177,137,127129,1,8,0:0:0:0:
141,73,127237,1,8,0:0:0:0:
78,37,127344,5,8,0:0:0:0:
130,110,127451,1,8,0:0:0:0:
217,131,127558,1,8,0:0:0:0:
304,109,127665,1,8,0:0:0:0:
379,60,127772,6,0,P|432:78|506:137,1,90,4|0,0:1|0:0,0:0:0:0:
468,110,127987,2,0,P|471:158|449:249,1,90,8|0,0:0|0:0,0:0:0:0:
430,311,128201,1,0,3:0:0:0:
430,311,128308,1,0,3:0:0:0:
430,311,128415,2,0,P|404:257|366:218,1,90,10|0,0:0|0:0,0:0:0:0:
370,242,128629,6,0,P|322:245|253:220,1,90,0|0,3:0|0:0,0:0:0:0:
188,278,128844,2,0,P|210:315|228:386,1,90,8|0,0:0|0:0,0:0:0:0:
92,253,129058,2,0,L|-41:244,1,90,0|0,3:0|3:0,0:0:0:0:
147,184,129272,2,0,P|162:145|161:74,1,90,8|0,0:0|0:0,0:0:0:0:
152,88,129487,6,0,P|109:93|50:122,1,90,0|0,3:0|0:0,0:0:0:0:
37,195,129701,1,8,0:0:0:0:
254,69,129915,2,0,P|274:30|320:-7,1,90,2|0,3:2|0:0,0:0:0:0:
315,12,130129,2,0,P|319:51|297:153,1,90,8|0,0:0|0:0,0:0:0:0:
383,190,130344,6,0,L|526:213,1,90,2|0,3:2|0:0,0:0:0:0:
490,197,130558,2,0,P|490:130|448:77,1,90,8|0,0:0|0:0,0:0:0:0:
433,290,130772,2,0,P|367:296|304:328,1,90,2|0,3:2|0:0,0:0:0:0:
243,353,130987,2,0,L|274:230,1,90,10|0,0:0|0:0,0:0:0:0:
235,161,131201,6,0,P|255:226|213:256,1,90,4|0,3:2|0:0,0:0:0:0:
232,237,131415,2,0,P|191:266|165:324,1,90,8|0,0:0|0:0,0:0:0:0:
86,317,131629,1,0,3:0:0:0:
86,317,131737,1,0,3:0:0:0:
86,317,131844,2,0,P|81:285|25:194,1,90,10|0,0:0|0:0,0:0:0:0:
7,125,132058,6,0,P|41:155|110:177,1,90,2|0,3:2|0:0,0:0:0:0:
169,119,132272,2,0,P|214:116|278:82,1,90,10|0,0:0|0:0,0:0:0:0:
255,24,132487,2,0,P|229:59|259:104,1,90,2|0,3:2|0:0,0:0:0:0:
348,166,132701,2,0,P|384:150|441:139,1,90,10|0,0:0|0:0,0:0:0:0:
511,237,132915,6,0,P|449:217|392:217,1,90,0|0,3:0|0:0,0:0:0:0:
214,198,133129,1,4,0:0:0:0:
462,305,133344,1,0,3:0:0:0:
394,330,133451,1,8,3:0:0:0:
340,377,133558,1,8,0:0:0:0:
187,122,133772,5,4,0:0:0:0:
24,384,133987,1,8,0:0:0:0:
106,349,134094,1,8,0:0:0:0:
170,285,134201,1,8,0:0:0:0:
178,195,134308,1,8,0:0:0:0:
147,110,134415,1,8,0:0:0:0:
198,36,134522,1,8,0:0:0:0:
336,89,134629,5,2,0:0:0:0:
251,106,135058,1,2,0:0:0:0:
198,36,135487,1,2,0:0:0:0:
147,110,135915,1,2,0:0:0:0:
178,195,136344,5,2,0:0:0:0:
256,192,175139,5,0,3:0:0:0:
256,192,175784,1,0,3:0:0:0:
256,192,176402,1,0,3:0:0:0:
256,192,177060,1,0,0:0:0:0:
329,147,177278,2,0,P|345:114|350:64,1,60,2|0,0:0|0:0,0:0:0:0:
340,14,177715,6,0,B|301:69|326:123|326:123|368:116|406:72,1,180,2|0,0:0|0:0,0:0:0:0:
301,38,178575,2,0,P|270:15|245:-16,1,60
237,97,179001,1,2,0:0:0:0:
237,97,179639,2,0,P|195:106|152:126,2,60
260,187,180277,6,0,P|240:244|230:309,1,120,2|2,0:0|0:0,0:0:0:0:
343,380,181137,1,2,0:0:0:0:
300,310,181352,2,0,P|268:321|228:347,1,60,0|2,0:0|0:0,0:0:0:0:
245,334,182212,1,0,3:0:0:0:
26,250,182871,6,0,P|81:275|159:281,1,120,2|0,0:0|0:0,0:0:0:0:
204,240,183502,2,0,P|231:240|269:250,1,60,2|0,0:0|0:0,0:0:0:0:
419,349,184154,2,0,P|384:345|381:272,1,120,2|0,0:0|0:0,0:0:0:0:
422,212,184792,2,0,P|430:181|431:134,1,60,2|0,0:0|0:0,0:0:0:0:
405,70,185222,1,2,0:0:0:0:
482,31,185437,6,0,P|386:59|405:100,1,180,2|0,0:0|0:0,0:0:0:0:
472,175,186292,2,0,P|477:218|460:273,1,60,2|0,0:0|0:0,0:0:0:0:
435,310,186713,1,2,0:0:0:0:
435,310,187358,1,0,0:0:0:0:
335,206,187570,2,0,P|305:193|249:182,1,60,2|0,0:0|0:0,0:0:0:0:
177,207,187996,6,0,B|132:237|65:222|65:222|63:188|115:146,1,180,2|2,0:0|0:0,0:0:0:0:
158,107,188851,2,0,P|171:72|164:19,1,60,0|2,0:0|0:0,0:0:0:0:
95,15,189286,2,0,P|157:35|223:140,1,180,2|0,0:0|0:0,0:0:0:0:
195,218,190141,2,0,P|188:250|186:286,1,60,2|0,0:0|0:0,0:0:0:0:
209,365,190562,6,0,P|207:286|134:205,2,180,2|2|0,0:0|0:0|0:0,0:0:0:0:
457,299,192493,2,0,P|443:260|419:224,2,60,2|0|0,0:0|0:0|0:0,0:0:0:0:
417,367,193124,6,0,P|411:336|416:285,1,60,2|0,0:0|0:0,0:0:0:0:
454,236,193558,1,0,0:0:0:0:
494,155,193776,2,0,P|497:90|431:40,1,120,2|0,0:0|0:0,0:0:0:0:
376,8,194428,1,2,0:0:0:0:
163,44,195066,2,0,P|194:55|223:79,2,60,0|0|2,0:0|0:0|0:0,0:0:0:0:
88,86,195697,6,0,P|52:94|13:91,1,60,2|0,0:0|0:0,0:0:0:0:
0,19,196131,1,0,0:0:0:0:
8,105,196349,2,0,P|6:134|-4:177,2,60,2|0|0,0:0|0:0|0:0,0:0:0:0:
52,224,196987,1,2,0:0:0:0:
226,380,197414,2,0,P|197:321|140:301,1,120,2|2,0:0|0:0,0:0:0:0:
18,336,198270,6,0,P|100:297|198:291,1,180,6|0,3:2|0:0,0:0:0:0:
283,335,199137,2,0,P|330:351|388:349,1,60,2|0,0:0|0:0,0:0:0:0:
270,254,199567,1,0,3:0:0:0:
512,163,200219,2,0,P|510:195|496:240,1,60,8|0,0:0|0:0,0:0:0:0:
455,292,200647,1,2,0:0:0:0:
486,376,200862,6,0,P|426:310|312:326,1,180,2|2,3:2|0:0,0:0:0:0:
152,363,201923,1,0,3:0:0:0:
152,363,202138,2,0,P|161:269|216:197,1,180,2|8,0:0|0:0,0:0:0:0:
304,175,203008,2,0,P|340:186|395:194,1,60
425,140,203445,6,0,P|385:142|351:157,2,60,2|0|0,3:2|0:0|0:0,0:0:0:0:
477,69,204076,2,0,P|414:56|348:14,1,120,8|2,0:0|0:0,0:0:0:0:
286,8,204714,2,0,P|235:16|192:71,1,120,2|0,3:2|0:0,0:0:0:0:
201,152,205366,2,0,P|197:181|176:225,1,60,12|0,0:0|0:0,0:0:0:0:
123,270,205810,1,2,0:0:0:0:
85,352,206011,6,0,P|85:285|40:236,1,120,14|0,0:0|3:0,0:0:0:0:
11,157,206649,2,0,P|34:188|63:213,1,60,6|0,0:0|3:0,0:0:0:0:
104,143,207066,1,0,3:0:0:0:
143,62,207285,1,8,0:0:0:0:
163,56,207395,1,8,0:0:0:0:
183,51,207505,1,8,0:0:0:0:
203,46,207615,1,8,0:0:0:0:
225,40,207706,1,8,0:0:0:0:
351,86,207920,2,0,P|384:84|421:75,1,60,8|4,0:0|3:0,0:0:0:0:
296,0,208339,1,2,0:0:0:0:
334,175,208543,6,0,P|405:156|467:144,1,120,4|0,0:0|0:0,0:0:0:0:
512,229,209186,2,0,P|481:270|457:353,1,120,10|0,0:0|0:0,0:0:0:0:
512,384,209829,6,0,P|405:364|346:371,1,120,2|0,3:2|0:0,0:0:0:0:
313,375,210473,2,0,P|279:383|240:384,1,60,8|0,0:0|0:0,0:0:0:0:
174,352,210902,1,0,0:0:0:0:
140,265,211116,6,0,P|110:182|2:203,1,180,2|8,3:2|0:0,0:0:0:0:
160,205,211974,2,0,P|187:197|217:179,1,60
232,47,212403,6,0,P|190:28|158:146,1,180,2|8,3:2|0:0,0:0:0:0:
246,211,213475,1,0,0:0:0:0:
246,211,213690,6,0,P|322:179|439:168,1,180,2|8,3:2|0:0,0:0:0:0:
504,84,214548,2,0,P|452:64|409:35,1,60
439,192,214977,6,0,P|438:249|415:323,1,120,2|2,3:2|0:0,0:0:0:0:
406,235,215620,1,8,0:0:0:0:
369,155,215835,2,0,P|349:114|318:73,1,60,2|0,0:0|0:0,0:0:0:0:
259,8,216264,6,0,P|246:64|170:109,1,120,4|0,0:0|3:0,0:0:0:0:
119,68,216907,1,8,0:0:0:0:
7,164,217122,2,0,L|-3:85,1,60,4|0,0:0|0:0,0:0:0:0:
119,242,217551,6,0,P|137:218|175:176,1,60,4|0,0:0|0:0,0:0:0:0:
0,288,217979,1,4,0:0:0:0:
81,381,218194,1,10,0:0:0:0:
150,369,218408,1,2,0:0:0:0:
219,357,218623,1,2,0:0:0:0:
296,293,218837,6,0,P|326:340|388:364,1,120,4|0,3:2|0:0,0:0:0:0:
474,315,219481,1,8,0:0:0:0:
501,216,219695,2,0,P|471:202|416:194,1,60,2|0,0:0|0:0,0:0:0:0:
338,191,220124,5,2,3:2:0:0:
490,26,220768,2,0,P|487:62|455:113,1,60,8|0,0:0|0:0,0:0:0:0:
384,110,221197,1,2,0:0:0:0:
307,52,221411,6,0,P|251:77|171:87,1,120,0|0,3:2|0:0,0:0:0:0:
112,45,222055,1,8,0:0:0:0:
213,0,222269,2,0,P|208:38|191:75,1,60,0|2,0:0|0:0,0:0:0:0:
135,132,222698,5,0,3:0:0:0:
55,216,222912,2,0,P|43:246|45:296,1,60
131,327,223341,2,0,P|90:268|25:270,1,120,10|0,0:0|0:0,0:0:0:0:
26,373,223985,6,0,L|212:347,1,180,2|8,3:2|0:0,0:0:0:0:
250,249,224843,2,0,P|279:264|310:285,1,60
193,368,225272,6,0,P|213:289|193:188,1,180,2|8,3:2|0:0,0:0:0:0:
55,168,226344,1,0,0:0:0:0:
55,168,226559,6,0,P|120:162|257:137,1,180,0|8,3:0|0:0,0:0:0:0:
307,65,227416,2,0,P|270:71|215:73,1,60
415,2,227845,6,0,P|349:72|355:177,1,180,2|8,3:2|0:0,0:0:0:0:
432,240,228703,2,0,P|465:238|507:224,1,60,8|0,0:0|0:0,0:0:0:0:
512,140,229132,5,4,0:0:0:0:
386,332,229776,2,0,P|349:317|290:309,1,60,8|0,0:0|0:0,0:0:0:0:
229,334,230205,1,0,3:0:0:0:
127,354,230419,6,0,P|85:307|71:201,1,120,2|2,3:2|0:0,0:0:0:0:
142,160,231063,1,8,0:0:0:0:
109,55,231277,2,0,P|86:28|41:6,1,60
34,133,231706,6,0,P|63:142|100:160,1,60,2|0,3:2|0:0,0:0:0:0:
153,217,232135,2,0,P|197:145|241:117,1,120,2|0,0:0|0:0,0:0:0:0:
330,103,232778,1,2,0:0:0:0:
421,13,232993,6,0,P|354:33|360:142,1,180,2|8,3:2|0:0,0:0:0:0:
503,199,234065,1,0,0:0:0:0:
503,199,234280,6,0,P|441:203|373:236,1,120,0|0,3:0|0:0,0:0:0:0:
309,260,234923,1,8,0:0:0:0:
309,260,235138,2,0,P|298:304|271:359,1,60,2|0,0:0|0:0,0:0:0:0:
194,206,235567,6,0,P|214:132|244:72,1,120,2|0,3:2|0:0,0:0:0:0:
367,65,236210,2,0,P|352:96|307:138,1,60,8|0,0:0|0:0,0:0:0:0:
258,178,236639,1,0,0:0:0:0:
152,154,236853,6,0,P|98:205|92:320,1,180,2|8,3:2|0:0,0:0:0:0:
187,375,237711,2,0,P|223:377|262:358,1,60
314,291,238140,6,0,P|389:280|461:366,1,180,0|8,3:0|0:0,0:0:0:0:
410,266,238998,1,4,3:0:0:0:
460,183,239213,1,8,3:0:0:0:
467,87,239427,6,0,P|445:157|334:118,1,180,4|10,3:2|0:0,0:0:0:0:
304,78,240285,2,0,P|326:60|371:52,1,60
472,4,240714,6,0,P|430:46|349:74,1,120,2|2,3:2|0:0,0:0:0:0:
279,26,241358,2,0,P|260:15|186:10,2,60,8|0|0,0:0|0:0|0:0,0:0:0:0:
176,67,242001,6,0,L|184:152,1,60,2|0,3:2|0:0,0:0:0:0:
94,174,242430,2,0,P|78:250|75:359,1,180,2|0,0:0|0:0,0:0:0:0:
199,383,243288,5,2,3:2:0:0:
166,299,243502,1,0,0:0:0:0:
81,217,243717,2,0,P|92:282|195:271,1,180,2|0,0:0|0:0,0:0:0:0:
267,231,244575,6,0,P|341:203|447:203,1,180,0|8,3:0|0:0,0:0:0:0:
494,135,245433,2,0,L|464:214,1,60
492,267,245862,6,0,P|443:281|438:355,1,120,2|2,3:2|0:0,0:0:0:0:
512,384,246505,1,8,0:0:0:0:
495,287,246719,2,0,P|499:251|513:207,1,60
402,346,247148,6,0,L|225:357,1,120,4|2,3:2|0:0,0:0:0:0:
197,359,247792,1,8,0:0:0:0:
151,243,248006,2,0,P|148:272|152:318,1,60,8|0,3:0|3:0,0:0:0:0:
64,381,248435,2,0,P|76:297|-22:321,1,180,4|2,0:0|0:0,0:0:0:0:
0,287,249615,2,0,L|8:258,1,22.5,0|0,3:0|3:0,3:0:0:0:
13,284,249722,5,8,0:0:0:0:
35,171,249930,1,8,0:0:0:0:
120,90,250138,1,8,0:0:0:0:
85,70,250242,1,8,3:0:0:0:
50,50,250347,1,4,3:0:0:0:
22,180,250570,5,4,0:0:0:0:
22,180,252284,5,4,0:0:0:0:
22,180,252927,6,0,B|81:149|81:149|141:169|141:169|215:155,1,180,8|4,0:0|3:0,0:0:0:0:
286,144,253570,2,0,P|330:113|346:66,1,90,0|0,3:0|3:0,0:0:0:0:
302,6,253998,5,4,0:0:0:0:
237,295,254427,1,4,0:0:0:0:
381,66,254855,6,0,P|356:107|359:185,1,90,4|0,0:0|0:0,0:0:0:0:
480,314,255284,2,0,P|486:266|491:219,1,90,12|0,0:0|0:0,0:0:0:0:
387,377,255712,5,4,0:0:0:0:
294,349,255927,1,4,3:0:0:0:
180,366,256141,1,8,0:0:0:0:
150,355,256248,1,8,0:0:0:0:
120,345,256355,1,8,3:0:0:0:
90,335,256462,1,8,0:0:0:0:
59,324,256570,5,8,0:0:0:0:
10,207,256784,1,4,3:0:0:0:
123,93,256998,1,8,0:0:0:0:
96,57,257105,1,8,0:0:0:0:
53,71,257212,1,8,0:0:0:0:
53,116,257320,1,8,0:0:0:0:
96,129,257427,6,0,P|157:129|226:117,1,116.999994644165,12|0,0:0|0:0,0:0:0:0:
359,53,257855,1,8,0:0:0:0:
224,21,258070,2,0,P|270:125|332:55,1,233.999989288331,2|0,3:2|3:0,0:0:0:0:
468,3,258712,2,0,P|442:69|426:156,1,116.999994644165,8|0,0:2|0:0,0:0:0:0:
487,226,259141,6,0,P|483:319|343:314,1,233.999989288331,2|8,3:2|0:0,0:0:0:0:
236,348,259784,2,0,P|174:356|97:389,1,116.999994644165,2|0,0:0|0:0,0:0:0:0:
123,374,260212,1,0,3:0:0:0:
100,257,260427,2,0,P|53:216|-5:210,1,116.999994644165,8|0,0:0|0:0,0:0:0:0:
35,308,260855,6,0,P|124:269|137:120,1,233.999989288331,2|8,3:2|0:0,0:0:0:0:
5,27,261498,2,0,B|24:102|77:130|77:130|127:155|179:128,1,233.999989288331,2|0,3:2|3:0,0:0:0:0:
231,41,262141,2,0,L|83:26,1,116.999994644165,8|0,0:0|0:0,0:0:0:0:
316,119,262570,6,0,P|328:39|397:23,1,116.999994644165,0|0,3:0|3:0,0:0:0:0:
353,23,262998,1,2,0:3:0:0:
446,139,263212,2,0,L|295:159,1,116.999994644165,2|0,3:0|3:0,0:0:0:0:
469,35,263641,1,8,3:0:0:0:
425,171,263855,1,8,0:0:0:0:
436,216,263962,1,8,0:0:0:0:
448,261,264070,1,4,3:0:0:0:
512,384,264284,6,0,P|506:332|429:260,1,116.999994644165,6|0,0:0|0:0,0:0:0:0:
371,197,264712,1,8,0:0:0:0:
312,96,264927,2,0,P|376:24|506:58,1,233.999989288331,2|2,3:2|3:2,0:0:0:0:
279,122,265570,2,0,P|213:100|167:43,1,116.999994644165,8|0,0:0|0:0,0:0:0:0:
54,0,265998,6,0,L|40:119,1,116.999994644165,2|0,3:2|0:0,0:0:0:0:
88,232,266427,1,8,0:0:0:0:
189,177,266641,2,0,P|278:198|236:82,1,233.999989288331,2|0,3:2|0:0,0:0:0:0:
236,270,267284,2,0,L|204:412,1,116.999994644165,8|0,0:0|0:0,0:0:0:0:
48,344,267712,6,0,P|73:263|216:299,1,233.999989288331,2|8,3:2|0:0,0:0:0:0:
369,272,268355,1,0,3:0:0:0:
303,356,268570,2,0,P|288:306|220:264,1,116.999994644165,2|0,0:0|0:0,0:0:0:0:
401,373,268998,2,0,P|466:350|522:315,1,116.999994644165,8|0,0:0|3:0,0:0:0:0:
486,195,269427,6,0,P|417:212|432:352,1,233.999989288331,2|8,0:0|0:0,0:0:0:0:
403,177,270070,1,2,0:0:0:0:
345,89,270284,2,0,P|376:28|458:15,1,116.999994644165,0|0,3:2|0:0,0:0:0:0:
498,164,270712,2,0,P|474:141|448:100,1,58.4999973220826,6|0,0:0|0:0,0:0:0:0:
369,170,270927,2,0,P|359:138|357:89,1,58.4999973220826,2|0,0:0|0:0,0:0:0:0:
206,23,271141,6,0,P|246:61|245:143,1,116.999994644165,6|2,0:0|0:0,0:0:0:0:
138,215,271570,1,8,0:0:0:0:
124,362,271784,2,0,P|161:260|251:168,1,233.999989288331,2|0,3:2|3:0,0:0:0:0:
385,296,272427,2,0,P|322:331|261:344,1,116.999994644165,8|2,0:0|0:0,0:0:0:0:
52,308,272855,6,0,P|120:334|179:391,1,116.999994644165,2|0,3:2|0:0,0:0:0:0:
33,220,273284,1,10,0:0:0:0:
32,131,273498,1,2,3:2:0:0:
35,134,273927,1,2,3:2:0:0:
111,50,274141,2,0,P|143:78|229:110,1,116.999994644165,10|0,0:0|0:0,0:0:0:0:
17,10,274570,6,0,P|135:120|125:205,1,233.999989288331,2|10,3:2|0:0,0:0:0:0:
2,258,275212,1,0,3:0:0:0:
8,137,275427,2,0,P|70:111|152:115,1,116.999994644165,2|0,0:0|3:0,0:0:0:0:
257,117,275855,2,0,P|255:65|184:40,1,116.999994644165,10|0,0:0|0:0,0:0:0:0:
205,39,276284,6,0,L|349:51,1,116.999994644165,2|0,3:2|3:0,0:0:0:0:
433,7,276712,1,8,0:0:0:0:
484,189,276927,1,4,0:0:0:0:
512,93,277141,1,8,0:0:0:0:
461,193,277355,2,0,P|439:214|419:258,1,58.4999973220826,8|8,0:0|0:0,0:0:0:0:
373,168,277570,1,8,0:0:0:0:
329,184,277677,1,8,0:0:0:0:
285,200,277784,1,8,0:0:0:0:
241,217,277891,1,8,0:0:0:0:
197,234,277998,6,0,B|120:264|51:213|51:213|84:172|164:153,1,233.999989288331,6|10,0:0|0:0,0:0:0:0:
275,227,278641,1,0,3:0:0:0:
221,316,278855,2,0,P|150:336|84:376,1,116.999994644165,2|0,0:0|3:0,0:0:0:0:
8,322,279284,2,0,P|63:378|107:349,1,116.999994644165,10|0,0:0|0:0,0:0:0:0:
157,325,279712,6,0,P|236:347|300:350,1,116.999994644165,2|0,3:2|0:0,0:0:0:0:
398,341,280141,1,8,0:0:0:0:
467,237,280355,2,0,P|403:274|503:325,1,233.999989288331,2|0,3:2|3:0,0:0:0:0:
457,128,280998,2,0,P|448:106|441:46,1,58.4999973220826,6|0,0:0|0:0,0:0:0:0:
349,104,281212,2,0,P|352:80|376:24,1,58.4999973220826,2|0,0:0|0:0,0:0:0:0:
491,26,281427,6,0,P|465:112|331:114,1,233.999989288331,2|10,3:2|0:0,0:0:0:0:
126,0,282284,2,0,P|207:15|247:170,1,233.999989288331,2|10,0:0|0:0,0:0:0:0:
133,216,282927,1,0,0:0:0:0:
36,110,283141,6,0,P|63:50|126:24,1,116.999994644165,4|0,0:0|0:0,0:0:0:0:
273,58,283570,1,0,0:0:0:0:
438,15,283784,2,0,P|421:77|412:263,1,233.999989288331,0|0,0:0|3:0,0:0:0:0:
512,384,284427,2,0,P|523:318|441:297,1,116.999994644165,12|0,0:0|0:0,0:0:0:0:
425,341,284855,6,0,P|322:373|174:368,1,233.999989288331,2|8,3:2|0:0,0:0:0:0:
126,327,285498,2,0,P|126:224|222:281,1,233.999989288331,2|0,3:2|3:0,0:0:0:0:
113,194,286141,2,0,P|63:186|-12:163,1,116.999994644165,10|0,0:0|0:0,0:0:0:0:
35,19,286570,6,0,P|121:39|109:177,1,233.999989288331,2|8,3:2|0:0,0:0:0:0:
182,274,287212,2,0,P|217:167|310:73,1,233.999989288331,2|0,3:2|3:0,0:0:0:0:
404,11,287855,2,0,P|455:44|532:50,1,116.999994644165,14|0,0:0|0:0,0:0:0:0:
503,199,288284,6,0,P|495:140|455:58,1,116.999994644165,2|0,3:2|0:0,0:0:0:0:
270,16,288712,2,0,P|321:49|398:55,1,116.999994644165,12|0,0:0|0:0,0:0:0:0:
487,0,289141,1,0,3:0:0:0:
487,0,289355,1,0,3:0:0:0:
387,87,289570,2,0,P|373:114|362:164,1,58.4999973220826,2|0,0:0|0:0,0:0:0:0:
452,245,289784,2,0,P|461:273|488:317,1,58.4999973220826,14|0,0:0|0:0,0:0:0:0:
322,267,289998,5,2,3:2:0:0:
341,377,290212,1,8,3:0:0:0:
226,186,290427,1,8,0:0:0:0:
244,142,290534,1,8,0:0:0:0:
277,108,290641,1,8,0:0:0:0:
232,121,290748,1,8,0:0:0:0:
185,117,290855,1,8,0:0:0:0:
65,85,291070,2,0,P|29:66|-11:20,1,58.4999973220826,4|0,3:0|0:0,0:0:0:0:
161,84,291284,1,8,0:0:0:0:
155,130,291391,1,8,0:0:0:0:
149,176,291498,1,8,0:0:0:0:
143,222,291605,1,8,0:0:0:0:
137,268,291712,6,0,B|164:334|247:360|247:360|272:313|239:257,1,233.999989288331,6|8,0:0|0:0,0:0:0:0:
163,174,292355,1,0,3:0:0:0:
33,137,292570,2,0,P|55:84|119:37,1,116.999994644165,2|0,0:0|3:0,0:0:0:0:
231,33,292998,1,8,0:0:0:0:
362,59,293212,2,0,P|445:38|473:11,2,116.999994644165,2|0|0,0:0|0:0|0:0,0:0:0:0:
244,10,293855,5,8,0:0:0:0:
244,10,294070,1,0,3:0:0:0:
133,89,294284,2,0,P|158:136|165:212,1,116.999994644165,0|0,0:0|3:0,0:0:0:0:
32,313,294712,2,0,P|33:285|54:219,1,58.4999973220826,4|0,0:0|0:0,0:0:0:0:
144,187,294927,2,0,P|164:167|226:136,1,58.4999973220826,2|0,0:0|0:0,0:0:0:0:
323,235,295141,6,0,P|426:219|471:101,1,233.999989288331,6|8,3:2|0:0,0:0:0:0:
388,0,295784,1,0,3:0:0:0:
270,70,295998,2,0,P|242:124|252:210,1,116.999994644165,2|0,0:0|3:0,0:0:0:0:
388,331,296427,2,0,P|358:268|288:232,1,116.999994644165,10|0,0:0|0:0,0:0:0:0:
234,303,296855,6,0,L|67:316,1,116.999994644165,2|0,3:2|0:0,0:0:0:0:
0,240,297284,1,10,0:0:0:0:
26,106,297498,2,0,P|101:97|111:226,1,233.999989288331,2|0,3:2|3:0,0:0:0:0:
103,58,298141,2,0,P|121:33|162:0,1,58.4999973220826,4|0,0:0|0:0,0:0:0:0:
241,53,298355,2,0,P|271:48|324:53,1,58.4999973220826,2|0,0:0|0:0,0:0:0:0:
342,147,298570,6,0,P|402:111|446:43,2,116.999994644165,2|0|8,3:2|0:0|0:0,0:0:0:0:
263,186,299212,2,0,P|245:277|356:269,1,233.999989288331,2|0,3:2|3:0,0:0:0:0:
501,233,299855,2,0,P|434:228|377:197,1,116.999994644165,10|2,0:0|0:0,0:0:0:0:
266,109,300284,6,0,P|154:122|155:264,1,233.999989288331,2|8,3:2|0:0,0:0:0:0:
208,376,300927,2,0,P|214:312|187:249,1,116.999994644165,0|0,3:0|0:0,0:0:0:0:
75,221,301355,1,0,3:0:0:0:
65,350,301570,2,0,L|210:370,1,116.999994644165,8|0,0:0|0:0,0:0:0:0:
329,384,301998,6,0,P|333:291|457:277,1,233.999989288331,6|8,3:2|0:0,0:0:0:0:
487,115,302641,1,0,3:0:0:0:
470,209,302855,2,0,P|423:242|349:263,1,116.999994644165,2|0,0:2|3:0,0:0:0:0:
218,190,303284,1,8,0:0:0:0:
238,28,303498,1,0,3:0:0:0:
348,143,303712,6,0,P|416:156|486:176,1,116.999994644165,8|8,0:0|3:0,0:0:0:0:
262,200,304141,1,0,3:0:0:0:
208,18,304355,1,4,0:0:0:0:
211,21,304784,1,0,3:0:0:0:
134,143,304998,1,8,0:0:0:0:
93,166,305105,1,0,3:0:0:0:
53,190,305212,1,0,3:0:0:0:
45,25,305427,6,0,P|159:126|117:197,1,233.999989288331,4|12,0:1|0:0,0:0:0:0:
19,281,306070,2,0,P|81:239|147:222,1,116.999994644165,2|8,0:0|0:0,0:0:0:0:
276,267,306498,1,2,0:0:0:0:
411,355,306712,2,0,P|472:336|527:283,1,116.999994644165,6|0,0:0|0:0,0:0:0:0:
512,163,307141,6,0,P|490:217|485:284,1,116.999994644165,4|2,0:1|0:0,0:0:0:0:
390,117,307570,2,0,L|375:-14,1,116.999994644165,0|8,3:0|0:0,0:0:0:0:
312,198,307998,1,10,0:0:0:0:
271,175,308105,1,8,0:0:0:0:
227,158,308212,1,8,0:0:0:0:
179,155,308320,1,8,0:0:0:0:
130,176,308427,1,10,0:0:0:0:
72,188,308534,1,8,0:0:0:0:
14,159,308641,1,8,3:0:0:0:
24,89,308748,1,4,3:0:0:0:
90,38,308840,6,0,P|112:120|62:242,1,180,4|0,0:0|3:0,0:0:0:0:
0,288,309170,1,0,3:0:0:0:
0,288,309281,2,0,P|40:269|124:277,1,90,8|0,0:0|0:0,0:0:0:0:
216,317,309501,6,0,P|299:320|429:287,1,180,4|0,0:0|3:0,0:0:0:0:
454,214,309813,1,0,3:0:0:0:
454,214,309917,2,0,P|436:255|423:323,1,90,8|0,0:0|0:0,0:0:0:0:
363,118,310126,6,0,P|394:48|510:63,1,180,4|0,0:0|3:0,0:0:0:0:
501,167,310459,1,0,3:0:0:0:
501,167,310570,2,0,L|340:129,1,90,8|0,0:0|0:0,0:0:0:0:
339,66,310792,2,0,P|319:115|264:155,1,90,8|0,3:0|0:0,0:0:0:0:
142,131,311014,5,8,0:0:0:0:
86,84,311118,1,8,0:0:0:0:
115,18,311222,1,8,0:0:0:0:
186,24,311326,1,8,0:0:0:0:
207,92,311430,1,8,0:0:0:0:
259,141,311534,1,8,0:0:0:0:
330,131,311639,1,8,0:0:0:0:
366,69,311743,1,8,0:0:0:0:
328,9,311847,5,8,0:0:0:0:
312,88,311953,1,8,0:0:0:0:
295,167,312059,1,10,0:0:0:0:
282,246,312165,1,10,0:0:0:0:
269,325,312271,6,0,P|266:271|244:203,1,112.5,2|0,3:2|0:0,0:0:0:0:
235,200,312485,2,0,P|168:206|105:193,1,112.5,8|0,0:0|0:0,0:0:0:0:
26,92,312699,1,2,3:2:0:0:
26,92,312806,1,0,3:0:0:0:
26,92,312913,2,0,P|75:133|138:148,1,112.5,8|0,0:0|0:0,0:0:0:0:
288,65,313128,6,0,P|234:89|178:150,1,112.5,2|0,3:2|0:0,0:0:0:0:
374,44,313342,1,10,0:0:0:0:
440,104,313449,2,0,P|491:65|517:3,2,112.5,2|0|0,0:0|3:0|0:0,0:0:0:0:
377,47,313771,1,10,0:0:0:0:
308,107,313878,1,2,0:0:0:0:
333,196,313985,6,0,P|391:198|458:238,1,112.5,2|0,3:2|0:0,0:0:0:0:
454,240,314199,2,0,P|407:264|316:266,1,112.5,8|0,0:0|0:0,0:0:0:0:
265,358,314413,2,0,P|235:293|168:224,1,112.5,2|0,3:2|0:0,0:0:0:0:
76,230,314628,2,0,L|197:215,1,112.5,10|0,0:0|0:0,0:0:0:0:
198,198,314842,6,0,P|171:158|178:73,1,112.5,0|0,3:0|0:0,0:0:0:0:
232,13,315056,1,8,0:0:0:0:
141,15,315163,2,0,P|65:39|-2:36,2,112.5,0|0|0,0:0|3:0|0:0,0:0:0:0:
235,16,315485,1,10,0:0:0:0:
338,43,315592,1,2,0:0:0:0:
450,20,315699,6,0,P|421:82|410:153,1,112.5,2|0,3:2|0:0,0:0:0:0:
430,142,315913,2,0,P|436:200|404:298,1,112.5,8|0,0:0|0:0,0:0:0:0:
317,151,316128,2,0,L|189:133,1,112.5,2|0,3:2|0:0,0:0:0:0:
193,117,316342,2,0,P|146:155|137:222,1,112.5,8|0,0:0|0:0,0:0:0:0:
238,317,316556,6,0,P|234:258|199:199,1,112.5,2|0,3:2|0:0,0:0:0:0:
164,384,316771,1,10,0:0:0:0:
103,306,316878,2,0,P|56:333|-37:348,2,112.5,2|0|0,0:0|3:0|0:0,0:0:0:0:
167,381,317199,1,10,0:0:0:0:
260,347,317306,1,0,0:0:0:0:
357,382,317413,6,0,P|397:351|467:326,1,112.5,2|0,3:2|0:0,0:0:0:0:
512,230,317628,2,0,P|457:203|391:129,1,112.5,10|0,0:0|0:0,0:0:0:0:
489,0,317842,2,0,P|481:66|420:152,1,112.5,2|0,3:2|3:0,0:0:0:0:
325,187,318056,2,0,P|322:132|275:54,1,112.5,10|0,0:0|0:0,0:0:0:0:
157,82,318271,6,0,L|26:91,1,112.5,2|0,3:2|0:0,0:0:0:0:
179,2,318485,1,10,0:0:0:0:
267,50,318592,2,0,P|311:27|389:11,2,112.5,2|0|0,0:0|3:0|0:0,0:0:0:0:
241,136,318913,1,8,0:0:0:0:
179,202,319021,1,8,0:0:0:0:
90,188,319128,5,2,3:2:0:0:
171,226,319235,1,2,0:0:0:0:
259,211,319342,1,10,0:0:0:0:
338,252,319449,2,2,P|394:256|479:300,2,112.5,2|0|0,0:0|3:0|0:0,0:0:0:0:
313,268,319771,2,0,P|288:315|274:396,1,112.5,8|0,0:0|0:0,0:0:0:0:
304,374,319985,6,0,P|237:353|140:357,1,112.5,0|0,3:0|0:0,0:0:0:0:
87,384,320199,2,0,P|117:323|135:232,1,112.5,10|0,0:0|0:0,0:0:0:0:
112,174,320413,2,0,L|-29:187,1,112.5,2|0,3:2|0:0,0:0:0:0:
159,95,320628,1,10,0:0:0:0:
247,67,320735,6,0,P|277:23|341:4,2,112.5,2|0|0,0:0|3:0|0:0,0:0:0:0:
257,88,321056,2,0,P|312:88|389:108,1,112.5,8|0,0:0|0:0,0:0:0:0:
388,91,321271,2,0,P|430:85|510:46,1,112.5,0|0,3:0|0:0,0:0:0:0:
404,185,321485,2,0,P|424:238|416:325,1,112.5,10|0,0:0|0:0,0:0:0:0:
313,370,321699,6,0,P|324:308|363:243,1,112.5,2|0,3:2|0:0,0:0:0:0:
258,176,321913,2,0,P|289:219|294:302,1,112.5,10|0,0:0|0:0,0:0:0:0:
206,333,322128,2,0,L|61:288,1,112.5,2|0,3:2|0:0,0:0:0:0:
33,217,322342,1,10,0:0:0:0:
112,138,322449,6,0,P|135:197|184:248,2,112.5,2|0|0,0:0|3:0|0:0,0:0:0:0:
124,124,322771,2,0,P|124:73|88:-6,1,112.5,8|0,0:0|0:0,0:0:0:0:
8,22,322985,1,0,3:0:0:0:
8,22,323092,1,0,3:0:0:0:
8,22,323199,2,0,P|57:38|165:52,1,112.5,8|0,0:0|0:0,0:0:0:0:
140,39,323413,6,0,P|190:47|305:80,1,112.5,0|0,3:0|0:0,0:0:0:0:
381,107,323628,2,0,P|349:70|332:-23,1,112.5,10|0,0:0|0:0,0:0:0:0:
311,160,323842,2,0,P|288:208|289:317,1,112.5,2|0,3:2|0:0,0:0:0:0:
333,358,324056,1,10,0:0:0:0:
406,285,324163,6,0,P|459:308|545:321,2,112.5,2|0|0,0:0|3:0|0:0,0:0:0:0:
336,361,324485,1,10,0:0:0:0:
266,284,324592,2,0,P|264:223|302:144,2,112.5,2|0|0,0:0|3:0|0:0,0:0:0:0:
162,315,324913,1,10,0:0:0:0:
107,220,325021,6,0,P|56:239|-59:252,2,112.5,2|0|0,0:0|3:0|0:0,0:0:0:0:
145,138,325342,1,10,0:0:0:0:
155,48,325449,1,8,0:0:0:0:
76,3,325556,1,8,0:0:0:0:
3,56,325663,1,8,0:0:0:0:
32,141,325771,1,8,3:0:0:0:
120,154,325878,1,4,3:0:0:0:
191,208,325985,6,0,P|245:222|316:277,1,135.000005149842,4|0,0:1|3:0,0:0:0:0:
308,267,326306,1,0,3:0:0:0:
308,267,326413,1,0,3:0:0:0:
412,359,326627,2,0,P|416:321|441:272,1,67.5000025749208,2|0,3:2|3:0,0:0:0:0:
426,293,326861,2,0,P|448:229|388:191,1,135.000005149842,8|0,0:0|3:0,0:0:0:0:
327,125,327185,1,0,3:0:0:0:
327,125,327289,6,0,P|387:118|467:79,1,135.000005149842,2|0,3:2|3:0,0:0:0:0:
454,88,327610,1,0,3:0:0:0:
454,88,327717,2,0,P|461:57|451:9,1,67.5000025749208,10|0,0:0|0:0,0:0:0:0:
424,2,327931,1,0,3:0:0:0:
351,71,328148,2,0,P|289:83|202:130,1,135.000005149842,10|0,0:0|3:0,0:0:0:0:
235,125,328583,6,0,P|153:118|77:71,1,135.000005149842,2|0,3:2|3:0,0:0:0:0:
106,96,328904,1,8,0:0:0:0:
106,96,329011,2,0,P|91:65|58:32,1,67.5000025749208,0|8,3:0|0:0,0:0:0:0:
35,39,329225,1,2,3:2:0:0:
14,143,329440,2,0,P|55:200|67:277,1,135.000005149842,8|0,0:0|3:0,0:0:0:0:
71,266,329872,6,0,P|105:333|160:326,1,135.000005149842,2|0,3:2|3:0,0:0:0:0:
265,289,330294,1,0,3:0:0:0:
265,289,330400,1,8,2:0:0:0:
265,289,330505,2,0,P|249:257|245:208,1,67.5000025749208,0|0,3:0|3:0,0:0:0:0:
264,197,330717,2,0,P|247:135|179:78,1,135.000005149842,2|2,3:2|3:2,0:0:0:0:
102,30,331139,6,0,P|172:54|272:48,1,135.000005149842,6|0,3:2|3:0,0:0:0:0:
232,55,331458,1,8,2:0:0:0:
232,55,331564,1,0,3:0:0:0:
357,13,331773,1,2,3:2:0:0:
481,54,332003,2,0,P|461:109|492:196,1,135.000005149842,8|0,0:0|3:0,0:0:0:0:
479,180,332331,1,8,0:0:0:0:
479,180,332429,5,2,3:2:0:0:
416,249,332643,2,0,P|399:291|402:332,1,67.5000025749208,0|0,3:0|3:0,0:0:0:0:
438,340,332857,1,2,3:2:0:0:
438,340,332964,1,0,3:0:0:0:
438,340,333071,1,0,3:0:0:0:
349,384,333279,2,0,P|303:351|193:331,1,135.000005149842,10|0,0:0|3:0,0:0:0:0:
130,349,333705,6,0,P|65:312|66:248,1,135.000005149842,2|0,3:2|3:0,0:0:0:0:
61,257,334051,1,8,0:0:0:0:
61,257,334166,2,0,P|74:221|78:169,1,67.5000025749208,0|8,3:0|0:0,0:0:0:0:
57,165,334377,1,2,3:2:0:0:
21,76,334588,2,0,P|85:87|143:27,1,135.000005149842,8|0,0:0|3:0,0:0:0:0:
257,9,335010,6,0,L|237:201,1,135.000005149842,2|0,3:2|0:0,0:0:0:0:
340,230,335433,1,0,3:0:0:0:
340,230,335538,1,8,0:0:0:0:
340,230,335643,1,0,3:0:0:0:
433,171,335852,2,0,P|424:105|365:73,1,135.000005149842,2|2,3:2|3:2,0:0:0:0:
483,6,336275,6,0,P|450:69|436:133,1,135.000005149842,4|0,3:2|3:0,0:0:0:0:
512,217,336709,1,0,3:0:0:0:
512,217,336818,1,8,0:0:0:0:
512,217,336927,1,2,3:2:0:0:
481,318,337141,2,0,P|405:327|355:361,1,135.000005149842,8|0,0:0|3:0,0:0:0:0:
357,358,337462,1,8,0:0:0:0:
357,358,337569,6,0,P|286:374|204:368,1,135.000005149842,2|0,3:2|3:0,0:0:0:0:
205,340,337892,1,8,0:0:0:0:
205,340,338000,2,0,P|175:332|117:329,1,67.5000025749208,2|8,3:2|0:0,0:0:0:0:
104,343,338216,1,0,3:0:0:0:
67,226,338438,2,0,P|123:247|211:249,1,135.000005149842,10|0,0:0|3:0,0:0:0:0:
270,141,338874,6,0,P|215:169|227:237,1,135.000005149842,2|0,3:2|3:0,0:0:0:0:
265,246,339188,1,8,0:0:0:0:
265,246,339293,2,0,P|299:257|339:292,1,67.5000025749208,0|8,3:0|0:0,0:0:0:0:
331,309,339503,1,2,3:2:0:0:
435,266,339730,2,0,P|415:188|382:133,1,135.000005149842,8|0,0:0|3:0,0:0:0:0:
388,141,340062,1,0,3:0:0:0:
388,141,340168,5,2,3:2:0:0:
316,91,340373,1,0,3:0:0:0:
316,91,340476,1,8,0:0:0:0:
316,91,340578,2,0,P|329:47|346:27,1,67.5000025749208,0|8,3:0|0:0,0:0:0:0:
376,19,340798,1,0,3:0:0:0:
451,89,341015,2,0,P|389:128|318:130,1,135.000005149842,10|2,0:0|3:2,0:0:0:0:
228,18,341441,6,0,P|180:55|161:144,1,135.000005149842,6|0,3:2|3:0,0:0:0:0:
158,124,341753,1,0,3:0:0:0:
158,124,341868,2,0,P|158:152|140:203,1,67.5000025749208,0|8,3:0|0:0,0:0:0:0:
114,211,342062,1,2,3:2:0:0:
19,271,342292,2,0,P|85:288|138:337,1,135.000005149842,8|0,0:0|3:0,0:0:0:0:
240,384,342720,6,0,P|217:316|223:244,1,135.000005149842,2|0,3:2|3:0,0:0:0:0:
220,253,343041,1,8,0:0:0:0:
220,253,343148,2,0,P|256:258|320:296,1,67.5000025749208,2|8,3:2|0:0,0:0:0:0:
321,299,343359,1,0,3:2:0:0:
321,299,343470,1,0,3:0:0:0:
321,299,343581,2,0,P|364:306|442:226,1,135.000005149842,10|0,0:0|3:0,0:0:0:0:
483,155,344011,6,0,L|315:176,1,135.000005149842,2|0,3:2|3:0,0:0:0:0:
349,171,344334,1,8,0:0:0:0:
349,171,344442,2,0,P|309:146|277:113,1,67.5000025749208,0|8,3:0|0:0,0:0:0:0:
301,100,344647,1,2,3:2:0:0:
456,15,344876,2,0,P|450:77|448:155,1,135.000005149842,8|2,0:0|3:2,0:0:0:0:
500,262,345300,5,2,3:2:0:0:
423,358,345511,1,0,3:0:0:0:
423,358,345616,1,8,2:0:0:0:
423,358,345722,2,0,P|388:340|346:329,1,67.5000025749208,0|8,3:0|0:0,0:0:0:0:
329,342,345927,1,0,3:0:0:0:
208,365,346152,2,0,P|145:315|89:295,1,135.000005149842,10|2,0:2|3:2,0:0:0:0:
34,213,346580,6,0,L|173:235,1,135.000005149842,6|0,3:2|3:0,0:0:0:0:
167,234,346898,1,8,0:0:0:0:
167,234,347003,2,0,P|185:189|186:138,1,67.5000025749208,0|8,3:0|0:0,0:0:0:0:
164,143,347213,1,2,3:2:0:0:
67,75,347434,2,0,P|101:25|182:13,1,135.000005149842,8|0,0:0|3:0,0:0:0:0:
170,10,347755,1,8,0:0:0:0:
170,10,347862,6,0,P|228:37|303:36,1,135.000005149842,2|0,3:2|3:0,0:0:0:0:
329,17,348180,1,8,0:0:0:0:
329,17,348286,2,0,P|332:55|325:116,1,67.5000025749208,0|8,3:0|0:0,0:0:0:0:
315,123,348499,1,2,3:2:0:0:
315,123,348610,1,0,3:0:0:0:
315,123,348722,2,0,P|323:184|424:188,1,135.000005149842,10|2,0:0|3:2,0:0:0:0:
484,273,349152,6,0,P|442:275|341:316,1,135.000005149842,2|0,3:2|3:0,0:0:0:0:
355,306,349468,1,8,0:0:0:0:
355,306,349570,2,0,P|314:329|255:338,1,67.5000025749208,0|8,3:0|0:0,0:0:0:0:
264,309,349778,1,0,3:0:0:0:
264,309,349882,1,0,3:0:0:0:
228,280,349994,2,0,P|174:299|123:358,1,135.000005149842,6|0,0:0|3:0,0:0:0:0:
70,233,350436,6,0,L|57:84,1,135.000005149842,10|0,0:0|0:0,0:0:0:0:
209,222,350861,1,10,0:0:0:0:
197,40,351069,1,8,0:0:0:0:
234,56,351173,1,8,0:0:0:0:
271,72,351277,1,10,0:0:0:0:
308,88,351381,1,8,0:0:0:0:
345,104,351486,1,10,0:0:0:0:
382,120,351598,1,8,0:0:0:0:
418,137,351715,6,0,P|459:83|447:3,1,135.000005149842,6|0,3:2|3:0,0:0:0:0:
428,5,352033,1,8,0:0:0:0:
428,5,352137,2,0,L|353:15,1,67.5000025749208,0|8,3:0|0:0,0:0:0:0:
336,41,352345,1,2,3:2:0:0:
214,67,352572,2,0,P|171:58|101:-4,1,135.000005149842,10|2,0:0|3:2,0:0:0:0:
128,132,353013,6,0,L|100:275,1,135.000005149842,2|0,3:2|3:0,0:0:0:0:
102,264,353331,1,8,0:0:0:0:
102,264,353438,2,0,P|117:298|121:332,1,67.5000025749208,0|8,3:0|0:0,0:0:0:0:
99,358,353649,1,2,3:2:0:0:
220,384,353869,2,0,P|270:353|343:328,1,135.000005149842,10|2,0:0|3:2,0:0:0:0:
445,384,354297,6,0,P|434:318|438:244,1,135.000005149842,4|0,3:2|3:0,0:0:0:0:
437,250,354616,1,8,0:0:0:0:
437,250,354722,2,0,P|430:209|406:177,1,67.5000025749208,0|8,3:0|0:0,0:0:0:0:
380,183,354933,1,0,3:0:0:0:
310,99,355158,2,0,L|463:78,1,135.000005149842,8|2,0:0|3:2,0:0:0:0:
259,13,355600,5,10,0:0:0:0:
180,24,356005,1,2,3:2:0:0:
88,108,356219,1,10,0:0:0:0:
92,148,356326,1,8,0:0:0:0:
96,188,356433,1,10,0:0:0:0:
100,228,356534,1,8,0:0:0:0:
104,268,356635,1,10,0:0:0:0:
108,308,356735,1,8,0:0:0:0:
112,348,356848,5,6,3:2:0:0:
182,197,357065,1,0,3:0:0:0:
182,197,357174,1,8,0:0:0:0:
182,197,357282,1,0,3:0:0:0:
139,101,357509,1,14,0:2:0:0:
250,294,357729,1,0,3:0:0:0:
250,294,357833,1,8,0:0:0:0:
250,294,357937,1,0,3:0:0:0:
366,360,358145,5,6,3:2:0:0:
321,180,358358,1,0,3:0:0:0:
321,180,358465,1,8,0:0:0:0:
321,180,358572,1,0,3:0:0:0:
383,94,358786,1,6,3:2:0:0:
450,268,359000,1,0,3:0:0:0:
450,268,359107,1,8,0:0:0:0:
450,268,359214,1,0,3:0:0:0:
407,358,359428,5,6,3:2:0:0:
217,307,359636,1,0,3:0:0:0:
217,307,359740,1,8,0:0:0:0:
217,307,359844,1,0,3:0:0:0:
178,210,360067,1,6,3:2:0:0:
368,159,360291,1,0,3:0:0:0:
368,159,360398,1,8,0:0:0:0:
368,159,360505,1,0,3:0:0:0:
423,73,360719,5,6,3:2:0:0:
397,276,360933,1,0,3:0:0:0:
397,276,361040,1,8,0:0:0:0:
397,276,361148,1,2,3:2:0:0:
297,350,361364,1,8,0:0:0:0:
290,310,361465,1,8,0:0:0:0:
283,270,361562,1,10,0:0:0:0:
276,230,361669,1,8,0:0:0:0:
269,190,361773,1,8,0:0:0:0:
262,149,361877,1,8,0:0:0:0:
255,109,361989,5,6,3:2:0:0:
59,143,362203,1,0,3:0:0:0:
59,143,362318,1,8,0:0:0:0:
59,143,362433,1,0,3:0:0:0:
5,235,362647,1,12,0:0:0:0:
130,58,362877,1,0,3:0:0:0:
130,58,362975,1,8,0:0:0:0:
130,58,363079,1,0,3:0:0:0:
241,24,363293,5,6,0:0:0:0:
308,210,363507,1,0,3:0:0:0:
308,210,363611,1,8,0:0:0:0:
308,210,363716,1,2,3:2:0:0:
387,261,363931,1,8,0:0:0:0:
160,217,364142,1,2,3:2:0:0:
160,217,364247,1,8,0:0:0:0:
160,217,364353,1,0,3:0:0:0:
72,269,364564,5,6,3:2:0:0:
181,69,364778,1,0,3:0:0:0:
181,69,364885,1,8,0:0:0:0:
181,69,364992,1,0,3:0:0:0:
285,23,365215,1,12,0:0:0:0:
314,249,365429,1,0,3:0:0:0:
314,249,365536,1,8,0:0:0:0:
314,249,365643,1,2,3:2:0:0:
409,329,365863,5,12,0:0:0:0:
463,120,366071,1,0,3:0:0:0:
463,120,366175,1,8,0:0:0:0:
463,120,366279,1,0,3:0:0:0:
385,41,366502,1,8,0:0:0:0:
185,163,366716,1,8,3:0:0:0:
152,139,366823,1,8,0:0:0:0:
119,115,366930,1,8,0:0:0:0:
86,91,367031,1,8,0:0:0:0:
53,67,367144,5,4,3:2:0:0:
0,310,367559,1,8,0:0:0:0:
93,362,367766,2,0,P|156:305|253:262,1,180,2|0,3:2|3:0,0:0:0:0:
316,193,368413,2,0,P|316:129|294:76,1,90,10|2,0:0|0:0,0:0:0:0:
422,39,368845,6,0,P|342:37|345:123,1,180,2|8,3:2|0:0,0:0:0:0:
455,191,369487,2,0,P|459:243|423:376,1,180,2|0,3:2|3:0,0:0:0:0:
255,311,370130,2,0,P|303:272|338:258,1,90,12|0,0:0|0:0,0:0:0:0:
289,368,370559,6,0,P|230:354|145:257,1,180,2|8,3:2|0:0,0:0:0:0:
87,151,371202,1,0,3:0:0:0:
87,151,371416,2,0,P|101:201|96:258,1,90,2|0,0:0|3:0,0:0:0:0:
41,316,371845,1,8,0:0:0:0:
10,195,372059,6,0,P|78:246|183:280,1,180,2|0,0:0|3:0,0:0:0:0:
272,262,372702,2,0,P|335:270|379:289,1,90,8|0,0:0|3:0,0:0:0:0:
495,77,373345,1,0,3:0:0:0:
410,106,373559,2,0,P|403:58|407:3,1,90,12|0,0:0|0:0,0:0:0:0:
499,144,373987,6,0,P|414:123|312:108,1,180,2|8,3:2|0:0,0:0:0:0:
202,110,374630,2,0,P|197:29|286:8,1,180,2|0,3:2|3:0,0:0:0:0:
343,127,375273,2,0,P|328:163|316:238,1,90,10|0,0:0|0:0,0:0:0:0:
226,296,375702,6,0,P|239:201|220:98,1,180,0|8,3:0|0:0,0:0:0:0:
151,22,376345,2,0,P|77:28|123:113,1,180,2|0,3:2|3:0,0:0:0:0:
146,229,376987,2,0,P|135:284|105:335,1,90,12|0,0:0|0:0,0:0:0:0:
21,368,377416,6,0,P|54:304|152:346,1,180,0|12,3:0|0:0,0:0:0:0:
404,379,378273,2,0,P|454:371|510:341,1,90,0|0,3:0|3:0,0:0:0:0:
506,277,378702,1,8,0:0:0:0:
429,360,378916,1,0,3:0:0:0:
398,249,379130,6,0,L|416:152,1,90,8|8,0:0|3:0,0:0:0:0:
317,335,379559,2,0,P|291:299|237:254,1,90,4|4,3:0|0:0,0:0:0:0:
257,268,380202,1,0,3:0:0:0:
217,276,380309,1,0,3:0:0:0:
177,284,380416,1,8,0:0:0:0:
137,292,380523,1,8,0:0:0:0:
97,301,380630,1,8,0:0:0:0:
57,310,380737,1,8,0:0:0:0:
17,319,380845,6,0,P|26:239|119:203,1,180,4|8,0:0|0:0,0:0:0:0:
215,153,381487,2,0,P|260:109|296:-8,1,180,2|0,3:2|3:0,0:0:0:0:
183,14,382130,2,0,P|192:75|215:127,1,90,10|0,0:0|0:0,0:0:0:0:
325,172,382559,6,0,P|409:145|443:40,1,180,2|8,3:2|0:0,0:0:0:0:
423,214,383202,2,0,P|404:257|390:337,1,90,2|0,3:2|0:0,0:0:0:0:
463,377,383630,1,0,3:0:0:0:
500,244,383845,1,12,0:0:0:0:
481,150,384059,2,0,P|485:94|522:57,1,90,0|0,0:0|3:0,0:0:0:0:
385,175,384487,5,0,0:0:0:0:
295,227,384702,1,8,0:0:0:0:
199,224,384916,2,0,P|167:272|201:383,1,180,2|0,3:2|3:0,0:0:0:0:
325,344,385559,2,0,L|301:233,1,90,8|2,0:0|0:0,0:0:0:0:
238,167,385987,6,0,P|183:212|143:228,1,90,0|0,3:0|0:0,0:0:0:0:
67,239,386416,1,8,0:0:0:0:
23,341,386630,2,0,P|58:252|-4:168,1,180,2|0,3:2|3:0,0:0:0:0:
58,83,387273,2,0,L|95:-8,1,90,12|0,0:0|0:0,0:0:0:0:
197,100,387702,5,2,3:2:0:0:
295,80,387916,2,0,P|324:65|371:22,1,90,2|8,0:2|0:0,0:0:0:0:
489,0,388345,1,0,3:0:0:0:
489,0,388559,2,0,P|459:33|431:94,1,90,2|0,0:0|3:0,0:0:0:0:
505,171,388987,2,0,P|505:113|490:62,1,90,8|0,0:0|3:0,0:0:0:0:
401,32,389416,5,2,3:2:0:0:
386,150,389630,2,0,L|383:269,1,90,2|8,0:0|0:0,0:0:0:0:
433,322,390059,2,0,P|448:267|350:244,1,180,2|0,0:0|3:0,0:0:0:0:
275,312,390702,2,0,P|232:295|155:276,1,90,8|0,0:0|0:0,0:0:0:0:
76,317,391130,6,0,P|120:312|169:300,1,90,4|0,0:0|0:0,0:0:0:0:
199,204,391559,1,8,0:0:0:0:
173,107,391773,2,0,P|119:46|14:54,1,180,2|0,3:2|3:0,0:0:0:0:
193,133,392416,2,0,P|238:110|299:100,1,90,8|0,0:0|3:0,0:0:0:0:
407,130,392845,5,8,0:0:0:0:
288,135,393059,1,4,3:0:0:0:
245,246,393273,1,8,0:0:0:0:
277,270,393380,1,8,0:0:0:0:
309,294,393487,1,4,3:0:0:0:
341,318,393595,1,8,0:0:0:0:
373,342,393702,1,8,0:0:0:0:
471,267,393916,1,0,3:0:0:0:
406,164,394130,1,8,0:0:0:0:
368,179,394237,1,8,0:0:0:0:
330,194,394345,1,8,0:0:0:0:
292,209,394452,1,8,0:0:0:0:
255,225,394559,6,0,P|197:215|160:197,1,90,4|0,3:0|0:0,0:0:0:0:
155,190,394782,2,0,P|163:253|150:309,1,90,8|0,0:0|0:0,0:0:0:0:
88,324,395006,1,0,3:0:0:0:
88,324,395118,1,0,3:0:0:0:
88,324,395236,2,0,P|66:277|61:217,1,90,8|0,0:0|0:0,0:0:0:0:
68,221,395454,6,0,P|38:258|3:293,1,90,0|0,3:0|0:0,0:0:0:0:
15,146,395666,2,0,P|33:109|41:25,1,90,10|0,0:0|0:0,0:0:0:0:
178,2,395879,2,0,P|148:41|137:118,1,90,2|0,3:2|0:0,0:0:0:0:
212,132,396085,2,0,L|331:106,1,90,10|0,0:0|0:0,0:0:0:0:
396,59,396292,6,0,P|394:106|409:164,1,90,2|0,3:2|0:0,0:0:0:0:
425,157,396509,2,0,L|536:131,1,90,8|0,0:0|0:0,0:0:0:0:
377,237,396723,2,0,P|335:218|271:204,1,90,2|0,3:2|0:0,0:0:0:0:
452,295,396934,2,0,L|441:408,1,90,10|0,2:0|0:0,0:0:0:0:
466,384,397145,6,0,P|410:384|351:367,1,90,0|0,3:0|0:0,0:0:0:0:
304,296,397360,1,10,0:0:0:0:
304,296,397468,1,0,3:0:0:0:
304,296,397576,2,0,P|266:328|207:357,1,90,0|0,3:0|3:0,0:0:0:0:
264,215,397792,2,0,L|262:113,1,90,10|0,0:0|0:0,0:0:0:0:
277,113,398008,6,0,P|246:159|174:203,1,90,0|0,3:0|0:0,0:0:0:0:
134,169,398222,1,8,0:0:0:0:
134,169,398329,1,0,3:0:0:0:
134,169,398436,2,0,P|113:204|99:266,1,90,0|0,3:0|0:0,0:0:0:0:
34,131,398650,2,0,L|-8:29,1,90,10|0,0:0|0:0,0:0:0:0:
110,0,398865,6,0,P|146:37|219:51,1,90,2|0,3:2|0:0,0:0:0:0:
262,8,399079,2,0,L|363:1,1,90,10|0,0:0|0:0,0:0:0:0:
305,110,399293,2,0,P|272:135|249:204,1,90,2|0,3:2|0:0,0:0:0:0:
425,154,399508,2,0,L|453:41,1,90,10|0,0:0|0:0,0:0:0:0:
357,246,399722,6,0,P|403:256|469:296,1,90,2|0,3:2|0:0,0:0:0:0:
456,292,399936,2,0,P|411:320|382:365,1,90,8|0,0:0|0:0,0:0:0:0:
289,384,400150,2,0,P|285:344|267:265,1,90,2|0,3:2|0:0,0:0:0:0:
179,216,400365,2,0,L|66:232,1,90,10|0,0:0|0:0,0:0:0:0:
65,242,400579,6,0,P|84:286|76:350,1,90,0|0,3:0|0:0,0:0:0:0:
173,374,400793,1,8,0:0:0:0:
173,374,400900,1,0,0:0:0:0:
244,303,401008,1,0,3:0:0:0:
244,303,401115,1,0,3:0:0:0:
244,303,401222,2,0,P|292:311|346:333,1,90,8|0,0:0|0:0,0:0:0:0:
344,343,401436,6,0,P|373:310|356:248,1,90,0|0,3:0|0:0,0:0:0:0:
360,247,401650,2,0,L|492:268,1,90,8|0,0:0|0:0,0:0:0:0:
495,173,401865,1,0,3:0:0:0:
495,173,401972,1,0,3:0:0:0:
495,173,402079,1,8,0:0:0:0:
268,20,402293,6,0,P|309:17|337:65,1,90,0|0,3:0|0:0,0:0:0:0:
253,94,402508,2,0,P|205:65|168:23,1,90,10|0,0:0|0:0,0:0:0:0:
66,0,402722,2,0,P|65:41|37:95,1,90,2|0,3:2|0:0,0:0:0:0:
47,189,402936,2,0,P|85:162|171:139,1,90,10|0,0:0|0:0,0:0:0:0:
74,275,403150,6,0,P|53:315|15:361,1,90,2|0,3:2|0:0,0:0:0:0:
0,361,403365,2,0,L|136:382,1,90,8|0,0:0|0:0,0:0:0:0:
198,345,403579,2,0,P|194:300|171:258,1,90,2|0,3:2|0:0,0:0:0:0:
172,155,403793,2,0,P|214:178|254:220,1,90,10|0,0:0|0:0,0:0:0:0:
287,293,404008,5,0,3:0:0:0:
287,293,404115,1,0,3:0:0:0:
287,293,404222,2,0,P|332:282|375:260,1,90,10|0,0:0|0:0,0:0:0:0:
463,195,404436,2,0,P|454:242|472:328,1,90,2|0,3:2|0:0,0:0:0:0:
361,158,404650,2,0,P|323:140|204:116,1,90,8|0,0:0|0:0,0:0:0:0:
208,21,404865,6,0,P|252:80|282:71,1,90,2|0,3:2|0:0,0:0:0:0:
289,78,405079,2,0,P|308:49|265:8,1,90,8|0,0:0|0:0,0:0:0:0:
370,126,405293,2,0,P|412:111|499:108,1,90,2|0,3:2|0:0,0:0:0:0:
479,203,405508,2,0,P|458:240|438:311,1,90,10|0,0:0|0:0,0:0:0:0:
463,308,405722,6,0,P|452:348|387:355,1,90,0|0,3:0|0:0,0:0:0:0:
328,333,405936,1,8,0:0:0:0:
328,333,406043,1,0,3:0:0:0:
328,333,406150,2,0,P|280:346|223:347,1,90,2|0,3:2|0:0,0:0:0:0:
279,250,406365,2,0,P|299:193|328:146,1,90,10|0,0:0|0:0,0:0:0:0:
332,180,406579,6,0,P|287:199|224:201,1,90,0|0,3:0|0:0,0:0:0:0:
222,188,406793,2,0,P|170:195|124:235,1,90,8|0,0:0|0:0,0:0:0:0:
97,301,407008,1,0,3:0:0:0:
97,301,407115,2,0,L|112:185,1,90,0|8,3:0|0:0,0:0:0:0:
26,148,407436,6,0,P|29:97|83:68,1,90,0|0,3:0|3:0,0:0:0:0:
164,57,407650,1,8,0:0:0:0:
227,71,407758,1,8,0:0:0:0:
285,87,407865,1,2,3:2:0:0:
464,22,408079,1,8,0:0:0:0:
405,43,408186,1,8,0:0:0:0:
384,102,408293,6,0,P|433:80|443:38,1,90,4|0,3:2|0:0,0:0:0:0:
455,18,408523,2,0,P|456:62|478:138,1,90,8|0,0:0|0:0,0:0:0:0:
512,190,408740,1,0,3:0:0:0:
512,190,408849,1,0,3:0:0:0:
460,277,408950,2,0,P|411:259|359:253,1,90,10|0,0:0|0:0,0:0:0:0:
341,273,409164,6,0,P|312:237|328:175,1,90,0|0,3:0|0:0,0:0:0:0:
308,76,409381,2,0,P|267:108|200:138,1,90,8|0,0:0|0:0,0:0:0:0:
200,114,409598,2,0,P|177:143|177:220,1,90,0|0,3:0|0:0,0:0:0:0:
122,49,409806,2,0,P|70:42|28:18,1,90,10|0,0:0|0:0,0:0:0:0:
0,122,410014,6,0,P|18:158|41:221,1,90,2|0,3:2|0:0,0:0:0:0:
15,235,410222,2,0,P|35:277|94:269,1,90,8|0,0:0|0:0,0:0:0:0:
177,324,410433,2,0,P|217:297|286:281,1,90,2|0,3:2|0:0,0:0:0:0:
377,316,410649,2,0,P|402:328|383:400,1,90,10|0,0:0|0:0,0:0:0:0:
322,384,410866,6,0,P|344:334|380:285,1,90,0|0,3:0|0:0,0:0:0:0:
472,255,411077,1,10,0:0:0:0:
472,255,411184,1,0,3:0:0:0:
472,255,411291,2,0,P|427:220|377:208,1,90,0|0,3:0|0:0,0:0:0:0:
338,133,411505,2,0,P|356:104|366:44,1,90,10|0,0:0|0:0,0:0:0:0:
264,0,411719,6,0,L|178:27,1,90,2|0,3:2|0:0,0:0:0:0:
149,18,411933,2,0,P|153:84|205:110,1,90,8|0,0:0|0:0,0:0:0:0:
217,205,412147,2,0,P|169:192|90:191,1,90,2|0,3:2|0:0,0:0:0:0:
217,306,412359,2,0,P|256:266|254:202,1,90,10|0,0:0|0:0,0:0:0:0:
220,144,412572,5,0,3:0:0:0:
220,144,412678,1,0,3:0:0:0:
274,56,412785,2,0,P|313:84|383:110,1,90,10|0,0:0|0:0,0:0:0:0:
443,58,412998,2,0,P|440:33|365:6,1,90,2|0,3:2|0:0,0:0:0:0:
322,70,413221,2,0,P|342:104|355:188,1,90,10|0,0:0|0:0,0:0:0:0:
343,179,413445,6,0,P|401:159|470:172,1,90,0|0,3:0|0:0,0:0:0:0:
454,176,413659,2,0,L|441:296,1,90,8|0,0:0|0:0,0:0:0:0:
484,362,413873,1,0,3:0:0:0:
484,362,413980,1,0,3:0:0:0:
484,362,414091,1,8,0:0:0:0:
270,340,414308,6,0,P|312:356|355:392,2,90,0|0|8,3:0|3:0|0:0,0:0:0:0:
172,358,414622,1,0,3:0:0:0:
172,358,414719,2,0,L|195:247,1,90,0|0,3:0|3:0,0:0:0:0:
263,199,414928,1,8,0:0:0:0:
61,258,415150,6,0,P|38:295|45:378,1,90,4|0,3:2|0:0,0:0:0:0:
18,362,415364,2,0,L|0:256,1,90,8|0,0:0|0:0,0:0:0:0:
29,176,415578,1,0,3:0:0:0:
29,176,415685,1,0,3:0:0:0:
0,77,415792,2,0,P|33:93|121:109,1,90,10|0,0:0|0:0,0:0:0:0:
179,66,416007,6,0,P|164:28|85:24,1,90,2|0,3:2|0:0,0:0:0:0:
102,130,416221,2,0,P|169:131|238:175,1,90,10|0,0:0|0:0,0:0:0:0:
270,197,416435,1,2,3:2:0:0:
270,197,416542,1,0,3:0:0:0:
305,110,416650,2,0,P|311:70|337:10,1,90,10|0,0:0|0:0,0:0:0:0:
425,31,416864,6,0,L|540:3,1,90,2|0,3:2|0:0,0:0:0:0:
418,149,417078,2,0,L|303:121,1,90,10|0,0:2|0:0,0:0:0:0:
402,245,417292,2,0,P|434:284|455:361,1,90,2|0,3:2|0:0,0:0:0:0:
337,336,417507,2,0,L|390:225,1,90,10|0,0:0|0:0,0:0:0:0:
410,285,417721,6,0,P|403:333|359:363,1,90,0|0,3:0|0:0,0:0:0:0:
270,380,417935,1,8,0:0:0:0:
270,380,418042,1,0,3:0:0:0:
185,315,418150,2,0,P|141:339|86:354,1,90,2|0,3:2|0:0,0:0:0:0:
28,244,418364,2,0,L|14:140,1,90,10|0,0:0|0:0,0:0:0:0:
89,25,418578,6,0,P|82:94|57:134,1,90,2|0,3:2|0:0,0:0:0:0:
48,119,418792,2,0,P|99:123|153:139,1,90,8|0,0:0|0:0,0:0:0:0:
223,194,419007,1,2,3:2:0:0:
223,194,419114,1,0,3:0:0:0:
278,113,419221,2,0,L|269:6,1,90,10|0,0:0|0:0,0:0:0:0:
245,9,419435,5,0,0:0:0:0:
499,54,419650,1,8,0:0:0:0:
499,54,419757,1,0,3:0:0:0:
436,4,419864,2,0,P|421:48|439:115,1,90,2|0,3:2|0:0,0:0:0:0:
485,184,420078,2,0,P|429:130|374:118,1,90,10|0,0:0|0:0,0:0:0:0:
400,140,420292,6,0,L|279:153,1,90,0|0,3:0|0:0,0:0:0:0:
206,10,420507,2,0,P|242:56|239:112,1,90,10|0,0:0|0:0,0:0:0:0:
231,103,420721,2,0,P|220:161|235:214,1,90,0|0,3:0|0:0,0:0:0:0:
308,268,420935,2,0,P|262:222|199:227,1,90,10|0,0:2|0:0,0:0:0:0:
210,259,421150,6,0,P|256:305|319:300,1,90,2|0,3:2|0:0,0:0:0:0:
268,264,421364,1,8,0:0:0:0:
268,264,421471,1,0,3:0:0:0:
199,322,421578,2,0,P|152:307|96:299,1,90,2|0,3:2|0:0,0:0:0:0:
24,239,421792,2,0,P|74:211|82:161,1,90,10|0,0:0|0:0,0:0:0:0:
74,49,422007,6,0,P|61:97|58:171,1,90,2|0,3:2|0:0,0:0:0:0:
159,128,422221,2,0,P|205:115|257:90,1,90,10|0,0:0|0:0,0:0:0:0:
382,81,422435,1,8,0:0:0:0:
460,102,422542,1,8,0:0:0:0:
511,165,422650,1,8,0:0:0:0:
512,245,422757,1,8,0:0:0:0:
475,316,422864,5,8,0:0:0:0:
454,237,422971,1,8,0:0:0:0:
434,158,423078,1,8,0:0:0:0:
415,79,423185,1,8,0:0:0:0:
396,0,423292,1,8,0:0:0:0:
358,92,423395,1,8,0:0:0:0:
264,125,423498,1,8,0:0:0:0:
169,95,423602,1,8,0:0:0:0:
70,88,423705,6,0,P|41:48|43:8,1,90,4|0,3:1|0:0,0:0:0:0:
67,14,423928,2,0,L|41:123,1,90,8|0,0:0|0:0,0:0:0:0:
0,188,424152,1,0,3:0:0:0:
0,188,424257,1,0,3:0:0:0:
64,262,424363,2,0,P|106:245|181:227,1,90,10|0,0:0|0:0,0:0:0:0:
215,315,424577,6,0,P|165:305|103:267,1,90,2|0,3:2|0:0,0:0:0:0:
216,201,424791,2,0,L|232:95,1,90,10|0,0:0|0:0,0:0:0:0:
285,0,425005,2,0,P|265:47|282:118,1,90,2|0,3:2|3:0,0:0:0:0:
392,95,425219,2,0,L|263:65,1,90,10|0,0:0|0:0,0:0:0:0:
459,0,425434,6,0,P|434:42|420:122,1,90,2|0,3:2|0:0,0:0:0:0:
490,176,425648,1,10,0:0:0:0:
435,279,425755,2,0,P|491:303|527:358,2,90,2|0|0,0:0|3:0|0:0,0:0:0:0:
339,347,426076,1,8,0:0:0:0:
295,379,426184,1,2,0:0:0:0:
242,329,426291,5,2,0:0:0:0:
174,354,426398,1,0,0:0:0:0:
121,304,426505,1,10,0:0:0:0:
53,329,426612,1,0,3:0:0:0:
0,279,426719,2,0,P|36:247|65:194,1,90,2|0,3:2|0:0,0:0:0:0:
28,100,426919,2,0,P|15:153|37:211,1,90,10|0,0:0|0:0,0:0:0:0:
139,121,427130,6,0,L|254:102,1,90,2|0,3:2|0:0,0:0:0:0:
314,20,427344,2,0,P|267:68|199:57,1,90,10|0,0:0|0:0,0:0:0:0:
397,99,427558,2,0,L|507:135,1,90,2|0,3:2|0:0,0:0:0:0:
337,192,427772,2,0,P|327:241|344:324,1,90,10|0,0:0|0:0,0:0:0:0:
356,307,427987,6,0,P|308:288|249:278,1,90,0|0,3:2|0:0,0:0:0:0:
119,331,428201,2,0,P|174:331|177:266,1,90,10|0,0:0|0:0,0:0:0:0:
183,209,428415,2,0,P|140:159|75:143,1,90,2|0,3:2|0:0,0:0:0:0:
0,191,428630,2,0,L|130:177,1,90,10|0,0:0|0:0,0:0:0:0:
131,186,428844,6,0,P|162:218|195:304,1,90,0|0,3:0|0:0,0:0:0:0:
177,361,429058,1,10,0:0:0:0:
283,384,429165,2,0,P|324:371|394:370,2,90,2|0|0,0:0|3:0|3:0,0:0:0:0:
392,384,429487,2,0,P|428:356|449:310,1,90,8|0,0:0|0:0,0:0:0:0:
424,203,429701,5,8,0:0:0:0:
383,143,429808,1,8,0:0:0:0:
392,71,429915,1,8,0:0:0:0:
441,18,430022,1,8,0:0:0:0:
505,51,430130,1,2,0:0:0:0:
416,36,430237,1,8,0:0:0:0:
329,59,430344,1,8,0:0:0:0:
271,128,430451,1,8,0:0:0:0:
297,213,430558,6,0,P|299:256|276:323,1,90,6|0,0:0|0:0,0:0:0:0:
255,315,430772,2,0,P|294:292|393:287,1,90,8|0,0:0|0:0,0:0:0:0:
437,328,430987,1,0,3:0:0:0:
437,328,431094,1,0,3:0:0:0:
457,229,431201,2,0,P|477:185|533:147,1,90,10|0,0:0|0:0,0:0:0:0:
385,137,431415,6,0,L|236:164,1,90,2|0,3:2|0:0,0:0:0:0:
208,109,431630,2,0,P|207:67|233:27,1,90,10|0,0:0|0:0,0:0:0:0:
370,12,431844,2,0,L|365:126,1,90,2|0,3:2|0:0,0:0:0:0:
284,197,432058,2,0,P|225:220|181:266,1,90,10|0,0:0|0:0,0:0:0:0:
114,303,432272,6,0,P|191:277|246:284,1,90,2|0,3:2|0:0,0:0:0:0:
292,331,432487,1,10,0:0:0:0:
392,296,432594,2,0,P|425:256|440:197,2,90,2|0|0,0:0|3:0|0:0,0:0:0:0:
290,313,432915,1,10,0:0:0:0:
228,325,433022,1,2,0:0:0:0:
155,329,433130,5,2,3:2:0:0:
89,300,433237,1,2,0:0:0:0:
55,236,433344,1,10,0:0:0:0:
63,164,433451,1,2,0:0:0:0:
104,105,433558,2,0,P|118:60|100:14,1,90,2|0,3:2|0:0,0:0:0:0:
0,0,433772,2,0,L|104:41,1,90,10|0,0:0|0:0,0:0:0:0:
191,98,433987,6,0,P|236:74|318:46,1,90,2|0,3:2|0:0,0:0:0:0:
292,73,434201,2,0,P|325:28|319:-15,1,90,8|0,0:0|0:0,0:0:0:0:
400,110,434415,2,0,P|397:163|416:241,1,90,2|0,3:2|0:0,0:0:0:0:
377,320,434630,2,0,P|335:297|277:282,1,90,10|0,0:0|0:0,0:0:0:0:
273,293,434844,6,0,P|271:340|283:395,1,90,2|0,3:2|0:0,0:0:0:0:
171,331,435058,1,8,0:0:0:0:
171,331,435165,1,0,3:0:0:0:
92,384,435272,2,0,P|40:345|16:312,1,90,2|0,3:2|0:0,0:0:0:0:
50,221,435487,1,10,0:0:0:0:
26,117,435594,6,0,P|62:131|154:147,2,90,2|0|0,0:0|3:0|0:0,0:0:0:0:
8,95,435915,2,0,P|18:53|51:4,1,90,8|0,0:0|0:0,0:0:0:0:
153,31,436130,1,0,3:0:0:0:
153,31,436237,1,0,3:0:0:0:
153,31,436344,1,8,0:0:0:0:
445,0,436571,5,12,0:0:0:0:
132,57,436785,1,8,0:0:0:0:
208,84,436892,1,8,0:0:0:0:
259,146,436999,1,8,0:0:0:0:
309,82,437106,1,8,0:0:0:0:
384,52,437213,1,8,0:0:0:0:
462,71,437314,1,8,0:0:0:0:
510,136,437415,6,0,L|479:246,1,90
386,280,437630,1,12,0:0:0:0:
442,384,437738,2,0,P|462:348|509:315,2,90,2|0|0,0:0|3:0|3:0,0:0:0:0:
328,329,438062,2,0,P|323:276|348:216,1,90,10|0,0:0|0:0,0:0:0:0:
427,154,438278,6,0,L|534:188,1,90,2|0,3:2|0:0,0:0:0:0:
468,48,438494,2,0,P|430:38|394:82,1,90,10|0,0:0|0:0,0:0:0:0:
336,158,438709,2,0,P|297:120|218:85,1,90,2|0,3:2|0:0,0:0:0:0:
142,67,438925,2,0,P|171:125|214:122,1,90,10|0,0:0|0:0,0:0:0:0:
311,0,439141,6,0,L|287:110,1,90,2|0,3:2|0:0,0:0:0:0:
197,175,439357,1,10,0:0:0:0:
90,120,439465,2,0,P|46:135|-4:204,2,90,2|0|0,0:0|3:0|3:0,0:0:0:0:
51,236,439789,2,0,L|30:331,1,90,8|0,0:0|0:0,0:0:0:0:
131,384,440004,5,2,3:2:0:0:
185,367,440112,1,0,0:0:0:0:
265,313,440220,1,10,0:0:0:0:
319,330,440328,1,0,0:0:0:0:
405,376,440436,2,0,P|461:358|483:328,1,90,2|0,3:2|0:0,0:0:0:0:
463,309,440652,2,0,P|407:327|385:357,1,90,10|0,0:2|0:0,0:0:0:0:
284,265,440868,6,0,P|283:225|311:140,1,90,2|0,3:2|0:0,0:0:0:0:
319,160,441082,2,0,P|372:145|387:88,1,90,8|0,0:0|0:0,0:0:0:0:
377,1,441296,2,0,P|356:57|360:116,1,90,2|0,3:2|0:0,0:0:0:0:
232,36,441510,2,0,L|106:19,1,90,10|0,0:0|0:0,0:0:0:0:
119,5,441725,6,0,P|89:45|115:93,1,90,0|0,3:0|0:0,0:0:0:0:
148,163,441936,2,0,P|186:151|291:141,1,90,10|0,0:0|0:0,0:0:0:0:
323,213,442147,2,0,P|286:243|246:314,1,90,2|0,3:2|0:0,0:0:0:0:
207,384,442358,1,10,0:0:0:0:
101,318,442465,6,0,P|66:352|3:384,2,90,2|0|0,0:0|3:0|0:0,0:0:0:0:
61,192,442786,1,4,0:0:0:0:
144,384,443000,1,4,3:0:0:0:
203,362,443107,1,8,0:0:0:0:
263,344,443214,1,2,0:0:0:0:
325,344,443322,1,2,0:0:0:0:
386,356,443429,5,0,3:0:0:0:
447,368,443536,1,2,0:0:0:0:
509,363,443643,1,8,0:0:0:0:
468,303,443750,1,8,0:0:0:0:
399,284,443857,1,8,0:0:0:0:
419,197,443965,1,8,0:0:0:0:
478,128,444074,1,8,0:0:0:0:
507,48,444178,1,8,0:0:0:0:
452,15,444283,6,0,P|420:86|386:129,1,90,6|0,3:2|0:0,0:0:0:0:
264,168,444497,1,0,3:0:0:0:
226,241,444711,2,0,P|289:195|340:175,1,90,6|0,3:2|0:0,0:0:0:0:
466,203,444925,1,0,3:0:0:0:
512,262,445140,6,0,L|378:232,1,90,6|0,3:2|0:0,0:0:0:0:
240,278,445354,1,0,3:0:0:0:
185,339,445568,2,0,P|268:322|326:293,1,90,6|0,0:0|0:0,0:0:0:0:
27,219,445783,2,0,P|10:264|3:326,1,90,2|0,3:2|3:0,0:0:0:0:
26,89,445997,6,0,P|61:123|123:148,1,90,4|0,0:0|0:0,0:0:0:0:
290,142,446211,1,0,3:0:0:0:
340,75,446425,2,0,L|187:124,1,90,4|0,0:0|0:0,0:0:0:0:
133,211,446640,1,0,3:0:0:0:
133,211,446747,1,0,3:0:0:0:
42,207,446854,6,0,P|98:232|142:279,1,90,4|0,0:0|0:0,0:0:0:0:
227,384,447068,1,0,3:0:0:0:
272,308,447283,2,0,L|255:191,1,90,4|0,0:0|0:0,0:0:0:0:
221,84,447497,2,0,P|244:55|287:16,1,90,2|0,3:2|3:0,0:0:0:0:
445,25,447711,6,0,P|401:48|340:61,1,90,6|0,0:0|0:0,0:0:0:0:
209,0,447925,1,0,3:0:0:0:
127,27,448140,2,0,P|169:39|217:71,1,90,4|0,0:0|0:0,0:0:0:0:
334,155,448354,1,2,3:2:0:0:
334,155,448461,1,0,3:0:0:0:
414,180,448568,6,0,P|351:189|313:215,1,90,6|0,0:0|0:0,0:0:0:0:
383,351,448783,2,0,P|386:306|366:239,1,90,2|0,3:2|0:0,0:0:0:0:
213,284,448997,2,0,L|90:262,1,90,6|0,0:0|0:0,0:0:0:0:
29,115,449211,2,0,P|68:112|109:170,1,90,0|0,3:2|3:0,0:0:0:0:
138,151,449425,6,0,P|179:149|227:119,1,90,4|0,0:0|0:0,0:0:0:0:
310,0,449640,1,2,3:2:0:0:
467,79,449747,2,0,P|487:52|507:-12,2,90,0|12|0,0:0|0:0|0:0,0:0:0:0:
419,207,450068,1,8,0:0:0:0:
435,277,450175,1,8,0:0:0:0:
424,348,450283,5,8,0:0:0:0:
468,270,450389,1,8,0:0:0:0:
432,187,450495,1,10,0:0:0:0:
352,145,450602,1,8,0:0:0:0:
266,173,450708,1,10,0:0:0:0:
206,240,450814,1,8,0:0:0:0:
118,258,450921,1,10,0:0:0:0:
39,212,451027,1,8,0:0:0:0:
23,123,451134,6,0,P|16:81|-8:24,1,90,2|0,3:2|0:0,0:0:0:0:
20,0,451348,2,0,P|54:22|109:45,1,90,8|0,0:0|0:0,0:0:0:0:
261,0,451562,2,0,P|285:37|271:112,1,90,2|0,3:2|0:0,0:0:0:0:
259,114,451776,2,0,P|212:101|154:101,1,90,8|0,0:0|0:0,0:0:0:0:
242,254,451991,6,0,P|306:239|338:211,1,90,2|0,3:2|0:0,0:0:0:0:
355,196,452205,2,0,L|351:306,1,90,8|0,0:0|0:0,0:0:0:0:
483,187,452419,2,0,P|503:141|513:52,1,90,2|0,3:2|0:0,0:0:0:0:
344,65,452634,2,0,L|249:32,1,90,10|0,0:0|0:0,0:0:0:0:
225,44,452848,6,0,P|199:76|231:120,1,90,0|0,3:0|0:0,0:0:0:0:
343,178,453062,2,0,P|393:210|431:264,1,90,10|0,0:0|0:0,0:0:0:0:
317,376,453276,2,0,P|303:319|278:274,1,90,2|0,3:2|0:0,0:0:0:0:
149,205,453491,2,0,P|150:259|127:326,1,90,10|0,0:0|0:0,0:0:0:0:
125,321,453705,6,0,P|79:305|26:318,1,90,0|0,3:0|0:0,0:0:0:0:
0,235,453919,1,8,0:0:0:0:
0,235,454026,1,0,3:0:0:0:
36,212,454134,2,0,P|63:178|68:124,1,90,4|0,3:0|0:0,0:0:0:0:
45,108,454348,2,0,P|40:58|100:41,1,90,8|0,0:0|0:0,0:0:0:0:
179,8,454562,6,0,P|221:29|281:34,1,90,2|0,3:2|0:0,0:0:0:0:
388,14,454776,1,8,0:0:0:0:
330,87,454884,2,0,P|375:118|426:176,1,90,2|0,0:0|3:0,0:0:0:0:
416,266,455098,1,0,0:0:0:0:
489,201,455205,2,0,P|509:280|522:303,1,90,10|0,0:0|0:0,0:0:0:0:
444,384,455419,6,0,P|418:337|348:283,1,90,2|0,3:2|0:0,0:0:0:0:
354,328,455634,2,0,L|239:336,1,90,8|0,0:0|0:0,0:0:0:0:
148,229,455848,2,0,P|150:190|195:137,1,90,2|0,3:2|0:0,0:0:0:0:
214,133,456062,2,0,L|334:193,1,90,8|0,0:0|0:0,0:0:0:0:
428,67,456276,6,0,P|383:97|314:108,1,90,0|0,3:0|0:0,0:0:0:0:
316,99,456491,2,0,L|299:-8,1,90,8|0,0:0|0:0,0:0:0:0:
427,26,456705,1,0,3:0:0:0:
427,26,456812,1,0,3:0:0:0:
427,26,456919,1,8,0:0:0:0:
179,0,457134,6,0,P|168:64|118:96,1,90,0|0,3:0|0:0,0:0:0:0:
66,97,457348,1,8,0:0:0:0:
66,97,457455,1,0,3:0:0:0:
31,119,457562,2,0,P|78:149|114:200,1,90,0|0,3:0|0:0,0:0:0:0:
134,297,457776,2,0,P|203:358|272:348,1,112.5,10|0,0:0|0:0,0:0:0:0:
323,263,457991,6,0,L|296:130,1,112.5,2|0,3:2|0:0,0:0:0:0:
463,186,458205,1,10,0:0:0:0:
398,248,458312,1,2,0:0:0:0:
400,158,458419,1,2,3:2:0:0:
332,99,458526,1,2,3:2:0:0:
261,156,458634,1,10,0:0:0:0:
186,106,458741,1,2,0:0:0:0:
179,16,458848,5,2,3:2:0:0:
114,78,458955,1,2,0:0:0:0:
171,146,459062,1,10,0:0:0:0:
125,223,459169,1,2,0:0:0:0:
111,311,459276,1,2,3:2:0:0:
64,233,459384,1,2,0:0:0:0:
122,164,459491,1,10,0:0:0:0:
77,85,459598,1,2,0:0:0:0:
21,155,459705,5,2,3:2:0:0:
74,226,459812,1,2,0:0:0:0:
152,182,459919,1,10,0:0:0:0:
207,252,460026,1,2,0:0:0:0:
227,163,460134,1,2,3:2:0:0:
313,188,460241,1,2,3:2:0:0:
329,99,460348,1,10,0:0:0:0:
418,105,460455,1,2,0:0:0:0:
373,26,460562,5,2,3:2:0:0:
312,92,460669,1,2,0:0:0:0:
350,173,460776,1,10,0:0:0:0:
295,245,460884,1,2,0:0:0:0:
240,173,460991,1,2,3:2:0:0:
157,207,461098,1,2,3:2:0:0:
120,124,461205,1,10,0:0:0:0:
33,146,461312,1,2,0:0:0:0:
33,56,461419,6,0,P|72:98|88:158,1,112.5,2|0,3:2|0:0,0:0:0:0:
58,174,461634,2,0,P|40:223|101:266,1,112.5,8|0,0:0|0:0,0:0:0:0:
175,284,461848,1,0,3:0:0:0:
175,284,461955,1,0,3:0:0:0:
264,353,462062,1,10,0:0:0:0:
300,343,462134,1,2,0:0:0:0:
336,335,462205,1,2,0:0:0:0:
372,327,462276,6,0,P|419:351|514:360,1,112.5,2|0,3:2|0:0,0:0:0:0:
512,286,462491,1,10,0:0:0:0:
425,216,462598,2,0,P|368:248|292:261,1,112.5,2|0,0:0|3:0,0:0:0:0:
243,184,462812,1,2,0:0:0:0:
327,111,462919,2,0,L|346:-14,1,112.5,10|0,0:0|0:0,0:0:0:0:
508,61,463134,6,0,P|444:79|381:125,1,112.5,2|0,3:2|0:0,0:0:0:0:
285,198,463348,1,10,0:0:0:0:
309,109,463455,2,0,P|246:126|172:124,1,112.5,2|0,0:0|3:0,0:0:0:0:
42,77,463669,1,2,0:0:0:0:
103,161,463776,2,0,P|50:173|-4:213,1,112.5,10|0,0:0|0:0,0:0:0:0:
51,343,463991,6,0,P|82:288|94:222,1,112.5,2|0,3:2|0:0,0:0:0:0:
36,108,464205,1,8,0:0:0:0:
44,19,464312,1,10,0:0:0:0:
118,68,464419,1,8,0:0:0:0:
140,155,464526,1,8,0:0:0:0:
119,243,464634,1,10,0:0:0:0:
203,212,464741,1,8,0:0:0:0:
288,238,464848,6,0,P|342:244|415:280,1,112.5,2|0,3:2|0:0,0:0:0:0:
503,384,465062,1,8,0:0:0:0:
479,288,465169,2,0,P|442:252|445:155,1,112.5,2|8,0:0|0:0,0:0:0:0:
494,75,465384,1,8,0:0:0:0:
442,1,465491,1,10,0:0:0:0:
416,87,465598,1,8,0:0:0:0:
341,137,465705,5,8,0:0:0:0:
135,22,465919,1,4,3:0:0:0:
183,217,466134,1,8,0:0:0:0:
157,303,466241,1,8,0:0:0:0:
86,359,466348,2,0,P|52:342|-11:300,1,67.5000025749208,2|0,3:2|0:0,0:0:0:0:
0,226,466562,6,0,P|63:238|148:277,1,135.000005149842,4|0,0:1|3:0,0:0:0:0:
287,338,466991,2,0,P|341:301|431:276,1,135.000005149842,10|0,0:0|3:0,0:0:0:0:
509,291,467312,1,0,3:0:0:0:
509,291,467419,1,0,3:0:0:0:
490,156,467634,2,0,P|472:209|450:236,1,67.5000025749208,2|2,3:2|0:0,0:0:0:0:
394,200,467848,2,0,P|325:222|241:231,1,135.000005149842,8|2,0:0|3:2,0:0:0:0:
188,177,468169,1,2,3:2:0:0:
188,177,468276,6,0,P|186:213|170:268,1,67.5000025749208,2|0,3:2|0:0,0:0:0:0:
84,207,468491,2,0,P|100:239|113:294,1,67.5000025749208,2|0,3:2|0:0,0:0:0:0:
27,328,468705,2,0,P|28:272|57:180,1,135.000005149842,10|2,0:0|3:2,0:0:0:0:
116,126,469026,1,2,3:2:0:0:
116,126,469134,2,0,L|78:34,2,67.5000025749208,0|0|0,3:0|3:0|3:0,0:0:0:0:
267,71,469562,2,0,P|280:29|286:-7,1,67.5000025749208,10|0,0:0|0:0,0:0:0:0:
378,75,469776,2,0,P|410:45|433:16,1,67.5000025749208,2|0,3:2|0:0,0:0:0:0:
510,131,469991,6,0,P|457:180|423:267,1,135.000005149842,2|0,3:2|3:0,0:0:0:0:
486,384,470419,2,0,P|457:353|422:333,1,67.5000025749208,10|0,0:0|0:0,0:0:0:0:
338,375,470634,1,2,3:2:0:0:
338,375,470741,2,0,L|243:389,2,67.5000025749208,0|0|0,3:0|3:0|3:0,0:0:0:0:
278,306,471062,2,0,P|247:327|183:344,1,67.5000025749208,2|0,3:2|0:0,0:0:0:0:
116,348,471276,2,0,P|42:329|-8:252,1,135.000005149842,10|2,0:0|3:2,0:0:0:0:
0,199,471598,1,0,3:0:0:0:
0,199,471705,5,0,3:0:0:0:
99,68,471919,2,0,P|91:35|61:3,1,67.5000025749208,2|0,3:2|0:0,0:0:0:0:
16,78,472134,2,0,P|120:107|160:138,1,135.000005149842,10|2,0:0|3:2,0:0:0:0:
230,130,472455,2,0,P|241:163|243:214,1,67.5000025749208,2|0,3:2|3:0,0:0:0:0:
203,277,472669,1,2,3:2:0:0:
203,277,472776,2,0,P|143:251|72:242,1,135.000005149842,2|8,3:2|0:0,0:0:0:0:
239,384,473205,2,0,P|250:353|291:304,1,67.5000025749208,2|0,3:2|0:0,0:0:0:0:
363,332,473419,6,0,P|430:306|517:289,1,135.000005149842,2|0,3:2|3:0,0:0:0:0:
495,153,473848,2,0,P|435:209|350:246,1,135.000005149842,10|2,0:0|3:2,0:0:0:0:
308,284,474169,1,0,3:0:0:0:
308,284,474276,2,0,P|275:266|242:239,1,67.5000025749208
159,239,474491,2,0,P|148:171|166:80,1,135.000005149842,2|8,3:2|0:0,0:0:0:0:
286,3,474919,1,0,3:0:0:0:
286,3,475026,1,0,3:0:0:0:
286,3,475134,6,0,P|272:36|245:78,1,67.5000025749208,2|0,3:2|0:0,0:0:0:0:
360,82,475348,2,0,P|331:103|286:126,1,67.5000025749208,2|0,3:2|0:0,0:0:0:0:
392,170,475562,2,0,P|486:203|525:238,1,135.000005149842,10|2,0:0|3:2,0:0:0:0:
506,309,475884,1,0,3:0:0:0:
506,309,475991,2,0,L|425:343,2,67.5000025749208,0|0|2,3:0|3:0|3:2,0:0:0:0:
378,383,476419,2,0,P|353:327|300:256,1,135.000005149842,10|2,0:0|3:2,0:0:0:0:
275,178,476741,1,0,0:0:0:0:
275,178,476848,6,0,P|240:165|191:158,1,67.5000025749208,2|2,3:2|3:2,0:0:0:0:
131,112,477062,2,0,P|75:160|48:219,1,135.000005149842,2|8,3:2|0:0,0:0:0:0:
131,368,477491,2,0,P|147:330|154:297,1,67.5000025749208,2|0,3:2|0:0,0:0:0:0:
242,335,477705,2,0,P|236:294|226:262,1,67.5000025749208,2|0,3:2|0:0,0:0:0:0:
327,283,477919,2,0,P|384:227|437:202,1,135.000005149842,2|8,3:2|0:0,0:0:0:0:
502,86,478348,2,0,P|467:113|440:126,1,67.5000025749208
366,90,478562,6,0,P|361:53|370:8,1,67.5000025749208,2|0,3:2|0:0,0:0:0:0:
282,116,478776,2,0,P|259:86|244:42,1,67.5000025749208,2|0,3:2|0:0,0:0:0:0:
184,153,478991,2,0,P|117:175|61:226,1,135.000005149842,10|2,0:0|3:2,0:0:0:0:
0,287,479312,1,2,3:2:0:0:
0,287,479419,2,0,P|15:326|42:360,1,67.5000025749208,2|0,3:2|0:0,0:0:0:0:
129,379,479634,2,0,P|207:354|285:359,1,135.000005149842,2|8,3:2|0:0,0:0:0:0:
364,384,479955,1,8,0:0:0:0:
416,362,480062,1,8,0:0:0:0:
510,236,480276,6,0,P|481:264|420:290,1,67.5000025749208,6|0,3:2|0:0,0:0:0:0:
382,234,480491,2,0,L|390:156,1,67.5000025749208,2|0,3:2|0:0,0:0:0:0:
394,76,480705,1,10,0:0:0:0:
354,5,480919,2,0,P|336:75|271:121,1,135.000005149842,2|12,3:2|0:0,0:0:0:0:
161,118,481350,2,0,P|122:104|84:84,1,67.5000025749208,0|0,3:0|0:0,0:0:0:0:
48,0,481561,2,0,L|26:97,1,67.5000025749208,10|0,0:0|0:0,0:0:0:0:
55,158,481772,1,0,3:0:0:0:
17,257,481989,6,0,P|78:231|157:230,1,135.000005149842,4|2,0:0|3:2,0:0:0:0:
293,275,482417,2,0,P|285:320|290:358,1,67.5000025749208,10|0,0:0|0:0,0:0:0:0:
362,384,482631,1,2,3:2:0:0:
362,384,482739,2,0,P|386:320|410:285,1,67.5000025749208,2|4,3:2|0:0,0:0:0:0:
385,320,483060,1,8,0:0:0:0:
424,284,483167,1,8,0:0:0:0:
474,265,483274,1,8,0:0:0:0:
422,250,483381,1,8,0:0:0:0:
381,213,483489,1,8,0:0:0:0:
368,160,483596,1,8,0:0:0:0:
376,106,483703,5,4,0:0:0:0:
376,106,483917,1,0,3:0:0:0:
507,21,484131,1,8,0:0:0:0:
339,26,484346,2,0,P|342:65|332:111,1,67.5000025749208,2|0,3:2|0:0,0:0:0:0:
282,156,484560,2,0,P|241:138|161:127,1,78.7500007510185,2|0,3:2|0:0,0:0:0:0:
98,121,484774,2,0,P|154:156|201:169,1,78.7500007510185,2|0,3:2|0:0,0:0:0:0:
299,159,484989,2,0,P|250:137|155:124,1,90,2|0,3:2|0:0,0:0:0:0:
80,117,485203,2,0,P|147:159|203:174,1,90,2|0,3:2|0:0,0:0:0:0:
312,111,485417,5,6,0:0:0:0:
232,295,485631,1,2,3:2:0:0:
157,357,485845,1,10,0:0:0:0:
401,280,486059,1,6,0:0:0:0:
199,217,486274,1,10,0:0:0:0:
151,138,486488,1,10,0:0:0:0:
341,13,486702,5,6,0:0:0:0:
393,206,486917,1,10,0:0:0:0:
464,275,487131,1,10,0:0:0:0:
468,51,487345,1,6,0:0:0:0:
308,182,487559,1,10,0:0:0:0:
212,154,487774,1,10,0:0:0:0:
149,218,487988,5,6,0:0:0:0:
13,326,507461,6,0,P|62:303|164:289,1,135.000005149842,6|0,3:2|3:0,0:0:0:0:
178,303,507777,2,0,P|233:284|263:265,1,67.5000025749208,0|10,3:0|0:0,0:0:0:0:
337,201,508094,1,0,0:0:0:0:
465,35,508306,2,0,P|391:93|431:160,1,135.000005149842,10|0,0:0|3:0,0:0:0:0:
512,229,508728,6,0,P|463:205|348:203,1,135.000005149842,6|0,3:2|3:0,0:0:0:0:
353,218,509045,2,0,P|312:227|262:227,1,67.5000025749208,0|10,3:0|0:0,0:0:0:0:
153,180,509362,1,0,3:0:0:0:
72,0,509573,2,0,P|127:50|121:114,1,135.000005149842,10|0,0:0|3:0,0:0:0:0:
1,210,509996,6,0,P|56:250|139:276,1,135.000005149842,6|0,0:0|3:0,0:0:0:0:
149,260,510313,2,0,P|183:266|223:289,1,67.5000025749208,0|10,3:0|0:0,0:0:0:0:
334,384,510630,1,0,3:0:0:0:
487,327,510841,2,0,P|481:260|382:245,1,135.000005149842,10|0,0:0|0:0,0:0:0:0:
269,215,511263,6,0,L|422:203,1,135.000005149842,0|8,0:0|0:0,0:0:0:0:
483,150,511584,1,4,3:0:0:0:
506,101,511691,1,8,0:0:0:0:
453,91,511798,1,8,0:0:0:0:
399,81,511905,1,8,0:0:0:0:
345,70,512013,1,8,0:0:0:0:
292,61,512120,1,10,0:0:0:0:
335,0,512227,1,8,0:0:0:0:
404,26,512334,2,0,P|409:68|389:122,1,67.5000025749208,2|0,3:2|0:0,0:0:0:0:
325,182,512548,6,0,P|268:156|187:136,1,135.000005149842,6|0,3:2|3:0,0:0:0:0:
163,144,512870,2,0,L|148:226,1,67.5000025749208,0|10,3:0|0:0,0:0:0:0:
59,292,513191,1,0,3:0:0:0:
10,174,513405,2,0,P|34:115|119:63,1,135.000005149842,10|0,0:0|0:0,0:0:0:0:
269,27,513834,6,0,L|441:59,1,135.000005149842,4|0,0:0|3:0,0:0:0:0:
428,74,514155,2,0,P|465:62|504:29,1,67.5000025749208,0|8,3:0|0:0,0:0:0:0:
512,186,514477,1,0,3:0:0:0:
439,278,514691,2,0,P|333:287|276:336,1,135.000005149842,10|0,0:0|3:0,0:0:0:0:
216,384,515120,6,0,L|231:233,1,135.000005149842,4|0,3:2|0:0,0:0:0:0:
251,219,515441,2,0,P|254:184|237:144,1,67.5000025749208,0|8,3:0|0:0,0:0:0:0:
97,80,515763,2,0,P|128:94|182:105,1,67.5000025749208,2|0,3:2|0:0,0:0:0:0:
231,48,515977,2,0,L|401:24,1,135.000005149842,10|2,0:0|3:2,0:0:0:0:
487,54,516405,5,8,0:0:0:0:
479,75,516478,1,8,0:0:0:0:
472,96,516552,1,8,0:0:0:0:
444,120,516625,1,8,0:0:0:0:
449,141,516699,1,8,0:0:0:0:
454,162,516772,1,8,0:0:0:0:
487,186,516846,1,8,0:0:0:0:
472,298,517066,1,8,0:0:0:0:
428,286,517177,1,8,0:0:0:0:
384,274,517287,1,8,0:0:0:0:
340,262,517391,1,8,0:0:0:0:
296,250,517495,1,8,0:0:0:0:
252,238,517599,1,8,0:0:0:0:
208,226,517703,5,4,3:2:0:0:
109,318,517918,1,8,3:0:0:0:
96,299,518025,1,0,3:0:0:0:
82,281,518132,1,0,3:0:0:0:
68,262,518239,1,8,3:0:0:0:
83,245,518346,1,0,3:0:0:0:
97,227,518456,1,0,3:0:0:0:
111,209,518566,1,8,0:0:0:0:
51,126,518777,1,0,3:2:0:0:
95,35,518988,5,2,3:2:0:0:
205,82,519199,1,8,3:0:0:0:
227,77,519304,1,0,3:0:0:0:
249,72,519410,1,0,3:0:0:0:
271,67,519516,1,8,3:0:0:0:
287,52,519621,1,0,3:0:0:0:
304,37,519735,1,0,3:0:0:0:
321,22,519850,1,8,0:0:0:0:
419,55,520061,1,0,3:0:0:0:
512,12,520272,5,2,3:2:0:0:
474,122,520484,1,8,3:0:0:0:
462,141,520591,1,0,3:0:0:0:
450,160,520697,1,0,3:0:0:0:
439,179,520803,1,8,3:0:0:0:
417,186,520910,1,0,3:0:0:0:
395,193,521021,1,0,3:0:0:0:
374,200,521132,1,8,0:0:0:0:
321,282,521350,1,0,3:0:0:0:
489,237,521568,5,4,3:2:0:0:
445,326,521782,1,0,3:0:0:0:
246,377,521996,1,4,3:2:0:0:
236,281,522210,1,0,3:0:0:0:
291,83,522425,1,12,3:2:0:0:
479,0,522639,1,12,3:2:0:0:
249,14,522853,5,4,3:1:0:0:
117,35,523068,1,8,3:0:0:0:
111,56,523175,1,0,3:0:0:0:
105,77,523282,1,0,3:0:0:0:
99,98,523389,1,8,3:0:0:0:
107,118,523496,1,0,3:0:0:0:
115,138,523603,1,0,3:0:0:0:
125,158,523710,1,8,0:0:0:0:
176,239,523925,1,0,3:0:0:0:
98,311,524139,5,2,3:2:0:0:
172,384,524354,1,0,3:0:0:0:
193,377,524462,1,0,3:0:0:0:
214,370,524570,1,0,3:0:0:0:
235,363,524670,1,0,3:0:0:0:
257,365,524770,1,0,3:0:0:0:
279,367,524877,1,0,3:0:0:0:
301,369,524984,1,8,0:0:0:0:
386,335,525198,1,0,3:0:0:0:
469,382,525412,5,0,0:0:0:0:
499,262,525626,1,8,3:0:0:0:
486,243,525733,1,0,3:0:0:0:
473,224,525840,1,0,3:0:0:0:
460,205,525947,1,8,3:0:0:0:
465,183,526054,1,0,3:0:0:0:
470,160,526162,1,0,3:0:0:0:
475,138,526269,1,8,0:0:0:0:
507,41,526483,1,0,3:0:0:0:
485,48,526590,1,0,3:0:0:0:
463,40,526697,5,10,0:0:0:0:
450,48,526769,1,8,0:0:0:0:
437,56,526840,1,8,0:0:0:0:
412,72,526912,1,8,0:0:0:0:
397,69,526983,1,8,0:0:0:0:
382,66,527054,1,8,0:0:0:0:
353,57,527126,1,8,0:0:0:0:
265,0,527340,1,8,0:0:0:0:
268,35,527447,1,8,0:0:0:0:
271,70,527554,1,8,0:0:0:0:
274,106,527662,1,8,0:0:0:0:
277,141,527769,1,8,0:0:0:0:
281,176,527876,1,8,0:0:0:0:
285,211,527983,6,0,P|259:273|179:304,1,135,6|0,3:2|0:0,0:0:0:0:
161,309,528412,2,0,L|53:268,1,90,2|8,3:2|0:0,0:0:0:0:
17,160,528840,1,0,3:0:0:0:
71,80,529054,1,0,3:0:0:0:
15,8,529269,6,0,P|24:55|59:98,1,90,6|0,0:0|3:0,0:0:0:0:
181,101,529697,1,0,3:0:0:0:
299,33,529912,2,0,P|344:20|394:13,2,90,10|0|0,0:0|3:0|3:0,0:0:0:0:
266,122,530554,6,0,P|327:126|406:157,1,135,4|0,0:0|0:0,0:0:0:0:
426,179,530983,2,0,L|421:273,1,90,2|8,3:2|0:0,0:0:0:0:
490,374,531412,2,0,P|468:323|471:261,1,90,2|0,3:2|3:0,0:0:0:0:
512,177,531849,5,14,0:0:0:0:
433,79,532060,1,8,0:0:0:0:
462,57,532165,1,8,0:0:0:0:
490,34,532271,1,8,0:0:0:0:
480,38,532378,1,0,3:0:0:0:
472,43,532485,1,8,0:0:0:0:
440,29,532592,1,8,0:0:0:0:
404,25,532699,1,8,0:0:0:0:
371,39,532803,1,8,0:0:0:0:
353,70,532907,1,8,0:0:0:0:
350,105,533011,1,8,0:0:0:0:
361,138,533115,6,0,P|362:204|311:265,1,135,6|0,3:2|0:0,0:0:0:0:
285,270,533543,2,0,L|183:257,1,90,2|8,3:2|0:0,0:0:0:0:
86,262,533972,1,2,3:2:0:0:
8,329,534186,1,2,3:2:0:0:
115,368,534400,6,0,P|99:318|112:256,1,90,14|0,0:0|3:0,0:0:0:0:
171,189,534834,1,0,3:0:0:0:
163,83,535052,2,0,P|139:41|97:15,2,90,10|0|0,0:0|3:0|3:0,0:0:0:0:
328,123,535704,6,0,P|383:64|380:37,1,90,14|0,0:0|3:0,0:0:0:0:
435,241,536139,2,0,L|422:332,1,90,14|0,0:0|3:0,0:0:0:0:
272,312,536573,2,0,P|208:319|154:335,1,90,14|0,0:0|3:0,0:0:0:0:
57,364,537014,5,8,0:0:0:0:
213,292,537219,1,4,3:0:0:0:
114,224,537424,1,4,3:0:0:0:
114,224,537630,1,2,3:2:0:0:
190,86,537835,2,0,P|203:26|190:-10,1,90,2|2,3:2|3:2,0:0:0:0:
94,75,538267,6,0,P|163:96|224:128,1,135,6|0,3:2|0:0,0:0:0:0:
244,158,538695,2,0,L|285:71,1,90,2|8,3:2|0:0,0:0:0:0:
390,50,539124,1,2,3:2:0:0:
485,107,539338,1,2,3:2:0:0:
437,0,539552,6,0,P|422:87|381:141,1,135,6|0,3:2|0:0,0:0:0:0:
364,145,539981,2,0,L|356:260,1,90,2|8,3:2|0:0,0:0:0:0:
319,331,540409,1,2,3:2:0:0:
415,384,540624,1,2,3:2:0:0:
473,289,540838,6,0,P|394:340|334:341,1,135,6|0,3:2|0:0,0:0:0:0:
322,319,541267,2,0,L|318:227,1,90,2|8,3:2|0:0,0:0:0:0:
273,122,541695,1,2,3:2:0:0:
321,18,541909,1,2,3:2:0:0:
435,93,542124,6,0,L|449:195,1,90,10|0,0:0|3:0,0:0:0:0:
259,50,542552,2,0,L|213:150,1,90,10|4,0:0|0:0,0:0:0:0:
376,0,542981,1,8,0:0:0:0:
285,76,543195,1,0,3:0:0:0:
156,53,543409,6,0,L|57:87,1,90,6|0,0:0|3:0,0:0:0:0:
39,104,543731,2,0,P|35:137|18:170,1,45,0|2,3:0|0:0,0:0:0:0:
0,239,544052,1,10,0:0:0:0:
68,342,544267,1,2,3:2:0:0:
210,369,544481,1,2,3:2:0:0:
332,271,544695,6,0,L|444:243,1,90,6|0,3:2|3:0,0:0:0:0:
455,253,545017,2,0,P|476:268|493:303,1,45,0|2,3:0|0:0,0:0:0:0:
344,163,545338,1,10,0:0:0:0:
321,73,545552,1,0,3:0:0:0:
429,0,545767,2,0,P|425:28|411:68,1,45,2|0,3:2|0:0,0:0:0:0:
401,128,545981,6,0,P|339:193|261:212,1,135.000005149842,6|0,3:2|3:0,0:0:0:0:
158,177,546422,1,2,0:3:0:0:
259,246,546642,2,0,P|308:303|318:377,2,135.000005149842,8|0|0,0:0|3:0|3:0,0:0:0:0:
133,321,547275,6,0,L|-7:345,1,135.000005149842,12|0,0:0|3:0,0:0:0:0:
31,244,547697,1,0,3:0:0:0:
70,135,547908,1,8,0:0:0:0:
46,85,548014,1,0,3:2:0:0:
81,44,548120,1,2,3:2:0:0:
35,73,548225,1,0,3:2:0:0:
45,125,548331,1,2,3:2:0:0:
173,179,548542,6,0,P|216:140|305:98,1,135.000005149842,4|0,0:0|3:0,0:0:0:0:
324,115,548880,1,0,3:0:0:0:
324,115,548993,2,0,P|390:129|413:125,1,67.5000025749208,2|0,3:2|3:0,0:0:0:0:
495,90,549218,1,12,0:0:0:0:
512,223,549444,2,0,P|475:244|427:296,1,67.5000025749208,2|8,3:2|0:0,0:0:0:0:
422,338,549650,2,0,P|384:365|327:371,1,67.5000025749208,2|0,3:2|3:0,0:0:0:0:
275,337,549857,6,0,P|209:319|103:304,1,135.000005149842,6|0,3:2|3:0,0:0:0:0:
117,282,550173,1,8,0:0:0:0:
117,282,550279,2,0,P|105:237|72:195,1,67.5000025749208,2|0,3:2|3:0,0:0:0:0:
4,157,550490,1,12,0:0:0:0:
41,48,550702,1,0,3:0:0:0:
41,48,550807,1,8,0:0:0:0:
41,48,550913,1,0,3:0:0:0:
185,0,551124,6,0,P|163:50|150:152,1,135.000005149842,4|2,3:2|3:2,0:0:0:0:
190,158,551445,1,8,0:0:0:0:
190,158,551552,2,0,P|197:198|196:249,1,67.5000025749208,0|0,3:0|3:0,0:0:0:0:
118,338,551766,2,0,P|147:323|190:307,1,67.5000025749208,6|0,0:0|3:0,0:0:0:0:
268,353,551981,1,0,3:0:0:0:
429,372,552195,2,0,P|467:346|487:306,1,67.5000025749208,2|0,3:2|3:0,0:0:0:0:
424,252,552409,6,0,L|415:177,1,67.5000025749208,6|0,3:2|0:0,0:0:0:0:
512,78,552624,2,0,P|485:115|452:137,1,67.5000025749208,2|0,3:2|0:0,0:0:0:0:
368,77,552838,2,0,L|289:61,1,67.5000025749208,2|0,3:2|0:0,0:0:0:0:
178,107,553052,1,12,0:0:0:0:
87,0,553266,1,0,3:0:0:0:
87,0,553374,1,8,0:0:0:0:
87,0,553481,1,0,3:0:0:0:
4,121,553695,6,0,P|61:151|115:238,1,135.000005149842,4|0,3:2|3:0,0:0:0:0:
98,243,554016,1,8,0:0:0:0:
98,243,554124,2,0,L|84:325,1,67.5000025749208,2|0,3:2|0:0,0:0:0:0:
196,382,554338,2,0,P|211:309|215:220,1,135.000005149842,6|0,3:2|3:0,0:0:0:0:
191,218,554659,1,8,0:0:0:0:
191,218,554766,2,0,P|192:175|209:118,1,67.5000025749208,2|0,3:2|0:0,0:0:0:0:
267,45,554981,6,0,P|330:69|436:83,1,135.000005149842,6|0,3:2|3:0,0:0:0:0:
430,57,555302,1,8,0:0:0:0:
430,57,555409,2,0,P|429:93|438:156,1,67.5000025749208,2|0,3:2|0:0,0:0:0:0:
490,215,555624,1,6,0:0:0:0:
415,358,555838,1,8,0:0:0:0:
415,358,555945,1,8,0:0:0:0:
415,358,556052,2,0,P|410:321|386:265,1,67.5000025749208,2|0,3:2|0:0,0:0:0:0:
328,187,556266,6,0,L|308:273,1,67.5000025749208,4|0,0:0|0:0,0:0:0:0:
282,337,556481,1,2,3:2:0:0:
191,375,556588,2,0,P|130:351|52:340,1,135.000005149842,2|0,3:2|0:0,0:0:0:0:
0,222,556909,1,12,0:0:0:0:
39,62,557124,1,0,3:0:0:0:
189,0,557338,1,0,3:0:0:0:
271,53,557552,5,8,0:0:0:0:
271,53,557659,1,8,0:0:0:0:
271,53,557766,1,8,0:0:0:0:
361,83,557874,1,0,3:0:0:0:
443,48,557981,2,0,P|475:33|531:21,1,67.5000025749208,2|0,0:0|0:0,0:0:0:0:
498,170,558195,2,0,P|463:149|409:127,1,67.5000025749208,2|0,0:0|0:0,0:0:0:0:
266,210,558409,2,0,P|303:196|361:188,1,67.5000025749208,2|0,0:0|0:0,0:0:0:0:
495,330,558624,1,2,0:0:0:0:
423,281,558731,1,2,0:0:0:0:
319,337,558838,6,0,P|267:352|205:348,1,112.5,2|0,3:2|0:0,0:0:0:0:
185,328,559052,2,0,P|174:273|119:193,1,112.5,8|0,0:0|0:0,0:0:0:0:
27,212,559266,1,2,3:2:0:0:
27,212,559373,1,0,3:0:0:0:
27,212,559480,2,0,P|86:208|145:186,1,112.5,8|0,0:0|0:0,0:0:0:0:
103,93,559695,6,0,P|115:35|153:0,1,112.5,2|0,3:2|0:0,0:0:0:0:
277,37,559909,1,10,0:0:0:0:
404,18,560016,2,0,P|458:28|514:87,2,112.5,2|0|0,3:2|3:0|0:0,0:0:0:0:
292,48,560338,1,10,0:0:0:0:
248,155,560445,1,2,0:0:0:0:
132,173,560552,6,0,P|84:148|9:133,1,112.5,2|0,3:2|0:0,0:0:0:0:
0,157,560766,2,0,P|6:211|44:286,1,112.5,8|0,0:0|0:0,0:0:0:0:
125,377,560980,2,0,P|138:317|164:257,1,112.5,2|0,3:2|0:0,0:0:0:0:
272,172,561195,2,0,P|285:227|329:286,1,112.5,10|0,0:0|0:0,0:0:0:0:
348,291,561409,6,0,L|497:314,1,112.5,0|0,3:0|0:0,0:0:0:0:
512,196,561623,1,8,0:0:0:0:
428,106,561730,2,0,P|417:47|462:-24,2,112.5,0|0|0,3:0|3:0|0:0,0:0:0:0:
495,208,562052,1,10,0:0:0:0:
438,314,562159,1,2,0:0:0:0:
324,353,562266,6,0,P|268:317|193:285,1,112.5,2|0,3:2|0:0,0:0:0:0:
192,310,562480,2,0,P|193:254|259:184,1,112.5,8|0,0:0|0:0,0:0:0:0:
209,66,562695,2,0,L|109:131,1,112.5,2|0,3:2|0:0,0:0:0:0:
87,154,562909,2,0,P|41:124|13:37,1,112.5,8|0,0:0|0:0,0:0:0:0:
192,1,563123,6,0,P|181:52|190:200,1,112.5,2|0,3:2|0:0,0:0:0:0:
252,216,563338,1,10,0:0:0:0:
195,327,563445,2,0,P|135:342|72:382,2,112.5,2|0|0,3:2|3:0|0:0,0:0:0:0:
312,384,563766,1,10,0:0:0:0:
438,358,563873,1,2,0:0:0:0:
467,233,563980,6,0,P|461:159|424:93,1,112.5,2|0,3:2|0:0,0:0:0:0:
301,197,564195,2,0,L|110:168,1,112.5,10|0,0:0|0:0,0:0:0:0:
126,26,564409,2,0,P|103:84|121:148,1,112.5,2|0,3:2|0:0,0:0:0:0:
252,42,564623,2,0,L|386:17,1,112.5,10|0,0:0|0:0,0:0:0:0:
505,88,564838,6,0,P|448:115|394:178,1,112.5,2|0,3:2|0:0,0:0:0:0:
365,266,565052,1,10,0:0:0:0:
439,369,565159,2,0,P|465:329|525:278,2,112.5,2|0|8,3:2|3:0|0:0,0:0:0:0:
383,245,565480,1,8,0:0:0:0:
437,142,565588,1,8,0:0:0:0:
349,0,565695,5,6,3:2:0:0:
308,128,565802,1,2,0:0:0:0:
218,29,565909,1,10,0:0:0:0:
177,157,566016,2,0,P|136:132|25:122,2,112.5,2|0|0,3:2|0:0|0:0,0:0:0:0:
199,184,566338,2,0,P|165:223|133:309,1,112.5,8|0,0:0|0:0,0:0:0:0:
159,312,566552,6,0,L|294:294,1,112.5,0|0,3:0|0:0,0:0:0:0:
393,362,566766,2,0,P|418:317|494:255,1,112.5,10|0,0:0|0:0,0:0:0:0:
507,148,566980,2,0,P|454:179|372:194,1,112.5,2|0,3:2|0:0,0:0:0:0:
301,112,567195,1,10,0:0:0:0:
174,97,567302,6,0,P|111:130|29:155,2,112.5,2|0|0,3:2|3:0|0:0,0:0:0:0:
178,60,567623,2,0,P|220:22|321:24,1,112.5,8|0,0:0|0:0,0:0:0:0:
300,29,567838,2,0,L|269:172,1,112.5,0|0,0:0|3:0,0:0:0:0:
356,252,568052,2,0,P|397:215|482:185,1,112.5,10|0,0:0|0:0,0:0:0:0:
511,339,568266,6,0,P|434:319|361:321,1,112.5,2|0,3:2|0:0,0:0:0:0:
276,384,568480,2,0,P|239:343|255:263,1,112.5,10|0,0:0|0:0,0:0:0:0:
241,146,568695,2,0,P|225:103|138:98,1,112.5,2|0,3:2|0:0,0:0:0:0:
35,78,568909,1,10,0:0:0:0:
69,204,569016,6,0,P|32:239|-6:306,2,112.5,2|0|0,3:2|3:0|0:0,0:0:0:0:
100,226,569338,2,0,P|162:218|219:189,1,112.5,8|0,0:0|0:0,0:0:0:0:
224,110,569552,1,0,3:0:0:0:
224,110,569659,1,0,3:0:0:0:
224,110,569766,1,8,0:0:0:0:
167,370,569980,5,0,3:0:0:0:
167,370,570088,1,0,3:0:0:0:
243,297,570195,2,0,P|290:335|361:364,1,112.5,10|0,0:0|0:0,0:0:0:0:
322,212,570409,2,0,L|299:77,1,112.5,2|0,3:2|0:0,0:0:0:0:
406,20,570623,1,10,0:0:0:0:
509,92,570730,6,0,P|480:153|479:231,2,112.5,2|0|0,3:2|3:0|0:0,0:0:0:0:
404,253,571052,1,10,0:0:0:0:
482,384,571159,2,0,P|392:362|337:309,1,112.5,2|0,3:2|3:0,0:0:0:0:
288,182,571373,1,2,3:2:0:0:
149,262,571480,2,0,P|165:333|165:406,1,112.5,10|0,0:0|0:0,0:0:0:0:
0,339,571695,5,8,0:0:0:0:
76,250,571802,1,8,0:0:0:0:
75,366,571909,1,8,0:0:0:0:
25,265,572016,1,8,0:0:0:0:
56,157,572123,1,8,0:0:0:0:
143,86,572230,1,8,0:0:0:0:
67,1,572338,1,8,0:0:0:0:
27,106,572445,1,8,0:0:0:0:
138,122,572552,6,0,P|193:83|314:53,1,112.5,6|0,3:2|0:0,0:0:0:0:
342,51,572766,2,0,P|408:62|515:126,1,112.5,10|0,0:2|0:0,0:0:0:0:
133,106,572980,2,0,P|188:67|309:37,1,112.5,2|0,3:2|0:0,0:0:0:0:
337,35,573195,2,0,P|403:46|510:110,1,112.5,10|0,0:2|0:0,0:0:0:0:
511,163,573409,6,0,L|494:299,1,112.5,6|0,3:2|0:0,0:0:0:0:
420,355,573623,2,0,L|406:243,1,112.5,10|0,0:0|0:0,0:0:0:0:
298,110,573838,2,0,L|281:246,1,112.5,2|0,3:2|0:0,0:0:0:0:
172,384,574052,2,0,L|158:272,1,112.5,10|0,0:0|0:0,0:0:0:0:
19,68,574266,6,0,P|59:120|87:182,1,112.5,6|0,3:2|0:0,0:0:0:0:
101,275,574480,2,0,P|92:340|68:403,1,112.5,10|0,0:0|0:0,0:0:0:0:
51,58,574695,2,0,P|91:110|119:172,1,112.5,2|0,3:2|0:0,0:0:0:0:
133,265,574909,2,0,P|124:330|100:393,1,112.5,10|0,0:0|0:0,0:0:0:0:
240,129,575123,6,0,L|222:3,1,112.5,6|0,3:2|0:0,0:0:0:0:
390,66,575338,2,0,L|374:177,1,112.5,10|0,0:2|0:0,0:0:0:0:
223,248,575552,2,0,L|205:122,1,112.5,2|0,3:2|0:0,0:0:0:0:
402,263,575766,2,0,L|386:374,1,112.5,10|0,0:2|0:0,0:0:0:0:
195,343,575980,6,0,P|219:286|264:242,1,112.5,6|0,3:2|0:0,0:0:0:0:
349,189,576195,2,0,P|406:165|469:166,1,112.5,10|0,0:0|0:0,0:0:0:0:
177,326,576409,2,0,P|201:269|246:225,1,112.5,2|0,3:2|0:0,0:0:0:0:
331,172,576623,2,0,P|388:148|451:149,1,112.5,10|0,0:0|0:0,0:0:0:0:
472,344,576838,6,0,L|443:199,1,112.5,6|0,3:2|0:0,0:0:0:0:
376,108,577052,2,0,L|353:218,1,112.5,10|0,0:2|0:0,0:0:0:0:
262,382,577266,2,0,L|233:237,1,112.5,2|0,3:2|0:0,0:0:0:0:
129,91,577480,2,0,L|106:201,1,112.5,10|0,0:2|0:0,0:0:0:0:
29,369,577695,6,0,P|21:304|51:220,1,112.5,4|0,3:2|0:0,0:0:0:0:
209,93,577909,2,0,P|157:120|118:167,1,112.5,10|0,0:0|0:0,0:0:0:0:
210,353,578123,2,0,P|182:307|177:245,1,112.5,2|0,3:2|0:0,0:0:0:0:
317,146,578338,2,0,P|277:194|265:266,1,112.5,10|0,0:0|0:0,0:0:0:0:
377,297,578552,6,0,P|324:268|293:215,1,112.5,2|0,3:2|0:0,0:0:0:0:
405,217,578766,2,0,P|367:259|350:312,1,112.5,10|0,0:0|0:0,0:0:0:0:
451,384,578980,1,8,0:0:0:0:
458,339,579088,1,8,0:0:0:0:
465,294,579195,1,8,0:0:0:0:
472,249,579302,1,8,0:0:0:0:
479,204,579409,6,0,P|448:157|446:72,1,112.5,6|0,3:2|0:0,0:0:0:0:
341,17,579623,2,0,P|354:71|338:153,1,112.5,10|0,0:2|0:0,0:0:0:0:
493,206,579838,2,0,P|459:154|457:61,1,112.5,2|0,3:2|0:0,0:0:0:0:
325,12,580052,2,0,P|339:72|322:162,1,112.5,10|0,0:2|0:0,0:0:0:0:
209,53,580266,6,0,L|85:40,1,112.5,6|0,3:2|0:0,0:0:0:0:
34,138,580480,2,0,L|158:125,1,112.5,10|0,2:2|0:0,0:0:0:0:
276,249,580695,2,0,L|152:236,1,112.5,2|0,3:2|0:0,0:0:0:0:
2,356,580909,2,0,L|126:343,1,112.5,10|0,0:2|0:0,0:0:0:0:
294,379,581123,6,2,P|310:325|296:259,1,112.5,6|0,3:2|0:2,3:2:0:0:
395,189,581338,2,0,L|542:209,1,112.5,10|0,0:0|0:0,0:0:0:0:
312,384,581552,2,2,P|328:330|314:264,1,112.5,2|0,3:2|0:2,3:2:0:0:
401,169,581766,2,0,L|548:189,1,112.5,8|0,0:0|0:0,0:0:0:0:
412,22,581980,6,0,P|410:77|387:134,1,112.5,6|0,3:2|0:0,0:0:0:0:
277,184,582195,2,0,P|320:148|357:90,1,112.5,10|0,0:0|0:0,0:0:0:0:
212,0,582409,2,0,P|231:46|235:128,1,112.5,2|0,3:2|0:0,0:0:0:0:
81,216,582623,2,0,P|120:160|135:76,1,112.5,10|0,0:0|0:0,0:0:0:0:
0,313,582838,6,0,P|59:333|118:377,1,112.5,6|0,3:2|0:0,0:0:0:0:
240,316,583052,2,0,P|287:313|378:288,1,112.5,10|0,0:0|0:0,0:0:0:0:
16,299,583266,2,0,P|75:319|134:363,1,112.5,2|0,3:2|0:0,0:0:0:0:
252,336,583480,2,0,P|299:333|390:308,1,112.5,10|0,0:0|0:0,0:0:0:0:
336,117,583695,6,0,P|304:82|241:57,1,112.5,6|0,3:2|0:0,0:0:0:0:
86,69,583909,2,0,P|51:100|26:163,1,112.5,10|0,0:2|0:0,0:0:0:0:
117,359,584123,2,0,P|161:376|228:371,1,112.5,2|0,3:2|0:0,0:0:0:0:
388,152,584338,2,0,P|370:107|320:61,1,112.5,10|0,0:2|0:0,0:0:0:0:
31,269,584552,6,0,P|60:305|121:334,1,112.5,6|0,3:2|0:0,0:0:0:0:
251,17,584766,2,0,P|177:45|127:89,1,112.5,10|0,0:0|0:0,0:0:0:0:
306,283,584980,2,0,P|352:205|357:164,1,112.5,2|0,3:2|0:0,0:0:0:0:
146,95,585195,2,0,P|140:178|167:237,1,112.5,10|0,0:0|0:0,0:0:0:0:
295,109,585409,6,0,P|248:88|170:90,1,112.5,2|0,3:2|0:0,0:0:0:0:
242,185,585623,2,0,P|262:128|263:67,1,112.5,10|0,0:0|0:0,0:0:0:0:
150,27,585838,1,8,0:0:0:0:
112,52,585945,1,8,0:0:0:0:
87,89,586052,1,8,0:0:0:0:
72,131,586159,1,8,0:0:0:0:
69,175,586266,6,0,P|80:231|124:307,1,112.5,4|0,3:2|0:0,0:0:0:0:
305,384,586480,1,8,0:0:0:0:
379,327,586695,2,0,P|369:272|383:175,1,112.5,4|0,3:2|0:0,0:0:0:0:
452,0,586909,1,8,0:0:0:0:
512,64,587123,6,0,P|456:71|363:111,1,112.5,4|0,3:2|0:0,0:0:0:0:
192,179,587338,1,8,0:0:0:0:
92,135,587552,2,0,P|98:80|168:0,1,112.5,4|0,3:2|0:0,0:0:0:0:
349,0,587766,1,8,0:0:0:0:
447,10,587980,6,0,P|440:80|400:157,1,112.5,4|0,3:2|0:0,0:0:0:0:
312,281,588195,1,8,0:0:0:0:
306,384,588409,2,0,P|269:345|173:304,1,112.5,4|0,3:2|0:0,0:0:0:0:
37,278,588623,1,8,0:0:0:0:
14,189,588838,6,0,L|140:177,1,112.5,4|0,3:2|0:0,0:0:0:0:
293,150,589052,1,8,0:0:0:0:
340,59,589266,2,0,P|326:116|330:192,1,112.5,4|0,3:2|0:0,0:0:0:0:
413,281,589480,1,8,0:0:0:0:
488,341,589695,6,0,P|433:337|357:313,1,112.5,4|0,3:2|0:0,0:0:0:0:
245,235,589909,1,8,0:0:0:0:
182,148,590123,2,0,P|253:79|318:59,1,112.5,4|0,3:2|0:0,0:0:0:0:
451,64,590338,1,8,0:0:0:0:
512,144,590552,6,0,L|370:126,1,112.5,4|0,3:2|0:0,0:0:0:0:
203,85,590766,1,8,0:0:0:0:
97,16,590980,2,0,P|112:93|88:179,1,112.5,4|0,3:2|0:0,0:0:0:0:
21,337,591195,1,8,0:0:0:0:
103,374,591409,6,0,P|123:317|176:262,1,112.5,0|0,3:0|0:0,0:0:0:0:
302,285,591623,2,0,P|250:301|173:291,1,112.5,8|0,0:0|0:0,0:0:0:0:
168,138,591838,2,0,P|187:197|181:266,1,112.5,8|0,0:0|0:0,0:0:0:0:
71,384,592052,1,8,0:0:0:0:
102,276,592159,1,8,0:0:0:0:
194,339,592266,5,10,0:0:0:0:
304,320,592373,1,8,0:0:0:0:
403,372,592480,1,8,0:0:0:0:
497,308,592588,1,8,0:0:0:0:
461,201,592695,1,8,0:0:0:0:
381,121,592802,1,8,0:0:0:0:
406,11,592909,1,8,0:0:0:0:
491,84,593016,1,8,0:0:0:0:
398,147,593123,6,0,P|341:153|275:181,1,112.5,4|0,3:2|0:0,0:0:0:0:
143,341,593338,1,8,0:0:0:0:
48,302,593552,2,0,P|44:243|81:168,1,112.5,4|0,3:2|0:0,0:0:0:0:
191,10,593766,1,8,0:0:0:0:
328,0,593980,6,0,L|191:34,1,112.5,4|0,3:2|0:0,0:0:0:0:
0,90,594195,1,8,0:0:0:0:
27,189,594409,2,0,P|90:171|171:177,1,112.5,4|0,3:2|0:0,0:0:0:0:
357,224,594623,1,8,0:0:0:0:
432,298,594838,6,0,P|462:254|471:176,1,112.5,4|0,3:2|0:0,0:0:0:0:
416,0,595052,1,8,0:0:0:0:
309,14,595266,2,0,P|342:72|354:158,1,112.5,4|0,3:2|0:0,0:0:0:0:
289,285,595480,1,8,0:0:0:0:
262,384,595695,6,0,P|235:346|183:305,1,112.5,4|0,3:2|0:0,0:0:0:0:
27,267,595909,1,8,0:0:0:0:
14,174,596123,2,0,L|141:142,1,112.5,4|0,3:2|0:0,0:0:0:0:
257,112,596338,1,8,0:0:0:0:
326,25,596552,6,0,P|361:61|393:139,1,112.5,4|0,3:2|0:0,0:0:0:0:
381,284,596766,1,8,0:0:0:0:
473,352,596980,2,0,P|456:283|461:206,1,112.5,4|0,3:2|0:0,0:0:0:0:
508,51,597195,1,8,0:0:0:0:
419,0,597409,6,0,P|390:59|307:101,1,112.5,4|0,3:2|0:0,0:0:0:0:
128,106,597623,1,8,0:0:0:0:
61,196,597730,1,8,0:0:0:0:
85,306,597838,1,8,3:0:0:0:
173,355,597945,1,8,3:0:0:0:
259,331,598052,1,4,3:0:0:0:
337,321,598159,1,4,3:0:0:0:
400,344,598266,5,4,0:0:0:0:
231,135,632103,5,6,3:2:0:0:
235,127,632210,1,0,0:0:0:0:
239,119,632317,1,0,0:0:0:0:
244,111,632424,1,0,0:0:0:0:
280,87,632531,1,2,0:2:0:0:
284,96,632638,1,0,0:0:0:0:
289,106,632745,1,0,0:0:0:0:
295,115,632853,1,0,0:0:0:0:
341,133,632960,5,2,0:2:0:0:
346,121,633067,1,0,0:0:0:0:
352,109,633174,1,0,0:0:0:0:
359,98,633281,1,0,0:0:0:0:
414,70,633388,1,2,0:2:0:0:
420,83,633495,1,0,0:0:0:0:
427,97,633603,1,0,0:0:0:0:
435,110,633710,1,0,0:0:0:0:
512,145,633817,5,4,3:1:0:0:
317,309,634026,1,8,0:0:0:0:
399,317,634131,1,0,3:0:0:0:
143,372,634358,1,8,0:0:0:0:
85,273,634471,1,8,0:0:0:0:
136,33,634699,5,4,3:0:0:0:
145,42,634812,1,0,3:0:0:0:
201,22,634912,1,8,0:0:0:0:
256,40,635012,1,8,0:0:0:0:
306,69,635112,1,8,0:0:0:0:
368,62,635212,1,8,0:0:0:0:
427,22,635319,1,8,0:0:0:0:
502,52,635426,1,8,0:0:0:0:
511,141,635533,6,0,P|486:185|432:224,1,90,6|0,3:2|0:0,0:0:0:0:
421,208,635747,2,0,L|445:349,1,90,8|0,0:0|0:0,0:0:0:0:
505,366,635961,1,0,3:0:0:0:
505,366,636068,1,0,3:0:0:0:
403,303,636175,2,0,P|365:332|299:348,1,90,10|0,0:0|0:0,0:0:0:0:
294,328,636390,6,0,P|281:287|310:222,1,90,0|0,3:0|0:0,0:0:0:0:
350,152,636604,2,0,L|226:126,1,90,10|0,0:0|0:0,0:0:0:0:
194,85,636818,2,0,P|190:52|241:16,1,90,2|0,3:2|3:0,0:0:0:0:
314,47,637033,2,0,P|353:36|441:21,1,90,10|0,0:0|0:0,0:0:0:0:
498,74,637247,5,0,3:0:0:0:
498,74,637354,1,0,3:0:0:0:
498,74,637461,1,10,0:0:0:0:
458,159,637568,1,0,0:0:0:0:
495,251,637675,2,0,P|495:292|463:358,1,90,2|0,3:2|0:0,0:0:0:0:
384,288,637890,2,0,L|269:265,1,90,10|0,0:0|0:0,0:0:0:0:
185,251,638104,6,0,P|209:292|221:364,1,90,2|0,3:2|0:0,0:0:0:0:
134,384,638318,1,10,0:0:0:0:
33,351,638425,2,0,P|44:311|36:250,2,90,2|0|0,0:0|3:0|3:0,0:0:0:0:
111,214,638747,1,8,0:0:0:0:
111,214,638854,1,0,3:0:0:0:
41,151,638961,6,0,P|35:101|65:41,1,90,2|0,3:2|0:0,0:0:0:0:
79,47,639175,2,0,L|148:139,1,90,8|0,0:0|0:0,0:0:0:0:
219,182,639390,1,2,3:2:0:0:
219,182,639497,1,0,3:0:0:0:
295,109,639604,2,0,P|306:77|314:22,1,90,10|0,0:0|0:0,0:0:0:0:
354,0,639818,6,0,P|387:42|414:104,1,90,0|0,3:0|0:0,0:0:0:0:
335,152,640033,2,0,L|325:259,1,90,10|0,0:0|0:0,0:0:0:0:
335,336,640247,1,0,3:0:0:0:
335,336,640354,1,0,3:0:0:0:
415,384,640461,2,0,P|442:370|520:369,1,90,10|0,0:0|0:0,0:0:0:0:
512,383,640675,5,2,3:2:0:0:
512,281,640783,1,2,0:0:0:0:
428,325,640890,2,0,P|380:302|350:271,1,90,10|0,0:0|0:0,0:0:0:0:
346,240,641104,2,0,L|448:202,1,90,0|0,3:0|3:0,0:0:0:0:
508,140,641318,1,8,0:0:0:0:
294,0,641533,5,0,3:0:0:0:
294,0,641640,1,0,3:0:0:0:
294,0,641747,2,0,P|341:12|385:46,1,90,8|0,0:0|0:0,0:0:0:0:
388,64,641961,2,0,L|367:175,1,90,0|0,3:0|0:0,0:0:0:0:
341,171,642175,2,0,P|310:140|255:122,1,90,8|0,0:0|0:0,0:0:0:0:
144,111,642390,6,0,L|109:10,1,90,6|0,3:2|0:0,0:0:0:0:
83,6,642604,2,0,P|40:34|24:88,1,90,8|0,0:0|0:0,0:0:0:0:
68,164,642818,2,0,P|120:179|175:220,1,90,2|0,3:2|3:0,0:0:0:0:
207,282,643033,2,0,L|190:374,1,90,10|0,0:0|0:0,0:0:0:0:
150,383,643247,6,0,P|126:347|134:289,1,90,0|0,3:0|0:0,0:0:0:0:
220,243,643461,2,0,P|272:234|334:208,1,90,8|0,0:0|0:0,0:0:0:0:
383,159,643675,1,0,3:0:0:0:
383,159,643783,1,0,3:0:0:0:
335,74,643890,2,0,P|310:37|265:14,1,90,10|0,0:0|0:0,0:0:0:0:
246,37,644104,6,0,L|139:51,1,90,0|0,3:0|0:0,0:0:0:0:
126,72,644318,2,0,P|89:54|70:11,1,90,8|0,0:0|0:0,0:0:0:0:
26,131,644533,2,0,L|-10:248,1,90,2|0,3:2|3:0,0:0:0:0:
59,283,644747,2,0,P|89:259|168:275,1,90,10|0,0:0|0:0,0:0:0:0:
166,340,644961,5,0,3:0:0:0:
166,340,645068,1,0,3:0:0:0:
166,340,645175,1,8,0:0:0:0:
368,384,645390,2,0,P|402:348|451:330,1,90,2|0,3:2|3:0,0:0:0:0:
477,250,645604,2,0,L|453:139,1,90,8|0,0:0|0:0,0:0:0:0:
433,137,645818,6,0,P|415:186|367:223,1,90,0|0,3:0|0:0,0:0:0:0:
287,230,646033,1,8,0:0:0:0:
252,6,646247,1,0,3:0:0:0:
252,6,646354,1,0,3:0:0:0:
252,6,646461,1,10,0:0:0:0:
347,42,646568,1,2,0:0:0:0:
439,0,646675,6,0,P|470:28|522:55,1,90,0|0,3:0|0:0,0:0:0:0:
452,135,646890,2,0,L|425:256,1,90,10|0,0:0|0:0,0:0:0:0:
332,274,647104,2,0,P|297:230|225:201,1,90,2|0,3:2|3:0,0:0:0:0:
154,135,647318,2,0,L|129:28,1,90,10|0,0:0|0:0,0:0:0:0:
35,10,647533,6,0,P|6:48|38:110,1,90,2|0,3:2|0:0,0:0:0:0:
104,115,647747,2,0,P|144:97|245:82,1,90,10|0,0:0|0:0,0:0:0:0:
285,113,647961,2,0,P|296:169|262:203,1,90,2|0,3:2|3:0,0:0:0:0:
186,231,648175,2,0,P|139:226|72:240,1,90,10|0,0:0|0:0,0:0:0:0:
0,246,648390,6,0,L|112:268,1,90,2|0,3:2|0:0,0:0:0:0:
260,229,648598,1,8,0:0:0:0:
336,254,648702,1,8,0:0:0:0:
387,316,648806,1,0,3:0:0:0:
512,124,649015,1,10,0:0:0:0:
500,43,649119,1,8,0:0:0:0:
430,1,649223,6,0,P|375:12|323:33,1,90,6|0,3:2|0:0,0:0:0:0:
323,50,649437,2,0,L|328:166,1,90,8|0,0:0|0:0,0:0:0:0:
248,198,649651,2,0,P|231:163|168:106,1,90,2|0,3:2|3:0,0:0:0:0:
89,178,649865,2,0,L|-40:189,1,90,10|0,0:0|0:0,0:0:0:0:
1,219,650080,6,0,P|39:242|62:308,1,90,0|0,3:0|0:0,0:0:0:0:
143,370,650294,2,0,L|163:246,1,90,10|0,0:0|0:0,0:0:0:0:
183,260,650508,2,0,P|209:231|210:151,1,90,0|0,3:0|0:0,0:0:0:0:
173,91,650723,2,0,L|52:67,1,90,10|0,0:0|0:0,0:0:0:0:
52,84,650937,6,0,P|34:46|50:-8,1,90,0|0,3:0|0:0,0:0:0:0:
170,64,651151,2,0,P|210:47|278:25,1,90,10|0,0:0|0:0,0:0:0:0:
348,25,651365,2,0,P|359:73|328:131,1,90,2|0,3:2|0:0,0:0:0:0:
290,196,651580,2,0,L|318:301,1,90,10|0,0:0|0:0,0:0:0:0:
357,372,651794,6,0,P|390:340|437:311,1,90,2|0,3:2|0:0,0:0:0:0:
512,265,652008,1,10,0:0:0:0:
478,163,652115,2,0,P|431:188|363:196,2,90,2|0|0,0:0|3:0|3:0,0:0:0:0:
402,84,652437,2,0,L|365:-13,1,90,10|0,0:0|0:0,0:0:0:0:
281,21,652651,6,0,P|229:38|186:77,1,90,2|0,3:2|0:0,0:0:0:0:
249,141,652865,2,0,L|268:255,1,90,10|0,0:0|0:0,0:0:0:0:
195,306,653080,2,0,P|135:277|130:221,1,90,2|0,3:2|3:0,0:0:0:0:
97,168,653294,2,0,P|56:153|-9:139,1,90,10|0,0:0|0:0,0:0:0:0:
0,174,653508,6,0,P|23:142|10:77,1,90,0|0,3:0|0:0,0:0:0:0:
38,3,653723,2,0,P|81:24|157:47,1,90,10|0,0:0|0:0,0:0:0:0:
208,2,653937,2,0,P|238:29|218:94,1,90,2|0,3:2|3:0,0:0:0:0:
174,143,654151,1,10,0:0:0:0:
214,223,654258,6,0,P|254:197|308:189,2,90,2|0|0,0:0|3:0|0:0,0:0:0:0:
188,247,654580,2,0,L|173:360,1,90,8|0,0:0|0:0,0:0:0:0:
262,384,654794,1,2,3:2:0:0:
344,343,654901,1,2,0:0:0:0:
426,367,655008,1,10,0:0:0:0:
508,326,655115,6,0,P|503:276|456:214,1,90,2|0,3:2|3:0,0:0:0:0:
412,170,655330,1,2,3:2:0:0:
314,199,655437,2,0,P|271:180|205:166,1,90,10|0,0:0|0:0,0:0:0:0:
130,169,655651,1,0,3:0:0:0:
130,169,655758,1,0,3:0:0:0:
130,169,655865,1,10,0:0:0:0:
224,143,655973,1,2,0:0:0:0:
285,73,656080,6,0,P|305:30|337:3,1,90,4|0,3:2|0:0,0:0:0:0:
437,10,656294,1,10,0:0:0:0:
482,99,656401,2,0,P|409:122|377:142,1,90,2|0,0:0|3:0,0:0:0:0:
326,198,656615,1,0,0:0:0:0:
424,242,656723,2,0,P|431:287|413:359,1,90,10|0,0:0|0:0,0:0:0:0:
398,354,656937,6,0,P|350:357|302:376,1,90,0|0,3:0|0:0,0:0:0:0:
206,384,657151,2,0,P|228:342|209:271,1,90,10|0,0:0|0:0,0:0:0:0:
151,238,657365,2,0,P|109:253|51:257,1,90,2|0,3:2|3:0,0:0:0:0:
0,186,657580,2,0,L|25:80,1,90,10|0,0:0|0:0,0:0:0:0:
106,5,657794,6,0,P|109:60|148:122,1,90,2|0,3:2|0:0,0:0:0:0:
154,108,658008,2,0,L|260:68,1,90,8|0,0:0|0:0,0:0:0:0:
325,122,658223,2,0,P|339:164|322:236,1,90,0|0,3:0|0:0,0:0:0:0:
276,289,658437,1,10,0:0:0:0:
179,309,658544,6,0,P|145:278|79:254,2,90,2|0|0,0:0|3:0|0:0,0:0:0:0:
258,384,658865,2,0,P|275:339|312:298,1,90,10|0,0:0|0:0,0:0:0:0:
397,271,659080,2,0,L|505:297,1,90,2|0,3:2|3:0,0:0:0:0:
512,175,659294,2,0,P|487:128|417:80,1,90,10|0,0:0|0:0,0:0:0:0:
335,11,659508,6,0,P|353:55|360:116,1,90,6|0,3:2|0:0,0:0:0:0:
292,211,659723,2,0,P|264:163|211:118,1,90,8|0,0:0|0:0,0:0:0:0:
113,172,659937,2,0,P|150:202|199:189,1,90,2|0,3:2|0:0,0:0:0:0:
270,130,660151,2,0,P|272:77|301:13,1,90,10|0,0:0|0:0,0:0:0:0:
312,24,660365,6,0,L|429:53,1,90
499,115,660580,2,0,P|449:138|399:180,1,90,10|0,0:0|0:0,0:0:0:0:
354,277,660794,2,0,P|344:228|313:173,1,90,2|0,3:2|0:0,0:0:0:0:
203,82,661008,2,0,P|212:33|241:-10,1,90,10|0,0:0|0:0,0:0:0:0:
372,69,661223,6,0,L|261:94,1,90,4|0,3:2|0:0,0:0:0:0:
183,149,661437,2,0,P|157:107|87:61,1,90,10|0,0:0|0:0,0:0:0:0:
38,53,661651,1,0,3:0:0:0:
38,53,661758,1,0,3:0:0:0:
8,148,661865,2,0,P|20:196|25:262,1,90,10|0,0:0|0:0,0:0:0:0:
3,259,662080,6,0,P|33:289|94:286,1,90,0|0,3:0|0:0,0:0:0:0:
178,255,662294,2,0,L|202:396,1,90,10|0,0:0|0:0,0:0:0:0:
288,384,662508,2,0,P|319:361|381:356,1,90,2|0,3:2|3:0,0:0:0:0:
473,373,662723,1,10,0:0:0:0:
488,269,662830,6,0,P|496:217|536:158,2,90,2|4|0,0:0|3:2|0:0,0:0:0:0:
458,289,663151,2,0,P|440:243|399:185,1,90,8|0,0:0|0:0,0:0:0:0:
309,188,663365,1,0,3:0:0:0:
309,188,663473,1,0,3:0:0:0:
309,188,663580,2,0,L|435:174,1,90,8|0,0:0|0:0,0:0:0:0:
497,129,663794,6,0,P|470:99|450:39,1,90,0|0,3:0|0:0,0:0:0:0:
345,0,664008,1,8,0:0:0:0:
345,0,664115,1,0,3:0:0:0:
345,0,664223,2,0,P|354:48|322:108,1,90,0|0,3:0|0:0,0:0:0:0:
305,101,664437,2,0,P|258:78|241:25,1,90,8|0,0:0|0:0,0:0:0:0:
168,0,664651,5,4,3:2:0:0:
168,0,664758,2,0,L|145:114,1,90,0|8,3:0|0:0,0:0:0:0:
96,167,664973,1,0,0:0:0:0:
96,167,665080,2,0,P|61:120|15:97,1,90,0|0,0:0|3:0,0:0:0:0:
0,212,665294,1,8,0:0:0:0:
0,212,665401,1,0,3:0:0:0:
35,229,665508,6,0,P|61:265|65:321,1,90,0|0,3:0|0:0,0:0:0:0:
147,384,665723,2,0,L|278:356,1,90,10|0,0:0|0:0,0:0:0:0:
346,300,665937,1,8,0:0:0:0:
433,319,666044,1,8,0:0:0:0:
491,250,666151,1,8,3:0:0:0:
439,176,666258,1,4,3:0:0:0:
349,178,666365,6,0,P|302:168|241:130,1,90,4|0,3:2|0:0,0:0:0:0:
74,0,666580,1,8,0:0:0:0:
74,0,667008,2,0,P|193:26|164:162,1,270,6|0,3:2|0:0,0:0:0:0:
55,238,667437,1,8,0:0:0:0:
86,312,667544,1,2,0:0:0:0:
156,351,667651,1,10,0:0:0:0:
235,337,667758,1,2,0:0:0:0:
309,305,667865,1,10,0:0:0:0:
388,322,667973,1,10,0:0:0:0:
456,365,668080,6,0,P|493:307|492:232,1,90,4|0,3:0|0:0,0:0:0:0:
473,67,668294,1,8,0:0:0:0:
473,67,668723,2,0,P|375:26|307:98,1,180,6|0,3:2|0:0,0:0:0:0:
303,100,669057,2,0,L|294:231,1,90,2|8,0:0|0:0,0:0:0:0:
316,268,669285,1,2,0:0:0:0:
271,334,669392,1,8,0:0:0:0:
84,224,669606,2,0,P|27:199|-9:195,1,90
44,300,669820,6,0,P|116:244|139:139,1,180,4|0,3:2|0:0,0:0:0:0:
79,92,670141,1,0,3:0:0:0:
26,168,670248,2,0,P|75:232|174:185,2,180,8|0|0,0:0|3:0|3:0,0:0:0:0:
61,89,670784,2,0,P|71:53|41:2,1,90,2|0,3:2|3:0,0:0:0:0:
164,136,671105,2,0,P|238:75|350:49,1,180,10|0,0:0|3:0,0:0:0:0:
510,59,671534,6,0,L|309:80,1,180,0|0,3:2|3:0,0:0:0:0:
481,93,671855,1,0,3:0:0:0:
394,130,671962,2,0,P|347:151|307:195,1,90,8|0,0:0|0:0,0:0:0:0:
303,209,672177,1,0,3:0:0:0:
373,364,672391,2,0,P|369:303|396:236,1,90,0|8,3:0|0:0,0:0:0:0:
422,212,672605,1,0,3:0:0:0:
278,355,672820,2,0,P|254:274|152:278,1,180,8|0,0:0|3:0,0:0:0:0:
13,362,673248,6,0,P|92:310|145:230,1,180,4|0,3:2|3:0,0:0:0:0:
23,325,673570,1,0,3:0:0:0:
129,300,673677,1,8,0:0:0:0:
76,112,673891,2,0,P|72:204|-14:204,1,180,2|0,3:2|3:0,0:0:0:0:
28,116,674212,2,0,P|55:71|88:35,1,90,0|2,3:0|3:2,0:0:0:0:
263,0,674534,2,0,P|238:79|316:115,1,180,8|0,0:0|3:0,0:0:0:0:
495,215,674962,6,0,P|464:152|359:71,1,180,0|0,3:0|3:0,0:0:0:0:
495,169,675284,1,0,3:0:0:0:
394,128,675391,1,8,0:0:0:0:
203,214,675605,2,0,P|271:171|271:62,1,180,0|0,3:0|3:0,0:0:0:0:
257,0,675927,2,0,P|232:57|261:108,1,90,8|0,0:0|3:0,0:0:0:0:
165,237,676248,2,0,P|135:105|67:56,1,180,8|0,0:0|3:0,0:0:0:0:
2,255,676677,6,0,P|84:280|168:336,1,180,4|0,3:2|3:0,0:0:0:0:
41,234,676998,1,0,3:0:0:0:
109,319,677105,1,8,0:0:0:0:
293,384,677320,2,0,P|328:302|397:237,1,180,2|0,3:2|3:0,0:0:0:0:
481,269,677641,2,0,P|494:332|448:368,1,90,8|0,0:0|3:0,0:0:0:0:
326,375,677962,1,8,0:0:0:0:
326,375,678177,1,0,3:0:0:0:
326,375,678391,6,0,P|302:273|233:184,1,180,4|0,3:2|3:0,0:0:0:0:
340,315,678712,1,0,3:0:0:0:
256,263,678820,1,8,0:0:0:0:
3,324,679034,1,0,0:0:0:0:
319,294,679248,1,8,0:0:0:0:
314,270,679320,1,8,0:0:0:0:
309,246,679391,1,8,0:0:0:0:
306,221,679462,1,8,0:0:0:0:
215,251,679570,2,0,L|203:305,2,45,0|0|0,3:0|3:0|3:0,0:0:0:0:
149,194,679784,1,0,3:0:0:0:
138,104,679891,1,10,0:0:0:0:
67,48,679998,1,2,0:0:0:0:
0,112,680105,6,0,P|33:85|149:68,1,90,4|0,1:0|0:0,0:0:0:0:
252,89,680320,2,0,L|269:-24,1,90,12|0,0:0|0:0,0:0:0:0:
155,88,680534,2,0,P|179:128|167:188,1,90,2|0,3:2|3:0,0:0:0:0:
102,252,680748,2,0,L|-4:218,1,90,10|0,0:0|0:0,0:0:0:0:
0,249,680962,6,0,P|16:287|-1:350,1,90,0|0,3:0|0:0,0:0:0:0:
125,384,681177,2,0,L|140:264,1,90,10|0,0:0|0:0,0:0:0:0:
230,220,681391,2,0,P|257:278|232:310,1,90,2|0,3:2|3:0,0:0:0:0:
228,325,681605,2,0,L|341:349,1,90,8|0,0:0|0:0,0:0:0:0:
341,369,681820,6,0,L|454:340,1,90,0|0,3:0|0:0,0:0:0:0:
503,369,682034,1,8,0:0:0:0:
429,180,682248,2,0,P|434:141|494:126,1,90,2|0,3:2|0:0,0:0:0:0:
512,45,682462,2,0,L|384:15,1,90,10|0,0:0|0:0,0:0:0:0:
397,2,682677,6,0,P|386:55|347:98,1,90,0|0,3:0|0:0,0:0:0:0:
244,58,682891,2,0,L|133:39,1,90,10|0,0:0|0:0,0:0:0:0:
125,55,683105,2,0,P|71:37|49:10,1,90,0|0,3:0|3:0,0:0:0:0:
23,120,683320,2,0,P|38:169|32:225,1,90,10|0,0:0|0:0,0:0:0:0:
0,294,683534,5,4,0:0:0:0:
214,224,683748,2,0,P|216:169|159:134,1,90
119,102,683962,1,4,3:2:0:0:
290,4,684177,2,0,P|339:35|379:48,1,90,2|0,0:0|0:0,0:0:0:0:
453,17,684391,6,0,P|488:61|474:121,1,90,2|0,3:2|0:0,0:0:0:0:
415,175,684605,2,0,L|409:294,1,90,10|0,0:0|0:0,0:0:0:0:
284,374,684820,2,0,L|265:242,1,90,10|0,0:0|0:0,0:0:0:0:
172,110,685034,2,0,L|152:226,1,90,10|0,0:0|0:0,0:0:0:0:
48,364,685248,5,4,0:0:0:0:
512,384,685677,1,4,0:0:0:0:
0,310,686105,1,4,0:0:0:0:
481,13,686534,2,0,P|478:77|428:120,1,112.5,6|0,0:0|0:0,0:0:0:0:
296,34,686748,2,0,L|141:19,1,112.5,2|0,0:0|0:0,0:0:0:0:
2,112,686962,6,0,P|67:161|74:227,1,112.5,2|0,3:2|0:0,0:0:0:0:
0,360,687177,2,0,L|43:218,1,112.5,10|0,0:0|0:0,0:0:0:0:
245,367,687391,2,0,P|264:348|280:325,1,56.25,2|0,0:1|0:0,0:0:0:0:
322,349,687498,2,0,P|329:322|331:294,1,56.25,2|0,0:1|0:0,0:0:0:0:
399,308,687605,1,12,0:0:0:0:
493,330,687712,1,0,3:0:0:0:
391,381,687820,5,8,0:0:0:0:
432,276,687927,1,8,0:0:0:0:
390,171,688034,1,8,0:0:0:0:
416,61,688141,1,8,0:0:0:0:
504,129,688248,1,8,0:0:0:0:
395,157,688355,1,8,0:0:0:0:
305,88,688462,1,8,0:0:0:0:
194,114,688570,1,8,0:0:0:0:
93,64,688677,6,0,P|41:92|-11:178,1,112.5,4|0,3:2|0:0,0:0:0:0:
44,204,688891,2,0,P|40:258|4:349,1,112.5,8|0,0:0|0:0,0:0:0:0:
170,380,689105,2,0,P|223:352|310:340,1,112.5,2|0,3:2|3:0,0:0:0:0:
350,361,689320,2,0,L|370:199,1,112.5,8|0,0:0|0:0,0:0:0:0:
291,103,689534,6,0,P|360:163|419:166,1,112.5
504,62,689748,1,10,0:0:0:0:
478,215,689855,2,0,P|424:237|369:305,2,112.5,2|0|0,0:0|0:0|0:0,0:0:0:0:
394,373,690177,1,10,0:0:0:0:
244,328,690284,1,2,0:0:0:0:
87,373,690391,6,0,P|33:341|-3:265,1,112.5,2|0,3:2|0:0,0:0:0:0:
52,234,690605,2,0,P|83:177|94:104,1,112.5,8|0,0:0|0:0,0:0:0:0:
1,4,690820,2,0,L|135:22,1,112.5,2|0,3:2|0:0,0:0:0:0:
278,0,691034,2,0,P|274:70|204:114,1,112.5,10|0,0:0|0:0,0:0:0:0:
177,136,691248,6,0,L|158:279,1,112.5,0|0,3:0|0:0,0:0:0:0:
198,314,691462,1,8,0:0:0:0:
137,366,691570,2,0,P|87:334|10:333,2,112.5,0|0|0,3:0|3:0|0:0,0:0:0:0:
295,315,691891,1,10,0:0:0:0:
455,359,691998,1,2,0:0:0:0:
501,207,692105,6,0,P|488:150|413:83,1,112.5,2|0,3:2|0:0,0:0:0:0:
383,87,692320,2,0,P|364:41|410:-2,1,112.5,8|0,0:0|0:0,0:0:0:0:
462,188,692534,2,0,P|409:195|329:245,1,112.5,2|0,3:2|0:0,0:0:0:0:
295,276,692748,2,0,L|263:391,1,112.5,8|0,0:0|0:0,0:0:0:0:
123,317,692962,6,0,P|102:226|148:166,1,112.5,2|0,3:2|0:0,0:0:0:0:
181,72,693177,1,10,0:0:0:0:
42,1,693284,2,0,P|30:54|-6:112,2,112.5,2|0|0,3:2|3:0|3:0,0:0:0:0:
169,98,693605,1,10,0:0:0:0:
314,37,693712,1,2,0:0:0:0:
396,173,693820,6,0,L|370:313,1,112.5,2|0,3:2|0:0,0:0:0:0:
210,377,694034,2,0,P|228:288|318:259,1,112.5,10|0,0:0|0:0,0:0:0:0:
413,143,694248,2,0,L|371:-2,1,112.5,2|0,3:2|0:0,0:0:0:0:
169,0,694462,2,0,P|139:90|176:119,1,112.5,10|0,0:0|0:0,0:0:0:0:
267,248,694677,6,0,P|331:223|430:210,1,112.5,2|0,3:2|0:0,0:0:0:0:
483,377,694891,1,8,0:0:0:0:
379,334,694998,1,8,0:0:0:0:
348,225,695105,1,8,0:0:0:0:
336,147,695212,1,0,3:0:0:0:
279,90,695320,1,8,0:0:0:0:
202,70,695427,1,8,0:0:0:0:
128,92,695534,5,6,1:1:0:0:
188,229,695641,1,2,0:0:0:0:
287,118,695748,1,10,0:0:0:0:
372,240,695855,2,0,P|469:287|501:329,2,112.5,2|0|0,0:0|3:0|0:0,0:0:0:0:
298,272,696177,2,0,L|126:288,1,112.5,8|0,0:0|0:0,0:0:0:0:
115,253,696391,6,0,P|88:288|77:363,1,112.5,0|0,3:0|0:0,0:0:0:0:
265,332,696605,2,0,P|242:246|265:169,1,112.5,10|0,0:0|0:0,0:0:0:0:
305,83,696820,2,0,P|266:24|185:71,1,112.5,2|0,3:2|3:0,0:0:0:0:
70,6,697034,1,8,0:0:0:0:
74,167,697141,6,0,P|30:200|-6:270,2,112.5,2|0|0,3:2|3:0|0:0,0:0:0:0:
126,225,697462,2,0,L|104:363,1,112.5,8|0,0:0|0:0,0:0:0:0:
181,375,697677,1,0,3:0:0:0:
181,375,697784,1,0,3:0:0:0:
336,315,697891,2,0,P|333:218|389:155,1,112.5,10|0,0:0|0:0,0:0:0:0:
478,323,698105,6,0,P|387:300|318:307,1,112.5,2|0,3:2|0:0,0:0:0:0:
212,356,698320,2,0,P|186:300|180:223,1,112.5,10|0,0:0|3:0,0:0:0:0:
241,103,698534,2,0,P|294:137|297:205,1,112.5,2|0,3:2|0:0,0:0:0:0:
153,274,698748,1,0,0:0:0:0:
32,159,698855,6,0,P|24:221|-18:281,2,112.5,2|4|0,3:2|0:0|0:0,0:0:0:0:
10,84,699177,2,0,P|20:21|108:14,1,112.5,8|0,0:0|0:0,0:0:0:0:
138,41,699391,1,0,3:0:0:0:
138,41,699498,1,0,3:0:0:0:
138,41,699605,1,8,0:0:0:0:
435,2,699820,5,0,3:0:0:0:
435,2,699927,1,0,3:0:0:0:
279,65,700034,2,0,P|235:40|145:28,1,112.5,10|0,0:0|0:0,0:0:0:0:
293,181,700248,2,0,P|348:169|432:117,1,112.5,2|0,3:2|0:0,0:0:0:0:
512,261,700462,1,10,0:0:0:0:
387,355,700570,6,0,P|322:295|232:271,1,112.5,2|0,0:0|3:0,0:0:0:0:
103,328,700784,1,2,0:0:0:0:
165,157,700891,2,0,P|128:56|63:8,2,112.5,10|0|0,0:0|0:0|3:0,0:0:0:0:
293,4,701212,1,0,0:0:0:0:
136,31,701320,6,0,P|66:21|2:-13,2,112.5,10|0|0,0:0|0:0|3:0,0:0:0:0:
364,38,701641,1,2,0:0:0:0:
434,125,701748,1,10,0:0:0:0:
403,233,701855,1,8,0:0:0:0:
466,325,701962,1,8,0:0:0:0:
509,32,702177,1,10,0:0:0:0:
380,25,702284,1,2,0:0:0:0:
294,120,702391,6,0,P|193:97|148:63,1,112.5,4|0,0:0|0:0,0:0:0:0:
148,27,702605,2,0,L|-37:-12,1,112.5,8|0,0:0|0:0,0:0:0:0:
0,73,702820,2,0,P|40:113|45:208,1,112.5,0|0,3:0|3:0,0:0:0:0:
0,325,703034,2,0,P|57:340|130:388,1,112.5,10|0,0:0|0:0,0:0:0:0:
235,257,703248,6,0,P|219:196|230:106,1,112.5,2|0,3:2|0:0,0:0:0:0:
390,110,703462,2,0,L|534:151,1,112.5,10|0,0:0|0:0,0:0:0:0:
504,312,703677,2,0,P|446:347|420:413,1,112.5,2|0,3:2|0:0,0:0:0:0:
257,359,703891,1,10,0:0:0:0:
107,282,703998,6,0,P|44:305|-37:298,2,112.5,2|0|0,0:0|3:0|0:0,0:0:0:0:
138,209,704320,2,0,P|66:193|6:152,1,112.5,8|0,0:0|0:0,0:0:0:0:
44,97,704534,2,0,P|46:50|-36:13,1,112.5,0|0,3:0|0:0,0:0:0:0:
214,97,704748,2,0,P|266:66|310:5,1,112.5,10|0,0:0|0:0,0:0:0:0:
465,0,704962,6,0,P|489:87|490:125,1,112.5,2|0,3:2|0:0,0:0:0:0:
379,232,705177,2,0,P|415:304|475:308,1,112.5,10|0,0:0|0:0,0:0:0:0:
512,152,705391,2,0,P|451:141|362:90,1,112.5,2|0,3:2|0:0,0:0:0:0:
272,0,705605,1,10,0:0:0:0:
106,63,705712,6,0,P|37:36|-33:29,2,112.5,2|0|0,0:0|3:0|0:0,0:0:0:0:
153,124,706034,2,0,P|124:185|61:198,1,112.5,8|0,0:0|0:0,0:0:0:0:
19,168,706248,1,0,3:0:0:0:
19,168,706355,1,0,3:0:0:0:
19,168,706462,1,10,0:0:0:0:
136,284,706570,1,2,0:0:0:0:
7,381,706677,6,0,P|15:315|80:251,1,112.5,2|0,3:2|0:0,0:0:0:0:
180,185,706891,1,10,0:0:0:0:
107,32,706998,2,0,P|41:56|-26:49,2,112.5,2|0|0,0:0|3:0|3:0,0:0:0:0:
274,21,707320,1,10,0:0:0:0:
192,128,707427,1,2,0:0:0:0:
229,315,707534,6,0,P|280:341|345:408,1,112.5,2|0,3:2|0:0,0:0:0:0:
487,271,707748,1,10,0:0:0:0:
317,266,707855,1,2,0:0:0:0:
462,150,707962,2,0,P|503:82|493:24,1,112.5,6|0,0:0|0:0,0:0:0:0:
310,11,708177,2,0,L|339:186,1,112.5,10|0,0:0|0:0,0:0:0:0:
279,306,708391,6,0,P|174:275|110:278,1,112.5,2|0,3:2|0:0,0:0:0:0:
0,348,708605,1,8,0:0:0:0:
132,321,708712,1,8,0:0:0:0:
154,188,708820,1,8,0:0:0:0:
19,218,708927,1,8,0:0:0:0:
0,76,709034,1,8,0:0:0:0:
142,105,709141,1,8,0:0:0:0:
52,0,709248,5,6,0:0:0:0:
109,158,709355,1,2,0:0:0:0:
268,99,709462,1,10,0:0:0:0:
368,236,709570,2,0,P|426:243|485:286,2,112.5,2|0|0,0:0|3:0|0:0,0:0:0:0:
323,300,709891,2,0,L|179:330,1,112.5,8|0,0:0|0:0,0:0:0:0:
140,290,710105,6,0,P|119:226|178:179,1,112.5,0|0,3:0|0:0,0:0:0:0:
266,75,710320,2,0,P|365:47|399:22,1,112.5,10|0,0:0|0:0,0:0:0:0:
509,184,710534,2,0,P|401:152|348:157,1,112.5,2|0,3:2|0:0,0:0:0:0:
216,204,710748,1,10,0:0:0:0:
119,58,710855,6,0,P|54:76|-16:66,2,112.5,2|0|0,0:0|3:0|0:0,0:0:0:0:
179,5,711177,2,0,L|156:175,1,112.5,8|0,0:0|0:0,0:0:0:0:
108,168,711391,1,0,3:0:0:0:
108,168,711498,1,0,3:0:0:0:
108,168,711605,1,10,0:0:0:0:
17,297,711712,1,2,0:0:0:0:
153,383,711820,6,0,P|218:330|289:313,1,112.5,2|0,3:2|0:0,0:0:0:0:
423,358,712034,2,0,P|463:284|398:236,1,112.5,10|0,0:0|0:0,0:0:0:0:
311,185,712248,2,0,P|243:211|164:218,1,112.5,2|0,3:2|0:0,0:0:0:0:
66,118,712462,1,10,0:0:0:0:
23,275,712570,6,0,P|80:327|95:373,2,112.5,2|4|0,0:0|3:2|0:0,0:0:0:0:
13,197,712891,2,0,L|155:172,1,112.5,8|0,0:0|0:0,0:0:0:0:
172,117,713105,2,0,P|196:66|150:0,1,112.5,0|0,3:0|3:0,0:0:0:0:
107,0,713320,1,8,0:0:0:0:
107,0,713427,1,8,0:0:0:0:
107,0,713534,5,0,3:0:0:0:
490,45,713748,1,10,0:0:0:0:
373,84,713855,1,2,3:2:0:0:
446,184,713962,2,0,P|474:237|467:323,1,112.5,2|0,3:2|0:0,0:0:0:0:
346,382,714177,1,10,0:0:0:0:
271,244,714284,6,0,P|278:160|303:100,1,112.5,2|0,0:0|3:0,0:0:0:0:
115,0,714554,1,2,0:0:0:0:
186,146,714661,2,0,P|156:197|102:245,1,112.5,10|4,0:0|0:0,0:0:0:0:
0,337,714837,1,0,0:0:0:0:
49,183,714944,1,2,3:2:0:0:
179,304,715051,2,0,P|246:275|296:267,1,112.5,2|0,3:2|0:0,0:0:0:0:
395,331,715238,5,8,0:0:0:0:
494,31,715452,1,8,0:0:0:0:
306,361,715666,1,8,0:0:0:0:
242,242,715773,1,8,0:0:0:0:
142,190,715880,1,8,0:0:0:0:
51,197,715988,1,8,0:0:0:0:
11,251,716095,5,4,0:0:0:0:
29,371,716309,1,0,3:0:0:0:
30,216,716523,1,8,0:0:0:0:
30,217,716630,1,0,3:0:0:0:
30,217,716737,1,0,3:0:0:0:
104,72,716952,1,8,0:0:0:0:
167,131,717166,1,0,3:0:0:0:
79,99,717380,5,0,3:0:0:0:
185,37,717595,1,8,0:0:0:0:
218,42,717702,1,0,3:0:0:0:
251,47,717809,1,0,3:0:0:0:
284,53,717916,1,0,3:0:0:0:
317,59,718023,1,0,0:0:0:0:
350,65,718130,1,0,3:0:0:0:
383,71,718237,1,8,0:0:0:0:
478,35,718452,1,0,3:0:0:0:
410,145,718666,5,0,3:0:0:0:
491,240,718880,1,8,0:0:0:0:
458,248,718987,1,8,0:0:0:0:
425,256,719095,1,0,3:0:0:0:
392,264,719202,1,0,3:0:0:0:
359,272,719309,1,8,0:0:0:0:
326,281,719416,1,0,3:0:0:0:
293,290,719523,1,4,0:0:0:0:
225,384,719737,1,0,3:0:0:0:
206,217,719952,5,8,0:0:0:0:
130,336,720166,1,0,3:0:0:0:
267,261,720380,1,8,0:0:0:0:
87,297,720595,1,8,0:0:0:0:
81,252,720702,1,8,0:0:0:0:
74,207,720809,1,8,0:0:0:0:
68,162,720916,1,8,0:0:0:0:
62,117,721023,1,8,0:0:0:0:
60,72,721130,1,8,0:0:0:0:
58,27,721237,5,4,0:0:0:0:
168,74,721452,1,0,3:0:0:0:
205,173,721666,1,8,0:0:0:0:
194,204,721773,1,0,3:0:0:0:
183,235,721880,1,0,3:0:0:0:
172,266,721987,1,0,3:0:0:0:
161,297,722095,1,8,0:0:0:0:
234,380,722309,1,0,3:0:0:0:
352,346,722523,5,0,3:0:0:0:
442,254,722737,1,0,3:0:0:0:
442,351,722952,1,0,3:0:0:0:
411,336,723059,1,0,3:0:0:0:
380,321,723166,1,0,3:0:0:0:
349,306,723273,1,0,3:0:0:0:
318,292,723380,1,8,0:0:0:0:
265,198,723595,1,0,3:0:0:0:
301,83,723809,5,0,3:0:0:0:
430,129,724023,1,0,3:0:0:0:
484,16,724237,1,0,3:0:0:0:
450,20,724345,1,0,3:0:0:0:
416,24,724452,1,0,3:0:0:0:
382,28,724559,1,0,3:0:0:0:
348,32,724666,1,8,0:0:0:0:
210,4,724880,1,2,3:2:0:0:
129,115,725118,5,8,0:0:0:0:
114,215,725332,1,0,3:0:0:0:
19,326,725543,1,8,0:0:0:0:
27,300,725648,1,8,0:0:0:0:
36,274,725754,1,8,0:0:0:0:
45,248,725860,1,8,0:0:0:0:
26,211,725965,1,8,0:0:0:0:
64,222,726071,1,8,0:0:0:0:
103,216,726177,1,8,0:0:0:0:
143,221,726287,1,8,0:0:0:0:
182,229,726397,5,4,0:1:0:0:
277,330,726611,1,0,3:0:0:0:
405,287,726822,1,0,3:0:0:0:
415,257,726927,1,8,0:0:0:0:
425,227,727033,1,0,3:0:0:0:
435,197,727139,1,0,3:0:0:0:
446,167,727244,1,8,0:0:0:0:
502,65,727458,1,0,3:0:0:0:
471,70,727565,1,8,0:0:0:0:
439,74,727672,5,0,3:0:0:0:
408,79,727779,1,8,0:0:0:0:
377,84,727886,1,0,3:0:0:0:
346,89,727994,1,8,0:0:0:0:
315,94,728103,1,0,3:0:0:0:
284,99,728212,1,8,0:0:0:0:
253,104,728320,1,0,3:0:0:0:
222,109,728429,1,8,0:0:0:0:
191,114,728538,1,8,0:0:0:0:
78,34,728752,1,0,3:0:0:0:
78,34,728859,1,0,3:0:0:0:
78,34,728966,5,0,3:0:0:0:
0,129,729180,1,0,3:0:0:0:
36,260,729395,1,0,3:0:0:0:
52,286,729502,1,8,0:0:0:0:
68,312,729609,1,0,3:0:0:0:
84,339,729707,1,0,3:0:0:0:
100,366,729806,1,12,0:0:0:0:
231,328,730023,1,0,3:0:0:0:
352,217,730240,5,8,0:0:0:0:
200,169,730458,1,0,3:0:0:0:
138,29,730675,1,8,0:0:0:0:
344,3,730892,1,8,0:0:0:0:
331,41,730998,1,8,0:0:0:0:
318,79,731104,1,8,0:0:0:0:
306,117,731212,1,8,0:0:0:0:
293,156,731321,1,8,0:0:0:0:
281,194,731430,1,8,0:0:0:0:
269,232,731538,5,4,0:0:0:0:
175,324,731752,1,0,3:0:0:0:
307,375,731966,1,0,3:0:0:0:
341,363,732071,1,8,0:0:0:0:
375,352,732177,1,0,3:0:0:0:
409,341,732285,1,0,3:0:0:0:
443,330,732394,1,8,0:0:0:0:
512,222,732611,1,0,3:0:0:0:
433,113,732829,5,8,3:0:0:0:
327,23,733046,1,8,0:0:0:0:
321,58,733155,1,8,0:0:0:0:
315,93,733263,1,0,3:0:0:0:
309,128,733372,1,8,0:0:0:0:
303,163,733481,1,0,3:0:0:0:
297,198,733585,1,0,3:0:0:0:
291,233,733689,1,8,0:0:0:0:
216,300,733897,1,0,3:0:0:0:
92,323,734106,5,4,0:0:0:0:
12,196,734320,1,0,3:0:0:0:
26,163,734427,1,8,0:0:0:0:
40,130,734534,1,0,3:0:0:0:
54,97,734641,1,8,0:0:0:0:
68,64,734748,1,0,3:0:0:0:
83,31,734856,1,0,3:0:0:0:
96,3,734963,1,8,0:0:0:0:
256,22,735177,1,0,3:0:0:0:
194,138,735415,5,8,0:0:0:0:
346,111,735597,1,0,3:0:0:0:
463,8,735827,1,8,0:0:0:0:
475,184,736038,1,8,0:0:0:0:
459,216,736143,1,8,0:0:0:0:
443,248,736249,1,8,0:0:0:0:
427,280,736355,1,8,0:0:0:0:
411,312,736460,1,8,0:0:0:0:
396,345,736566,1,8,0:0:0:0:
381,378,736672,5,4,0:0:0:0:
310,213,736886,1,0,3:0:0:0:
310,213,736993,1,8,0:0:0:0:
310,213,737100,1,0,3:0:0:0:
379,124,737314,1,4,0:0:0:0:
186,217,737529,1,0,3:0:0:0:
186,217,737636,1,8,0:0:0:0:
186,217,737743,1,0,3:0:0:0:
143,328,737963,5,4,0:0:0:0:
106,119,738177,1,0,3:0:0:0:
106,119,738284,1,8,0:0:0:0:
106,119,738391,1,0,3:0:0:0:
4,46,738605,1,4,0:0:0:0:
241,114,738820,1,0,3:0:0:0:
241,114,738927,1,8,0:0:0:0:
241,114,739034,1,0,3:0:0:0:
330,38,739254,5,4,0:0:0:0:
199,242,739468,1,0,3:0:0:0:
199,242,739575,1,8,0:0:0:0:
199,242,739682,1,0,3:0:0:0:
81,278,739896,1,4,0:0:0:0:
321,302,740111,1,0,3:0:0:0:
321,302,740218,1,8,0:0:0:0:
321,302,740325,1,0,3:0:0:0:
402,381,740539,5,4,0:0:0:0:
370,186,740748,1,0,3:0:0:0:
370,186,740853,1,8,0:0:0:0:
370,186,740958,1,0,3:0:0:0:
454,102,741168,1,8,0:0:0:0:
413,94,741273,1,8,0:0:0:0:
372,86,741378,1,8,0:0:0:0:
331,79,741483,1,8,0:0:0:0:
289,73,741587,1,8,0:0:0:0:
248,66,741692,1,8,0:0:0:0:
207,59,741797,5,4,0:0:0:0:
94,220,742011,1,0,3:0:0:0:
94,220,742118,1,8,0:0:0:0:
94,220,742225,1,0,3:0:0:0:
0,290,742452,1,4,0:0:0:0:
228,241,742666,1,0,3:0:0:0:
228,241,742773,1,8,0:0:0:0:
228,241,742880,1,0,3:0:0:0:
316,299,743102,5,4,0:0:0:0:
214,112,743316,1,0,3:0:0:0:
214,112,743423,1,8,0:0:0:0:
214,112,743530,1,0,3:0:0:0:
101,52,743744,1,4,0:0:0:0:
348,94,743959,1,0,3:0:0:0:
348,94,744066,1,8,0:0:0:0:
348,94,744173,1,0,3:0:0:0:
460,31,744387,5,4,0:0:0:0:
363,218,744602,1,0,3:0:0:0:
363,218,744709,1,8,0:0:0:0:
363,218,744816,1,0,3:0:0:0:
412,326,745030,1,4,0:0:0:0:
201,216,745244,1,0,3:0:0:0:
201,216,745352,1,8,0:0:0:0:
201,216,745459,1,0,3:0:0:0:
136,113,745679,5,4,0:0:0:0:
122,295,745899,1,0,3:0:0:0:
122,295,746007,1,8,0:0:0:0:
122,295,746114,1,0,3:0:0:0:
235,353,746328,1,8,0:0:0:0:
269,343,746435,1,8,0:0:0:0:
303,333,746542,1,8,0:0:0:0:
338,323,746650,1,8,0:0:0:0:
372,314,746757,1,8,0:0:0:0:
407,304,746865,1,8,0:0:0:0:
441,295,746974,6,0,P|465:246|470:188,1,67.5000025749208,4|0,0:0|0:0,0:0:0:0:
423,108,747188,1,8,0:0:0:0:
473,38,747402,2,0,P|441:55|357:67,1,67.5000025749208,2|0,0:0|0:0,0:0:0:0:
277,27,747616,1,8,0:0:0:0:
208,0,747821,2,0,P|226:39|234:82,1,67.5000025749208,4|0,0:0|0:0,0:0:0:0:
219,192,748026,1,8,0:0:0:0:
271,245,748249,2,0,P|229:236|193:222,1,67.5000025749208,2|0,0:0|0:0,0:0:0:0:
106,134,748457,1,8,0:0:0:0:
45,74,748678,6,0,P|65:106|72:153,1,67.5000025749208,4|0,0:0|0:0,0:0:0:0:
32,262,748886,1,8,0:0:0:0:
0,326,749094,2,0,P|35:311|78:303,1,67.5000025749208,2|0,0:0|0:0,0:0:0:0:
196,332,749303,1,8,0:0:0:0:
261,375,749525,2,0,P|230:316|224:290,1,67.5000025749208,4|0,0:0|0:0,0:0:0:0:
228,185,749745,1,8,0:0:0:0:
192,98,749959,2,0,P|222:120|276:142,1,67.5000025749208,2|0,0:0|0:0,0:0:0:0:
388,157,750173,1,8,0:0:0:0:
457,109,750387,6,0,P|443:139|426:193,1,67.5000025749208,4|0,0:0|0:0,0:0:0:0:
450,300,750598,1,8,0:0:0:0:
413,371,750809,2,0,P|376:351|337:338,1,67.5000025749208,2|0,0:0|0:0,0:0:0:0:
215,362,751023,1,8,0:0:0:0:
139,317,751237,2,0,P|185:306|223:292,1,67.5000025749208,4|0,0:0|0:0,0:0:0:0:
299,209,751451,1,8,0:0:0:0:
348,136,751666,2,0,P|277:127|259:121,1,67.5000025749208,2|0,0:0|0:0,0:0:0:0:
185,34,751880,1,8,0:0:0:0:
113,0,752094,6,0,L|98:91,1,67.5000025749208,4|0,0:0|0:0,0:0:0:0:
28,119,752309,1,8,0:0:0:0:
28,119,752416,1,0,3:0:0:0:
28,119,752523,1,0,3:0:0:0:
43,274,752737,2,0,P|99:297|117:316,1,67.5000025749208,10|0,0:0|0:0,0:0:0:0:
203,382,752951,1,8,0:0:0:0:
259,359,753059,1,8,0:0:0:0:
318,345,753166,1,8,0:0:0:0:
377,355,753273,1,8,0:0:0:0:
437,344,753380,1,8,0:0:0:0:
404,277,753485,1,8,0:0:0:0:
335,249,753591,1,8,0:0:0:0:
264,271,753696,1,8,0:0:0:0:
208,320,753808,6,0,P|166:347|125:355,1,67.5000025749208,4|0,0:0|0:0,0:0:0:0:
15,326,754022,1,8,0:0:0:0:
15,248,754236,2,0,P|39:206|51:168,1,67.5000025749208,2|0,0:0|0:0,0:0:0:0:
26,55,754463,1,8,0:0:0:0:
87,5,754690,2,0,P|127:54|155:69,1,67.5000025749208,4|0,0:0|0:0,0:0:0:0:
252,121,754904,1,8,0:0:0:0:
310,181,755112,2,0,P|273:192|227:214,1,67.5000025749208,2|0,0:0|0:0,0:0:0:0:
155,299,755320,1,8,0:0:0:0:
204,370,755529,6,0,P|242:362|289:340,1,67.5000025749208,4|0,0:0|0:0,0:0:0:0:
384,296,755743,1,8,0:0:0:0:
333,226,755957,2,0,L|370:309,1,67.5000025749208,2|0,0:0|0:0,0:0:0:0:
473,381,756171,1,8,0:0:0:0:
487,302,756382,2,0,L|488:214,1,67.5000025749208,4|0,0:0|0:0,0:0:0:0:
512,110,756593,1,8,0:0:0:0:
479,25,756804,2,0,P|449:39|389:42,1,67.5000025749208,2|0,0:0|0:0,0:0:0:0:
291,5,757016,1,8,0:0:0:0:
204,62,757227,6,0,P|242:70|280:89,1,67.5000025749208,4|0,0:0|0:0,0:0:0:0:
377,167,757438,1,8,0:0:0:0:
452,172,757649,2,0,P|415:182|355:211,1,67.5000025749208,2|0,0:0|0:0,0:0:0:0:
279,260,757860,1,8,0:0:0:0:
261,340,758080,2,0,P|257:304|249:264,1,67.5000025749208,4|0,0:0|0:0,0:0:0:0:
186,157,758301,1,8,0:0:0:0:
118,95,758521,2,0,L|99:168,1,67.5000025749208,2|0,0:0|0:0,0:0:0:0:
61,282,758742,1,8,0:0:0:0:
0,329,758962,6,0,P|36:331|70:342,1,67.5000025749208,4|0,3:2|0:0,0:0:0:0:
200,384,759183,1,8,0:0:0:0:
200,384,759293,1,0,3:0:0:0:
200,384,759404,1,0,3:0:0:0:
356,266,759604,1,0,0:0:0:0:
327,341,759710,1,0,0:0:0:0:
379,279,759817,1,8,0:0:0:0:
331,253,759923,1,8,0:0:0:0:
276,246,760030,1,8,0:0:0:0:
223,258,760136,1,8,0:0:0:0:
177,286,760243,1,8,0:0:0:0:
189,206,760349,1,8,0:0:0:0:
165,128,760455,1,8,0:0:0:0:
207,59,760562,1,8,0:0:0:0:
287,50,760668,6,0,P|316:68|352:80,1,67.5000025749208,4|0,0:0|0:0,0:0:0:0:
496,97,760885,1,8,0:0:0:0:
505,178,761102,2,0,P|456:158|421:126,1,67.5000025749208,2|0,0:0|0:0,0:0:0:0:
348,26,761320,1,8,0:0:0:0:
260,13,761541,2,0,P|248:78|222:118,1,67.5000025749208,4|0,0:0|0:0,0:0:0:0:
139,189,761754,1,8,0:0:0:0:
71,241,761963,2,0,P|106:253|160:287,1,67.5000025749208,2|0,0:0|0:0,0:0:0:0:
248,384,762173,1,8,0:0:0:0:
169,369,762383,6,0,L|182:290,1,67.5000025749208,4|0,0:0|0:0,0:0:0:0:
230,155,762597,1,8,0:0:0:0:
179,83,762811,2,0,P|207:115|237:137,1,67.5000025749208,2|0,0:0|0:0,0:0:0:0:
380,186,763025,1,8,0:0:0:0:
458,203,763240,2,0,P|454:165|439:125,1,67.5000025749208,2|0,0:0|0:0,0:0:0:0:
347,0,763454,1,8,0:0:0:0:
442,20,763668,1,0,3:0:0:0:
442,20,763775,1,0,3:0:0:0:
442,20,763883,1,8,0:0:0:0:
288,70,764097,6,0,P|254:61|204:56,1,67.5000025749208,4|0,0:0|0:0,0:0:0:0:
55,75,764311,1,8,0:0:0:0:
6,9,764525,2,0,L|37:107,1,67.5000025749208,2|0,0:0|0:0,0:0:0:0:
0,229,764740,1,8,0:0:0:0:
96,238,764954,2,0,P|168:211|189:195,1,67.5000025749208,4|0,0:0|0:0,0:0:0:0:
269,95,765168,1,8,0:0:0:0:
339,142,765385,2,0,P|309:185|300:220,1,67.5000025749208,2|0,0:0|0:0,0:0:0:0:
343,354,765602,1,8,0:0:0:0:
432,371,765820,6,0,P|468:349|505:308,1,67.5000025749208,4|0,0:0|0:0,0:0:0:0:
512,231,766034,1,8,0:0:0:0:
512,231,766141,1,0,3:0:0:0:
512,231,766248,1,0,3:0:0:0:
386,74,766462,2,0,P|395:38|424:8,1,67.5000025749208,10|0,0:0|0:0,0:0:0:0:
503,84,766677,1,8,0:0:0:0:
453,106,766784,1,8,0:0:0:0:
412,142,766891,1,8,0:0:0:0:
363,165,766998,1,8,0:0:0:0:
312,145,767105,1,8,0:0:0:0:
286,97,767209,1,8,0:0:0:0:
250,56,767313,1,8,0:0:0:0:
197,44,767417,1,8,0:0:0:0:
153,75,767521,6,0,P|157:133|190:177,1,67.5000025749208,4|0,0:0|0:0,0:0:0:0:
232,282,767730,1,8,0:0:0:0:
211,377,767954,2,0,P|183:344|145:322,1,67.5000025749208,2|0,0:0|0:0,0:0:0:0:
14,278,768176,1,8,0:0:0:0:
15,191,768398,2,0,L|103:183,1,67.5000025749208,4|0,0:0|0:0,0:0:0:0:
245,205,768606,1,8,0:0:0:0:
300,265,768814,2,0,L|272:186,1,67.5000025749208,2|0,0:0|0:0,0:0:0:0:
221,48,769028,1,8,0:0:0:0:
140,77,769242,6,0,L|221:74,1,67.5000025749208,4|0,0:0|0:0,0:0:0:0:
366,42,769456,1,8,0:0:0:0:
452,12,769670,2,0,P|443:60|443:91,1,67.5000025749208,2|0,0:0|0:0,0:0:0:0:
488,232,769884,1,8,0:0:0:0:
446,313,770099,2,0,P|409:316|355:331,1,67.5000025749208,4|0,0:0|0:0,0:0:0:0:
230,384,770313,1,8,0:0:0:0:
150,340,770527,2,0,P|155:289|170:260,1,67.5000025749208,2|0,0:0|0:0,0:0:0:0:
241,138,770742,1,8,0:0:0:0:
311,189,770956,6,0,P|277:174|226:161,1,67.5000025749208,4|0,0:0|0:0,0:0:0:0:
80,191,771170,1,8,0:0:0:0:
20,131,771384,2,0,P|26:66|46:40,1,67.5000025749208,2|0,0:0|0:0,0:0:0:0:
166,0,771599,1,8,0:0:0:0:
228,75,771813,2,0,P|261:71|315:82,1,67.5000025749208,4|0,0:0|0:0,0:0:0:0:
439,145,772027,1,8,0:0:0:0:
491,76,772242,2,0,P|475:104|458:155,1,67.5000025749208,2|0,0:0|0:0,0:0:0:0:
481,295,772456,1,8,0:0:0:0:
422,359,772670,6,0,L|332:374,1,67.5000025749208,4|0,0:0|0:0,0:0:0:0:
266,336,772884,1,8,0:0:0:0:
266,336,772992,1,0,3:0:0:0:
266,336,773099,1,0,3:0:0:0:
66,271,773313,1,10,0:0:0:0:
33,352,773420,1,10,0:0:0:0:
41,264,773527,1,10,0:0:0:0:
124,237,773634,1,10,0:0:0:0:
134,149,773742,1,10,0:0:0:0:
52,181,773849,1,10,0:0:0:0:
99,254,773956,1,10,0:0:0:0:
186,246,774063,1,10,0:0:0:0:
265,283,774170,1,10,0:0:0:0:
313,355,774277,1,10,0:0:0:0:
397,379,774384,5,4,0:0:0:0:
436,217,774598,1,0,3:0:0:0:
436,217,774705,1,8,0:0:0:0:
436,217,774812,1,0,3:0:0:0:
501,138,775026,1,12,0:0:0:0:
282,170,775241,1,0,3:0:0:0:
282,170,775348,1,8,0:0:0:0:
282,170,775455,1,0,3:0:0:0:
198,240,775669,1,12,0:0:0:0:
250,43,775884,1,0,3:0:0:0:
250,43,775991,1,8,0:0:0:0:
250,43,776098,1,0,3:0:0:0:
351,0,776312,1,8,0:0:0:0:
343,46,776419,1,8,0:0:0:0:
335,92,776526,1,8,0:0:0:0:
327,139,776634,1,8,0:0:0:0:
319,185,776741,1,8,0:0:0:0:
312,231,776848,1,8,0:0:0:0:
305,277,776955,5,4,0:0:0:0:
108,216,777169,1,0,3:0:0:0:
108,216,777276,1,8,0:0:0:0:
108,216,777384,1,0,3:0:0:0:
64,117,777598,1,12,0:0:0:0:
86,319,777812,1,0,3:0:0:0:
86,319,777919,1,8,0:0:0:0:
86,319,778026,1,0,3:0:0:0:
0,379,778241,1,12,0:0:0:0:
11,333,778348,1,8,0:0:0:0:
22,287,778455,1,8,0:0:0:0:
52,251,778562,1,8,0:0:0:0:
94,230,778669,1,8,0:0:0:0:
140,239,778776,1,8,0:0:0:0:
187,235,778884,1,8,0:0:0:0:
223,205,778991,1,8,0:0:0:0:
228,158,779098,1,8,0:0:0:0:
210,113,779205,1,8,0:0:0:0:
173,82,779312,1,8,0:0:0:0:
160,36,779419,1,8,0:0:0:0:
191,1,779526,5,12,0:0:0:0:
389,64,779741,1,0,3:0:0:0:
389,64,779848,1,8,0:0:0:0:
389,64,779955,1,0,3:0:0:0:
482,31,780169,1,12,0:0:0:0:
385,184,780384,1,0,3:0:0:0:
385,184,780491,1,8,0:0:0:0:
385,184,780598,1,0,3:0:0:0:
451,269,780812,1,4,0:0:0:0:
452,316,780922,1,8,0:0:0:0:
428,356,781032,1,8,0:0:0:0:
380,363,781142,1,8,0:0:0:0:
339,338,781253,1,8,3:0:0:0:
296,317,781358,1,8,0:0:0:0:
248,313,781464,1,8,3:0:0:0:
202,324,781569,1,8,0:0:0:0:
168,357,781675,1,8,3:0:0:0:
169,309,781785,1,8,3:0:0:0:
177,262,781895,1,4,3:0:0:0:
196,219,782005,1,4,3:0:0:0:
196,171,782116,5,12,0:0:0:0:
405,94,782330,1,0,3:0:0:0:
405,94,782437,1,8,0:0:0:0:
405,94,782544,1,0,3:0:0:0:
466,2,782758,1,12,0:0:0:0:
442,195,782973,1,0,3:0:0:0:
442,195,783080,1,8,0:0:0:0:
442,195,783187,1,0,3:0:0:0:
362,266,783401,1,12,0:0:0:0:
316,253,783506,1,8,0:0:0:0:
291,212,783612,1,8,0:0:0:0:
301,165,783717,1,8,0:0:0:0:
296,117,783823,1,8,0:0:0:0:
263,82,783929,1,8,0:0:0:0:
215,81,784034,1,8,0:0:0:0:
187,119,784140,1,8,0:0:0:0:
146,143,784246,1,8,0:0:0:0:
101,126,784356,1,8,0:0:0:0:
82,82,784466,1,8,0:0:0:0:
109,43,784576,1,8,0:0:0:0:
156,45,784687,5,4,0:1:0:0:
256,192,784794,12,4,786829,0:1:0:0:
