osu file format v14

[General]
AudioFilename: audio.ogg
AudioLeadIn: 0
PreviewTime: 553676
Countdown: 0
SampleSet: Soft
StackLeniency: 0.7
Mode: 0
LetterboxInBreaks: 0
WidescreenStoryboard: 0

[Editor]
Bookmarks: 42485,67201,118965,152494,190141,208964,246903,265727,275148,318383,336030,364265,399559,427795,456618,477794,496617,515441,538970,554270,564609,595197,611679,632266
DistanceSpacing: 0.4
BeatDivisor: 4
GridSize: 16
TimelineZoom: 2.899999

[Metadata]
Title:Double Cast
TitleUnicode:Double Cast
Artist:shoujo byou
ArtistUnicode:少女病
Creator:Z5553
Version:Make Your Voice Echo Throughout the Sky
Source:
Tags:doujin japanese rock vocal kokkai confessional epigram mitsuki lico sakura tange pixelbee hikarisyuyo toshino tanabe mi-cyan kuudou strings 告解エピグラム C78 comiket 78 gothic girl disease
BeatmapID:3807065
BeatmapSetID:1852809

[Difficulty]
HPDrainRate:5
CircleSize:4.2
OverallDifficulty:9.2
ApproachRate:9.6
SliderMultiplier:1.4
SliderTickRate:1

[Events]
//Background and Video events
0,0,"bg.jpeg",0,0
//Break Periods
//Storyboard Layer 0 (Background)
//Storyboard Layer 1 (Fail)
//Storyboard Layer 2 (Pass)
//Storyboard Layer 3 (Foreground)
//Storyboard Layer 4 (Overlay)
//Storyboard Sound Samples

[TimingPoints]
722,294.117647058824,3,2,1,40,1,0
722,-66.6666666666667,3,2,1,40,0,0
1163,-85.4700854700855,3,2,1,40,0,0
1604,-66.6666666666667,3,2,1,40,0,0
2927,-85.4700854700855,3,2,1,40,0,0
3369,-75.187969924812,3,2,1,40,0,0
3957,294.117647058824,3,2,1,40,1,0
3957,-66.6666666666667,3,2,1,40,0,0
4398,-85.4700854700855,3,2,1,40,0,0
4839,-66.6666666666667,3,2,1,40,0,0
6162,-85.4700854700855,3,2,1,40,0,0
6604,-75.187969924812,3,2,1,40,0,0
7192,294.117647058824,3,2,1,40,1,0
7192,-66.6666666666667,3,2,1,40,0,0
8074,-54.6448087431694,3,2,1,40,0,0
8956,-46.0829493087558,3,2,1,40,0,0
9839,-75.187969924812,3,2,1,40,0,0
10427,294.117647058824,3,2,1,40,1,0
10427,-46.0829493087558,3,2,1,40,0,0
11309,-54.6448087431694,3,2,1,40,0,0
12191,-66.6666666666667,3,2,1,40,0,0
13074,-500,3,2,1,40,0,0
14250,294.117647058824,3,2,1,40,1,0
14250,-133.333333333333,3,2,1,30,0,0
21308,-100,3,2,1,30,0,0
21602,-133.333333333333,3,2,1,30,0,0
21897,-200,3,2,1,30,0,0
22191,-100,3,2,1,30,0,0
22485,-133.333333333333,3,2,1,30,0,0
22779,-200,3,2,1,30,0,0
23073,-100,3,2,1,30,0,0
23367,-133.333333333333,3,2,1,30,0,0
23661,-200,3,2,1,30,0,0
23955,-133.333333333333,3,2,1,30,0,0
35426,-66.6666666666667,3,2,1,30,0,0
36308,-100,3,2,1,30,0,0
37191,-133.333333333333,3,2,1,30,0,0
42485,-200,3,2,1,25,0,0
56602,-153.846153846154,3,2,1,35,0,0
63661,-125,3,2,1,45,0,0
64544,-166.666666666667,3,2,1,45,0,0
64838,-125,3,2,1,45,0,0
65132,-100,3,2,1,45,0,0
65426,-71.4285714285714,3,2,1,55,0,0
66014,-83.3333333333333,3,2,1,55,0,0
67201,294.117647058824,4,2,1,75,1,0
67201,-55.5555555555556,4,2,1,75,0,0
71612,-125,4,2,1,75,0,0
71906,-55.5555555555556,4,2,1,75,0,0
72348,-50,4,2,1,75,0,0
73083,-55.5555555555556,4,2,1,75,0,0
73377,-71.4285714285714,4,2,1,75,0,0
74259,-55.5555555555556,4,2,1,75,0,0
76318,-55.5555555555556,4,2,0,75,0,0
76612,-45.4545454545455,4,2,1,75,0,0
76906,-71.4285714285714,4,2,1,75,0,0
77789,-55.5555555555556,4,2,1,75,0,0
78083,-100,4,2,1,75,0,0
78377,-66.6666666666667,4,2,1,75,0,0
78671,-100,4,2,1,75,0,0
80730,-55.5555555555556,4,2,1,75,0,0
82495,-71.4285714285714,4,2,1,75,0,0
83671,-55.5555555555556,4,2,1,75,0,0
86024,-83.3333333333333,4,2,1,60,0,0
90436,-125,4,2,1,60,0,0
90730,-71.4285714285714,4,2,1,60,0,0
95436,-55.5555555555556,4,2,1,75,0,0
96465,-50,4,2,1,75,0,0
96906,-55.5555555555556,4,2,1,75,0,0
97494,-100,4,2,1,75,0,0
100141,-55.5555555555556,4,2,1,75,0,0
104553,-40,4,2,1,75,0,0
104847,-83.3333333333333,4,2,1,50,0,0
109553,-62.5,4,2,1,75,0,0
111906,-71.4285714285714,4,2,1,75,0,0
114039,-71.4285714285714,4,3,0,75,0,0
114259,-55.5555555555556,4,2,1,75,0,0
116024,-62.5,4,2,1,75,0,0
116612,-55.5555555555556,4,2,1,75,0,0
118377,-55.5555555555556,4,2,0,60,0,0
118965,294.117647058824,3,2,1,75,1,0
119847,-500,3,2,1,20,0,0
120729,-500,3,2,1,50,0,0
121023,-250,3,2,1,25,0,0
124258,-250,3,2,1,50,0,0
124552,-200,3,2,1,27,0,0
127787,-200,3,2,1,50,0,0
128081,-166.666666666667,3,2,1,30,0,0
131316,-166.666666666667,3,2,1,50,0,0
131611,-142.857142857143,3,2,1,33,0,0
134846,-142.857142857143,3,2,1,50,0,0
135140,-125,3,2,1,35,0,0
138375,-125,3,2,1,50,0,0
138669,-111.111111111111,3,2,1,37,0,0
141905,-111.111111111111,3,2,1,50,0,0
142199,-100,3,2,1,55,0,0
143669,-100,3,2,1,50,0,0
143964,-90.9090909090909,3,2,1,43,0,0
144552,-90.9090909090909,3,2,1,50,0,0
144846,-83.3333333333333,3,2,1,45,0,0
145434,-500,3,2,1,60,0,0
145728,-33.3333333333333,3,2,1,60,0,0
146316,-500,3,2,1,60,0,0
146611,-33.3333333333333,3,2,1,60,0,0
147199,-500,3,2,1,60,0,0
147493,-33.3333333333333,3,2,1,60,0,0
148081,-500,3,2,1,60,0,0
148375,-33.3333333333333,3,2,1,60,0,0
148964,-500,3,2,1,60,0,0
149258,-50,3,2,1,60,0,0
149846,-500,3,2,1,60,0,0
150140,-100,3,2,1,60,0,0
150728,-200,3,2,1,60,0,0
151022,-100,3,2,1,60,0,0
151316,-66.6666666666667,3,2,1,60,0,0
151611,-50,3,2,1,60,0,0
151905,-40,3,2,1,60,0,0
152199,-33.3333333333333,3,2,1,60,0,0
152494,294.117647058824,4,2,1,50,1,0
152494,-71.4285714285714,4,2,1,50,0,0
168964,-100,4,2,1,50,0,0
171317,-71.4285714285714,4,2,1,50,0,0
180435,-333.333333333333,4,2,1,50,0,0
180729,-71.4285714285714,4,2,1,50,0,0
187199,-83.3333333333333,4,2,1,50,0,0
188670,-500,4,2,1,50,0,0
188964,-100,4,2,1,50,0,0
189846,-66.6666666666667,4,2,0,50,0,0
190141,-33.3333333333333,4,2,1,75,0,0
192199,-40,4,2,1,75,0,0
193670,-33.3333333333333,4,2,1,75,0,0
194552,-40,4,2,1,75,0,0
194846,-33.3333333333333,4,2,1,75,0,0
195435,-40,4,2,1,75,0,0
196905,-40,4,2,1,75,0,0
197199,-33.3333333333333,4,2,1,75,0,0
199258,-333.333333333333,4,2,1,75,0,0
199552,-28.5714285714286,4,2,1,75,0,0
201611,-33.3333333333333,4,2,1,75,0,0
203082,-28.5714285714286,4,2,1,75,0,0
203670,-33.3333333333333,4,2,1,75,0,0
204258,-28.5714285714286,4,2,1,75,0,0
204552,-33.3333333333333,4,2,1,75,0,0
204846,-28.5714285714286,4,2,1,75,0,0
205141,-33.3333333333333,4,2,1,75,0,0
205435,-28.5714285714286,4,2,1,75,0,0
206317,-33.3333333333333,4,2,1,75,0,0
207494,-333.333333333333,4,2,1,75,0,0
207788,-100,4,2,1,75,0,0
208670,-100,4,2,0,75,0,0
208964,-166.666666666667,4,2,0,20,0,0
211758,-83.3333333333333,4,2,0,20,0,0
211905,-166.666666666667,4,2,0,20,0,0
218375,294.117647058824,3,2,1,50,1,0
218669,-100,3,2,1,25,0,0
221903,-100,3,2,1,50,0,0
222196,-100,3,2,1,27,0,0
225431,-100,3,2,1,50,0,0
225727,-100,3,2,1,30,0,0
228963,-100,3,2,1,50,0,0
229257,-100,3,2,1,33,0,0
231610,-100,3,2,1,50,0,0
232492,-500,3,2,1,70,0,0
232786,-40,3,2,1,70,0,0
233375,-500,3,2,1,70,0,0
233669,-50,3,2,1,70,0,0
234257,-500,3,2,1,70,0,0
234551,-66.6666666666667,3,2,1,70,0,0
235139,-500,3,2,1,70,0,0
235433,-100,3,2,1,70,0,0
236022,-500,3,2,1,70,0,0
236316,-40,3,2,1,70,0,0
236904,-500,3,2,1,70,0,0
237198,-50,3,2,1,70,0,0
237786,-500,3,2,1,70,0,0
238080,-66.6666666666667,3,2,1,70,0,0
238669,-500,3,2,1,70,0,0
238963,-100,3,2,1,70,0,0
239257,-100,3,3,0,70,0,0
239551,-500,3,2,1,70,0,0
239845,-33.3333333333333,3,2,1,70,0,0
240433,-500,3,2,1,70,0,0
240727,-40,3,2,1,70,0,0
241316,-500,3,2,1,70,0,0
241610,-50,3,2,1,70,0,0
242198,-500,3,2,1,70,0,0
242492,-66.6666666666667,3,2,1,70,0,0
243080,-200,3,2,1,70,0,0
243374,-100,3,2,1,70,0,0
243669,-66.6666666666667,3,2,1,70,0,0
243963,-50,3,2,1,70,0,0
244257,-40,3,2,1,70,0,0
244551,-33.3333333333333,3,2,1,70,0,0
244845,-28.5714285714286,3,2,1,70,0,0
245139,-25,3,2,1,70,0,0
245433,-28.5714285714286,3,2,1,70,0,0
245727,294.117647058824,4,2,1,70,1,0
246903,-40,4,2,1,75,0,0
248520,-50,4,2,1,75,0,0
248814,-57.1428571428571,4,2,1,75,0,0
249108,-57.1428571428571,4,2,1,50,0,0
251310,-40,4,2,1,50,0,0
251602,-40,4,2,1,75,0,0
255138,-40,4,2,1,50,0,0
256315,-33.3333333333333,4,2,1,75,0,0
256903,-40,4,2,1,75,0,0
257344,-33.3333333333333,4,2,1,75,0,0
257785,-40,4,2,1,75,0,0
258079,-50,4,2,1,75,0,0
258667,-40,4,2,1,75,0,0
265432,-66.6666666666667,4,2,1,75,0,0
265726,-33.3333333333333,4,2,1,75,0,0
266020,-40,4,2,1,60,0,0
266314,-50,4,2,1,60,0,0
266756,-33.3333333333333,4,2,1,60,0,0
266903,-36.3636363636364,4,2,1,60,0,0
267050,-40,4,2,1,60,0,0
267197,-50,4,2,1,60,0,0
267492,-50,4,2,1,60,0,0
267933,-33.3333333333333,4,2,1,60,0,0
268079,-36.3636363636364,4,2,1,60,0,0
268226,-40,4,2,1,60,0,0
268373,-44.4444444444445,4,2,1,60,0,0
268520,-50,4,2,1,60,0,0
268667,-50,4,2,1,60,0,0
269108,-33.3333333333333,4,2,1,60,0,0
269697,-40,4,2,1,60,0,0
270432,-33.3333333333333,4,2,1,60,0,0
270579,-36.3636363636364,4,2,1,60,0,0
270726,-40,4,2,1,60,0,0
270873,-44.4444444444445,4,2,1,60,0,0
271020,-33.3333333333333,4,2,1,60,0,0
271167,-40,4,2,1,60,0,0
271314,-50,4,2,1,60,0,0
271608,-33.3333333333333,4,2,1,60,0,0
274844,-166.666666666667,4,2,1,60,0,0
275148,294.117647058824,3,2,1,30,1,0
275148,-166.666666666667,3,2,1,30,0,0
289265,-125,3,2,1,35,0,0
302206,279.06976744186,3,2,1,35,1,0
302485,285.714285714286,3,2,1,35,1,0
302770,300,3,3,0,35,1,0
302770,-125,3,3,0,35,0,0
303070,307.692307692308,3,3,0,35,1,0
303070,-125,3,3,0,35,0,0
303383,294.117647058824,3,2,1,35,1,0
303383,-166.666666666667,3,2,1,35,0,0
310148,-500,3,2,1,35,0,0
310442,-166.666666666667,3,2,1,35,0,0
316030,-125,3,2,1,45,0,0
316324,-83.3333333333333,3,2,1,55,0,0
316618,-66.6666666666667,3,2,1,60,0,0
316912,-57.1428571428571,3,2,1,60,0,0
317206,-166.666666666667,3,2,1,60,0,0
318383,-1000,3,2,1,60,0,0
332500,-200,3,2,1,60,0,0
333089,-1000,3,2,1,60,0,0
333382,-200,3,2,1,60,0,0
333971,-1000,3,2,1,60,0,0
335148,-1000,3,2,1,30,0,0
336030,-166.666666666667,3,2,1,30,0,0
342793,-500,3,2,1,30,0,0
343087,-166.666666666667,3,2,1,30,0,0
347204,-125,3,2,1,30,0,0
347498,-100,3,2,1,30,0,0
348087,-166.666666666667,3,2,1,30,0,0
350146,-133.333333333333,3,2,1,30,0,0
364265,-250,3,2,1,20,0,0
399559,-83.3333333333333,3,2,1,30,0,0
425736,-333.333333333333,3,2,1,40,0,0
426912,-100,3,2,1,40,0,0
427795,-57.1428571428571,3,2,1,70,0,0
429853,-80,3,2,1,70,0,0
430147,-133.333333333333,3,2,1,70,0,0
431324,-66.6666666666667,3,2,1,70,0,0
433383,-100,3,2,1,70,0,0
433677,-200,3,2,1,70,0,0
434559,-333.333333333333,3,2,1,70,0,0
434853,-66.6666666666667,3,2,1,70,0,0
440148,-100,3,2,1,70,0,0
440442,-57.1428571428571,3,2,1,70,0,0
440736,-40,3,2,1,70,0,0
441030,-30.7692307692308,3,2,1,70,0,0
441912,-57.1428571428571,3,2,1,70,0,0
445442,-66.6666666666667,3,2,1,70,0,0
447206,-57.1428571428571,3,2,1,70,0,0
448971,-66.6666666666667,3,2,1,70,0,0
450736,-57.1428571428571,3,2,1,70,0,0
451177,-66.6666666666667,3,2,1,70,0,0
451618,-80,3,2,1,70,0,0
451912,-100,3,2,1,70,0,0
452206,-133.333333333333,3,2,1,70,0,0
452500,-57.1428571428571,3,2,1,70,0,0
455148,-66.6666666666667,3,2,1,70,0,0
456618,294.117647058823,4,2,1,30,1,0
456618,-133.333333333333,4,2,1,30,0,0
470735,-200,3,2,1,40,0,0
473088,-100,3,2,1,40,0,0
475147,-500,3,2,1,40,0,0
477060,-500,4,2,1,60,0,0
477791,-40,4,2,1,75,0,0
478382,-57.1428571428571,4,2,1,75,0,0
478823,-40,4,2,1,75,0,0
479265,-57.1428571428571,4,2,1,75,0,0
479412,-40,4,2,1,75,0,0
479853,-57.1428571428571,4,2,1,75,0,0
480000,-57.1428571428571,4,2,1,50,0,0
481765,-50,4,2,1,50,0,0
482206,-57.1428571428571,4,2,1,50,0,0
482500,-40,4,2,1,75,0,0
484412,-57.1428571428571,4,2,1,75,0,0
484705,-33.3333333333333,4,2,1,75,0,0
485146,-57.1428571428571,4,2,1,75,0,0
487205,-40,4,2,1,75,0,0
489852,-50,4,2,1,75,0,0
491617,-66.6666666666667,4,2,1,75,0,0
491764,-100,4,2,1,75,0,0
491911,-40,4,2,1,75,0,0
492793,-50,4,2,1,75,0,0
496617,-50,4,2,1,50,0,0
506028,-50,4,2,1,70,0,0
514117,-40,4,2,1,70,0,0
515440,-57.1428571428571,4,2,1,50,0,0
520146,-66.6666666666667,4,2,1,50,0,0
524852,-55.5555555555556,4,2,1,60,0,0
528675,-62.5,4,2,1,60,0,0
528969,-71.4285714285714,4,2,1,60,0,0
529264,-83.3333333333333,4,2,1,60,0,0
529558,-40,4,2,1,70,0,0
529852,-54.0540540540541,4,2,1,70,0,0
531911,-40,4,2,1,70,0,0
532205,-54.0540540540541,4,2,1,70,0,0
533969,-166.666666666667,4,2,1,70,0,0
534264,-40,4,2,1,70,0,0
534558,-50,4,2,1,70,0,0
535440,-40,4,2,1,70,0,0
535734,-50,4,2,1,70,0,0
536617,-68.9655172413793,4,2,1,70,0,0
538381,-68.9655172413793,4,2,0,70,0,0
538969,-68.9655172413793,4,2,1,50,0,0
540146,-57.1428571428571,4,2,1,50,0,0
548381,-80,4,2,1,40,0,0
550734,-100,4,2,1,40,0,0
554010,300,4,2,1,20,1,0
554270,340.909090909091,3,2,1,20,1,0
555117,300,3,2,1,20,1,0
555591,329.67032967033,3,2,1,20,1,0
556580,363.636363636364,3,2,1,20,1,0
556943,333.333333333333,3,2,1,20,1,0
558776,326.086956521739,3,2,1,20,1,0
559609,327.868852459016,3,2,1,20,1,0
560592,346.820809248555,3,2,1,20,1,0
560939,333.333333333333,3,2,1,20,1,0
562310,535.714285714286,3,2,1,20,1,0
562845,294.117647058824,4,2,1,60,1,0
563433,-133.333333333333,4,2,1,60,0,0
564609,294.117647058824,4,2,1,40,1,0
564609,-83.3333333333333,4,2,1,40,0,0
574020,-71.4285714285714,4,2,1,40,0,0
582256,-71.4285714285714,4,2,1,50,0,0
583432,-133.333333333333,4,2,1,60,0,0
584020,-66.6666666666667,4,2,1,60,0,0
584609,-125,4,2,1,60,0,0
584903,-66.6666666666667,4,2,1,60,0,0
585344,-125,4,2,1,60,0,0
585785,-66.6666666666667,4,2,1,60,0,0
589903,-500,4,2,1,60,0,0
590491,-66.6666666666667,4,2,1,60,0,0
595197,-40,4,2,1,75,0,0
595491,-50,4,2,1,75,0,0
595785,-57.1428571428571,4,2,1,75,0,0
596079,-66.6666666666667,4,2,1,75,0,0
596226,-40,4,2,1,75,0,0
596814,-50,4,2,1,75,0,0
597256,-66.6666666666667,4,2,1,75,0,0
597403,-57.1428571428571,4,2,1,50,0,0
599903,-40,4,2,1,75,0,0
600197,-50,4,2,1,75,0,0
602109,-40,4,2,1,75,0,0
603432,-66.6666666666667,4,2,1,75,0,0
603726,-50,4,2,1,75,0,0
604020,-40,4,2,1,75,0,0
605491,-50,4,2,1,75,0,0
606961,-40,4,2,1,75,0,0
607256,-50,4,2,1,75,0,0
607991,-40,4,2,1,75,0,0
608579,-50,4,2,1,75,0,0
609020,-57.1428571428571,4,2,1,75,0,0
609314,300,4,2,1,40,1,0
609314,-40,4,2,1,75,0,0
610214,257.510729613734,4,2,1,75,1,0
610471,294.117647058824,4,2,1,75,1,0
611353,-333.333333333333,4,2,1,40,0,0
611679,294.117647058824,3,2,1,40,1,0
611679,-66.6666666666667,3,2,1,40,0,0
612120,-85.4700854700855,3,2,1,40,0,0
612561,-66.6666666666667,3,2,1,40,0,0
613884,-85.4700854700855,3,2,1,40,0,0
614326,-75.187969924812,3,2,1,40,0,0
614914,294.117647058824,3,2,1,40,1,0
614914,-66.6666666666667,3,2,1,40,0,0
615355,-85.4700854700855,3,2,1,40,0,0
615796,-66.6666666666667,3,2,1,40,0,0
617560,-50,4,2,1,40,0,0
618149,294.117647058824,3,2,1,40,1,0
618149,-83.3333333333333,3,2,1,50,0,0
621090,-62.5,3,2,1,50,0,0
621384,-50,3,2,1,50,0,0
621678,-83.3333333333333,3,2,1,50,0,0
623737,-125,3,2,1,50,0,0
624031,-250,3,2,1,50,0,0
624325,-50,3,2,1,50,0,0
624619,-83.3333333333333,3,2,1,50,0,0
624913,-200,3,2,1,50,0,0
625207,-83.3333333333333,3,2,1,50,0,0
631384,-41.6666666666667,3,2,1,50,0,0
631678,-62.5,3,2,1,50,0,0
631972,-125,3,2,1,50,0,0
632266,-250,3,2,1,20,0,0
640217,297.029702970297,3,2,1,20,1,0
642009,303.030303030303,3,2,1,20,1,0
642918,292.682926829268,3,2,1,20,1,0
643796,310.880829015544,3,2,1,20,1,0
644728,297.766749379653,3,2,1,20,1,0
646514,309.278350515464,3,2,1,20,1,0
647441,304.568527918782,3,2,1,20,1,0
649268,294.117647058824,3,2,1,20,1,0
650179,294.117647058824,3,2,1,20,1,0
651076,294.117647058824,3,2,1,20,1,0
651963,315.789473684211,3,2,1,20,1,0
652900,300,3,2,1,20,1,0
653817,300,3,2,1,20,1,0
657441,304.568527918782,3,2,1,20,1,0
660537,283.018867924528,3,2,1,20,1,0
661083,300,3,2,1,20,1,0
661983,303.030303030303,3,2,1,20,1,0
664710,306.122448979592,3,2,1,20,1,0
666546,303.030303030303,3,2,1,20,1,0
667435,306.122448979592,3,2,1,20,1,0
668353,300,3,2,1,20,1,0
671073,303.030303030303,3,2,1,20,1,0
672891,389.61038961039,3,2,1,15,1,0
673671,618.556701030928,3,2,1,15,1,0
674908,576.923076923077,3,2,1,10,1,0
675124,-100,3,2,1,5,0,0

[Colours]
Combo1 : 255,160,255
Combo2 : 192,192,192
Combo3 : 255,226,125
Combo4 : 255,128,128
Combo5 : 255,0,0
Combo6 : 128,128,128
Combo7 : 155,155,255
Combo8 : 255,152,102
SliderBorder : 230,230,230

[HitObjects]
384,384,722,38,0,P|376:275|345:171,1,210.000008010865,6|0,3:2|3:2,0:0:0:0:
466,0,1163,2,0,P|463:54|362:55,1,163.800000624847,10|0,3:2|3:2,0:0:0:0:
353,168,1604,54,0,P|381:268|388:373,1,210.000008010865,14|0,3:1|3:2,0:0:0:0:
192,321,2045,1,10,3:2:0:0:
244,270,2192,1,2,3:2:0:0:
278,272,2339,1,2,0:0:0:0:
392,362,2486,54,0,P|385:257|357:157,1,210.000008010865,6|0,3:2|3:2,0:0:0:0:
202,78,2927,2,0,P|253:95|291:1,1,163.800000624847,10|0,3:2|3:2,0:0:0:0:
197,91,3369,86,0,L|200:118,1,23.2749990410996,10|0,3:2|0:0,0:0:0:0:
192,104,3663,54,0,L|196:136,1,23.2749990410996,10|0,3:2|0:0,0:0:0:0:
59,384,3957,86,0,P|88:293|97:158,1,210.000008010865,6|0,3:2|3:2,0:0:0:0:
0,0,4398,2,0,P|2:44|118:50,1,163.800000624847,10|0,3:2|3:2,0:0:0:0:
104,170,4839,54,0,P|95:274|64:374,1,210.000008010865,14|0,3:1|3:2,0:0:0:0:
1,264,5280,1,10,3:2:0:0:
66,251,5427,1,2,3:2:0:0:
94,270,5574,1,2,0:0:0:0:
74,371,5721,54,0,P|104:270|113:166,1,210.000008010865,6|0,3:2|3:2,0:0:0:0:
237,13,6162,2,0,P|222:55|109:29,1,163.800000624847,10|0,3:2|3:2,0:0:0:0:
250,20,6604,86,0,L|284:15,1,23.2749990410996,10|0,3:2|0:0,0:0:0:0:
260,30,6898,54,0,L|294:25,1,23.2749990410996,10|0,3:2|0:0,0:0:0:0:
372,247,7192,86,0,P|492:180|333:195,1,420.000016021729,6|0,3:2|0:0,0:0:0:0:
348,347,7927,1,0,3:2:0:0:
413,268,8074,54,0,P|494:129|342:238,1,512.399990813141,14|2,3:1|3:2,0:0:0:0:
344,363,8809,1,2,0:0:0:0:
468,269,8956,54,0,P|470:78|377:280,1,607.599983079987,6|2,3:2|3:0,3:0:0:0:
337,384,9692,1,0,3:2:0:0:
398,170,9839,86,0,L|432:163,1,23.2749990410996,10|0,3:2|0:0,0:0:0:0:
406,177,10133,54,0,L|440:170,1,23.2749990410996,10|0,0:0|0:0,0:0:0:0:
209,129,10427,86,0,P|8:38|152:204,1,607.599983079987,6|0,3:2|0:0,0:0:0:0:
314,98,11162,1,0,3:2:0:0:
185,83,11309,54,0,P|1:98|174:159,1,513.333338228862,14|2,3:1|3:2,0:0:0:0:
298,92,12044,1,2,0:0:0:0:
133,42,12191,54,0,P|22:152|173:113,1,420.000016021729,6|2,3:2|3:0,0:0:0:0:
278,82,12927,1,0,3:2:0:0:
103,109,13074,54,0,L|79:106,1,21,10|0,3:2|0:0,0:0:0:0:
104,118,13368,69,10,3:2:0:0:
154,176,13515,1,0,0:0:0:0:
134,267,13662,1,0,3:0:0:0:
8,305,13809,1,0,3:0:0:0:
187,384,13956,37,2,3:2:0:0:
329,336,14103,1,2,3:2:0:0:
176,378,14250,38,0,P|186:325|185:297,1,78.7500030040742,6|0,3:2|0:0,0:0:0:0:
175,296,14544,2,0,L|238:284,1,52.5000020027161,8|0,3:2|0:0,0:0:0:0:
341,211,14838,2,0,L|278:199,1,52.5000020027161,10|0,3:2|0:0,0:0:0:0:
231,103,15132,2,0,P|241:77|200:6,2,105,2|10|10,3:2|3:2|3:2,0:0:0:0:
165,210,16014,54,0,P|93:189|72:187,1,78.7500030040742,2|0,3:2|0:0,0:0:0:0:
86,198,16308,2,0,L|75:142,1,52.5000020027161,10|0,3:2|0:0,0:0:0:0:
14,21,16602,1,10,3:2:0:0:
0,105,16897,2,0,L|21:101,1,13.125000500679,2|0,3:2|0:0,0:0:0:0:
183,25,17191,2,0,P|131:24|101:1,1,78.7500030040742,8|0,3:2|0:0,0:0:0:0:
104,1,17485,1,10,3:2:0:0:
198,20,17632,1,2,0:0:0:0:
294,33,17779,54,0,P|317:13|394:26,1,105.000004005432,2|8,3:2|3:2,0:0:0:0:
454,308,18367,1,10,3:2:0:0:
506,240,18514,1,2,0:0:0:0:
457,321,18661,2,0,P|390:300|350:295,2,105.000004005432,2|10|10,3:2|3:2|3:2,0:0:0:0:
495,228,19544,53,2,3:2:0:0:
441,173,19691,2,0,L|423:92,1,78.7500030040742,2|0,0:0|0:0,0:0:0:0:
418,87,19985,1,2,0:0:0:0:
343,76,20132,1,10,3:2:0:0:
331,5,20279,1,2,0:0:0:0:
512,72,20426,2,0,P|483:51|470:11,1,78.7500030040742,2|0,3:2|0:0,0:0:0:0:
479,6,20720,1,8,3:2:0:0:
103,0,21014,53,10,3:2:0:0:
133,71,21161,1,2,0:0:0:0:
68,156,21308,54,0,P|46:117|76:42,1,105,2|0,3:2|0:0,0:0:0:0:
116,207,21602,2,0,P|88:206|57:167,1,78.7500030040742,10|0,3:2|0:0,0:0:0:0:
168,202,21897,2,0,P|158:217|126:222,1,52.5,10|0,3:2|0:0,0:0:0:0:
135,308,22191,54,0,P|90:306|40:243,1,105,2|0,3:2|0:0,0:0:0:0:
203,291,22485,2,0,P|188:314|139:321,1,78.7500030040742,10|0,3:2|0:0,0:0:0:0:
224,244,22779,2,0,P|232:259|220:290,1,52.5,10|0,3:2|0:0,0:0:0:0:
327,328,23073,54,0,P|303:365|224:377,1,105,2|0,3:2|0:0,0:0:0:0:
346,260,23367,2,0,P|359:283|340:330,1,78.7500030040742,10|0,3:2|0:0,0:0:0:0:
316,218,23661,2,0,P|333:218|354:244,1,52.5,10|0,3:2|0:0,0:0:0:0:
434,375,23955,53,2,3:2:0:0:
512,319,24102,1,2,0:0:0:0:
429,362,24250,2,0,P|441:322|432:276,1,78.7500030040742,10|0,3:2|0:0,0:0:0:0:
428,278,24544,1,8,3:2:0:0:
285,209,24838,54,0,P|251:246|208:244,1,78.7500030040742,2|0,3:2|0:0,0:0:0:0:
219,257,25132,2,0,L|207:205,1,52.5000020027161,8|0,3:2|0:0,0:0:0:0:
126,114,25426,2,0,L|114:166,1,52.5000020027161,8|0,3:2|0:0,0:0:0:0:
0,60,25720,54,0,P|34:59|57:20,1,78.7500030040742,2|0,3:2|0:0,0:0:0:0:
53,13,26014,2,0,L|107:-1,1,52.5000020027161,8|0,3:2|0:0,0:0:0:0:
197,48,26308,1,10,3:2:0:0:
203,29,26455,1,2,0:0:0:0:
289,180,26602,54,0,P|253:141|251:97,1,78.7500030040742,2|0,3:2|0:0,0:0:0:0:
312,17,26897,2,0,L|316:41,1,13.125000500679,8|0,3:2|0:0,0:0:0:0:
320,25,27191,2,0,L|324:49,1,13.125000500679,8|0,3:2|0:0,0:0:0:0:
279,179,27485,54,0,P|254:132|263:88,1,78.7500030040742,0|0,3:2|0:0,0:0:0:0:
329,32,27779,2,0,L|333:56,1,13.125000500679,8|0,3:2|0:0,0:0:0:0:
338,198,28073,2,0,L|282:191,1,52.5000020027161,10|0,3:2|0:0,0:0:0:0:
391,310,28367,54,0,P|398:273|434:244,1,78.7500030040742,6|0,3:2|0:0,0:0:0:0:
504,280,28661,1,8,3:2:0:0:
512,245,28808,1,0,0:0:0:0:
504,231,28955,2,0,L|490:168,1,52.5000020027161,10|2,3:2|0:0,0:0:0:0:
512,52,29250,54,0,P|489:85|449:102,1,78.7500030040742,2|0,3:2|0:0,0:0:0:0:
394,30,29544,1,10,3:2:0:0:
358,58,29691,1,0,0:0:0:0:
346,49,29838,2,0,L|408:40,1,52.5000020027161,10|0,3:2|0:0,0:0:0:0:
281,176,30132,54,0,P|263:145|219:132,1,78.7500030040742,2|0,3:2|0:0,0:0:0:0:
148,218,30426,1,10,3:2:0:0:
163,188,30573,1,0,0:0:0:0:
151,173,30720,2,0,L|139:113,1,52.5000020027161,10|0,3:2|0:0,0:0:0:0:
25,3,31014,54,0,P|54:15|105:19,1,78.7500030040742,2|0,3:2|0:0,0:0:0:0:
170,0,31308,1,8,3:2:0:0:
186,33,31455,1,0,0:0:0:0:
176,47,31602,1,10,3:2:0:0:
277,91,31750,1,2,0:0:0:0:
358,0,31897,54,0,P|360:42|382:92,1,78.7500030040742,2|0,3:2|0:0,0:0:0:0:
418,127,32191,1,8,3:2:0:0:
441,103,32338,1,0,0:0:0:0:
433,90,32485,2,0,L|367:84,1,52.5000020027161,10|2,3:2|0:0,0:0:0:0:
273,197,32779,53,2,3:2:0:0:
446,372,33073,2,0,L|450:394,1,13.125000500679,10|0,3:2|0:0,0:0:0:0:
463,341,33220,1,0,0:0:0:0:
449,334,33367,2,0,P|419:322|413:272,1,78.7500030040742,10|0,3:2|0:0,0:0:0:0:
420,269,33661,53,2,3:2:0:0:
336,321,33808,1,2,0:0:0:0:
220,295,33955,2,0,P|220:239|234:205,1,78.7500030040742,10|0,3:2|0:0,0:0:0:0:
221,208,34250,2,0,L|292:192,1,52.5000020027161,10|0,3:2|0:0,0:0:0:0:
336,321,34544,53,2,3:2:0:0:
316,358,34691,1,2,0:0:0:0:
331,372,34838,2,0,L|335:385,1,13.125000500679,10|0,3:2|0:0,0:0:0:0:
145,163,35132,2,0,L|149:150,1,13.125000500679,8|0,3:2|0:0,0:0:0:0:
79,384,35426,6,0,P|18:335|159:164,1,367.500014019013,6|0,3:1|0:0,0:0:0:0:
176,254,36014,1,10,3:2:0:0:
114,69,36308,2,0,P|178:55|245:202,1,245,6|0,3:1|0:0,0:0:0:0:
163,259,36897,1,10,3:2:0:0:
348,230,37191,2,0,P|358:275|252:323,1,183.750007009506,6|0,3:1|0:0,0:0:0:0:
149,269,37779,1,10,3:2:0:0:
136,282,38073,53,2,3:2:0:0:
361,353,38220,1,2,0:0:0:0:
300,290,38367,2,0,L|293:267,1,13.125000500679,10|0,3:2|0:0,0:0:0:0:
371,361,38661,2,0,L|364:338,1,13.125000500679,8|0,3:2|0:0,0:0:0:0:
425,210,38955,38,0,P|450:243|485:256,1,78.7500030040742,2|0,3:2|0:0,0:0:0:0:
493,251,39250,2,0,L|503:197,1,52.5000020027161,10|0,3:2|0:0,0:0:0:0:
461,112,39544,2,0,L|471:58,1,52.5000020027161,10|0,3:2|0:0,0:0:0:0:
362,45,39838,2,0,P|408:29|469:117,1,157.500006008148,2|0,3:2|0:0,0:0:0:0:
262,37,40426,1,10,3:2:0:0:
271,52,40573,1,2,0:0:0:0:
235,171,40720,54,0,P|224:138|175:111,1,78.7500030040742,2|0,3:2|0:0,0:0:0:0:
179,117,41014,1,8,3:2:0:0:
111,13,41308,1,8,3:2:0:0:
6,149,41602,54,0,P|17:116|66:89,1,78.7500030040742,0|0,3:2|0:0,0:0:0:0:
62,95,41897,1,8,3:2:0:0:
109,0,42191,1,8,3:2:0:0:
240,86,42485,102,0,B|236:37|259:60|257:0,1,87.5,2|0,3:2|0:0,0:0:0:0:
232,99,42926,1,8,3:2:0:0:
262,184,43073,2,0,L|201:175,1,52.5,0|0,3:2|0:0,0:0:0:0:
322,140,43367,1,10,3:2:0:0:
364,152,43514,1,8,3:2:0:0:
371,165,43661,2,0,P|379:132|375:106,1,52.5,8|0,3:2|0:0,0:0:0:0:
418,238,43955,1,0,3:3:0:0:
418,238,44102,1,2,0:0:0:0:
418,238,44250,54,0,P|448:204|499:202,1,87.5,2|0,3:2|0:0,0:0:0:0:
420,249,44691,1,8,3:2:0:0:
450,125,44838,1,2,3:2:0:0:
512,297,45132,53,10,3:2:0:0:
499,335,45279,1,8,3:2:0:0:
505,361,45426,1,8,3:2:0:0:
496,374,45573,1,0,0:0:0:0:
366,340,45720,1,2,3:3:0:0:
287,371,45867,1,0,0:0:0:0:
379,350,46014,54,0,P|375:326|346:275,1,70,2|2,3:2|3:2,0:0:0:0:
336,195,46455,1,8,3:2:0:0:
278,194,46602,2,0,L|343:180,1,52.5,0|0,3:2|0:0,0:0:0:0:
235,130,46897,53,10,3:2:0:0:
209,115,47044,1,8,3:2:0:0:
197,122,47191,2,0,P|208:95|238:80,1,52.5,10|0,3:2|0:0,0:0:0:0:
168,206,47485,2,0,L|214:202,1,35,2|2,3:3|0:0,0:0:0:0:
95,234,47779,53,2,3:2:0:0:
95,234,47926,2,0,P|90:198|75:173,1,52.5
22,260,48220,1,8,3:2:0:0:
22,260,48367,1,0,3:2:0:0:
0,384,48588,1,0,0:0:0:0:
7,374,48661,1,8,3:2:0:0:
66,328,48808,1,8,3:2:0:0:
179,384,48955,54,0,P|155:386|122:376,1,52.5,10|0,3:2|0:0,0:0:0:0:
186,371,49250,1,2,3:3:0:0:
252,329,49397,1,0,0:0:0:0:
372,355,49544,2,0,P|361:311|339:254,1,105,2|0,3:2|3:2,0:0:0:0:
29,149,50426,53,10,3:2:0:0:
36,140,50500,2,0,P|30:105|29:97,1,35
35,93,50720,2,0,P|60:91|92:92,1,52.5,10|0,3:2|0:0,0:0:0:0:
0,25,51014,1,2,3:3:0:0:
232,8,51308,54,0,P|207:6|154:6,1,70,2|0,3:2|3:2,0:0:0:0:
161,150,51750,1,8,3:2:0:0:
161,150,51897,2,0,P|163:121|185:105,1,52.5,2|0,3:2|0:0,0:0:0:0:
221,202,52191,53,10,3:2:0:0:
254,211,52338,1,8,3:2:0:0:
269,201,52485,1,8,3:2:0:0:
282,201,52632,1,0,0:0:0:0:
355,144,52779,1,0,3:3:0:0:
315,132,52926,1,0,0:0:0:0:
349,40,53073,54,0,L|424:33,1,70,2|0,3:2|3:2,0:0:0:0:
503,94,53514,1,8,3:2:0:0:
490,135,53661,1,0,3:2:0:0:
467,151,53808,1,0,0:0:0:0:
337,120,53955,21,10,3:2:0:0:
459,255,54102,85,8,3:2:0:0:
420,275,54250,1,8,3:2:0:0:
395,273,54397,1,0,0:0:0:0:
381,263,54544,1,2,3:3:0:0:
379,252,54691,1,0,0:0:0:0:
334,108,54838,86,0,L|325:53,1,52.5,2|0,3:2|0:0,0:0:0:0:
239,159,55132,85,0,3:2:0:0:
219,251,55279,1,8,3:2:0:0:
227,238,55426,1,0,3:2:0:0:
379,373,55720,85,10,3:2:0:0:
446,353,55867,1,8,3:2:0:0:
296,275,56014,53,10,3:2:0:0:
229,255,56161,1,0,0:0:0:0:
358,182,56308,38,0,P|381:168|419:164,1,52.5,2|0,3:3|0:0,0:0:0:0:
300,289,56602,101,2,3:2:0:0:
301,289,56897,1,0,3:2:0:0:
229,303,57044,1,8,3:2:0:0:
307,299,57191,1,0,3:2:0:0:
0,384,57485,54,0,P|25:379|62:360,1,68.2499968757631,10|0,3:2|0:0,0:0:0:0:
135,337,57779,1,8,3:2:0:0:
51,277,57926,1,0,0:0:0:0:
144,346,58073,2,0,P|149:294|145:268,1,68.2499968757631,2|0,3:3|0:0,0:0:0:0:
100,198,58367,54,0,L|154:189,1,45.4999979171754,2|0,3:2|0:0,0:0:0:0:
39,62,58661,1,0,3:2:0:0:
15,133,58808,1,8,3:2:0:0:
50,52,58955,1,0,3:2:0:0:
404,3,59250,54,0,L|347:-1,1,45.4999979171754,8|0,3:2|0:2,0:0:0:0:
292,48,59544,1,10,3:2:0:0:
348,122,59691,1,0,0:0:0:0:
276,43,59838,2,0,P|269:74|234:98,1,68.2499968757631,2|0,3:3|0:0,0:0:0:0:
152,93,60132,53,2,3:2:0:0:
140,108,60426,1,2,3:2:0:0:
33,57,60573,1,8,3:2:0:0:
129,122,60720,1,0,3:2:0:0:
325,251,61014,54,0,L|314:204,1,45.4999979171754,10|0,3:2|0:2,0:0:0:0:
255,331,61308,1,10,3:2:0:0:
163,309,61455,1,0,0:0:0:0:
260,346,61602,1,2,3:3:0:0:
283,364,61750,1,2,0:0:0:0:
352,376,61897,54,0,P|374:324|390:306,1,68.2499968757631,2|0,3:2|0:0,0:0:0:0:
512,244,62191,2,0,L|463:238,1,45.4999979171754,8|0,3:2|0:2,0:0:0:0:
387,168,62485,1,0,3:2:0:0:
322,234,62632,1,0,0:0:0:0:
385,173,62779,1,8,3:2:0:0:
385,161,62926,1,8,3:2:0:0:
394,167,63073,53,10,3:2:0:0:
362,96,63220,1,2,0:0:0:0:
400,22,63367,1,2,3:3:0:0:
500,0,63514,1,2,0:0:0:0:
512,156,63661,54,0,P|481:140|465:91,1,84,2|0,3:2|0:0,0:0:0:0:
472,87,63955,1,0,3:2:0:0:
471,86,64102,1,8,3:2:0:0:
328,23,64250,1,0,3:2:0:0:
320,17,64544,54,0,L|315:47,1,20.9999993591309,10|0,3:2|0:0,0:0:0:0:
308,16,64691,2,0,L|310:46,1,20.9999993591309,10|0,3:2|0:0,0:0:0:0:
220,56,64838,70,0,L|230:84,1,28,10|0,3:2|0:0,0:0:0:0:
188,88,64985,2,0,L|205:112,1,28,2|0,0:2|0:0,0:0:0:0:
126,192,65132,70,0,L|152:213,1,35,10|0,3:2|0:0,0:0:0:0:
117,290,65279,2,0,L|148:304,1,35,2|0,0:2|0:0,0:0:0:0:
237,384,65426,54,0,P|275:339|305:118,1,244.999992523194,2|0,3:2|0:0,0:0:0:0:
304,151,65867,1,8,3:2:0:0:
37,111,66014,2,0,P|44:59|-3:-5,1,125.999996154785,0|0,3:2|0:0,0:0:0:0:
25,110,66308,101,8,3:2:0:0:
31,151,66382,1,0,3:0:0:0:
36,192,66455,1,8,3:2:0:0:
42,233,66529,1,0,3:0:0:0:
48,274,66602,1,8,3:2:0:0:
367,321,66750,1,8,3:2:0:0:
149,377,66897,1,8,3:2:0:0:
358,309,67044,1,8,3:2:0:0:
154,365,67201,6,0,P|149:296|134:217,1,125.999996154785,6|0,3:2|0:0,0:0:0:0:
245,185,67495,1,10,3:2:0:0:
162,356,67642,2,0,P|152:265|132:160,1,188.999994232178,2|0,0:0|0:0,0:0:0:0:
75,109,67936,53,2,3:2:0:0:
256,25,68083,1,10,3:2:0:0:
180,0,68230,1,2,0:0:0:0:
411,270,68377,54,0,P|333:244|296:200,1,125.999996154785,2|0,3:2|0:0,0:0:0:0:
343,55,68671,1,10,3:2:0:0:
422,264,68818,2,0,P|333:225|296:137,1,188.999994232178,2|0,0:0|0:0,0:0:0:0:
345,37,69112,53,2,3:2:0:0:
512,145,69259,1,10,3:2:0:0:
435,180,69406,1,2,0:0:0:0:
499,373,69553,54,0,P|444:347|377:328,1,125.999996154785,2|0,3:2|0:0,0:0:0:0:
248,363,69848,1,10,3:2:0:0:
491,383,69995,2,0,P|353:333|300:318,1,188.999994232178,2|0,0:0|0:0,0:0:0:0:
243,374,70289,53,2,3:2:0:0:
21,242,70436,1,10,3:2:0:0:
67,327,70583,1,2,0:0:0:0:
199,115,70730,54,0,P|115:108|7:61,1,188.999994232178,6|0,3:1|0:0,0:0:0:0:
14,46,71024,1,10,3:2:0:0:
14,46,71171,1,0,3:0:0:0:
149,232,71318,54,0,P|233:225|341:178,1,188.999994232178,4|0,3:1|0:0,0:0:0:0:
335,163,71612,2,0,P|309:208|309:230,1,56,8|0,3:2|0:0,0:0:0:0:
512,384,71906,54,0,P|454:364|406:306,1,125.999996154785,6|0,3:2|0:0,0:0:0:0:
491,170,72201,1,10,3:2:0:0:
512,373,72348,2,0,P|431:358|417:235,1,210,2|0,0:0|0:0,0:0:0:0:
503,155,72642,53,0,3:2:0:0:
410,102,72789,1,8,3:2:0:0:
418,26,72936,1,0,0:0:0:0:
309,115,73083,54,0,P|410:78|492:57,1,188.999994232178,0|0,3:2|0:0,0:0:0:0:
264,31,73377,2,0,P|311:60|313:114,1,97.9999970092774,10|0,3:2|0:0,0:0:0:0:
181,258,73671,53,2,3:2:0:0:
68,174,73818,1,0,3:2:0:0:
175,245,73965,2,0,P|166:178|228:113,1,146.999995513916,10|0,3:2|0:0,0:0:0:0:
234,132,74259,54,0,P|152:104|35:88,1,188.999994232178,2|0,3:2|0:0,0:0:0:0:
42,97,74553,1,8,3:2:0:0:
0,346,74701,2,0,P|7:296|72:261,1,125.999996154785,2|0,0:0|0:2,0:0:0:0:
290,242,74995,53,2,3:2:0:0:
208,229,75142,1,10,3:2:0:0:
294,256,75289,1,2,0:0:0:0:
243,384,75436,53,10,3:2:0:0:
294,81,75583,1,0,3:2:0:0:
237,371,75730,1,10,3:2:0:0:
338,333,75877,1,2,3:2:0:0:
418,59,76024,85,8,3:2:0:0:
379,84,76098,1,0,3:2:0:0:
363,118,76171,1,2,3:2:0:0:
371,142,76245,1,0,3:2:0:0:
385,149,76318,1,4,3:0:0:0:
378,111,76392,1,4,3:0:0:0:
339,78,76465,1,4,3:0:0:0:
262,61,76539,1,4,3:0:0:0:
192,124,76612,86,0,P|334:106|443:66,1,231.000007049561,4|0,3:2|0:0,0:0:0:0:
420,90,76906,2,0,P|444:30|520:22,1,146.999995513916,10|0,3:2|0:0,0:0:0:0:
398,213,77201,2,0,P|462:203|507:266,1,146.999995513916,2|0,3:2|0:0,0:0:0:0:
282,268,77495,1,10,3:2:0:0:
320,289,77568,1,2,0:0:0:0:
333,331,77642,1,2,0:0:0:0:
310,368,77715,1,2,0:0:0:0:
267,376,77789,54,0,P|339:343|452:322,1,188.999994232178,6|0,3:1|0:0,0:0:0:0:
457,333,78083,2,0,P|408:330|392:319,1,70,10|0,3:2|0:0,0:0:0:0:
191,137,78377,54,0,P|119:104|6:83,1,157.500006008148,4|0,3:1|0:0,0:0:0:0:
32,96,78671,2,0,P|81:93|97:82,1,70,8|0,3:2|0:0,0:0:0:0:
7,298,78965,53,10,3:2:0:0:
99,197,79112,1,0,3:2:0:0:
100,203,79186,1,0,3:0:0:0:
101,209,79259,1,0,3:2:0:0:
187,372,79406,53,10,3:2:0:0:
228,204,79553,1,0,3:2:0:0:
177,140,79701,1,0,3:2:0:0:
385,335,79848,53,14,3:1:0:0:
326,133,79995,1,0,3:2:0:0:
327,139,80068,1,0,3:0:0:0:
328,145,80142,1,0,3:2:0:0:
512,180,80289,53,14,3:1:0:0:
340,12,80436,1,0,3:2:0:0:
273,53,80583,1,0,3:2:0:0:
85,28,80730,53,10,3:2:0:0:
93,43,80877,1,2,3:2:0:0:
220,140,81024,53,8,3:2:0:0:
228,125,81171,1,0,3:2:0:0:
446,117,81318,54,0,P|457:39|490:-10,1,125.999996154785,4|0,3:2|0:0,0:0:0:0:
512,219,81612,2,0,P|441:270|510:348,1,188.999994232178,10|0,3:2|0:0,0:0:0:0:
495,341,81906,54,0,P|438:314|371:308,1,125.999996154785,2|0,3:2|0:2,0:0:0:0:
194,344,82201,1,10,3:2:0:0:
194,344,82348,1,0,0:0:0:0:
12,369,82495,54,0,L|119:385,1,97.9999970092774,2|0,3:2|0:0,0:0:0:0:
275,308,82789,2,0,L|382:324,1,97.9999970092774,10|0,3:2|0:0,0:0:0:0:
194,344,83083,53,2,3:2:0:0:
194,344,83230,1,0,3:2:0:0:
191,255,83377,1,10,3:2:0:0:
114,197,83524,2,0,P|115:242|121:256,1,48.9999985046387,2|0,0:0|0:0,0:0:0:0:
232,23,83671,54,0,P|257:114|355:87,1,188.999994232178,4|0,3:2|0:0,0:0:0:0:
342,97,83965,1,8,3:2:0:0:
258,14,84112,1,0,0:0:0:0:
348,81,84259,1,0,3:2:0:0:
73,9,84406,53,2,3:2:0:0:
12,79,84553,1,10,3:2:0:0:
17,195,84701,1,2,0:0:0:0:
149,259,84848,54,0,P|83:289|0:374,1,188.999994232178,2|0,3:2|0:0,0:0:0:0:
2,384,85142,1,10,3:2:0:0:
286,246,85289,2,0,P|241:188|140:126,1,188.999994232178,10|0,0:2|0:0,0:0:0:0:
132,134,85583,1,0,3:2:0:0:
165,249,85730,1,8,3:2:0:0:
132,329,85877,1,0,0:0:0:0:
154,361,86024,86,0,P|148:304|132:258,1,83.9999974365235,6|0,3:2|0:0,0:0:0:0:
0,123,86318,2,0,P|8:174|74:197,1,125.999996154785,10|0,3:2|0:0,0:0:0:0:
79,182,86612,2,0,P|125:168|165:162,1,83.9999974365235,2|0,3:2|0:2,0:0:0:0:
274,23,86906,1,10,3:2:0:0:
271,7,87053,1,2,0:0:0:0:
304,112,87201,54,0,P|258:98|218:92,1,83.9999974365235,0|0,3:2|0:0,0:0:0:0:
374,28,87495,1,8,3:2:0:0:
439,138,87642,2,0,P|442:79|496:45,1,125.999996154785,2|0,0:0|0:0,0:0:0:0:
509,53,87936,1,2,3:2:0:0:
512,70,88083,1,10,3:2:0:0:
434,235,88230,1,2,0:0:0:0:
485,311,88377,54,0,P|438:336|356:295,1,125.999996154785,2|0,3:2|0:0,0:0:0:0:
352,187,88671,1,10,3:2:0:0:
469,315,88818,2,0,P|417:326|348:266,1,125.999996154785,2|0,0:0|0:0,0:0:0:0:
357,175,89112,1,2,3:2:0:0:
179,256,89259,1,10,3:2:0:0:
245,188,89406,1,2,0:0:0:0:
255,367,89553,53,0,3:2:0:0:
276,279,89701,1,0,0:0:0:0:
96,110,89848,53,8,3:2:0:0:
112,200,89995,2,0,P|57:188|7:184,1,83.9999974365235,2|0,0:0|0:2,0:0:0:0:
31,294,90289,53,2,3:2:0:0:
0,376,90436,2,0,P|55:364|105:360,1,84,10|0,3:2|0:0,0:0:0:0:
241,197,90730,6,0,P|187:235|202:311,1,146.999995513916,4|0,3:2|0:0,0:0:0:0:
203,326,91024,2,0,P|257:320|312:318,1,97.9999970092774,10|0,3:2|0:0,0:0:0:0:
476,375,91318,2,0,P|426:375|367:383,1,97.9999970092774,2|0,3:2|0:2,0:0:0:0:
214,315,91612,2,0,P|268:307|323:307,1,97.9999970092774,10|0,3:2|0:0,0:0:0:0:
393,220,91906,54,0,P|324:193|302:107,1,146.999995513916,2|0,3:2|0:0,0:0:0:0:
309,112,92201,1,10,3:2:0:0:
496,139,92348,2,0,P|469:208|382:230,1,146.999995513916,2|0,0:0|0:0,0:0:0:0:
459,70,92642,2,0,P|499:85|512:135,1,97.9999970092774,2|8,3:2|0:2,0:0:0:0:
368,55,92936,53,2,0:0:0:0:
376,39,93083,2,0,P|386:84|405:140,1,97.9999970092774,2|0,3:2|0:0,0:0:0:0:
231,70,93377,53,10,3:2:0:0:
172,0,93524,2,0,P|162:45|143:101,1,97.9999970092774,2|0,0:0|0:2,0:0:0:0:
294,13,93818,1,2,3:2:0:0:
298,30,93965,1,10,3:2:0:0:
264,307,94112,54,0,P|253:234|249:160,1,146.999995513916,6|0,3:2|0:0,0:0:0:0:
258,150,94406,1,0,3:0:0:0:
356,178,94553,1,8,3:2:0:0:
478,209,94701,1,0,3:0:0:0:
483,217,94774,1,0,3:0:0:0:
489,225,94848,1,8,3:2:0:0:
450,353,94995,1,0,3:2:0:0:
442,347,95068,1,0,3:2:0:0:
434,341,95142,1,8,3:2:0:0:
303,310,95289,1,0,3:2:0:0:
62,384,95436,70,0,P|85:316|190:283,1,188.999994232178,4|0,3:2|0:0,0:0:0:0:
201,286,95730,2,0,P|119:270|74:267,1,125.999996154785,10|0,3:2|0:0,0:0:0:0:
272,118,96024,2,0,P|354:102|399:99,1,125.999996154785,2|0,3:2|0:2,0:0:0:0:
160,194,96318,1,10,3:2:0:0:
195,369,96465,54,0,P|191:194|159:23,1,350,2|0,0:0|0:0,0:0:0:0:
280,198,96906,2,0,P|325:115|358:26,1,188.999994232178,10|0,3:2|0:0,0:0:0:0:
341,271,97201,2,0,P|421:222|494:161,1,188.999994232178,2|0,3:2|0:0,0:0:0:0:
490,148,97495,2,0,P|465:202|470:227,1,70,10|0,3:2|0:0,0:0:0:0:
362,369,97789,53,10,3:2:0:0:
134,191,97936,1,0,3:2:0:0:
358,384,98083,1,0,3:2:0:0:
252,273,98230,53,10,3:2:0:0:
258,285,98377,1,0,3:2:0:0:
266,273,98524,1,0,3:2:0:0:
349,150,98671,53,14,3:1:0:0:
157,384,98818,1,0,3:2:0:0:
350,165,98965,1,0,3:2:0:0:
258,269,99112,53,14,3:1:0:0:
251,280,99259,1,0,3:2:0:0:
265,281,99406,1,2,3:2:0:0:
168,144,99553,1,10,3:2:0:0:
74,0,99701,1,2,3:2:0:0:
98,69,99848,1,8,3:2:0:0:
80,113,99995,1,0,3:2:0:0:
94,129,100142,54,0,P|102:212|74:326,1,188.999994232178,4|0,3:2|0:0,0:0:0:0:
0,384,100436,2,0,P|23:332|96:301,1,125.999996154785,10|0,3:2|0:0,0:0:0:0:
232,349,100730,1,2,3:2:0:0:
273,277,100877,1,0,3:2:0:0:
355,257,101024,2,0,P|332:205|259:174,1,125.999996154785,10|0,3:2|0:0,0:0:0:0:
334,384,101318,54,0,P|396:342|503:294,1,188.999994232178,2|0,3:2|0:0,0:0:0:0:
510,301,101612,1,10,3:2:0:0:
414,142,101759,2,0,P|352:100|179:20,1,251.999992309571,2|0,0:0|3:2,0:0:0:0:
412,44,102201,1,10,3:2:0:0:
512,0,102348,1,2,0:0:0:0:
398,42,102495,54,0,P|365:97|414:147,1,125.999996154785,0|0,3:2|0:0,0:0:0:0:
512,205,102789,1,8,3:2:0:0:
416,260,102936,1,0,0:0:0:0:
321,237,103083,1,0,3:2:0:0:
103,143,103230,53,2,3:2:0:0:
287,169,103377,1,10,3:2:0:0:
97,156,103524,1,2,0:0:0:0:
92,167,103598,1,0,0:0:0:0:
88,178,103671,1,0,3:2:0:0:
201,71,103818,1,0,0:0:0:0:
182,246,103965,1,10,3:2:0:0:
191,82,104112,1,2,0:0:0:0:
188,165,104259,53,0,3:2:0:0:
182,276,104406,1,0,3:2:0:0:
183,384,104553,2,0,P|165:210|147:109,1,262.5,8|0,3:2|0:0,0:0:0:0:
72,0,104848,86,0,P|67:55|-5:60,1,125.999996154785,4|0,3:2|0:0,0:0:0:0:
0,60,105142,2,0,L|19:156,1,83.9999974365235,10|0,3:2|0:0,0:0:0:0:
123,216,105436,2,0,L|142:120,1,83.9999974365235,2|0,3:2|0:2,0:0:0:0:
21,254,105730,1,10,3:2:0:0:
29,235,105877,1,2,0:0:0:0:
143,323,106024,54,0,P|95:329|19:375,1,125.999996154785,0|0,3:2|0:0,0:0:0:0:
22,382,106318,1,8,3:2:0:0:
231,384,106465,2,0,P|228:331|283:276,1,125.999996154785,2|0,0:0|0:0,0:0:0:0:
290,282,106759,53,2,3:2:0:0:
313,359,106906,1,10,3:2:0:0:
454,153,107053,53,2,0:0:0:0:
431,230,107201,2,0,P|435:274|448:329,1,83.9999974365235,2|0,3:2|0:0,0:0:0:0:
283,269,107495,53,10,3:2:0:0:
260,192,107642,2,0,P|254:124|244:60,1,125.999996154785,2|0,0:0|0:0,0:0:0:0:
233,55,107936,1,0,3:2:0:0:
395,103,108083,53,10,3:2:0:0:
395,103,108230,1,2,0:0:0:0:
445,12,108377,53,0,3:2:0:0:
327,187,108524,1,0,0:0:0:0:
334,12,108671,1,8,3:2:0:0:
434,204,108818,1,0,0:0:0:0:
450,26,108965,53,0,3:2:0:0:
316,177,109112,1,0,3:2:0:0:
395,103,109259,1,8,3:2:0:0:
136,58,109406,1,2,0:0:0:0:
160,157,109553,6,0,P|229:112|259:97,1,112,6|0,3:2|0:0,0:0:0:0:
262,86,109774,2,0,P|212:111|166:143,1,112,2|0,0:0|0:0,0:0:0:0:
156,230,109995,1,2,0:0:0:0:
4,265,110142,2,0,P|65:273|67:377,1,168,6|0,3:1|0:0,0:0:0:0:
67,368,110436,1,8,3:2:0:0:
11,277,110583,2,0,L|20:210,1,56,2|0,0:0|0:0,0:0:0:0:
154,78,110730,54,0,P|59:64|-5:29,1,168,6|0,3:1|0:0,0:0:0:0:
2,20,111024,2,0,P|28:54|34:76,1,56,10|0,3:2|0:0,0:0:0:0:
313,53,111171,2,0,P|253:128|191:166,1,168,2|0,0:0|0:0,0:0:0:0:
182,161,111465,1,2,3:2:0:0:
168,70,111612,1,10,3:2:0:0:
203,9,111759,1,2,0:0:0:0:
487,65,111906,54,0,P|424:69|416:-5,1,146.999995513916,6|0,3:2|0:0,0:0:0:0:
496,54,112201,2,0,P|503:86|508:114,1,48.9999985046387,10|0,3:2|0:0,0:0:0:0:
382,127,112348,2,0,P|372:196|363:285,1,146.999995513916,2|0,0:0|0:0,0:0:0:0:
402,346,112642,53,0,3:2:0:0:
402,331,112789,1,8,3:2:0:0:
414,338,112936,1,0,0:0:0:0:
477,290,113083,1,4,3:1:0:0:
330,380,113230,1,0,3:0:0:0:
0,185,113377,53,14,3:1:0:0:
167,258,113524,1,0,3:0:0:0:
283,89,113671,53,10,3:2:0:0:
307,138,113745,1,0,3:0:0:0:
300,173,113818,1,0,3:0:0:0:
282,188,113892,1,0,3:0:0:0:
272,180,113965,53,10,3:2:0:0:
294,200,114039,1,4,3:0:0:0:
302,249,114112,1,4,3:0:0:0:
283,300,114186,1,4,3:0:0:0:
221,335,114259,70,0,P|292:178|425:60,1,314.999990386963,6|0,3:2|0:0,0:0:0:0:
148,192,114701,2,0,P|143:97|156:4,1,188.999994232178,2|0,0:0|0:0,0:0:0:0:
168,0,114995,1,0,3:2:0:0:
44,179,115142,1,10,3:2:0:0:
44,179,115289,2,0,P|19:142|14:114,1,62.9999980773926,2|0,0:0|0:0,0:0:0:0:
119,384,115436,54,0,P|93:291|6:267,1,188.999994232178,0|0,3:2|0:0,0:0:0:0:
1,274,115730,2,0,P|79:293|126:284,1,125.999996154785,10|0,3:2|0:0,0:0:0:0:
237,112,116024,2,0,P|221:171|241:220,1,112,2|0,3:2|0:2,0:0:0:0:
248,221,116245,2,0,P|264:280|244:329,1,112,2|0,0:0|0:0,0:0:0:0:
236,330,116465,1,2,0:0:0:0:
477,384,116612,54,0,P|390:357|395:264,1,188.999994232178,6|0,3:2|0:0,0:0:0:0:
401,270,116906,1,10,3:2:0:0:
493,117,117053,53,2,3:2:0:0:
499,147,117127,1,0,3:0:0:0:
506,177,117201,1,0,3:2:0:0:
383,137,117348,1,0,3:2:0:0:
70,112,117495,53,8,3:2:0:0:
209,63,117642,2,0,L|213:-9,1,62.9999980773926,2|0,3:2|0:0,0:0:0:0:
222,57,117789,2,0,P|167:85|175:152,1,125.999996154785,4|0,3:2|0:0,0:0:0:0:
309,384,118083,53,0,3:0:0:0:
337,350,118156,1,0,3:0:0:0:
347,306,118230,1,0,3:0:0:0:
332,264,118303,1,0,3:0:0:0:
322,273,118377,53,4,3:0:0:0:
290,241,118451,1,4,3:0:0:0:
280,198,118524,1,4,3:0:0:0:
290,154,118598,1,4,3:0:0:0:
298,163,118671,53,12,3:0:0:0:
336,164,118745,37,12,3:0:0:0:
390,139,118818,53,12,3:0:0:0:
434,82,118892,37,12,3:0:0:0:
439,4,118965,53,6,0:0:0:0:
448,0,119847,2,0,L|448:30,2,28,2|2|2,0:3|0:3|0:3,0:0:0:0:
255,384,120729,101,0,3:0:0:0:
292,310,121023,6,0,L|288:277,3,28,2|0|0|0,0:0|0:0|0:0|0:0,0:0:0:0:
309,312,121612,1,0,0:0:0:0:
191,336,121906,2,0,L|195:303,3,28,2|0|0|0,0:0|0:0|0:0|0:0,0:0:0:0:
174,338,122494,1,0,0:0:0:0:
318,276,122788,2,0,L|314:243,3,28,2|0|0|0,0:0|0:0|0:0|0:0,0:0:0:0:
326,289,123376,1,0,0:0:0:0:
165,302,123670,2,0,L|169:269,3,28,2|0|0|0,0:0|0:0|0:0|0:0,0:0:0:0:
255,384,124259,101,0,3:0:0:0:
334,258,124553,6,0,L|329:213,3,35,2|0|0|0,0:0|0:0|0:0|0:0,0:0:0:0:
349,280,125141,1,0,0:0:0:0:
149,284,125435,2,0,L|153:239,3,35,2|0|0|0,0:0|0:0|0:0|0:0,0:0:0:0:
131,308,126023,1,0,0:0:0:0:
345,247,126317,2,0,L|340:202,3,35,2|0|0|0,0:0|0:0|0:0|0:0,0:0:0:0:
363,269,126906,1,0,0:0:0:0:
138,273,127200,2,0,L|142:228,3,35,2|0|0|0,0:0|0:0|0:0|0:0,0:0:0:0:
255,384,127788,101,0,3:0:0:0:
352,231,128082,6,0,L|347:186,3,41.9999987182618,2|0|0|0,0:0|0:0|0:0|0:0,0:0:0:0:
379,261,128670,1,0,0:0:0:0:
131,257,128965,2,0,L|135:212,3,41.9999987182618,2|0|0|0,0:0|0:0|0:0|0:0,0:0:0:0:
104,288,129553,1,0,0:0:0:0:
360,215,129847,2,0,L|355:170,3,41.9999987182618,2|0|0|0,0:0|0:0|0:0|0:0,0:0:0:0:
391,246,130435,1,0,0:0:0:0:
123,241,130729,2,0,L|127:196,3,41.9999987182618,2|0|0|0,0:0|0:0|0:0|0:0,0:0:0:0:
255,384,131317,101,0,3:0:0:0:
367,191,131612,6,0,L|361:139,3,48.9999985046387,2|0|0|0,0:0|0:0|0:0|0:0,0:0:0:0:
417,239,132200,1,0,0:0:0:0:
116,217,132494,2,0,L|121:165,3,48.9999985046387,2|0|0|0,0:0|0:0|0:0|0:0,0:0:0:0:
68,268,133082,1,0,0:0:0:0:
374,171,133376,2,0,L|368:121,3,48.9999985046387,2|0|0|0,0:0|0:0|0:0|0:0,0:0:0:0:
420,223,133965,1,0,0:0:0:0:
109,197,134259,2,0,L|114:147,3,48.9999985046387,2|0|0|0,0:0|0:0|0:0|0:0,0:0:0:0:
255,384,134847,101,0,3:0:0:0:
383,153,135141,6,0,L|376:91,3,56,2|0|0|0,0:0|0:0|0:0|0:0,0:0:0:0:
435,216,135729,1,0,0:0:0:0:
100,179,136023,2,0,L|106:117,3,56,2|0|0|0,0:0|0:0|0:0|0:0,0:0:0:0:
49,239,136612,1,0,0:0:0:0:
389,137,136906,2,0,L|382:76,3,56,2|0|0|0,0:0|0:0|0:0|0:0,0:0:0:0:
436,204,137494,1,0,0:0:0:0:
94,163,137788,2,0,L|100:102,3,56,2|0|0|0,0:0|0:0|0:0|0:0,0:0:0:0:
255,384,138376,101,4,3:1:0:0:
396,120,138670,6,0,L|388:53,3,62.9999980773926,2|0|0|0,0:0|0:0|0:0|0:0,0:0:0:0:
463,195,139259,1,0,0:0:0:0:
87,146,139553,2,0,L|94:79,3,62.9999980773926,2|0|0|0,0:0|0:0|0:0|0:0,0:0:0:0:
14,217,140141,1,0,0:0:0:0:
405,100,140435,2,0,L|397:32,3,62.9999980773926,2|0|0|0,0:0|0:0|0:0|0:0,0:0:0:0:
474,170,141023,1,0,0:0:0:0:
78,126,141317,2,0,L|85:58,3,62.9999980773926,2|0|0|0,0:0|0:0|0:0|0:0,0:0:0:0:
255,384,141906,101,0,3:0:0:0:
411,89,142200,6,0,L|402:14,3,70,2|0|0|0,0:0|0:0|0:0|0:0,0:0:0:0:
495,154,142788,1,0,0:0:0:0:
72,104,143082,2,0,L|80:29,3,70,2|0|0|0,0:0|0:0|0:0|0:0,0:0:0:0:
255,384,143670,101,0,3:0:0:0:
418,76,143965,6,0,L|409:-3,3,77.0000023498536,2|0|0|0,0:0|0:0|0:0|0:0,0:0:0:0:
255,384,144553,101,0,3:0:0:0:
60,97,144847,6,0,L|67:11,3,83.9999974365235,2|0|0|0,0:0|0:0|0:0|0:0,0:0:0:0:
284,20,145435,102,0,L|286:-3,1,21,4|0,3:2|0:0,0:0:0:0:
393,148,145729,6,0,B|533:113|533:113|504:83|504:83|495:97|482:107,3,210.000008010865,2|0|0|0,0:0|0:0|0:0|0:0,0:0:0:0:
216,98,146317,102,0,L|214:75,1,21,4|0,3:1|0:0,0:0:0:0:
125,208,146612,6,0,B|-15:173|-15:173|4:160|13:143|13:143|35:167,3,210.000008010865,2|0|0|0,0:0|0:0|0:0|0:0,0:0:0:0:
297,173,147200,102,0,L|299:150,1,21,4|0,3:1|0:0,0:0:0:0:
389,247,147494,6,0,B|529:212|529:212|500:182|500:182|493:197|505:217,3,210.000008010865,2|0|0|0,0:0|0:0|0:0|0:0,0:0:0:0:
210,235,148082,102,0,L|208:212,1,21,4|0,3:1|0:0,0:0:0:0:
147,297,148376,6,0,B|6:262|6:262|10:238|35:232|35:232|43:247|31:267,3,210.000008010865,2|0|0|0,0:0|0:0|0:0|0:0,0:0:0:0:
303,274,148965,86,0,L|305:251,1,21,4|0,3:2|0:0,0:0:0:0:
354,330,149259,6,0,B|443:307|443:307|441:292|425:288|425:288|420:298|427:310,3,140,2|0|0|0,0:0|0:0|0:0|0:0,0:0:0:0:
223,310,149847,38,0,L|221:287,1,21,4|0,3:1|0:0,0:0:0:0:
177,370,150141,86,0,B|132:358|132:358|141:349|141:349|143:355|147:359,3,70,2|0|0|0,0:0|0:0|0:0|0:0,0:0:0:0:
0,128,150729,54,0,L|11:187,1,52.5,2|0,3:2|0:0,0:0:0:0:
19,247,151023,54,0,L|40:132,1,105,2|0,0:0|0:0,0:0:0:0:
100,40,151317,6,0,L|132:212,1,157.500006008148,2|0,0:0|0:0,0:0:0:0:
166,384,151612,54,0,L|206:169,1,210,10|0,3:2|0:0,0:0:0:0:
279,0,151906,70,0,L|329:269,1,262.5,10|0,3:2|0:0,0:0:0:0:
453,384,152200,54,0,L|513:60,1,315.000012016297,10|0,3:2|0:0,0:0:0:0:
328,271,152494,102,0,B|279:256|279:256|255:222|255:222|200:203,1,146.999995513916,14|0,3:2|0:0,0:0:0:0:
184,230,152788,1,10,3:2:0:0:
184,230,152935,2,0,L|288:206,1,97.9999970092774,2|0,3:2|0:0,0:0:0:0:
361,74,153229,1,0,3:2:0:0:
436,128,153376,2,0,P|371:142|352:69,1,146.999995513916,10|0,3:2|0:0,0:0:0:0:
149,65,153670,54,0,B|173:49|197:50|197:50|222:16|222:16|250:14|276:-2,1,146.999995513916,10|0,3:2|0:0,0:0:0:0:
293,24,153964,1,10,3:2:0:0:
293,24,154111,2,0,L|188:7,1,97.9999970092774,2|0,3:2|0:0,0:0:0:0:
47,74,154405,1,0,3:2:0:0:
47,74,154552,2,0,L|57:121,1,48.9999985046387,10|0,3:2|0:0,0:0:0:0:
84,194,154699,2,0,L|94:241,1,48.9999985046387,2|0,0:0|0:0,0:0:0:0:
120,384,154846,54,0,P|83:326|7:331,1,146.999995513916,10|0,3:2|0:0,0:0:0:0:
0,344,155141,1,8,3:2:0:0:
180,264,155288,2,0,P|217:206|293:211,1,146.999995513916,2|0,3:2|0:0,0:0:0:0:
300,224,155582,1,2,3:2:0:0:
288,381,155729,2,0,L|295:327,1,48.9999985046387,10|0,3:2|0:0,0:0:0:0:
289,232,155876,2,0,L|296:178,1,48.9999985046387,2|0,0:0|0:0,0:0:0:0:
295,51,156023,54,0,B|247:41|247:41|232:15|232:15|164:0,1,146.999995513916,2|0,3:2|0:0,0:0:0:0:
133,65,156317,2,0,P|182:48|171:10,1,97.9999970092774,10|0,3:2|3:2,0:0:0:0:
350,122,156611,2,0,B|397:112|397:112|412:86|412:86|480:70,1,146.999995513916,2|0,0:0|0:0,0:0:0:0:
506,139,156905,2,0,P|452:120|498:63,1,146.999995513916,14|0,3:1|0:0,0:0:0:0:
425,198,157199,54,0,B|432:225|423:248|423:248|447:282|447:282|440:310|447:339,1,146.999995513916,8|0,3:2|0:0,0:0:0:0:
460,350,157494,2,0,P|426:306|382:308,1,97.9999970092774,10|0,3:2|3:2,0:0:0:0:
251,384,157788,1,2,0:0:0:0:
249,287,157935,1,0,3:2:0:0:
251,210,158082,2,0,L|244:279,1,48.9999985046387,10|0,3:2|0:0,0:0:0:0:
236,333,158229,2,0,L|229:402,1,48.9999985046387
0,301,158376,54,0,B|54:293|54:293|77:272|77:272|140:263,1,146.999995513916,10|0,3:2|0:0,0:0:0:0:
151,281,158670,1,10,3:2:0:0:
151,281,158817,2,0,L|50:258,1,97.9999970092774,2|0,3:2|0:0,0:0:0:0:
6,192,159111,1,2,3:2:0:0:
81,59,159258,2,0,L|75:11,1,48.9999985046387,10|0,3:2|0:0,0:0:0:0:
101,187,159405,2,0,L|95:139,1,48.9999985046387,2|0,0:0|0:0,0:0:0:0:
123,326,159552,54,0,P|170:266|235:280,1,146.999995513916,10|0,3:2|0:0,0:0:0:0:
247,290,159846,1,8,3:2:0:0:
471,201,159994,2,0,P|424:141|359:155,1,146.999995513916,2|0,3:2|0:0,0:0:0:0:
348,167,160288,1,2,3:2:0:0:
346,292,160435,2,0,L|355:341,1,48.9999985046387,10|0,3:2|0:0,0:0:0:0:
334,134,160582,2,0,L|343:183,1,48.9999985046387,2|0,0:0|0:0,0:0:0:0:
324,24,160729,53,10,3:2:0:0:
400,56,160876,1,0,0:0:0:0:
212,124,161023,53,10,3:2:0:0:
126,157,161170,1,2,3:2:0:0:
13,37,161317,53,0,0:0:0:0:
88,74,161464,1,0,3:2:0:0:
126,172,161611,1,12,3:1:0:0:
174,31,161758,1,0,0:0:0:0:
253,227,161905,54,0,P|203:220|175:300,1,146.999995513916,12|0,3:2|0:0,0:0:0:0:
185,314,162199,1,10,3:2:0:0:
310,368,162346,1,2,3:2:0:0:
392,328,162494,1,2,0:0:0:0:
392,328,162641,1,2,3:2:0:0:
474,354,162788,2,0,L|465:306,1,48.9999985046387,8|0,3:2|0:0,0:0:0:0:
406,248,162935,2,0,L|397:200,1,48.9999985046387
340,151,163082,54,0,P|324:92|391:41,1,146.999995513916,8|0,3:2|0:0,0:0:0:0:
401,48,163376,1,10,3:2:0:0:
266,0,163523,1,2,3:2:0:0:
201,64,163670,1,2,0:0:0:0:
201,64,163817,1,2,3:2:0:0:
124,20,163964,2,0,L|116:76,1,48.9999985046387,8|0,3:2|0:0,0:0:0:0:
104,139,164111,2,0,L|96:194,1,48.9999985046387
89,280,164258,54,0,B|74:218|74:218|86:195|86:195|74:134,1,146.999995513916,8|0,3:2|0:0,0:0:0:0:
70,129,164552,1,10,3:2:0:0:
201,64,164699,2,0,B|186:126|186:126|198:149|198:149|186:210,1,146.999995513916,0|0,3:2|0:0,0:0:0:0:
182,215,164994,1,0,3:2:0:0:
182,215,165141,2,0,L|168:269,1,48.9999985046387,10|0,3:2|0:0,0:0:0:0:
148,335,165288,2,0,L|134:389,1,48.9999985046387
51,384,165435,53,10,3:2:0:0:
13,257,165582,1,2,0:0:0:0:
13,257,165876,53,0,3:2:0:0:
7,29,166170,53,2,3:2:0:0:
54,83,166317,1,10,3:2:0:0:
38,113,166464,1,2,0:0:0:0:
132,35,166611,54,0,B|160:33|180:46|180:46|219:30|219:30|244:43|275:42,1,146.999995513916,10|0,3:2|0:0,0:0:0:0:
277,35,166905,2,0,P|227:31|200:77,1,97.9999970092774,10|0,3:2|0:2,0:0:0:0:
310,315,167199,2,0,P|313:251|277:221,1,97.9999970092774,2|0,0:0|0:2,0:0:0:0:
120,156,167494,2,0,L|185:150,1,48.9999985046387,10|0,3:2|0:0,0:0:0:0:
259,137,167641,2,0,L|324:131,1,48.9999985046387
418,117,167788,54,0,P|377:55|426:-2,1,146.999995513916,10|0,3:2|0:0,0:0:0:0:
491,16,168082,1,10,3:2:0:0:
434,120,168229,1,2,3:2:0:0:
455,142,168376,1,0,0:0:0:0:
492,229,168523,1,0,3:2:0:0:
451,334,168670,2,0,L|443:278,1,48.9999985046387,8|0,3:2|0:0,0:0:0:0:
430,191,168817,2,0,L|422:135,1,48.9999985046387
400,21,168964,54,0,P|386:69|305:70,1,140,10|0,3:2|3:2,0:0:0:0:
238,43,169405,1,2,3:2:0:0:
176,131,169552,2,0,L|180:96,1,35
230,35,169699,2,0,L|234:0,1,35,0|0,3:2|0:0,0:0:0:0:
234,0,169846,1,8,3:2:0:0:
254,124,169994,1,0,0:0:0:0:
276,278,170141,53,12,3:1:0:0:
227,219,170288,1,2,0:3:0:0:
0,384,170435,5,8,3:2:0:0:
143,332,170582,1,0,3:2:0:0:
9,373,170729,1,0,3:2:0:0:
78,291,170876,1,8,3:2:0:0:
75,196,171023,1,8,3:2:0:0:
32,140,171170,1,8,3:2:0:0:
11,137,171317,38,0,B|70:128|70:128|87:108|87:108|148:101,1,146.999995513916,14|0,3:2|0:0,0:0:0:0:
157,101,171611,1,10,3:2:0:0:
298,290,171758,2,0,P|240:279|239:240,1,97.9999970092774,2|0,3:2|0:0,0:0:0:0:
308,142,172052,1,0,3:2:0:0:
308,142,172199,2,0,L|250:135,1,48.9999985046387,10|0,3:2|0:0,0:0:0:0:
195,179,172346,2,0,L|137:172,1,48.9999985046387,2|0,0:0|0:0,0:0:0:0:
354,15,172494,54,0,P|372:68|462:55,1,146.999995513916,10|0,3:2|0:0,0:0:0:0:
457,58,172788,1,10,3:2:0:0:
487,173,172935,1,2,3:2:0:0:
487,173,173082,2,0,L|432:163,1,48.9999985046387
356,150,173229,2,0,L|301:140,1,48.9999985046387,0|0,3:2|0:0,0:0:0:0:
223,123,173376,1,10,3:2:0:0:
223,123,173523,1,2,0:0:0:0:
170,311,173670,54,0,P|185:248|268:255,1,146.999995513916,10|0,3:2|0:0,0:0:0:0:
265,254,173964,2,0,B|213:236|213:236|178:246|178:246|117:227,1,146.999995513916,8|0,3:2|0:0,0:0:0:0:
115,225,174258,1,0,3:0:0:0:
79,124,174405,1,2,3:2:0:0:
42,0,174552,2,0,L|45:69,1,48.9999985046387,10|0,3:2|0:0,0:0:0:0:
66,124,174699,2,0,L|69:193,1,48.9999985046387,2|0,0:0|0:0,0:0:0:0:
148,368,174846,54,0,B|119:371|96:363|96:363|66:383|66:383|29:373|-9:381,1,146.999995513916,10|0,3:2|0:0,0:0:0:0:
0,384,175141,2,0,P|-8:348|45:309,1,97.9999970092774,10|0,3:2|0:2,0:0:0:0:
174,266,175435,2,0,L|123:255,1,48.9999985046387
47,238,175582,2,0,L|-4:227,1,48.9999985046387,0|0,3:2|0:0,0:0:0:0:
2,218,175729,1,8,3:2:0:0:
127,247,175876,1,0,3:0:0:0:
326,326,176023,54,0,P|288:267|345:201,1,146.999995513916,10|0,3:2|0:0,0:0:0:0:
243,157,176317,2,0,P|275:94|360:110,1,146.999995513916,10|0,3:2|0:0,0:0:0:0:
358,7,176611,2,0,P|428:3|456:85,1,146.999995513916,2|0,0:0|0:0,0:0:0:0:
458,73,176905,1,10,3:2:0:0:
414,191,177052,1,2,0:0:0:0:
512,238,177199,2,0,L|464:248,1,48.9999985046387,8|0,3:2|0:0,0:0:0:0:
387,264,177346,2,0,L|339:274,1,48.9999985046387
260,290,177494,1,8,3:2:0:0:
84,384,177641,54,0,B|146:369|146:369|169:381|169:381|230:369,1,146.999995513916,2|0,3:2|0:0,0:0:0:0:
231,362,177935,1,2,3:2:0:0:
191,248,178082,2,0,L|137:219,1,48.9999985046387,10|0,3:2|0:0,0:0:0:0:
75,190,178229,2,0,L|21:161,1,48.9999985046387,2|0,0:0|0:0,0:0:0:0:
274,108,178376,54,0,P|214:103|207:18,1,146.999995513916,10|0,3:2|0:0,0:0:0:0:
208,25,178670,1,10,3:2:0:0:
0,0,178817,2,0,P|56:6|56:84,1,146.999995513916,2|0,3:2|0:0,0:0:0:0:
47,82,179111,1,2,3:2:0:0:
110,229,179258,2,0,L|118:178,1,48.9999985046387,10|0,3:2|0:0,0:0:0:0:
0,290,179405,1,2,0:0:0:0:
92,384,179552,54,0,P|80:324|7:285,1,146.999995513916,10|0,3:2|0:0,0:0:0:0:
0,290,179846,1,10,3:2:0:0:
261,279,179994,2,0,P|279:210|343:179,1,146.999995513916,2|0,3:2|0:0,0:0:0:0:
353,185,180288,1,0,3:2:0:0:
208,384,180435,54,0,L|197:353,1,31.4999990386963,12|0,3:1|0:0,0:0:0:0:
197,354,180729,54,0,B|175:304|175:304|177:267|177:267|154:200,1,146.999995513916,12|0,3:2|0:0,0:0:0:0:
150,210,181023,1,10,3:2:0:0:
207,34,181170,1,2,3:2:0:0:
136,202,181317,2,0,P|121:180|117:150,1,48.9999985046387,2|0,0:0|0:0,0:0:0:0:
35,55,181464,2,0,P|10:82|-9:85,1,48.9999985046387,2|0,3:2|0:0,0:0:0:0:
0,84,181611,2,0,L|146:79,1,146.999995513916,8|0,3:2|0:0,0:0:0:0:
279,0,181905,54,0,P|206:11|201:45,1,97.9999970092774,10|0,3:2|0:0,0:0:0:0:
260,284,182199,2,0,P|286:238|224:174,1,146.999995513916,10|0,3:2|0:0,0:0:0:0:
222,176,182494,1,2,0:0:0:0:
425,168,182641,1,2,3:2:0:0:
425,168,182788,2,0,L|372:154,1,48.9999985046387,8|0,3:2|0:0,0:0:0:0:
297,103,182935,2,0,L|244:89,1,48.9999985046387
249,90,183082,54,0,B|306:78|306:78|335:90|335:90|397:77,1,146.999995513916,8|0,3:2|0:0,0:0:0:0:
442,23,183376,1,10,3:2:0:0:
512,91,183523,1,2,3:2:0:0:
455,25,183670,1,2,0:0:0:0:
506,108,183817,1,2,3:2:0:0:
491,234,183964,1,10,3:2:0:0:
372,353,184111,53,2,0:0:0:0:
372,338,184258,1,8,3:2:0:0:
384,345,184405,1,0,0:0:0:0:
425,159,184552,1,10,3:2:0:0:
284,209,184699,54,0,L|342:207,1,48.9999985046387,2|0,3:2|0:0,0:0:0:0:
271,198,184846,1,0,0:0:0:0:
356,275,184994,1,2,3:2:0:0:
432,346,185141,2,0,L|374:344,1,48.9999985046387,10|0,3:2|0:0,0:0:0:0:
342,282,185288,1,0,0:0:0:0:
130,384,185435,2,0,B|154:368|178:369|178:369|203:335|203:335|231:333|257:317,1,146.999995513916,8|0,3:2|0:0,0:0:0:0:
255,328,185729,54,0,P|272:257|206:222,1,146.999995513916,10|0,3:2|0:0,0:0:0:0:
130,175,186023,2,0,L|33:184,1,97.9999970092774,2|0,0:0|0:2,0:0:0:0:
214,0,186317,54,0,P|231:71|165:106,1,146.999995513916,10|0,3:2|0:0,0:0:0:0:
120,166,186611,2,0,L|22:174,1,97.9999970092774,10|0,3:2|0:0,0:0:0:0:
48,67,186905,54,0,L|0:63,1,48.9999985046387,10|0,3:2|0:0,0:0:0:0:
186,84,187052,2,0,L|138:80,1,48.9999985046387,0|0,3:2|0:0,0:0:0:0:
291,102,187199,1,2,0:0:0:0:
295,118,187346,1,0,3:2:0:0:
360,7,187494,1,10,3:2:0:0:
431,32,187641,1,2,0:0:0:0:
437,180,187788,54,0,L|435:228,1,41.9999987182618,8|0,3:2|0:0,0:0:0:0:
433,234,187935,2,0,B|418:191|418:191|397:177|397:177|379:116,1,125.999996154785
377,116,188229,1,0,3:2:0:0:
512,54,188376,2,0,P|509:85|492:100,1,41.9999987182618
495,97,188523,2,0,P|469:116|454:107,1,41.9999987182618,0|0,3:2|0:0,0:0:0:0:
242,20,188670,54,0,L|238:-4,1,21,12|0,3:1|0:0,0:0:0:0:
212,94,188964,101,8,3:2:0:0:
186,135,189038,1,0,3:2:0:0:
189,183,189111,1,0,3:2:0:0:
220,221,189185,1,0,3:2:0:0:
269,226,189258,53,8,3:2:0:0:
226,202,189332,1,0,3:2:0:0:
178,207,189405,1,0,3:2:0:0:
143,241,189479,1,0,3:2:0:0:
142,289,189552,53,8,3:2:0:0:
112,327,189626,1,0,3:2:0:0:
66,340,189699,1,0,3:2:0:0:
20,324,189773,1,0,3:2:0:0:
0,279,189846,6,0,L|70:271,1,52.5000020027161,14|0,3:0|0:3,0:0:0:0:
233,307,189994,2,0,L|303:299,1,52.5000020027161,14|0,3:0|0:3,0:0:0:0:
453,375,190141,70,0,B|433:336|456:308|456:308|485:278|459:232|459:232|437:255|456:290,1,210.000008010865,14|0,3:2|0:0,0:0:0:0:
442,365,190435,2,0,B|422:327|445:299|445:299|474:269|442:223|442:223|411:219|393:247,1,210.000008010865,8|0,3:2|0:0,0:0:0:0:
289,17,190729,54,0,B|270:53|293:81|293:81|322:111|296:156|296:156|274:133|292:101,1,210.000008010865,10|0,3:2|0:0,0:0:0:0:
281,18,191023,2,0,B|262:54|284:82|284:82|313:112|282:157|282:157|250:162|233:133,1,210.000008010865,8|0,3:2|0:0,0:0:0:0:
129,340,191317,54,0,B|108:311|125:266|125:266|148:230|122:181|122:181|120:199|106:227,1,210.000008010865,10|0,3:2|0:0,0:0:0:0:
117,343,191611,2,0,B|95:312|113:264|113:264|138:225|110:173|110:173|93:187|78:187,1,210.000008010865,8|0,3:2|0:0,0:0:0:0:
107,346,191905,2,0,B|85:316|103:269|103:269|127:232|100:181|100:181|83:180|68:159,1,210.000008010865,8|0,3:2|0:0,0:0:0:0:
260,281,192199,54,0,P|295:274|326:314,1,87.5,10|0,3:2|0:0,0:0:0:0:
325,310,192346,1,0,3:0:0:0:
0,74,192494,54,0,B|46:103|109:62|109:62|185:8|260:54,1,262.5,10|0,3:2|0:0,0:0:0:0:
334,77,192788,1,10,3:2:0:0:
8,60,192935,54,0,B|52:82|116:40|116:40|188:-4|268:40,1,262.5,2|0,0:0|0:0,0:0:0:0:
336,62,193229,1,2,3:2:0:0:
165,216,193376,54,0,P|145:182|169:138,1,87.5,10|0,3:2|0:0,0:0:0:0:
179,219,193523,1,2,3:2:0:0:
344,168,193670,54,0,B|374:152|415:174|415:174|461:205|496:180|496:180|460:149,1,210.000008010865,8|0,3:2|0:0,0:0:0:0:
352,161,193964,2,0,B|383:145|424:167|424:167|472:199|508:173|508:173|482:135,1,210.000008010865,8|0,3:2|0:0,0:0:0:0:
363,155,194258,2,0,B|393:140|433:161|433:161|480:192|514:167|514:167|504:119,1,210.000008010865,8|0,3:2|0:0,0:0:0:0:
372,278,194552,54,0,P|344:305|367:345,1,87.5,10|0,3:2|0:0,0:0:0:0:
384,276,194699,1,2,3:2:0:0:
207,143,194846,54,0,B|171:185|188:246|209:238|232:288|214:323|214:323|212:311|203:309,1,210.000008010865,10|0,3:2|0:0,0:0:0:0:
190,146,195141,2,0,B|158:182|175:246|198:237|221:290|202:326|202:326|192:328|182:338,1,210.000008010865,8|0,3:2|0:0,0:0:0:0:
10,8,195435,54,0,P|23:40|75:50,1,87.5,10|0,3:2|0:0,0:0:0:0:
71,51,195582,1,0,3:0:0:0:
103,184,195729,54,0,P|137:188|171:148,1,87.5,10|0,3:2|0:0,0:0:0:0:
170,151,195876,1,0,3:0:0:0:
0,376,196023,54,0,B|46:405|109:364|109:364|185:310|260:356,1,262.5,10|0,3:2|0:0,0:0:0:0:
328,384,196317,1,10,3:2:0:0:
10,366,196464,54,0,B|56:395|119:354|119:354|195:300|270:346,1,262.5,2|0,0:0|0:0,0:0:0:0:
338,374,196758,1,0,3:0:0:0:
396,245,196905,54,0,P|359:243|334:293,1,87.5,10|0,3:2|0:0,0:0:0:0:
405,257,197052,1,2,3:2:0:0:
512,74,197199,54,0,B|438:70|438:70|397:89|397:89|296:81,1,210.000008010865,8|0,3:2|0:0,0:0:0:0:
506,64,197494,2,0,B|425:59|425:59|380:81|380:81|295:73,1,210.000008010865,8|0,3:2|0:0,0:0:0:0:
500,60,197788,2,0,B|429:56|429:56|389:75|389:75|292:67,1,210.000008010865,8|0,3:2|0:0,0:0:0:0:
494,51,198082,2,0,B|415:46|415:46|371:67|371:67|287:60,1,210.000008010865,8|0,3:2|0:0,0:0:0:0:
0,246,198376,54,0,B|38:255|78:242|78:242|122:262|122:262|162:244|202:250,1,210.000008010865,8|0,3:2|0:0,0:0:0:0:
11,237,198670,2,0,B|49:246|89:232|89:232|133:253|133:253|174:235|214:242,1,210.000008010865,8|0,3:2|0:0,0:0:0:0:
22,228,198964,2,0,B|60:237|99:224|99:224|143:244|143:244|183:226|223:232,1,210.000008010865,8|0,3:2|0:0,0:0:0:0:
34,219,199258,22,0,P|50:219|67:217,1,31.4999990386963,14|0,3:1|0:0,0:0:0:0:
251,384,199552,22,0,B|259:353|228:320|228:320|265:295|255:229|255:229|224:220|217:166,1,245.000002336502,14|0,3:2|0:0,0:0:0:0:
259,369,199846,2,0,B|267:338|236:305|236:305|273:280|263:214|263:214|220:220|193:193,1,245.000002336502,8|0,3:2|0:0,0:0:0:0:
460,0,200141,54,0,B|468:29|437:61|437:61|473:86|464:151|464:151|433:159|426:213,1,245.000002336502,10|0,3:2|0:0,0:0:0:0:
468,15,200435,2,0,B|476:44|445:76|445:76|481:101|472:166|472:166|430:162|402:187,1,245.000002336502,8|0,3:2|0:0,0:0:0:0:
188,337,200729,54,0,B|208:337|224:326|224:326|253:348|291:354|291:354|312:339|338:345|338:345|383:357|407:310,1,245.000002336502,10|0,3:2|0:0,0:0:0:0:
196,324,201023,2,0,B|216:324|233:313|233:313|263:336|303:341|303:341|324:327|352:332|352:332|394:325|402:279,1,245.000002336502,8|0,3:2|0:0,0:0:0:0:
203,312,201317,2,0,B|223:312|241:301|241:301|270:324|310:329|310:329|331:315|358:320|358:320|373:280|341:249,1,245.000002336502,8|0,3:2|0:0,0:0:0:0:
197,103,201611,54,0,P|199:161|255:178,1,105.000004005432,10|0,3:2|0:0,0:0:0:0:
236,180,201758,1,0,3:0:0:0:
369,44,201905,54,0,B|261:33|261:33|210:67|210:67|66:49,1,315.000012016297,10|0,3:2|0:0,0:0:0:0:
2,0,202199,1,10,3:2:0:0:
373,58,202346,54,0,B|265:47|265:47|214:81|214:81|70:63,1,315.000012016297,2|0,0:0|0:0,0:0:0:0:
2,11,202641,1,2,3:2:0:0:
56,216,202788,54,0,P|102:190|97:137,1,105.000004005432,10|0,3:2|0:0,0:0:0:0:
45,210,202935,1,2,3:2:0:0:
9,349,203082,54,0,B|41:365|85:338|85:338|91:286|147:260|147:260|206:271,1,245.000002336502,8|0,3:2|0:0,0:0:0:0:
1,342,203376,2,0,B|34:358|79:330|79:330|85:276|142:249|142:249|199:247,1,245.000002336502,8|0,3:2|0:0,0:0:0:0:
308,356,203670,54,0,P|261:380|226:352,1,105.000004005432,10|0,3:2|0:0,0:0:0:0:
223,340,203817,1,0,3:0:0:0:
478,295,203964,54,0,P|476:348|434:364,1,105.000004005432,10|0,3:2|0:0,0:0:0:0:
422,360,204111,1,0,3:0:0:0:
358,56,204258,54,0,B|367:78|330:114|330:114|388:145|377:195|377:195|346:216|356:265,1,245.000002336502,10|0,3:2|0:0,0:0:0:0:
502,39,204552,2,0,P|468:48|449:112,1,105.000004005432,10|0,3:2|0:0,0:0:0:0:
512,45,204699,1,2,0:0:0:0:
343,48,204846,54,0,B|352:70|316:106|316:106|373:136|361:185|361:185|332:206|341:254,1,245.000002336502,8|0,3:2|0:0,0:0:0:0:
161,250,205141,2,0,P|223:219|216:167,1,105.000004005432,10|0,3:2|0:0,0:0:0:0:
156,239,205288,1,2,3:2:0:0:
239,365,205435,54,0,B|205:355|180:374|180:374|144:377|119:352|119:352|66:369|46:356|46:356|77:384,1,245.000002336502,8|0,3:2|0:0,0:0:0:0:
232,355,205729,2,0,B|197:345|171:365|171:365|134:368|107:342|107:342|52:359|31:346|31:346|46:376,1,245.000002336502,8|0,3:2|0:0,0:0:0:0:
224,345,206023,2,0,B|190:335|165:354|165:354|129:357|103:332|103:332|50:349|30:336|30:336|38:375,1,245.000002336502,8|0,3:2|0:0,0:0:0:0:
54,166,206317,54,0,P|80:198|45:252,1,105.000004005432,10|0,3:2|0:0,0:0:0:0:
55,250,206464,1,0,3:0:0:0:
12,62,206611,54,0,B|68:29|130:76|103:89|193:149|306:130,1,315.000012016297,10|0,3:2|0:0,0:0:0:0:
372,79,206905,1,8,3:2:0:0:
3,72,207052,54,0,B|59:39|121:86|94:99|184:159|297:140,1,315.000012016297,2|0,0:0|0:0,0:0:0:0:
375,93,207346,1,0,3:0:0:0:
202,47,207494,54,0,L|197:16,1,31.4999990386963,14|0,3:1|0:0,0:0:0:0:
368,81,207788,53,8,3:2:0:0:
391,115,207861,1,0,3:2:0:0:
394,157,207935,1,0,3:2:0:0:
372,192,208008,1,0,3:2:0:0:
331,205,208082,53,8,3:2:0:0:
304,237,208155,1,0,3:2:0:0:
304,279,208229,1,0,3:2:0:0:
323,316,208302,1,0,3:2:0:0:
362,331,208376,53,8,3:2:0:0:
366,325,208449,1,0,3:2:0:0:
369,319,208523,1,0,3:2:0:0:
373,313,208596,1,0,3:2:0:0:
377,306,208670,53,4,3:0:0:0:
372,297,208744,1,4,3:0:0:0:
327,285,208817,1,4,3:0:0:0:
259,310,208891,1,4,3:0:0:0:
211,381,208964,21,6,2:0:0:0:
162,326,209111,1,0,0:0:0:0:
110,349,209258,1,0,0:0:0:0:
101,206,209478,53,0,0:0:0:0:
94,213,209552,2,0,B|91:186|91:186|86:179|86:179|88:171|88:171|86:146|86:146|88:141|88:141|86:135|86:135|81:108|81:108|78:102|78:102|80:93|80:93|74:53,1,146.999995513916,2|0,0:2|2:0,1:0:0:0:
68,82,210140,2,0,B|27:74|13:46|13:46|44:39,3,83.9999974365235,2|0|0|0,0:2|0:0|0:0|0:0,1:0:0:0:
80,78,211169,1,0,0:0:0:0:
175,83,211316,53,2,0:0:0:0:
269,22,211464,1,0,0:0:0:0:
336,59,211611,1,0,0:0:0:0:
330,75,211758,2,0,P|311:72|294:52,1,41.9999987182618,2|0,0:2|0:0,0:0:0:0:
295,55,211905,54,0,B|265:43|265:43|255:42|255:42|247:34|247:34|228:37|228:37|217:29|217:29|215:35|215:35|197:29|197:29|154:17,1,146.999995513916,0|0,0:2|0:0,1:0:0:0:
145,20,212493,53,2,0:0:0:0:
203,73,212640,1,0,0:0:0:0:
158,58,212787,2,0,L|192:55,1,20.9999993591309
91,60,212934,1,0,0:0:0:0:
114,22,213081,53,0,0:0:0:0:
116,96,213228,1,0,0:0:0:0:
66,153,213375,1,0,0:0:0:0:
72,234,213522,1,0,0:0:0:0:
0,251,213669,54,0,B|14:268|14:268|29:264|29:264|39:270|39:270|50:268|50:268|58:271|58:271|83:269|83:269|107:291|107:291|138:292,1,146.999995513916,2|0,0:2|0:0,1:0:0:0:
122,310,214258,53,0,0:0:0:0:
59,307,214405,1,0,0:0:0:0:
121,350,214552,1,0,0:0:0:0:
183,357,214699,1,0,0:0:0:0:
219,279,214846,54,0,B|205:280|205:280|199:274|199:274|193:276|193:276|171:269|154:276|154:276|149:274|149:274|146:279|146:279|131:285|124:302|124:302|122:310|122:310|120:305|120:305|117:327|131:340|131:340|131:347|131:347|138:349|138:349|156:363|180:363|180:363|186:362|186:362|189:366|189:366|215:372|230:346|230:346|236:342|236:342|236:335|236:335|244:299|249:256|249:256|255:244|255:244|252:235|252:235|257:190|257:190|252:176|252:176|263:167|263:167|279:74|279:74|290:95|290:95|286:111|286:111|296:127|296:127|293:136|293:136|303:152|303:152|296:161|296:161|303:180|303:180|290:187|290:187|302:198|302:198|310:244|320:245|320:245|320:250|320:250|330:265|349:259|349:259|357:264|357:264|372:258|399:256|399:256|402:248|402:248|418:235|421:212|421:212|417:210|417:210|403:192|375:199|375:199|365:219|372:237,1,986.999969879151,2|0,2:0|0:0,1:0:0:0:
255,384,218375,101,0,3:0:0:0:
309,274,218669,5,2,0:0:0:0:
317,298,218816,1,0,0:0:0:0:
316,267,218963,1,0,0:0:0:0:
305,302,219110,1,0,0:0:0:0:
323,328,219257,1,0,0:0:0:0:
190,250,219551,53,2,0:0:0:0:
182,274,219698,1,0,0:0:0:0:
183,243,219845,1,0,0:0:0:0:
194,278,219992,1,0,0:0:0:0:
176,306,220139,1,0,0:0:0:0:
324,255,220433,53,2,0:0:0:0:
332,279,220580,1,0,0:0:0:0:
331,248,220727,1,0,0:0:0:0:
320,283,220874,1,0,0:0:0:0:
347,315,221021,1,0,0:0:0:0:
174,231,221316,53,2,0:0:0:0:
166,255,221463,1,0,0:0:0:0:
167,224,221610,1,0,0:0:0:0:
178,259,221757,1,0,0:0:0:0:
255,384,221904,37,0,3:0:0:0:
335,238,222198,5,2,0:0:0:0:
345,268,222345,1,0,0:0:0:0:
344,229,222492,1,0,0:0:0:0:
330,273,222639,1,0,0:0:0:0:
365,325,222786,1,0,0:0:0:0:
160,217,223081,53,2,0:0:0:0:
150,247,223228,1,0,0:0:0:0:
151,208,223375,1,0,0:0:0:0:
165,252,223522,1,0,0:0:0:0:
129,307,223669,1,0,0:0:0:0:
350,219,223962,53,2,0:0:0:0:
360,249,224109,1,0,0:0:0:0:
359,210,224257,1,0,0:0:0:0:
345,254,224404,1,0,0:0:0:0:
387,308,224551,1,0,0:0:0:0:
145,198,224845,53,2,0:0:0:0:
135,228,224992,1,0,0:0:0:0:
136,189,225139,1,0,0:0:0:0:
150,233,225286,1,0,0:0:0:0:
255,384,225433,37,0,3:0:0:0:
360,195,225727,5,2,0:0:0:0:
372,231,225874,1,0,0:0:0:0:
371,184,226021,1,0,0:0:0:0:
354,237,226168,1,0,0:0:0:0:
399,302,226315,1,0,0:0:0:0:
133,181,226609,53,2,0:0:0:0:
121,217,226757,1,0,0:0:0:0:
122,170,226904,1,0,0:0:0:0:
139,223,227051,1,0,0:0:0:0:
94,291,227198,1,0,0:0:0:0:
372,179,227492,53,2,0:0:0:0:
384,215,227639,1,0,0:0:0:0:
383,168,227786,1,0,0:0:0:0:
366,221,227933,1,0,0:0:0:0:
417,296,228080,1,0,0:0:0:0:
121,165,228375,53,2,0:0:0:0:
109,201,228522,1,0,0:0:0:0:
110,154,228669,1,0,0:0:0:0:
127,207,228816,1,0,0:0:0:0:
255,384,228963,37,0,3:0:0:0:
386,146,229257,5,2,0:0:0:0:
400,188,229404,1,0,0:0:0:0:
399,134,229551,1,0,0:0:0:0:
379,195,229698,1,0,0:0:0:0:
441,274,229845,1,0,0:0:0:0:
103,93,230139,53,2,0:0:0:0:
90,131,230286,1,0,0:0:0:0:
92,82,230433,1,0,0:0:0:0:
109,137,230580,1,0,0:0:0:0:
37,251,230727,1,0,0:0:0:0:
407,65,231022,53,2,0:0:0:0:
419,101,231169,1,0,0:0:0:0:
418,54,231316,1,0,0:0:0:0:
401,107,231463,1,0,0:0:0:0:
506,234,231610,53,2,0:3:0:0:
406,281,231904,69,0,3:0:0:0:
255,227,232198,37,0,3:0:0:0:
296,98,232492,38,0,L|298:75,1,21,4|0,3:2|0:0,0:0:0:0:
512,100,232786,5,2,0:0:0:0:
402,58,232933,1,0,0:0:0:0:
504,109,233080,2,0,B|353:28|353:28|394:4|394:4|409:27|405:48,1,262.5
215,173,233375,102,0,L|213:150,1,21,4|0,3:1|0:0,0:0:0:0:
56,124,233669,5,2,0:0:0:0:
154,77,233816,1,0,0:0:0:0:
70,126,233963,2,0,B|194:58|194:58|160:39|160:39|148:58|151:75,1,210
302,235,234257,102,0,L|304:212,1,21,4|0,3:1|0:0,0:0:0:0:
443,188,234551,5,2,0:0:0:0:
361,160,234698,1,0,0:0:0:0:
429,190,234845,2,0,B|339:141|339:141|363:127|363:127|372:141|370:153,1,157.500006008148
219,310,235139,102,0,L|217:287,1,21,4|0,3:1|0:0,0:0:0:0:
89,268,235433,5,2,0:0:0:0:
110,301,235580,1,0,0:0:0:0:
96,325,235727,1,0,0:0:0:0:
100,341,235875,1,0,0:0:0:0:
296,98,236022,102,0,L|298:75,1,21,4|0,3:2|0:0,0:0:0:0:
512,100,236316,5,2,0:0:0:0:
402,58,236463,1,0,0:0:0:0:
504,109,236610,2,0,B|353:28|353:28|394:4|394:4|409:27|405:48,1,262.5
215,173,236904,102,0,L|213:150,1,21,4|0,3:1|0:0,0:0:0:0:
56,124,237198,5,2,0:0:0:0:
154,77,237345,1,0,0:0:0:0:
70,126,237492,2,0,B|194:58|194:58|160:39|160:39|148:58|151:75,1,210
302,235,237786,102,0,L|304:212,1,21,4|0,3:1|0:0,0:0:0:0:
443,188,238080,5,2,0:0:0:0:
361,160,238227,1,0,0:0:0:0:
429,190,238375,2,0,B|339:141|339:141|363:127|363:127|372:141|370:153,1,157.500006008148
219,310,238669,102,0,L|217:287,1,21,4|0,3:1|3:0,0:0:0:0:
89,268,238963,5,2,3:2:0:0:
173,156,239110,1,0,3:0:0:0:
155,152,239183,1,0,3:0:0:0:
137,148,239257,1,4,3:0:0:0:
195,24,239404,1,4,3:0:0:0:
212,22,239477,1,4,3:0:0:0:
228,20,239551,102,0,L|226:-3,1,21,4|0,3:2|0:0,0:0:0:0:
30,103,239845,5,2,0:0:0:0:
165,44,239992,1,0,0:0:0:0:
41,110,240139,2,0,B|220:13|220:13|172:-15|172:-15|154:12|158:35,1,315.000012016297
285,101,240433,102,0,L|287:78,1,21,4|0,3:1|0:0,0:0:0:0:
512,112,240727,5,2,0:0:0:0:
393,67,240875,1,0,0:0:0:0:
501,119,241022,2,0,B|350:38|350:38|391:15|391:15|406:37|402:57,1,262.5
215,173,241316,102,0,L|213:150,1,21,4|0,3:1|0:0,0:0:0:0:
19,268,241610,5,2,0:0:0:0:
114,233,241757,1,0,0:0:0:0:
30,275,241904,2,0,B|150:210|150:210|117:191|117:191|105:209|108:225,1,210
302,235,242198,102,0,L|304:212,1,21,4|0,3:1|0:0,0:0:0:0:
372,284,242492,69,2,0:0:0:0:
397,321,242639,1,0,0:0:0:0:
386,348,242786,1,0,0:0:0:0:
395,357,242933,1,0,0:0:0:0:
252,238,243080,54,0,L|294:204,1,52.5,2|0,3:2|0:0,0:0:0:0:
338,182,243375,2,0,L|237:143,1,105,2|0,0:0|0:0,0:0:0:0:
210,105,243669,2,0,L|237:278,1,157.500006008148,2|0,0:0|0:0,0:0:0:0:
219,306,243963,70,0,L|397:161,1,210,2|0,3:2|0:0,0:0:0:0:
412,154,244257,2,0,L|159:56,1,262.5,2|0,0:0|0:0,0:0:0:0:
141,18,244551,2,0,L|191:339,1,315.000012016297,2|0,0:0|0:0,0:0:0:0:
173,377,244845,54,0,L|467:138,1,367.500003504753,2|0,3:2|0:0,0:0:0:0:
489,150,245139,2,0,L|88:-4,1,420,2|0,0:0|0:0,0:0:0:0:
87,0,245433,2,0,L|144:365,1,367.500003504753,2|0,0:0|0:0,0:0:0:0:
341,242,245727,37,2,3:2:0:0:
341,229,245800,1,0,3:2:0:0:
351,235,245874,1,0,3:2:0:0:
359,187,245947,1,0,3:2:0:0:
368,138,246021,1,2,3:2:0:0:
286,374,246168,1,8,3:2:0:0:
197,205,246315,53,2,3:2:0:0:
185,157,246388,1,0,3:2:0:0:
172,109,246462,1,0,3:2:0:0:
285,358,246609,1,10,3:2:0:0:
278,174,246756,1,0,3:2:0:0:
279,161,246829,1,0,3:2:0:0:
280,146,246903,86,0,B|328:107|248:65|293:23|293:23|328:6|328:6|334:11|334:11|371:2|371:2|347:17|346:48,1,262.5,6|0,3:2|0:0,0:0:0:0:
439,31,247197,2,0,B|472:25|472:25|486:33|486:33|428:45,1,87.5,8|0,3:2|0:0,0:0:0:0:
483,113,247344,2,0,B|504:138|504:138|504:154|504:154|465:110,1,87.5
380,124,247491,2,0,B|360:151|360:151|361:167|361:167|397:120,1,87.5,0|0,3:2|0:0,0:0:0:0:
430,210,247638,2,0,B|443:239|443:239|457:246|457:246|435:192,1,87.5,0|0,3:2|0:0,0:0:0:0:
374,311,247785,54,0,P|339:319|352:380,1,87.5,10|0,3:2|0:0,0:0:0:0:
343,375,247932,2,0,B|311:359|276:357|276:357|248:342|248:342|246:334|246:334|219:312|219:312|193:332|140:339|140:339|189:345,1,262.5,2|0,0:0|0:0,0:0:0:0:
197,350,248227,1,2,0:0:0:0:
0,157,248374,54,0,P|28:156|43:207,1,87.5,10|0,3:2|0:0,0:0:0:0:
39,218,248521,2,0,B|62:195|62:195|106:192|106:192|145:168|145:168|168:141|156:107|156:107|141:121|119:120,1,210
123,108,248815,1,0,3:2:0:0:
286,215,248962,38,0,P|307:215|350:229,1,61.2500005841255,10|0,3:2|0:0,0:0:0:0:
413,199,249109,2,0,B|367:176|332:205|344:226|289:252|233:216,1,183.750001752377,2|0,0:0|0:0,0:0:0:0:
237,211,249403,1,2,0:0:0:0:
284,119,249550,54,0,B|273:93|273:93|281:85|281:85|292:113,1,61.2500005841255,8|0,3:2|0:0,0:0:0:0:
291,137,249697,1,0,0:0:0:0:
412,198,249844,1,0,3:2:0:0:
403,217,249991,1,0,3:2:0:0:
460,365,250138,54,0,P|439:365|396:379,1,61.2500005841255,10|0,3:2|0:0,0:0:0:0:
333,349,250285,2,0,B|378:326|413:355|401:376|456:402|512:366,1,183.750001752377,2|0,0:0|0:0,0:0:0:0:
512,364,250579,1,2,0:0:0:0:
412,198,250727,53,8,3:2:0:0:
403,217,250800,1,0,3:0:0:0:
403,187,250874,1,0,3:0:0:0:
352,124,251021,1,0,3:2:0:0:
381,37,251168,1,0,3:2:0:0:
506,118,251315,54,0,B|514:106|514:106|503:87|487:67|439:69,1,87.5,10|0,3:2|0:0,0:0:0:0:
372,29,251462,2,0,B|365:16|365:16|343:16|318:19|296:62,1,87.5,2|0,0:0|0:0,0:0:0:0:
326,291,251609,6,0,B|332:268|315:247|315:247|334:227|344:167|344:167|387:169|431:148|431:148|408:164|403:191,1,262.5,6|0,3:2|0:0,0:0:0:0:
403,187,251903,2,0,P|387:183|384:113,1,87.5,10|0,3:2|0:0,0:0:0:0:
147,223,252050,2,0,P|142:207|201:169,1,87.5
198,173,252197,2,0,B|191:150|208:129|208:129|189:109|179:49|179:49|137:43|92:30|92:30|115:46|120:73,1,262.5,2|0,3:2|0:0,0:0:0:0:
47,325,252491,54,0,B|70:295|46:259|31:268|4:228|24:178|24:178|52:171|83:150|83:150|67:166|62:184,1,262.5,10|0,3:2|0:0,0:0:0:0:
64,191,252785,1,0,0:0:0:0:
198,173,252932,54,0,P|236:172|276:211,1,87.5,0|0,3:2|0:0,0:0:0:0:
252,293,253079,1,10,3:2:0:0:
356,187,253227,54,0,P|375:220|361:274,1,87.5,2|0,3:2|0:0,0:0:0:0:
234,291,253374,1,8,3:2:0:0:
435,327,253521,54,0,P|416:360|362:375,1,87.5,2|0,3:2|0:0,0:0:0:0:
215,285,253668,1,8,3:2:0:0:
215,285,253815,54,0,B|246:244|246:244|296:225|296:225|343:255|424:192|424:192|429:62|429:62|421:93|392:116,1,437.5,6|0,3:2|0:0,0:0:0:0:
388,120,254256,2,0,B|342:109|342:109|338:98|338:98|375:107,1,87.5,10|0,3:2|0:0,0:0:0:0:
260,29,254403,1,2,0:0:0:0:
102,27,254550,54,0,B|148:16|148:16|152:5|152:5|115:14,1,87.5,0|0,3:2|0:0,0:0:0:0:
96,37,254697,2,0,B|142:26|142:26|146:15|146:15|109:24,1,87.5,0|0,3:2|0:0,0:0:0:0:
268,17,254844,1,8,3:2:0:0:
188,158,254991,54,0,B|217:130|217:130|229:136|229:136|205:171,1,87.5
200,157,255138,1,0,3:2:0:0:
147,230,255285,1,0,3:0:0:0:
191,304,255432,54,0,B|203:342|203:342|216:342|216:342|212:300,1,87.5,8|0,3:2|0:0,0:0:0:0:
51,228,255579,2,0,B|11:219|11:219|4:231|4:231|43:248,1,87.5,0|0,3:0|0:0,0:0:0:0:
176,147,255727,53,0,3:2:0:0:
167,144,255800,1,0,3:2:0:0:
158,141,255874,1,0,3:2:0:0:
149,138,255947,1,0,3:2:0:0:
140,135,256021,53,2,3:2:0:0:
159,137,256094,1,0,3:2:0:0:
206,131,256168,1,2,3:2:0:0:
252,78,256241,1,0,3:2:0:0:
247,2,256315,54,0,B|240:42|204:63|204:63|226:100|208:162|208:162|285:211|285:211|294:182|316:168,1,315.000012016297,6|0,3:2|0:0,0:0:0:0:
280,154,256609,1,14,3:1:0:0:
441,68,256756,2,0,P|413:71|385:-1,1,105.000004005432
388,0,256903,2,0,B|346:53|392:131|416:118|447:184|394:246,1,262.5,2|0,3:2|0:0,0:0:0:0:
384,246,257197,1,10,3:2:0:0:
382,351,257344,54,0,B|328:391|258:348|258:348|289:228|289:228|286:261|305:283,1,315.000012016297,2|0,0:0|0:0,0:0:0:0:
315,288,257638,1,0,0:0:0:0:
204,211,257785,2,0,B|152:188|154:120|154:120|253:93|253:93|228:104|220:127,1,262.5,10|0,3:2|0:0,0:0:0:0:
232,136,258079,2,0,L|152:153,1,70,0|0,3:2|0:0,0:0:0:0:
72,193,258227,2,0,L|-8:210,1,70,0|0,3:2|0:0,0:0:0:0:
11,345,258374,2,0,P|72:369|97:259,1,210,10|0,3:2|0:0,0:0:0:0:
87,257,258668,54,0,B|78:227|100:208|100:208|81:195|76:149|76:149|102:106|102:106|109:48|109:48|108:65|121:86,1,262.5,2|0,3:2|0:0,0:0:0:0:
267,0,258962,2,0,B|258:29|280:48|280:48|261:61|256:107|256:107|279:143|279:143|289:208|289:208|288:191|301:170,1,262.5,10|0,3:2|0:0,0:0:0:0:
317,170,259256,1,2,3:2:0:0:
247,263,259403,1,0,3:2:0:0:
177,344,259550,1,10,3:2:0:0:
448,335,259697,54,0,B|374:373|325:279|397:178|482:210,1,262.5,6|0,3:2|0:0,0:0:0:0:
479,221,259991,2,0,B|446:212|446:212|427:214|427:214|382:200,1,87.5,0|0,3:0|0:0,0:0:0:0:
225,30,260138,1,8,3:2:0:0:
225,30,260285,54,0,B|151:-8|102:85|174:187|259:154,1,262.5,4|0,3:1|0:0,0:0:0:0:
262,168,260579,1,0,3:0:0:0:
348,107,260727,1,8,3:2:0:0:
432,42,260874,1,0,3:0:0:0:
159,117,261021,54,0,B|123:106|123:106|117:108|117:108|77:104|70:78|70:78|71:71|71:71|58:44|58:44|27:69|-16:70|-16:70|3:83|1:122,1,262.5,6|0,3:2|0:0,0:0:0:0:
182,239,261315,2,0,B|218:228|218:228|223:230|223:230|264:226|271:200|271:200|270:193|270:193|283:166|283:166|314:191|357:192|357:192|338:205|340:244,1,262.5,8|0,3:1|0:0,0:0:0:0:
329,234,261609,1,0,3:2:0:0:
377,323,261756,1,0,3:2:0:0:
478,329,261903,2,0,L|374:315,1,87.5,10|0,3:2|0:0,0:0:0:0:
287,354,262050,2,0,L|183:340,1,87.5,2|0,0:0|0:0,0:0:0:0:
75,187,262197,54,0,B|65:219|65:219|68:230|68:230|57:254|57:254|29:262|29:288|29:288|12:311|12:311|3:349|42:381|42:381|34:358|45:341,1,262.5,2|0,3:2|0:0,0:0:0:0:
263,193,262491,2,0,B|253:160|253:160|256:150|256:150|245:126|245:126|217:118|217:92|217:92|200:69|200:69|191:31|230:-1|230:-1|222:22|233:39,1,262.5,8|0,3:2|0:0,0:0:0:0:
236,46,262785,1,0,3:2:0:0:
347,100,262932,1,0,3:2:0:0:
473,27,263079,2,0,L|374:14,1,87.5,10|0,3:2|0:0,0:0:0:0:
341,89,263227,1,2,0:0:0:0:
468,228,263374,53,0,3:2:0:0:
241,285,263521,1,0,0:0:0:0:
351,258,263668,1,8,3:2:0:0:
344,244,263815,1,0,0:0:0:0:
371,369,263962,53,0,3:2:0:0:
314,142,264109,1,0,3:2:0:0:
341,252,264256,1,8,3:2:0:0:
355,245,264403,1,0,0:0:0:0:
197,376,264550,37,0,0:0:0:0:
126,333,264697,1,0,3:2:0:0:
78,244,264844,1,8,3:2:0:0:
129,142,264991,1,0,3:2:0:0:
282,0,265138,37,8,3:2:0:0:
184,54,265285,1,8,3:2:0:0:
92,43,265432,1,8,3:2:0:0:
26,74,265579,1,8,3:2:0:0:
32,222,265727,22,0,P|115:285|97:152,1,315.000012016297,6|0,3:2|0:0,0:0:0:0:
43,220,266021,2,0,P|112:272|97:162,1,262.5,10|0,3:2|0:0,0:0:0:0:
247,277,266315,22,0,L|176:241,1,70,2|0,3:2|0:0,0:0:0:0:
172,243,266462,2,0,L|101:207,1,70,2|0,3:2|0:0,0:0:0:0:
97,215,266609,1,8,3:2:0:0:
310,191,266756,85,2,0:0:0:0:
310,191,266903,2,0,P|293:144|311:91,1,96.2500009179115,2|0,3:2|0:0,0:0:0:0:
377,251,267050,2,0,P|331:232|302:186,1,87.5,2|0,0:0|0:0,0:0:0:0:
449,239,267197,2,0,P|405:261|351:254,1,70,10|0,3:2|0:0,0:0:0:0:
490,182,267344,2,0,P|479:229|439:265,1,70,2|0,0:0|0:0,0:0:0:0:
478,11,267491,22,0,L|439:79,1,70,2|0,3:2|0:0,0:0:0:0:
434,82,267638,2,0,L|395:150,1,70,2|0,3:2|0:0,0:0:0:0:
388,147,267785,1,8,3:2:0:0:
128,349,267932,85,2,0:0:0:0:
128,349,268079,2,0,P|168:375|224:370,1,96.2500009179115,2|0,3:2|0:0,0:0:0:0:
85,268,268227,2,0,P|91:316|129:355,1,87.5,2|0,0:0|0:0,0:0:0:0:
114,201,268374,2,0,P|81:237|74:291,1,78.7500030040742,10|0,3:2|0:0,0:0:0:0:
180,176,268521,2,0,P|131:173|86:204,1,70,2|0,0:0|0:0,0:0:0:0:
345,233,268668,22,0,L|268:247,1,70,2|0,3:2|0:0,0:0:0:0:
265,250,268815,2,0,L|188:264,1,70,2|0,3:2|0:0,0:0:0:0:
188,273,268962,1,8,3:2:0:0:
382,369,269109,102,0,P|491:268|439:129,1,315.000012016297,6|0,3:2|0:0,0:0:0:0:
368,241,269403,6,0,P|336:222|372:234,1,105.000004005432,2|0,3:0|0:0,0:0:0:0:
377,245,269550,2,0,P|345:226|381:238,1,105.000004005432,10|0,3:2|0:0,0:0:0:0:
501,258,269697,102,0,P|464:140|338:89,1,262.5,4|0,3:1|0:0,0:0:0:0:
368,241,269991,6,0,P|343:226|372:235,1,87.5,2|0,3:0|0:0,0:0:0:0:
376,244,270138,2,0,P|350:229|379:239,1,87.5,10|0,3:2|0:0,0:0:0:0:
18,91,270432,86,0,P|12:31|52:-2,1,105.000004005432,2|0,3:2|0:0,0:0:0:0:
74,158,270579,2,0,P|19:133|10:82,1,96.2500009179115,2|0,0:0|0:0,0:0:0:0:
157,155,270727,2,0,P|102:181|57:154,1,87.5,10|0,3:2|0:0,0:0:0:0:
210,102,270874,2,0,P|185:156|134:165,1,78.7500030040742,2|0,0:0|0:0,0:0:0:0:
29,266,271021,86,0,L|89:154,1,105.000004005432,2|0,3:2|0:0,0:0:0:0:
73,162,271168,2,0,L|133:50,1,87.5,2|0,3:2|0:0,0:0:0:0:
111,75,271315,2,0,L|171:-37,1,70,10|0,3:2|0:0,0:0:0:0:
143,1,271462,1,0,0:0:0:0:
473,36,271609,22,0,P|428:13|381:32,1,105.000004005432,2|0,3:2|0:0,0:0:0:0:
510,133,271756,2,0,P|508:83|468:52,1,105.000004005432,2|0,0:0|0:0,0:0:0:0:
501,146,271903,1,8,3:1:0:0:
197,185,272050,54,0,P|242:152|290:165,1,105.000004005432,2|0,0:0|0:0,0:0:0:0:
161,267,272197,2,0,P|154:211|190:177,1,105.000004005432,2|0,3:2|0:0,0:0:0:0:
212,337,272344,2,0,P|160:314|147:267,1,105.000004005432,2|0,3:2|0:0,0:0:0:0:
228,344,272491,1,8,3:2:0:0:
441,384,272638,70,0,P|391:169|131:-4,1,525.000020027161,6|0,3:2|0:0,0:0:0:0:
144,5,273079,5,10,3:2:0:0:
178,240,273227,102,0,B|292:271|343:191|290:157|375:28|515:59,2,420.000016021729,6|0|0,3:1|3:0|3:0,0:0:0:0:
59,24,273962,101,2,3:2:0:0:
108,181,274109,1,0,3:2:0:0:
38,241,274256,53,10,3:2:0:0:
4,375,274403,1,0,0:0:0:0:
0,140,274550,101,2,0:2:0:0:
111,169,274697,1,2,3:2:0:0:
256,197,274844,2,0,L|195:177,1,62.9999980773926,10|0,3:2|0:0,0:0:0:0:
426,0,275148,38,0,B|444:14|409:61|428:105|469:92|477:57|462:37|443:34,1,146.999995513916,6|0,3:2|0:0,0:0:0:0:
417,9,275736,1,2,3:2:0:0:
506,150,276030,54,0,L|515:117,1,20.9999993591309,10|0,3:2|0:0,0:0:0:0:
496,161,276324,1,0,0:0:0:0:
334,44,276618,53,2,3:2:0:0:
260,11,276765,1,2,0:0:0:0:
348,55,276912,54,0,B|329:69|364:116|345:160|304:147|296:112|311:92|330:89,1,146.999995513916,2|0,3:2|0:0,0:0:0:0:
359,60,277500,1,2,3:2:0:0:
330,228,277795,54,0,L|361:224,1,20.9999993591309,10|0,3:2|0:0,0:0:0:0:
314,218,278089,1,0,0:0:0:0:
145,22,278383,53,2,3:2:0:0:
192,31,278530,1,2,0:0:0:0:
215,97,278677,54,0,B|233:111|198:158|217:202|258:189|266:154|251:134|232:131,1,146.999995513916,2|0,3:2|0:0,0:0:0:0:
196,87,279265,1,2,3:2:0:0:
110,172,279559,54,0,B|91:186|126:233|107:277|66:264|58:229|73:209|92:206,1,146.999995513916,10|0,3:2|0:0,0:0:0:0:
124,162,280148,1,2,3:2:0:0:
221,250,280442,54,0,B|239:264|204:311|223:355|264:342|272:307|257:287|238:284,1,146.999995513916,2|0,3:2|0:0,0:0:0:0:
214,247,281030,1,0,3:2:0:0:
123,318,281324,5,10,3:2:0:0:
137,342,281471,1,0,0:0:0:0:
135,318,281618,1,0,0:0:0:0:
15,236,281912,101,2,3:2:0:0:
63,10,282206,54,0,B|44:24|79:71|60:115|19:102|11:67|26:47|45:44,1,146.999995513916,2|0,3:2|0:0,0:0:0:0:
138,42,282795,2,0,L|203:33,1,62.9999980773926,2|0,3:2|0:0,0:0:0:0:
205,26,283089,53,10,3:2:0:0:
285,77,283383,1,0,0:0:0:0:
123,84,283677,53,2,3:2:0:0:
60,135,283824,1,2,0:0:0:0:
138,83,283971,54,0,B|156:97|121:144|140:188|181:175|189:140|174:120|155:117,1,146.999995513916,2|0,3:2|0:0,0:0:0:0:
116,232,284559,2,0,L|47:225,1,62.9999980773926,0|0,3:2|0:0,0:0:0:0:
45,221,284853,53,10,3:2:0:0:
137,327,285148,2,0,L|222:318,1,83.9999974365235,0|2,0:0|3:2,0:0:0:0:
257,166,285736,54,0,B|238:180|273:227|254:271|213:258|205:223|220:203|239:200,1,146.999995513916,2|0,3:2|0:0,0:0:0:0:
277,157,286324,1,0,3:2:0:0:
347,240,286618,54,0,B|365:254|330:301|349:345|390:332|398:297|383:277|364:274,1,146.999995513916,10|0,3:2|0:0,0:0:0:0:
335,232,287206,1,0,3:2:0:0:
479,303,287500,54,0,B|460:317|495:364|476:408|435:395|427:360|442:340|461:337,1,146.999995513916,2|0,3:2|0:0,0:0:0:0:
486,301,288089,1,0,3:2:0:0:
420,212,288383,54,0,L|417:238,1,20.9999993591309,8|0,3:2|0:0,0:0:0:0:
476,100,288677,1,0,0:0:0:0:
481,115,288971,53,2,3:2:0:0:
404,140,289118,1,2,0:0:0:0:
284,145,289265,70,0,B|248:134|230:87|230:87|223:85|223:85|222:22|279:-2,1,196,6|0,3:2|0:0,0:0:0:0:
270,8,289853,2,0,B|300:13|300:13|305:17|305:17|331:24,1,56,2|0,3:2|0:0,0:0:0:0:
130,76,290148,54,0,L|94:84,1,28,10|0,3:2|0:0,0:0:0:0:
138,63,290442,1,0,0:0:0:0:
288,312,290736,53,2,3:2:0:0:
319,212,290883,1,2,0:0:0:0:
294,324,291030,54,0,B|314:304|337:305|337:305|338:301|338:301|373:302|395:322,2,112,2|2|2,3:2|0:0|3:2,0:0:0:0:
158,354,291912,54,0,L|166:384,1,28,10|0,3:2|0:0,0:0:0:0:
164,342,292206,1,0,0:0:0:0:
17,284,292500,53,2,3:2:0:0:
87,234,292648,1,2,0:0:0:0:
111,119,292795,54,0,B|63:131|18:102|18:102|18:95|18:95|-4:46|51:1,1,196,2|0,3:2|0:0,0:0:0:0:
49,13,293383,1,2,3:2:0:0:
251,199,293677,54,0,B|299:211|344:182|344:182|344:175|344:175|366:126|311:81,1,196,10|0,3:2|0:0,0:0:0:0:
313,93,294265,1,2,3:2:0:0:
156,268,294559,53,2,3:2:0:0:
284,361,294853,1,2,0:0:0:0:
284,361,295148,1,2,3:2:0:0:
385,270,295442,54,0,L|377:242,1,28,10|0,3:2|0:0,0:0:0:0:
381,282,295736,1,2,0:0:0:0:
428,346,296030,1,0,3:2:0:0:
422,359,296324,54,0,B|402:358|391:348|391:348|394:341|394:341|391:316|409:295|422:300|433:237|408:215|408:215|409:206|409:206|401:198|394:192,1,196,2|0,3:2|0:0,0:0:0:0:
391,193,296912,1,2,3:2:0:0:
485,63,297206,54,0,L|517:56,1,28,10|0,3:2|0:0,0:0:0:0:
473,55,297500,1,0,0:0:0:0:
369,9,297795,53,2,3:2:0:0:
304,97,297942,1,2,0:0:0:0:
374,24,298089,54,0,B|338:16|338:16|334:17|334:17|245:-4,2,112,2|2|2,3:2|0:0|3:2,0:0:0:0:
485,63,298971,54,0,L|517:56,1,28,10|0,3:2|0:0,0:0:0:0:
483,75,299265,1,0,0:0:0:0:
499,171,299559,53,2,3:2:0:0:
425,184,299706,1,2,0:0:0:0:
347,123,299853,54,0,B|372:93|431:102|431:102|438:102|438:102|454:119,2,112,2|2|2,3:2|0:0|3:2,0:0:0:0:
270,249,300736,54,0,L|277:282,1,28,10|0,3:2|0:0,0:0:0:0:
281,237,301030,1,0,0:0:0:0:
179,146,301324,53,2,3:2:0:0:
112,109,301471,1,2,0:0:0:0:
8,202,301618,54,0,B|17:212|17:212|24:212|24:212|83:221|108:191,1,112,2|2,3:2|3:2,0:0:0:0:
122,100,302059,1,0,3:2:0:0:
108,84,302206,1,10,3:2:0:0:
265,12,302485,5,10,3:2:0:0:
310,147,302770,54,0,L|315:109,1,28,8|0,3:0|2:0,0:0:0:0:
175,273,303070,38,0,L|170:235,1,28,8|0,3:0|2:0,0:0:0:0:
502,344,303383,102,0,B|481:340|468:351|468:351|465:368|445:378,1,62.9999980773926,6|0,3:2|0:0,0:0:0:0:
437,384,303677,1,2,0:0:0:0:
427,371,303971,1,2,3:2:0:0:
276,372,304265,54,0,B|269:361|269:361|279:339|317:323,1,62.9999980773926,10|0,3:2|0:0,0:0:0:0:
312,323,304559,1,0,0:1:0:0:
381,295,304706,1,8,3:2:0:0:
305,311,304853,1,2,3:2:0:0:
277,384,305148,54,0,B|243:378|243:378|239:380|239:380|190:372,1,83.9999974365235,2|0,3:2|0:1,0:0:0:0:
194,372,305589,1,8,3:2:0:0:
145,315,305736,1,2,3:2:0:0:
130,303,306030,54,0,B|123:329|105:353|105:353|92:359,1,62.9999980773926,10|0,3:2|0:0,0:0:0:0:
93,361,306324,2,0,B|63:356|63:356|28:363,1,62.9999980773926,2|0,0:1|0:0,0:0:0:0:
21,362,306618,2,0,B|8:362|8:362|-4:368|-25:382,1,41.9999987182618,0|0,3:2|0:0,0:0:0:0:
59,200,306912,54,0,P|38:169|58:128,2,83.9999974365235,2|2|2,3:2|0:0|3:2,0:0:0:0:
136,186,307648,1,0,0:0:0:0:
223,205,307795,54,0,B|253:197|253:197|260:199|260:199|289:191,1,62.9999980773926,10|0,3:2|0:0,0:0:0:0:
290,187,308089,1,0,0:1:0:0:
350,229,308236,1,8,3:2:0:0:
296,175,308383,1,2,3:2:0:0:
478,161,308677,54,0,B|497:180|503:209|503:209|487:220|478:241|478:241|461:241,1,104.999996795654,2|0,3:2|0:0,0:0:0:0:
460,240,309118,1,8,3:2:0:0:
381,161,309265,1,0,3:2:0:0:
376,149,309559,22,0,L|381:124,1,20.9999993591309,8|0,3:2|0:0,0:0:0:0:
264,213,309853,54,0,L|259:188,1,20.9999993591309,2|0,0:1|0:0,0:0:0:0:
146,290,310148,38,0,L|151:265,1,20.9999993591309,0|0,3:2|0:0,0:0:0:0:
0,384,310442,102,0,B|2:369|2:369|35:346|57:352,1,62.9999980773926,6|0,3:2|0:0,0:0:0:0:
53,352,310736,1,2,0:0:0:0:
144,375,311030,1,2,3:2:0:0:
304,325,311324,54,0,B|290:329|290:329|268:318|235:314,1,62.9999980773926,10|0,3:2|0:0,0:0:0:0:
235,321,311618,1,2,0:1:0:0:
165,263,311765,1,8,3:2:0:0:
227,332,311912,1,2,3:2:0:0:
324,384,312206,54,0,P|332:340|356:321,1,62.9999980773926,2|0,3:2|0:0,0:0:0:0:
350,323,312500,1,0,0:1:0:0:
463,290,312795,1,2,3:2:0:0:
495,354,313089,1,10,3:2:0:0:
485,384,313383,53,2,0:1:0:0:
466,379,313530,1,8,3:2:0:0:
494,376,313677,1,0,3:2:0:0:
512,161,313971,54,0,B|519:178|519:178|503:217|478:219,1,62.9999980773926,2|0,3:2|0:0,0:0:0:0:
486,216,314265,1,2,0:0:0:0:
397,181,314412,1,0,0:0:0:0:
360,197,314559,2,0,B|332:190|332:190|323:191|323:191|294:183,1,62.9999980773926,2|0,3:2|0:0,0:0:0:0:
291,175,314853,54,0,L|296:149,1,20.9999993591309,10|0,3:2|0:0,0:0:0:0:
238,259,315148,2,0,L|233:233,1,20.9999993591309,0|0,0:1|0:0,0:0:0:0:
269,299,315442,2,0,L|274:273,1,20.9999993591309,2|0,3:2|0:0,0:0:0:0:
263,311,315736,54,0,L|294:307,1,20.9999993591309,2|0,3:2|0:0,0:0:0:0:
206,277,316030,54,0,L|175:273,1,28,0|0,3:2|0:0,0:0:0:0:
307,201,316324,70,0,L|354:194,1,41.9999987182618,0|0,3:2|0:0,0:0:0:0:
164,129,316618,54,0,L|103:121,1,52.5000020027161,4|0,3:1|0:0,0:0:0:0:
348,63,316912,6,0,L|413:54,1,61.2500005841255,4|0,3:1|0:0,0:0:0:0:
119,9,317206,54,0,L|54:0,1,62.9999980773926,4|0,3:1|0:0,0:0:0:0:
237,0,317500,85,8,3:2:0:0:
201,58,317648,1,0,3:2:0:0:
251,115,317795,1,8,3:2:0:0:
300,210,317942,53,0,3:2:0:0:
226,246,318089,1,8,3:2:0:0:
338,299,318236,1,0,3:2:0:0:
139,322,318383,86,0,L|123:340,1,24.5,6|0,0:2|0:0,0:0:0:0:
49,361,318971,2,0,L|46:373,1,10.5,2|0,3:2|0:0,0:0:0:0:
201,25,319265,54,0,L|192:1,1,24.5,6|0,3:1|0:0,0:0:0:0:
113,6,319853,2,0,L|103:-2,1,10.5,2|0,3:1|0:0,0:0:0:0:
427,228,320148,54,0,L|451:232,1,24.5,6|0,3:1|0:0,0:0:0:0:
501,177,320736,2,0,L|512:172,1,10.5,2|0,3:1|0:0,0:0:0:0:
253,196,321030,85,10,3:2:0:0:
253,187,321324,1,0,3:2:0:0:
261,192,321618,1,0,3:2:0:0:
126,74,321912,22,0,L|107:58,1,24.5,6|0,0:2|0:0,0:0:0:0:
39,93,322500,2,0,L|26:90,1,10.5,2|0,3:2|0:0,0:0:0:0:
223,347,322795,54,0,L|220:361,1,14,6|0,0:1|3:0,0:0:0:0:
148,375,323236,1,8,3:2:0:0:
148,375,323383,2,0,L|151:385,1,10.5,0|0,3:1|0:0,0:0:0:0:
458,125,323677,38,0,L|440:131,1,17.5,2|0,0:1|0:0,0:0:0:0:
473,37,324118,1,2,3:2:0:0:
473,37,324265,2,0,L|465:45,1,10.5,2|0,3:1|0:0,0:0:0:0:
250,192,324559,101,10,3:2:0:0:
258,187,324853,1,0,3:2:0:0:
258,196,325148,1,8,3:2:0:0:
84,155,325442,22,0,L|59:150,1,24.5,6|0,0:2|0:0,0:0:0:0:
26,83,326030,2,0,L|16:74,1,10.5,2|0,3:2|0:0,0:0:0:0:
398,33,326324,102,0,L|389:42,1,10.5,10|0,0:1|0:0,0:0:0:0:
468,90,326618,2,0,L|455:94,1,10.5,2|0,3:2|0:0,0:0:0:0:
499,200,326912,2,0,L|486:197,1,10.5,2|0,3:2|0:0,0:0:0:0:
321,384,327206,54,0,L|316:369,1,14,2|0,3:1|3:0,0:0:0:0:
407,343,327648,1,8,3:2:0:0:
407,343,327795,2,0,L|398:335,1,10.5,2|0,3:1|0:0,0:0:0:0:
258,187,328089,37,10,3:2:0:0:
258,196,328383,1,0,3:0:0:0:
250,192,328677,1,2,3:2:0:0:
173,215,328824,1,2,3:2:0:0:
89,246,328971,22,0,L|65:253,1,24.5,6|0,0:2|0:0,0:0:0:0:
11,319,329559,2,0,L|0:316,1,10.5,2|0,3:2|0:0,0:0:0:0:
261,192,329853,85,10,3:2:0:0:
253,196,330148,1,0,3:2:0:0:
253,187,330442,1,2,3:2:0:0:
386,309,330736,22,0,L|405:326,1,24.5,6|0,0:1|0:0,0:0:0:0:
479,350,331324,2,0,L|482:360,1,10.5,2|0,3:1|0:0,0:0:0:0:
299,0,331618,102,0,L|295:11,1,10.5,10|0,3:2|0:0,0:0:0:0:
385,13,331912,2,0,L|375:20,1,10.5,2|0,0:0|0:0,0:0:0:0:
466,97,332206,2,0,L|454:99,1,10.5,2|0,3:0|0:0,0:0:0:0:
249,198,332500,6,0,P|248:196|254:202,1,52.5,6|0,0:2|0:0,0:0:0:0:
368,93,332795,1,2,3:2:0:0:
368,93,332942,1,10,0:2:0:0:
466,0,333089,2,0,L|467:11,1,10.5,0|0,3:0|0:0,0:0:0:0:
257,202,333383,54,0,P|262:183|249:198,1,52.5,6|0,0:0|0:0,0:0:0:0:
140,290,333677,1,0,3:2:0:0:
140,290,333824,1,8,3:2:0:0:
32,377,333971,2,0,L|33:365,1,10.5,0|0,3:0|0:0,0:0:0:0:
426,227,334265,53,8,3:2:0:0:
475,282,334412,1,0,3:2:0:0:
430,214,334559,2,0,L|442:215,1,10.5,0|0,3:0|0:0,0:0:0:0:
86,157,334853,53,8,3:2:0:0:
37,102,335000,1,0,3:2:0:0:
82,170,335148,2,0,L|70:171,1,10.5,0|0,3:0|0:0,0:0:0:0:
298,11,335442,37,0,3:3:0:0:
256,192,335736,53,8,3:2:0:0:
179,140,335883,1,8,3:2:0:0:
326,384,336030,38,0,B|354:375|354:375|389:400|425:336|366:306,1,146.999995513916,6|0,3:2|0:0,0:0:0:0:
359,305,336618,1,2,3:2:0:0:
482,249,336912,54,0,L|511:245,1,20.9999993591309,10|0,3:2|0:0,0:0:0:0:
466,241,337206,1,0,0:1:0:0:
417,30,337500,2,0,B|424:61|424:61|429:68|429:68|434:101,1,62.9999980773926,2|0,3:2|0:0,0:0:0:0:
440,93,337795,54,0,B|408:88|386:106|386:106|398:130|389:160,1,104.999996795654,2|0,3:2|0:0,0:0:0:0:
382,155,338236,1,8,3:2:0:0:
298,108,338383,1,2,3:2:0:0:
292,98,338677,54,0,B|290:87|290:87|297:78|297:78|289:54|289:54|297:40|296:9,1,83.9999974365235,10|0,3:2|0:1,0:0:0:0:
292,12,339265,53,2,3:2:0:0:
366,43,339412,1,2,0:0:0:0:
401,25,339559,54,0,B|406:11|406:11|441:2|464:8|492:30|492:73,1,125.999996154785,2|0,3:2|0:0,0:0:0:0:
388,205,340148,1,2,3:2:0:0:
388,205,340442,2,0,B|374:200|374:200|365:165|371:142|393:114|436:114,1,125.999996154785,10|0,3:2|0:2,0:0:0:0:
506,253,341030,1,10,3:2:0:0:
457,311,341324,54,0,B|450:302|450:302|488:299|511:265,2,83.9999974365235,2|0|0,3:2|0:1|3:2,0:0:0:0:
369,382,342206,2,0,B|365:365|365:365|375:348|388:342,1,41.9999987182618,10|0,3:2|0:0,0:0:0:0:
381,346,342500,1,0,0:1:0:0:
465,324,342795,2,0,L|469:348,1,21,2|0,3:2|0:0,0:0:0:0:
365,184,343089,54,0,B|337:175|337:175|302:200|266:136|325:106,1,146.999995513916,6|0,3:1|0:0,0:0:0:0:
331,108,343677,1,2,3:2:0:0:
442,9,343971,54,0,B|413:6|413:6|412:7|412:7|375:4,1,62.9999980773926,10|0,3:2|0:0,0:0:0:0:
369,12,344265,1,0,0:0:0:0:
294,39,344412,1,8,3:2:0:0:
294,30,344559,53,2,3:2:0:0:
332,122,344706,1,2,0:0:0:0:
369,219,344853,54,0,B|370:203|370:203|394:171|440:174,1,83.9999974365235,2|0,3:2|0:1,0:0:0:0:
427,92,345295,1,8,3:2:0:0:
427,92,345442,2,0,B|441:84|441:84|481:89|501:130,1,83.9999974365235,2|10,3:2|3:2,0:0:0:0:
493,252,346030,53,0,0:1:0:0:
420,384,346324,2,0,P|447:351|477:353,1,62.9999980773926,2|0,3:2|0:0,0:0:0:0:
482,359,346618,54,0,B|460:355|460:355|436:342|433:308,1,62.9999980773926,2|0,3:2|0:0,0:0:0:0:
437,315,346912,1,2,0:0:0:0:
354,229,347206,2,0,B|363:238|363:238|404:237|430:189,1,84,2|0,3:2|0:0,0:0:0:0:
504,148,347500,54,0,B|478:142|478:142|452:110|490:50,1,105,10|0,3:1|0:0,0:0:0:0:
493,66,347795,1,0,0:0:0:0:
373,78,348089,1,2,3:2:0:0:
304,0,348383,53,2,3:2:0:0:
359,76,348677,1,2,0:0:0:0:
328,144,348971,1,0,3:0:0:0:
439,282,349265,21,8,3:0:0:0:
461,215,349412,1,8,3:2:0:0:
443,296,349559,1,8,3:2:0:0:
324,353,349853,53,10,3:2:0:0:
269,0,350148,38,0,B|235:3|235:3|226:13|226:13|181:18,1,78.7500030040742,2|0,3:2|0:0,0:0:0:0:
185,12,350442,2,0,P|165:44|143:48,1,52.5000020027161,0|0,3:2|0:0,0:0:0:0:
79,10,350736,2,0,P|41:8|26:-8,1,52.5000020027161,10|0,3:2|0:0,0:0:0:0:
7,152,351030,54,0,B|3:122|3:122|6:116|6:116|0:71,1,78.7500030040742,2|0,3:2|0:0,0:0:0:0:
7,66,351324,1,0,3:2:0:0:
7,66,351618,53,10,3:2:0:0:
86,90,351765,1,2,0:0:0:0:
331,54,351912,54,0,B|350:55|362:40|362:40|364:35|364:35|367:14|385:5,1,78.7500030040742,6|0,3:1|0:0,0:0:0:0:
396,5,352206,2,0,L|338:-1,1,52.5000020027161,0|0,3:2|0:0,0:0:0:0:
460,65,352500,2,0,L|518:59,1,52.5000020027161,10|0,3:2|0:0,0:0:0:0:
510,144,352795,53,2,3:2:0:0:
500,176,352942,1,8,3:2:0:0:
502,138,353089,1,0,3:2:0:0:
502,138,353383,53,10,3:2:0:0:
460,65,353530,1,2,0:0:0:0:
505,298,353677,54,0,B|517:320|508:348|508:348|483:356|463:378,1,105.000004005432,6|0,3:1|3:2,0:0:0:0:
463,377,354265,1,10,3:2:0:0:
187,372,354559,54,0,B|175:350|184:322|184:322|209:314|229:292,1,105.000004005432,2|0,3:2|3:2,0:0:0:0:
229,293,355148,1,10,3:2:0:0:
390,368,355442,54,0,B|367:362|348:360|348:360|345:354|345:354|315:351|281:339,2,105.000004005432,2|0|8,3:2|3:2|3:2,0:0:0:0:
392,366,356324,1,0,3:2:0:0:
462,349,356471,1,8,3:2:0:0:
388,360,356618,53,0,3:2:0:0:
362,364,356912,53,10,3:2:0:0:
1,104,357206,54,0,B|19:105|19:105|38:142|19:175,1,78.7500030040742,4|0,3:1|0:0,0:0:0:0:
17,171,357500,2,0,B|44:166|44:166|46:166|46:166|81:160,1,52.5000020027161,0|0,3:2|0:0,0:0:0:0:
3,321,357795,2,0,B|-16:289|-7:254|-7:254|7:241,1,78.7500030040742,10|0,3:2|0:0,0:0:0:0:
10,248,358089,53,2,3:2:0:0:
79,172,358236,1,8,3:2:0:0:
22,244,358383,53,0,3:2:0:0:
77,353,358677,2,0,P|104:366|79:347,1,78.7500030040742,10|0,3:2|0:0,0:0:0:0:
81,346,358971,54,0,B|83:366|83:366|113:390|158:373,1,78.7500030040742,2|0,3:2|0:0,0:0:0:0:
143,369,359265,2,0,B|170:360|170:360|207:369,1,52.5000020027161,0|0,3:2|0:0,0:0:0:0:
374,358,359559,2,0,B|340:349|340:349|325:351|325:351|310:345|295:347,1,78.7500030040742,10|0,3:2|0:0,0:0:0:0:
287,350,359853,54,0,L|276:318,1,26.2500010013581,2|0,3:2|0:0,0:0:0:0:
197,376,360000,1,8,3:2:0:0:
274,354,360148,1,0,3:2:0:0:
498,361,360442,53,10,3:2:0:0:
477,241,360589,1,2,0:0:0:0:
455,249,360662,1,0,0:0:0:0:
448,259,360736,54,0,B|428:231|428:231|434:186|485:168,2,105.000004005432,2|2|10,3:2|3:2|3:2,0:0:0:0:
444,102,361545,1,2,3:2:0:0:
431,98,361618,2,0,B|445:66|445:66|487:49|528:84,2,105.000004005432,2|2|10,3:2|3:2|3:2,0:0:0:0:
212,27,362500,53,2,3:2:0:0:
277,104,362795,2,0,L|284:71,1,26.2500010013581,10|0,3:2|0:0,0:0:0:0:
243,213,363089,2,0,L|236:180,1,26.2500010013581,10|0,3:2|0:0,0:0:0:0:
266,289,363383,37,6,0:1:0:0:
251,332,363677,53,0,3:0:0:0:
258,346,363971,53,0,3:0:0:0:
250,364,364265,53,6,0:2:0:0:
330,318,364559,2,0,L|434:313,1,98,2|0,0:0|0:0,0:0:0:0:
409,326,365148,54,0,L|356:309,1,56
305,246,365736,2,0,L|250:257,1,56,2|2,0:0|0:0,0:0:0:0:
250,257,366324,53,0,0:0:0:0:
197,374,366618,1,0,0:0:0:0:
16,377,366912,53,2,0:3:0:0:
79,333,367206,1,0,0:0:0:0:
46,226,367500,1,0,0:0:0:0:
112,15,367795,53,2,0:2:0:0:
112,15,368089,2,0,B|122:41|122:41|144:113,1,98,2|0,0:0|0:0,0:0:0:0:
108,94,368677,54,0,B|116:78|116:78|141:39,1,56,2|0,0:3|0:0,0:0:0:0:
219,67,369265,2,0,B|237:56|237:56|275:35,1,56,2|2,0:0|0:0,0:0:0:0:
267,39,369853,53,0,0:0:0:0:
315,139,370148,1,0,0:0:0:0:
293,291,370442,53,2,0:3:0:0:
361,204,370736,1,0,0:0:0:0:
483,172,371030,1,0,0:0:0:0:
486,369,371324,53,2,0:2:0:0:
486,369,371618,2,0,B|457:336|457:336|444:317|444:317|425:293,1,98,2|0,0:0|0:0,0:0:0:0:
451,286,372206,54,0,B|434:305|434:305|432:309|432:309|413:332,1,56,2|0,0:3|0:0,0:0:0:0:
329,308,372795,2,0,B|324:332|324:332|324:337|324:337|319:366,1,56,2|2,0:0|0:0,0:0:0:0:
319,367,373383,53,0,0:0:0:0:
248,320,373677,1,0,0:0:0:0:
195,140,373971,53,2,0:3:0:0:
306,179,374265,1,0,0:0:0:0:
413,144,374559,1,0,0:0:0:0:
483,0,374853,53,2,0:2:0:0:
483,0,375148,2,0,B|476:37|476:37|476:45|476:45|473:62|473:62|465:104,1,98,2|0,0:0|0:0,0:0:0:0:
484,82,375736,54,0,B|475:62|475:62|468:57|468:57|465:49|465:49|452:26,1,56,2|0,0:3|0:0,0:0:0:0:
386,79,376324,2,0,B|369:66|369:66|360:65|360:65|353:60|353:60|331:47,1,56,2|2,0:0|0:0,0:0:0:0:
336,50,376912,53,0,0:0:0:0:
271,79,377206,1,0,0:0:0:0:
128,11,377500,53,2,0:3:0:0:
162,75,377795,1,0,0:0:0:0:
114,166,378089,1,0,0:0:0:0:
174,289,378383,53,2,0:2:0:0:
174,289,378677,2,0,B|154:283|154:283|146:278|146:278|123:277|123:277|110:271|110:271|77:265,1,98,2|0,0:0|0:0,0:0:0:0:
74,282,379265,54,0,B|89:275|89:275|96:275|96:275|105:268|105:268|107:268|107:268|125:258,1,56,2|0,0:3|0:0,0:0:0:0:
151,170,379853,2,0,B|167:171|167:171|173:174|173:174|184:173|184:173|186:174|186:174|207:174,1,56,2|2,0:0|0:0,0:0:0:0:
204,175,380442,53,0,0:0:0:0:
238,242,380736,1,0,0:0:0:0:
423,384,381030,53,2,0:3:0:0:
316,331,381324,1,0,0:0:0:0:
292,345,381618,1,0,0:0:0:0:
461,266,381912,53,2,0:2:0:0:
461,266,382206,2,0,B|447:234|447:234|448:229|448:229|442:212|442:212|436:201|436:201|430:195|430:195|421:178,1,98,2|0,0:0|0:0,0:0:0:0:
435,175,382795,54,0,B|432:186|432:186|430:193|430:193|425:194|425:194|425:200|425:200|419:207|419:207|415:222,1,56,2|0,0:3|0:0,0:0:0:0:
328,196,383383,2,0,B|319:204|319:204|314:210|314:210|310:207|310:207|307:213|307:213|298:216|298:216|286:227,1,56,2|2,0:0|0:0,0:0:0:0:
285,231,383971,53,0,0:0:0:0:
246,235,384265,1,0,0:0:0:0:
68,104,384559,53,2,0:3:0:0:
110,128,384853,1,0,0:0:0:0:
116,155,385148,1,0,0:0:0:0:
0,384,385442,101,6,0:1:0:0:
179,319,385736,6,0,B|160:313|160:313|154:313|154:313|148:309|148:309|136:311|136:311|119:304|119:304|98:305|98:305|81:301,1,98,2|0,0:0|0:0,0:0:0:0:
77,290,386324,53,2,0:3:0:0:
77,290,386618,1,0,0:0:0:0:
124,226,386912,1,2,0:0:0:0:
28,75,387206,53,2,0:0:0:0:
51,155,387500,1,0,0:0:0:0:
147,188,387795,1,0,0:0:0:0:
219,29,388089,53,2,0:3:0:0:
289,56,388383,1,0,0:0:0:0:
144,176,388677,1,0,0:0:0:0:
328,29,388971,53,2,0:2:0:0:
381,133,389265,2,0,B|367:130|367:130|358:130|358:130|356:122|356:122|335:120|335:120|333:118|333:118|313:120|313:120|306:113|306:113|283:108,1,98,2|0,0:0|0:0,0:0:0:0:
281,117,389853,53,2,0:3:0:0:
281,117,390148,1,0,0:0:0:0:
285,209,390442,1,2,0:0:0:0:
398,126,390736,53,2,0:0:0:0:
423,164,391030,1,0,0:0:0:0:
419,190,391324,1,0,0:0:0:0:
380,267,391618,53,2,0:3:0:0:
407,288,391912,1,0,0:0:0:0:
223,384,392206,1,0,0:0:0:0:
476,357,392500,53,2,0:2:0:0:
499,250,392795,2,0,B|497:237|497:237|501:230|501:230|499:220|499:220|502:213|502:213|494:204|494:204|497:195|497:195|497:185|497:185|498:175|498:175|494:155,1,98,2|0,0:0|0:0,0:0:0:0:
483,148,393383,53,2,0:3:0:0:
483,148,393677,1,0,0:0:0:0:
426,88,393971,1,2,0:0:0:0:
213,37,394265,53,2,0:0:0:0:
281,70,394559,1,0,0:0:0:0:
347,44,394853,1,0,0:0:0:0:
430,7,395148,53,2,0:3:0:0:
466,29,395442,1,0,0:0:0:0:
377,149,395736,1,0,0:0:0:0:
196,254,396030,53,2,0:2:0:0:
273,158,396324,2,0,B|256:158|256:158|253:159|253:159|245:156|245:156|236:156|236:156|230:153|230:153|222:153|222:153|208:148|208:148|203:150|203:150|193:146|193:146|181:147|181:147|177:145,1,98,2|0,0:0|0:0,0:0:0:0:
172,134,396912,53,2,0:3:0:0:
172,134,397206,1,0,0:0:0:0:
63,66,397500,1,2,0:0:0:0:
121,214,397795,53,2,0:0:0:0:
141,190,398089,1,0,0:0:0:0:
166,189,398383,1,0,0:0:0:0:
28,286,398677,54,0,B|32:294|32:294|33:297|33:297|37:304|37:304|36:310|36:310|38:320|38:320|38:326|38:326|42:333|42:333|39:341,2,56,2|0|0,0:3|0:0|0:0,0:0:0:0:
26,384,399559,6,0,B|26:364|26:364|30:355|30:355|29:339|29:339|32:325|32:325|29:305|29:305|35:289|35:289|35:267|35:267|40:244,1,125.999996154785,4|0,3:1|0:0,0:0:0:0:
48,250,399853,1,2,3:3:0:0:
100,342,400000,102,0,B|94:335|94:335|88:334|88:334|84:330|84:330|78:330|78:330|77:324|77:324|72:324|72:324|70:319|70:319|66:315,1,41.9999987182618,8|0,3:2|0:0,0:0:0:0:
176,302,400148,1,0,3:0:0:0:
239,352,400442,53,8,3:2:0:0:
266,277,400589,1,8,3:2:0:0:
255,243,400736,1,0,3:0:0:0:
267,227,400883,1,8,3:2:0:0:
263,210,401030,2,0,B|264:222|264:222|264:234|264:234|261:245|261:245|262:254|262:254|260:265|260:265|253:293|253:293|255:305|255:305|254:347,1,125.999996154785,2|0,3:3|0:0,0:0:0:0:
372,343,401324,54,0,B|342:338|342:338|319:347|319:347|310:344|310:344|281:347|281:347|274:344|274:344|252:345|252:345|238:339,1,125.999996154785,0|0,3:0|0:0,0:0:0:0:
239,350,401618,1,2,3:3:0:0:
122,243,401765,54,0,B|131:240|131:240|137:240|137:240|142:237|142:237|148:238|148:238|154:233|154:233|159:235|159:235|167:231|167:231|187:226,1,41.9999987182618,8|0,3:2|0:0,0:0:0:0:
201,166,401912,1,0,3:0:0:0:
191,152,402206,53,8,3:2:0:0:
148,91,402353,1,8,3:2:0:0:
105,85,402500,1,0,3:0:0:0:
70,99,402648,1,8,3:2:0:0:
67,114,402795,2,0,B|87:105|87:105|94:107|94:107|103:103|103:103|131:102|131:102|141:93|141:93|159:93|159:93|173:87|173:87|202:86,1,125.999996154785,2|0,3:3|0:0,0:0:0:0:
218,5,403089,6,0,B|216:31|216:31|227:49|227:49|226:68|226:68|233:82|233:82|233:90|233:90|240:103|240:103|246:139,1,125.999996154785,0|0,3:0|0:0,0:0:0:0:
252,132,403383,1,2,3:3:0:0:
313,72,403530,38,0,B|308:69|308:69|301:69|301:69|296:66|296:66|291:66|291:66|283:62|283:62|278:64|278:64|269:62,1,41.9999987182618,8|0,3:2|0:0,0:0:0:0:
371,27,403677,1,0,3:0:0:0:
379,15,403971,53,8,3:2:0:0:
414,80,404118,1,8,3:2:0:0:
398,117,404265,1,0,3:0:0:0:
412,136,404412,1,8,3:2:0:0:
408,151,404559,2,0,B|424:154|424:154|430:165|430:165|441:177|441:177|446:195|446:195|466:217|466:217|482:258,1,125.999996154785,2|0,3:3|0:0,0:0:0:0:
352,272,404853,70,0,B|372:265|372:265|384:271|384:271|401:267|401:267|418:267|418:267|435:262|435:262|453:269|453:269|506:257,1,125.999996154785,0|0,3:0|0:0,0:0:0:0:
483,258,405148,1,2,3:3:0:0:
512,123,405295,38,0,B|506:122|506:122|503:122|503:122|501:120|501:120|496:121|496:121|489:120|489:120|483:121|483:121|469:119,1,41.9999987182618,8|0,3:2|0:0,0:0:0:0:
408,55,405442,1,0,3:0:0:0:
411,72,405736,53,8,3:2:0:0:
355,115,405883,1,8,3:2:0:0:
305,119,406030,1,0,3:0:0:0:
276,106,406177,1,8,3:2:0:0:
270,88,406324,2,0,B|282:81|282:81|288:83|288:83|296:79|296:79|318:79|318:79|346:66|346:66|394:65,1,125.999996154785,2|0,3:3|0:0,0:0:0:0:
488,67,406618,70,0,B|466:59|466:59|455:64|455:64|435:56|435:56|418:58|418:58|390:51|390:51|355:52,1,125.999996154785,0|0,3:0|0:0,0:0:0:0:
355,58,406912,1,2,3:3:0:0:
170,31,407059,54,0,B|181:27|181:27|189:29|189:29|196:27|196:27|204:27|204:27|217:25|217:25|234:23,1,41.9999987182618,8|0,3:2|0:0,0:0:0:0:
295,0,407206,1,0,3:0:0:0:
285,7,407500,37,8,3:2:0:0:
240,83,407648,1,8,3:2:0:0:
246,154,407795,1,0,3:0:0:0:
222,190,407942,1,8,3:2:0:0:
226,209,408089,2,0,B|207:207|207:207|200:223|200:223|192:237|192:237|192:261|192:261|198:277|198:277|225:307,1,125.999996154785,2|0,3:3|0:0,0:0:0:0:
325,366,408383,6,0,B|310:350|310:350|303:349|303:349|286:330|286:330|262:318|262:318|254:302|254:302|230:286,1,125.999996154785,0|0,3:0|0:0,0:0:0:0:
215,291,408677,1,2,3:3:0:0:
86,384,408824,38,0,B|93:374|93:374|97:376|97:376|103:370|103:370|106:368|106:368|112:361|112:361|124:356,1,41.9999987182618,8|0,3:2|0:0,0:0:0:0:
198,381,408971,1,0,3:0:0:0:
197,371,409265,53,8,3:2:0:0:
132,315,409412,1,8,3:2:0:0:
76,310,409559,1,0,3:0:0:0:
42,322,409706,1,8,3:2:0:0:
29,334,409853,2,0,B|17:308|17:308|22:298|22:298|15:279|15:279|17:274|17:274|11:260|11:260|14:207,1,125.999996154785,2|0,3:3|0:0,0:0:0:0:
99,160,410148,6,0,B|118:156|118:156|135:139|135:139|142:117|142:117|142:96|142:96|110:64,1,125.999996154785,0|0,3:0|0:0,0:0:0:0:
102,71,410442,1,2,3:3:0:0:
0,0,410589,54,0,B|2:9|2:9|0:12|0:12|2:16|2:16|-2:20|-2:20|1:47,1,41.9999987182618,8|0,3:2|0:0,0:0:0:0:
37,104,410736,1,0,3:0:0:0:
36,112,411030,37,8,3:2:0:0:
130,61,411177,1,8,3:2:0:0:
210,75,411324,1,0,3:0:0:0:
266,37,411471,1,8,3:2:0:0:
305,47,411618,2,0,B|290:44|290:44|268:52|268:52|257:75|257:75|257:97|257:97|264:117|264:117|291:131,1,125.999996154785,2|0,3:3|0:0,0:0:0:0:
269,208,411912,70,0,B|277:203|277:203|307:201|307:201|322:193|322:193|336:191|336:191|347:181|347:181|391:171,1,125.999996154785,0|0,3:0|0:0,0:0:0:0:
393,161,412206,1,2,3:3:0:0:
512,100,412353,54,0,B|508:97|508:97|493:96|493:96|485:92|485:92|478:91|478:91|473:86|473:86|451:81,1,41.9999987182618,8|0,3:2|0:0,0:0:0:0:
425,25,412500,1,0,3:0:0:0:
414,35,412795,101,8,3:2:0:0:
388,148,412942,1,8,3:2:0:0:
427,234,413089,1,0,3:0:0:0:
466,266,413236,1,8,3:2:0:0:
502,265,413383,2,0,B|475:259|475:259|462:262|462:262|448:260|448:260|423:262|423:262|398:256|398:256|360:259,1,125.999996154785,2|0,3:3|0:0,0:0:0:0:
267,384,413677,6,0,B|277:361|277:361|294:343|294:343|315:331|315:331|340:326|340:326|369:330,1,125.999996154785,0|0,3:0|0:0,0:0:0:0:
374,340,413971,1,2,3:3:0:0:
262,378,414118,54,0,B|259:369|259:369|261:362|261:362|257:353|257:353|259:344|259:344|257:332,1,41.9999987182618,8|0,3:2|0:0,0:0:0:0:
282,257,414265,1,0,3:0:0:0:
283,268,414559,37,8,3:2:0:0:
243,186,414706,1,8,3:2:0:0:
259,117,414853,1,0,3:0:0:0:
219,70,415000,1,8,3:2:0:0:
227,26,415148,2,0,B|233:47|233:47|224:70|224:70|233:94|233:94|227:113|227:113|235:153,1,125.999996154785,2|0,3:3|0:0,0:0:0:0:
247,151,415442,6,0,B|219:157|219:157|194:142|194:142|185:117|185:117|165:99|165:99|137:94,1,125.999996154785,0|0,3:0|0:0,0:0:0:0:
137,103,415736,1,2,3:3:0:0:
0,43,415883,54,0,B|5:40|5:40|12:41|12:41|17:37|17:37|28:40|28:40|43:35,1,41.9999987182618,8|0,2:2|0:0,0:0:0:0:
55,123,416030,1,0,3:0:0:0:
45,130,416324,101,8,3:2:0:0:
36,246,416471,1,8,3:2:0:0:
87,336,416618,1,0,3:2:0:0:
130,346,416765,1,8,3:2:0:0:
149,344,416912,2,0,B|180:331|180:331|208:333|208:333|230:350|230:350|240:370|240:370|242:387,1,125.999996154785,2|0,3:3|0:0,0:0:0:0:
233,374,417206,6,0,B|218:345|218:345|221:317|221:317|206:298|206:298|202:248,1,125.999996154785,0|0,3:0|0:0,0:0:0:0:
208,240,417500,1,2,3:3:0:0:
309,149,417648,54,0,B|306:161|306:161|306:165|306:165|302:172|302:172|304:182|304:182|298:203,1,41.9999987182618,8|0,3:2|0:0,0:0:0:0:
325,264,417795,1,0,3:0:0:0:
331,277,418089,53,8,3:2:0:0:
410,220,418236,1,8,3:2:0:0:
419,140,418383,1,0,3:0:0:0:
486,109,418530,1,8,3:2:0:0:
494,65,418677,2,0,B|486:96|486:96|455:89|455:89|462:55|462:55|492:59,1,125.999996154785,2|0,3:3|0:0,0:0:0:0:
483,77,418971,54,0,B|468:98|468:98|476:135|476:135|466:166|466:166|482:193,1,125.999996154785,0|0,3:0|0:0,0:0:0:0:
492,204,419265,1,2,3:3:0:0:
401,351,419412,54,0,L|427:304,1,41.9999987182618,8|0,3:2|0:0,0:0:0:0:
495,285,419559,1,0,3:0:0:0:
495,297,419853,37,8,3:2:0:0:
418,227,420000,1,8,3:2:0:0:
341,230,420148,1,0,3:0:0:0:
291,266,420295,1,8,3:2:0:0:
279,293,420442,2,0,B|279:315|279:315|263:349|263:349|231:362|231:362|192:352,1,125.999996154785,2|0,3:3|0:0,0:0:0:0:
60,256,420736,6,0,B|108:255|108:255|134:269|134:269|184:269,1,125.999996154785,0|0,3:0|0:0,0:0:0:0:
193,260,421030,1,2,3:3:0:0:
284,148,421177,54,0,B|262:142|262:142|256:142|256:142|228:132,1,41.9999987182618,8|0,3:2|0:0,0:0:0:0:
165,169,421324,1,0,3:0:0:0:
162,182,421618,53,8,3:2:0:0:
133,96,421765,1,8,3:2:0:0:
61,70,421912,1,0,3:0:0:0:
37,6,422059,1,8,3:2:0:0:
1,4,422206,2,0,B|27:21|27:21|59:89|59:89|51:121,1,125.999996154785,2|0,3:3|0:0,0:0:0:0:
140,206,422500,54,0,B|92:191|92:191|74:204|74:204|19:187,1,125.999996154785,0|0,3:0|0:0,0:0:0:0:
1,171,422795,1,2,3:3:0:0:
45,319,422942,54,0,B|48:302|48:302|52:302|52:302|57:280,1,41.9999987182618,8|0,3:2|0:0,0:0:0:0:
137,216,423089,1,0,3:0:0:0:
134,228,423383,53,8,3:2:0:0:
156,320,423530,1,8,3:2:0:0:
226,363,423677,1,0,3:0:0:0:
299,364,423824,1,8,3:2:0:0:
346,305,423971,2,0,B|331:339|331:339|376:340|376:340|354:304,1,125.999996154785,2|0,3:3|0:0,0:0:0:0:
404,235,424265,22,0,B|351:210|351:210|288:236,1,125.999996154785,0|0,3:0|0:0,0:0:0:0:
276,249,424559,1,2,3:3:0:0:
405,140,424706,86,0,B|405:113|405:113|390:96,1,41.9999987182618,8|0,3:2|0:0,0:0:0:0:
318,79,424853,1,0,3:0:0:0:
314,103,425000,53,0,3:0:0:0:
314,103,425074,1,0,3:0:0:0:
314,103,425147,1,8,3:2:0:0:
225,138,425295,1,8,3:2:0:0:
138,125,425442,1,0,3:0:0:0:
72,160,425589,1,8,3:2:0:0:
25,149,425736,54,0,B|37:143|37:143|58:147,1,31.4999990386963,2|0,3:3|0:0,0:0:0:0:
130,254,426030,101,0,3:2:0:0:
171,325,426177,1,8,3:2:0:0:
122,263,426324,1,0,3:2:0:0:
185,317,426471,1,8,3:2:0:0:
293,318,426618,1,8,3:2:0:0:
387,241,426765,1,0,3:2:0:0:
297,84,426912,54,0,P|292:101|275:124,1,35,10|0,3:2|0:0,0:0:0:0:
206,27,427059,2,0,P|189:37|176:64,1,35,2|0,3:2|0:0,0:0:0:0:
317,182,427206,6,0,P|303:195|277:207,1,35,10|0,3:2|0:0,0:0:0:0:
94,45,427353,2,0,P|84:61|87:90,1,35,2|0,3:2|0:0,0:0:0:0:
269,295,427500,70,0,P|249:300|220:296,1,35,10|0,3:2|0:0,0:0:0:0:
19,146,427648,2,0,P|19:164|35:188,1,35,2|0,3:2|0:0,0:0:0:0:
80,384,427795,54,0,P|177:153|302:0,1,428.750004088879,6|0,3:2|0:0,0:0:0:0:
288,233,428383,2,0,P|364:185|473:169,1,183.750001752377,10|0,3:2|0:0,0:0:0:0:
279,384,428677,2,0,B|200:372|176:305|222:290|190:223|108:207,2,245.000002336502,6|2|2,3:1|0:0|3:2,0:0:0:0:
291,377,429559,54,0,L|375:355,1,61.2500005841255,6|0,3:2|0:0,0:0:0:0:
243,252,429853,38,0,L|184:236,1,43.75
269,133,430148,102,0,L|304:123,1,26.2500010013581,0|0,3:2|0:0,0:0:0:0:
245,40,430442,5,10,3:2:0:0:
182,70,430589,1,0,3:2:0:0:
295,206,430736,85,8,3:2:0:0:
382,255,430883,1,0,3:2:0:0:
208,331,431030,101,10,3:2:0:0:
96,381,431177,1,0,3:2:0:0:
343,332,431324,54,0,P|441:205|497:2,1,367.500014019013,6|0,3:2|0:0,0:0:0:0:
487,3,431912,2,0,P|482:65|517:160,1,157.500006008148,10|0,3:2|0:0,0:0:0:0:
225,358,432206,54,0,P|246:199|193:-4,1,367.500014019013,6|0,3:1|0:0,0:0:0:0:
185,1,432795,2,0,P|211:57|289:121,1,157.500006008148,2|0,3:2|0:0,0:0:0:0:
132,384,433089,54,0,L|64:371,1,52.5000020027161,6|0,3:2|0:0,0:0:0:0:
220,265,433383,54,0,L|275:254,1,35
117,188,433677,6,0,L|89:182,1,17.5,0|0,3:2|0:0,0:0:0:0:
171,108,433971,5,8,3:2:0:0:
165,98,434265,5,2,3:2:0:0:
245,142,434412,1,0,3:2:0:0:
360,72,434559,2,0,P|381:66|400:65,1,31.4999990386963,10|0,3:2|0:0,0:0:0:0:
263,364,434853,6,0,B|333:179|189:217|288:5,1,367.500014019013,6|0,3:2|0:0,0:0:0:0:
401,263,435442,2,0,B|477:200|405:181|501:113,1,157.500006008148,10|0,3:2|0:0,0:0:0:0:
351,376,435736,2,0,P|315:285|190:277,2,210.000008010865,6|2|2,3:1|0:0|3:2,0:0:0:0:
512,384,436618,54,0,P|399:219|254:104,1,367.500014019013,6|0,3:2|0:0,0:0:0:0:
149,291,437206,2,0,P|180:290|209:275,1,52.5000020027161,2|0,3:2|0:0,0:0:0:0:
176,204,437353,2,0,P|202:187|219:160,1,52.5000020027161,2|0,0:0|0:0,0:0:0:0:
315,0,437500,2,0,P|242:6|165:49,1,157.500006008148,6|0,3:1|0:0,0:0:0:0:
86,137,437795,53,2,3:1:0:0:
80,128,438089,1,2,3:1:0:0:
139,380,438383,22,0,P|130:311|-3:253,2,210.000008010865,6|2|2,3:2|0:0|3:2,0:0:0:0:
291,173,439265,2,0,P|300:104|433:46,2,210.000008010865,6|2|2,3:1|0:0|3:2,0:0:0:0:
379,360,440148,54,0,L|251:331,1,105,6|0,3:1|0:0,0:0:0:0:
109,286,440442,70,0,L|298:242,1,183.750001752377,4|0,3:1|0:0,0:0:0:0:
451,197,440736,22,0,L|187:137,1,262.5,4|0,3:1|0:0,0:0:0:0:
0,101,441030,22,0,L|379:14,1,341.250009763241,4|0,3:1|3:2,0:0:0:0:
456,22,441324,69,2,3:2:0:0:
477,62,441398,1,0,3:2:0:0:
470,106,441471,1,0,3:2:0:0:
432,130,441545,1,0,3:2:0:0:
418,123,441618,1,2,3:2:0:0:
381,150,441692,1,0,3:2:0:0:
368,193,441765,1,0,3:2:0:0:
378,237,441839,1,0,3:2:0:0:
411,266,441912,54,0,P|345:178|59:11,1,428.750004088879,6|0,3:2|0:0,0:0:0:0:
23,241,442500,2,0,P|81:212|102:96,1,183.750001752377,10|0,3:2|0:0,0:0:0:0:
371,7,442795,2,0,B|234:83|377:137|184:216,2,245.000002336502,6|2|2,3:1|0:0|3:2,0:0:0:0:
467,366,443677,54,0,P|462:270|227:35,1,428.750004088879,6|0,3:2|0:0,0:0:0:0:
236,47,444265,2,0,P|252:115|155:129,1,183.750001752377,2|0,3:2|0:0,0:0:0:0:
156,123,444559,5,10,3:2:0:0:
71,48,444706,1,0,3:2:0:0:
212,246,444853,21,8,3:2:0:0:
302,212,445000,1,0,3:2:0:0:
150,359,445148,101,10,3:2:0:0:
209,233,445295,1,0,3:2:0:0:
290,31,445442,22,0,P|297:132|389:410,1,367.500014019013,6|0,3:2|0:0,0:0:0:0:
448,309,446030,2,0,P|440:212|396:150,1,157.500006008148,10|0,3:2|0:0,0:0:0:0:
172,70,446324,2,0,P|180:167|224:229,1,157.500006008148,6|0,3:1|0:0,0:0:0:0:
397,161,446618,53,2,0:0:0:0:
454,85,446765,1,0,0:0:0:0:
423,16,446912,1,0,3:2:0:0:
419,23,447206,54,0,B|318:36|365:87|257:100,1,183.750001752377,6|0,3:2|0:0,0:0:0:0:
244,195,447500,1,2,0:0:0:0:
62,153,447648,54,0,P|133:162|143:267,1,183.750001752377,2|0,0:0|0:0,0:0:0:0:
78,307,447942,1,2,0:0:0:0:
287,384,448089,5,10,3:2:0:0:
414,311,448236,1,0,3:2:0:0:
236,249,448383,21,8,3:2:0:0:
123,196,448530,1,0,3:2:0:0:
274,114,448677,101,8,3:2:0:0:
342,73,448824,1,0,3:2:0:0:
239,3,448971,22,0,P|245:107|240:383,1,367.500003504753,6|0,3:2|0:0,0:0:0:0:
233,366,449559,2,0,P|237:277|290:185,1,157.500006008148,10|0,3:2|0:0,0:0:0:0:
512,209,449853,54,0,B|429:164|511:149|411:81,1,157.500006008148,4|0,3:1|0:0,0:0:0:0:
317,134,450148,1,2,0:0:0:0:
406,91,450295,1,0,0:0:0:0:
304,132,450442,1,0,3:2:0:0:
422,244,450589,53,2,0:0:0:0:
349,305,450736,2,0,P|342:216|302:102,1,183.750001752377,6|0,3:2|0:0,0:0:0:0:
224,164,451030,53,2,0:0:0:0:
241,244,451177,2,0,P|199:184|125:120,1,157.500006008148,2|0,0:0|0:0,0:0:0:0:
124,219,451471,53,2,0:0:0:0:
131,249,451618,2,0,P|81:225|-8:207,1,131.25,6|0,3:1|0:0,0:0:0:0:
7,215,451912,2,0,P|44:243|70:307,1,105,0|0,3:1|0:0,0:0:0:0:
73,297,452206,2,0,P|39:308|3:358,1,78.7500030040742,0|0,3:1|0:0,0:0:0:0:
229,384,452500,54,0,B|191:238|294:311|267:146,2,245.000002336502,6|2|2,3:2|0:0|3:2,0:0:0:0:
443,120,453383,2,0,P|372:78|424:-6,1,183.750001752377,6|0,3:1|0:0,0:0:0:0:
417,2,453677,1,0,3:0:0:0:
335,73,453824,1,0,0:0:0:0:
426,13,453971,1,0,3:2:0:0:
512,384,454265,54,0,P|417:263|290:160,1,306.250002920628,6|0,3:1|0:0,0:0:0:0:
289,173,454706,1,10,3:1:0:0:
320,324,454853,2,0,P|247:323|125:372,1,183.750001752377,0|0,3:1|0:0,0:0:0:0:
0,315,455148,54,0,P|17:227|93:67,1,262.500010013581,2|0,3:2|0:0,0:0:0:0:
101,73,455589,1,8,3:2:0:0:
131,230,455736,2,0,P|190:173|272:138,1,157.500006008148,2|0,3:2|0:0,0:0:0:0:
356,181,456030,53,10,3:2:0:0:
412,79,456177,1,0,3:2:0:0:
230,280,456324,53,10,3:2:0:0:
239,354,456471,1,2,3:2:0:0:
313,384,456618,38,0,P|323:331|322:303,1,78.7500030040742,6|0,3:2|0:0,0:0:0:0:
322,306,456912,2,0,L|385:294,1,52.5000020027161,2|0,0:0|0:2,0:0:0:0:
478,217,457206,2,0,L|415:205,1,52.5000020027161,10|0,3:2|0:0,0:0:0:0:
342,109,457500,1,2,3:2:0:0:
342,109,457647,2,0,P|387:106|405:27,1,131.25000500679,2|0,0:0|0:0,0:0:0:0:
408,32,458088,54,0,L|482:21,1,52.5000020027161,2|0,3:2|0:0,0:0:0:0:
290,101,458382,2,0,L|364:112,1,52.5000020027161,10|0,3:2|0:0,0:0:0:0:
189,36,458676,2,0,L|263:25,1,52.5000020027161,2|0,2:3|0:0,0:0:0:0:
109,150,458970,54,0,P|91:110|48:100,1,78.7500030040742,2|0,3:2|0:0,0:0:0:0:
60,98,459265,1,2,0:0:0:0:
0,159,459412,1,2,3:2:0:0:
90,246,459559,54,0,P|155:229|209:225,1,105.000004005432,8|0,3:2|3:2,0:0:0:0:
276,323,460147,1,0,3:2:0:0:
192,225,460294,1,8,3:2:0:0:
276,323,460441,2,0,P|306:315|332:313,1,52.5000020027161,2|0,3:2|0:0,0:0:0:0:
188,343,460735,2,0,P|197:313|208:289,1,52.5000020027161,10|0,3:2|0:0,0:0:0:0:
121,384,461029,2,0,P|100:362|85:340,1,52.5000020027161,2|0,2:3|0:0,0:0:0:0:
24,303,461323,54,0,P|66:333|72:384,2,105.000004005432,2|0|8,3:2|0:0|3:2,0:0:0:0:
24,303,462206,53,2,3:2:0:0:
94,240,462353,2,0,P|99:198|76:104,1,131.25000500679,2|0,0:0|0:0,0:0:0:0:
80,111,462794,2,0,P|121:104|145:99,1,52.5000020027161,2|0,3:2|0:0,0:0:0:0:
254,52,463088,54,0,P|220:46|170:5,1,78.7500030040742,10|0,3:2|0:0,0:0:0:0:
183,22,463382,1,2,2:3:0:0:
304,180,463529,2,0,P|304:143|407:96,1,157.500006008148,2|0,0:0|0:0,0:0:0:0:
396,91,464265,54,0,P|405:133|421:182,1,78.7500030040742,10|0,3:2|0:0,0:0:0:0:
415,167,464559,1,2,3:2:0:0:
506,262,464706,2,0,P|463:262|413:338,1,131.25000500679,2|0,0:0|0:0,0:0:0:0:
412,327,465147,1,2,3:2:0:0:
327,354,465441,1,10,3:2:0:0:
312,378,465735,1,2,2:3:0:0:
107,137,466029,54,0,B|95:132|83:93|83:93|102:250|102:250|97:270|79:282|54:275|44:260|50:238|64:228|87:235,1,315.000012016297,6|2,3:1|3:2,0:0:0:0:
81,233,467353,53,2,0:0:0:0:
81,233,467500,1,2,3:2:0:0:
141,302,467794,1,10,3:2:0:0:
146,340,468088,1,2,2:3:0:0:
244,132,468382,54,0,B|269:117|286:76|286:76|267:233|267:233|272:253|290:265|315:258|325:243|319:221|305:211|282:218,1,315.000012016297,2|2,3:2|3:2,0:0:0:0:
307,221,469706,1,8,3:2:0:0:
307,221,469853,1,0,3:2:0:0:
423,95,470147,1,8,3:2:0:0:
426,108,470441,53,2,2:3:0:0:
449,190,470588,1,2,0:0:0:0:
478,276,470735,102,0,L|485:202,1,70,6|0,3:2|0:0,0:0:0:0:
484,206,471323,2,0,L|482:224,1,17.5,8|0,3:2|0:0,0:0:0:0:
372,381,471618,53,0,0:0:0:0:
361,295,471765,1,0,0:0:0:0:
348,207,471912,1,12,3:1:0:0:
361,295,472206,1,8,3:2:0:0:
372,381,472500,1,8,3:2:0:0:
182,281,472794,53,0,0:0:0:0:
182,281,472941,1,0,0:0:0:0:
77,312,473088,2,0,B|58:241|58:241|89:162,1,140,0|8,3:2|3:2,0:0:0:0:
82,179,473676,2,0,B|58:241|58:241|77:312,1,140,0|0,3:2|3:2,0:0:0:0:
230,384,474265,53,0,3:2:0:0:
230,384,474559,1,8,3:2:0:0:
280,308,474853,1,0,3:2:0:0:
198,71,475147,6,0,L|188:20,1,49,12|0,3:2|0:0,0:0:0:0:
162,137,475735,37,8,3:2:0:0:
198,221,475882,1,0,3:2:0:0:
154,150,476029,53,8,3:2:0:0:
244,130,476176,1,0,3:2:0:0:
308,193,476323,1,0,3:2:0:0:
308,209,476617,69,8,0:0:0:0:
477,20,476765,1,8,0:0:0:0:
477,20,477059,2,0,L|470:0,1,21,8|0,0:0|3:0,0:0:0:0:
466,31,477353,53,0,3:0:0:0:
427,89,477426,1,0,3:0:0:0:
426,135,477500,1,0,3:0:0:0:
438,171,477573,1,0,3:0:0:0:
460,183,477647,1,0,3:0:0:0:
482,182,477720,1,0,3:0:0:0:
488,172,477794,6,0,P|347:116|218:116,1,262.5,6|0,3:2|0:0,0:0:0:0:
252,194,478088,2,0,P|251:149|219:114,1,87.5,8|0,3:2|0:0,0:0:0:0:
176,15,478235,2,0,P|136:-7|90:3,1,87.5
5,225,478382,54,0,P|36:205|47:168,1,61.2500005841255,0|0,3:2|0:0,0:0:0:0:
113,138,478529,2,0,P|112:100|86:71,1,61.2500005841255,0|0,3:2|0:0,0:0:0:0:
162,225,478676,54,0,P|177:261|183:315,1,61.2500005841255,10|0,3:2|0:0,0:0:0:0:
170,384,478823,2,0,P|170:290|219:81,1,262.5,2|0,0:0|0:0,0:0:0:0:
219,118,479117,1,2,0:0:0:0:
490,161,479265,54,0,P|485:122|492:91,1,61.2500005841255,10|0,3:2|0:0,0:0:0:0:
511,8,479412,2,0,P|511:115|375:137,1,262.5
371,124,479706,1,0,3:2:0:0:
193,79,479853,38,0,P|212:89|261:86,1,61.2500005841255,10|0,3:2|0:0,0:0:0:0:
241,0,480000,2,0,B|203:110|296:69|256:194,1,183.750001752377,2|0,0:0|0:0,0:0:0:0:
250,180,480294,1,2,0:0:0:0:
383,26,480441,53,8,3:2:0:0:
383,13,480588,1,0,0:0:0:0:
393,19,480735,1,0,3:2:0:0:
451,106,480882,1,0,3:2:0:0:
417,188,481029,54,0,P|398:198|349:195,1,61.2500005841255,10|0,3:2|0:0,0:0:0:0:
369,109,481176,2,0,B|407:219|314:178|354:303,1,183.750001752377,2|0,0:0|0:0,0:0:0:0:
364,294,481470,1,2,0:0:0:0:
511,384,481617,53,8,3:2:0:0:
511,384,481765,2,0,L|257:351,1,210,4|0,0:1|0:0,0:0:0:0:
249,280,482059,1,0,3:2:0:0:
77,313,482206,2,0,L|286:285,1,183.750001752377,10|0,3:2|0:0,0:0:0:0:
394,0,482500,70,0,P|397:122|323:267,1,262.5,6|0,3:2|0:0,0:0:0:0:
36,165,482794,2,0,P|140:101|302:92,1,262.5,10|0,3:2|0:0,0:0:0:0:
311,330,483088,54,0,P|266:321|247:274,1,87.5,2|0,3:2|0:0,0:0:0:0:
166,277,483235,2,0,P|151:233|182:193,1,87.5,0|0,3:2|0:0,0:0:0:0:
0,8,483382,2,0,P|94:45|31:166,1,262.5,10|0,3:2|0:0,0:0:0:0:
16,306,483676,54,0,P|136:227|254:194,1,262.5
265,201,483970,1,10,3:2:0:0:
478,384,484117,54,0,P|463:356|410:320,1,87.5,2|0,3:2|0:0,0:0:0:0:
289,370,484265,1,8,3:2:0:0:
410,236,484412,54,0,P|378:234|320:262,1,61.2500005841255,2|0,3:2|0:0,0:0:0:0:
286,383,484559,1,8,3:2:0:0:
285,382,484706,54,0,P|327:257|422:68,1,315.000012016297,6|0,3:2|0:0,0:0:0:0:
512,53,485000,1,0,3:2:0:0:
236,157,485147,54,0,P|222:100|222:61,1,61.2500005841255,10|0,3:2|0:0,0:0:0:0:
270,43,485294,1,2,0:0:0:0:
141,257,485441,54,0,P|100:214|80:180,1,61.2500005841255,0|0,3:2|0:0,0:0:0:0:
148,246,485588,2,0,P|107:203|87:169,1,61.2500005841255,0|0,3:2|0:0,0:0:0:0:
111,104,485735,1,8,3:2:0:0:
103,349,485882,54,0,P|46:332|12:313,1,61.2500005841255
109,359,486029,2,0,P|52:342|18:323,1,61.2500005841255,2|0,3:2|0:0,0:0:0:0:
239,298,486176,53,0,3:2:0:0:
281,323,486250,1,0,3:2:0:0:
329,327,486323,1,8,3:2:0:0:
372,302,486397,1,0,0:0:0:0:
384,254,486470,1,0,3:2:0:0:
413,214,486544,1,0,3:2:0:0:
462,210,486617,53,0,3:2:0:0:
469,219,486691,1,0,3:2:0:0:
475,229,486765,1,0,3:2:0:0:
479,240,486838,1,0,3:2:0:0:
479,252,486912,53,2,3:2:0:0:
466,248,486985,1,0,3:2:0:0:
431,211,487059,1,0,3:2:0:0:
417,141,487132,1,0,3:2:0:0:
460,75,487206,54,0,P|440:202|516:335,1,262.5,6|0,3:2|0:0,0:0:0:0:
335,197,487500,2,0,P|271:117|112:91,1,262.5,14|0,3:1|0:0,0:0:0:0:
59,33,487794,54,0,P|109:45|124:85,1,87.5,2|0,3:2|0:0,0:0:0:0:
40,123,487941,1,0,3:2:0:0:
70,326,488088,54,0,P|20:338|5:378,1,87.5,10|0,3:2|0:0,0:0:0:0:
11,384,488235,2,0,P|15:281|129:167,1,262.5,2|0,0:0|0:0,0:0:0:0:
133,181,488529,1,0,0:0:0:0:
338,213,488676,54,0,P|334:110|220:-4,1,262.5,10|0,3:2|0:0,0:0:0:0:
214,9,488970,2,0,P|262:39|301:24,1,87.5,0|0,3:2|0:0,0:0:0:0:
354,101,489117,2,0,P|403:74|410:33,1,87.5,0|0,3:2|0:0,0:0:0:0:
483,17,489265,1,10,3:2:0:0:
485,0,489412,1,0,0:0:0:0:
486,171,489559,54,0,P|383:170|384:306,1,262.5,2|0,3:2|0:0,0:0:0:0:
100,273,489853,2,0,P|180:272|180:378,1,210,10|0,3:2|0:0,0:0:0:0:
167,374,490147,53,2,3:2:0:0:
243,311,490294,1,0,3:2:0:0:
322,349,490441,1,10,3:2:0:0:
0,203,490588,54,0,P|106:180|168:88,1,210,6|0,3:2|0:0,0:0:0:0:
153,93,490882,2,0,P|159:137|179:166,1,70,0|0,3:0|0:0,0:0:0:0:
257,177,491029,1,8,3:2:0:0:
512,111,491176,54,0,P|406:88|344:-4,1,210,4|0,3:1|0:0,0:0:0:0:
359,1,491470,2,0,P|353:45|333:74,1,70,0|0,3:0|0:0,0:0:0:0:
321,170,491617,2,0,P|290:182|265:180,1,52.5000020027161,8|0,3:2|0:0,0:0:0:0:
183,212,491765,2,0,P|165:198|157:181,1,35,0|0,3:0|0:0,0:0:0:0:
9,384,491912,54,0,P|97:328|262:326,1,262.5,6|0,3:2|0:0,0:0:0:0:
504,384,492206,2,0,P|428:308|426:137,1,262.5,12|0,3:1|0:0,0:0:0:0:
433,153,492500,53,0,3:2:0:0:
263,91,492647,1,0,3:2:0:0:
26,50,492794,53,10,3:2:0:0:
196,2,492941,1,2,0:0:0:0:
433,153,493088,54,0,P|345:209|180:211,1,210,2|0,3:2|0:0,0:0:0:0:
26,50,493382,2,0,P|82:106|84:235,1,210,8|0,3:2|0:0,0:0:0:0:
74,237,493676,53,0,3:2:0:0:
210,289,493823,1,0,3:2:0:0:
438,293,493970,53,10,3:2:0:0:
374,336,494117,1,2,0:0:0:0:
313,379,494265,54,0,P|303:339|279:322,1,70,0|0,3:2|0:0,0:0:0:0:
198,303,494412,1,0,0:0:0:0:
211,206,494559,1,8,3:2:0:0:
143,136,494706,1,0,0:0:0:0:
397,97,494853,54,0,P|407:57|431:40,1,70,0|0,3:2|0:0,0:0:0:0:
512,54,495000,1,0,3:2:0:0:
349,256,495147,2,0,P|327:171|267:34,1,210,8|0,3:2|3:2,0:0:0:0:
171,19,495441,21,0,3:2:0:0:
130,5,495515,1,0,3:2:0:0:
90,19,495588,1,0,3:2:0:0:
66,54,495662,1,0,3:2:0:0:
75,94,495735,53,2,3:2:0:0:
118,156,495809,1,0,3:2:0:0:
112,206,495882,1,0,3:2:0:0:
91,236,495956,1,0,3:2:0:0:
74,247,496029,53,2,3:2:0:0:
103,219,496103,1,0,3:2:0:0:
126,212,496176,1,0,3:2:0:0:
152,216,496250,1,0,3:2:0:0:
161,227,496323,54,0,L|238:216,1,70,2|0,3:2|3:2,0:0:0:0:
314,199,496470,2,0,L|391:188,1,70,2|0,3:2|3:2,0:0:0:0:
476,178,496617,69,14,3:2:0:0:
476,178,496765,1,2,3:2:0:0:
456,273,496912,53,10,3:2:0:0:
456,273,497059,1,0,3:2:0:0:
357,343,497206,53,8,3:2:0:0:
357,343,497353,1,0,3:2:0:0:
233,384,497500,54,0,P|234:340|263:309,1,70,10|0,3:2|0:0,0:0:0:0:
232,210,497647,2,0,P|270:188|311:198,1,70,2|0,3:2|0:0,0:0:0:0:
387,170,497794,53,8,3:2:0:0:
387,170,497941,1,0,3:2:0:0:
299,42,498088,53,10,3:2:0:0:
299,42,498235,1,0,3:2:0:0:
143,13,498382,53,10,3:2:0:0:
143,13,498529,1,0,3:2:0:0:
0,165,498676,54,0,L|74:157,1,70,10|0,3:2|0:0,0:0:0:0:
182,117,498823,2,0,L|256:109,1,70,2|0,3:2|0:0,0:0:0:0:
379,79,498970,53,8,3:2:0:0:
379,79,499117,1,0,3:2:0:0:
466,124,499265,53,8,3:2:0:0:
466,124,499412,1,0,3:2:0:0:
500,245,499559,53,8,3:2:0:0:
500,245,499706,1,0,3:2:0:0:
512,384,499853,54,0,P|490:351|459:348,1,70,10|0,3:2|0:0,0:0:0:0:
424,262,500000,2,0,P|384:264|366:289,1,70,2|0,3:2|0:0,0:0:0:0:
278,353,500147,53,8,3:2:0:0:
278,353,500294,1,2,3:2:0:0:
137,342,500441,53,10,3:2:0:0:
137,342,500588,1,0,3:2:0:0:
41,202,500735,53,8,3:2:0:0:
41,202,500882,1,0,3:2:0:0:
81,0,501029,54,0,L|90:75,1,70,10|0,3:2|0:0,0:0:0:0:
47,139,501176,2,0,L|56:214,1,70,2|0,3:2|0:0,0:0:0:0:
7,367,501323,53,12,3:1:0:0:
7,367,501470,1,2,3:2:0:0:
88,301,501617,53,10,3:2:0:0:
88,301,501765,1,0,3:2:0:0:
228,349,501912,53,8,3:2:0:0:
228,349,502059,1,0,3:2:0:0:
380,259,502206,54,0,P|349:253|313:277,1,70,10|0,3:2|0:0,0:0:0:0:
231,274,502353,2,0,P|210:297|213:341,1,70,2|0,3:2|0:0,0:0:0:0:
298,384,502500,53,8,3:2:0:0:
298,384,502647,1,0,3:2:0:0:
382,343,502794,53,8,3:2:0:0:
382,343,502941,1,2,3:2:0:0:
251,197,503088,53,8,3:2:0:0:
251,197,503235,1,0,3:2:0:0:
354,43,503382,54,0,L|283:32,1,70,10|0,3:2|0:0,0:0:0:0:
205,74,503529,2,0,L|128:63,1,70,2|0,3:2|0:0,0:0:0:0:
52,131,503676,53,10,3:2:0:0:
52,131,503823,1,0,3:2:0:0:
155,149,503970,53,10,3:2:0:0:
155,149,504117,1,2,3:2:0:0:
213,258,504265,53,8,3:2:0:0:
213,258,504412,1,0,3:2:0:0:
349,272,504559,22,0,P|351:231|363:180,1,70,8|0,3:2|0:0,0:0:0:0:
380,384,504706,2,0,P|367:259|290:14,1,350,4|0,3:2|0:0,0:0:0:0:
378,0,505147,69,10,3:2:0:0:
391,1,505220,1,0,3:2:0:0:
403,6,505294,1,0,3:2:0:0:
413,14,505367,1,0,3:2:0:0:
419,26,505441,53,10,3:2:0:0:
408,66,505515,1,0,3:2:0:0:
372,88,505588,1,0,3:2:0:0:
329,89,505662,1,0,3:2:0:0:
298,60,505735,53,10,3:2:0:0:
253,34,505809,1,0,3:2:0:0:
192,34,505882,1,2,3:2:0:0:
138,75,505956,1,0,3:2:0:0:
122,143,506029,21,12,3:2:0:0:
20,93,506176,1,2,3:2:0:0:
122,143,506323,53,10,3:2:0:0:
20,93,506470,1,0,3:2:0:0:
180,264,506617,53,8,3:2:0:0:
180,264,506765,1,0,3:2:0:0:
297,198,506912,54,0,P|322:213|325:257,1,70,10|0,3:2|0:0,0:0:0:0:
381,306,507059,2,0,P|380:335|343:359,1,70,2|0,3:2|0:0,0:0:0:0:
251,384,507206,53,8,3:2:0:0:
94,321,507353,1,0,3:2:0:0:
251,384,507500,53,10,3:2:0:0:
94,321,507647,1,0,3:2:0:0:
297,198,507794,53,10,3:2:0:0:
297,198,507941,1,0,3:2:0:0:
476,138,508088,54,0,L|401:121,1,70,10|0,3:2|0:0,0:0:0:0:
331,62,508235,2,0,L|256:45,1,70,2|0,3:2|0:0,0:0:0:0:
155,0,508382,53,8,3:2:0:0:
61,54,508529,1,0,3:2:0:0:
155,0,508676,53,10,3:2:0:0:
61,54,508823,1,0,3:2:0:0:
221,147,508970,53,10,3:2:0:0:
221,147,509117,1,0,3:2:0:0:
323,243,509265,54,0,P|297:246|274:297,1,70,10|0,3:2|0:0,0:0:0:0:
195,305,509412,2,0,P|184:329|217:374,1,70,2|0,3:2|0:0,0:0:0:0:
322,384,509559,53,8,3:2:0:0:
512,310,509706,1,2,3:2:0:0:
322,384,509853,53,10,3:2:0:0:
512,310,510000,1,0,3:2:0:0:
205,227,510147,53,8,3:2:0:0:
205,227,510294,1,0,3:2:0:0:
33,119,510441,54,0,L|49:196,1,70,8|0,3:2|0:0,0:0:0:0:
108,247,510588,2,0,L|124:324,1,70,0|0,3:2|0:0,0:0:0:0:
211,382,510735,53,10,3:2:0:0:
117,327,510882,1,0,3:2:0:0:
211,382,511029,53,8,3:2:0:0:
117,327,511176,1,0,3:2:0:0:
297,290,511323,53,10,3:2:0:0:
411,217,511470,1,0,3:2:0:0:
297,290,511617,53,8,3:2:0:0:
411,217,511765,1,0,3:2:0:0:
219,196,511912,53,10,3:2:0:0:
75,96,512059,1,0,3:2:0:0:
219,196,512206,53,8,3:2:0:0:
75,96,512353,1,0,3:2:0:0:
302,114,512500,53,10,3:2:0:0:
474,0,512647,1,0,3:2:0:0:
302,114,512794,53,8,3:2:0:0:
474,0,512941,1,0,3:2:0:0:
235,27,513088,53,10,3:2:0:0:
235,27,513235,1,0,3:2:0:0:
237,157,513382,53,8,3:2:0:0:
237,157,513529,1,0,3:2:0:0:
245,283,513676,53,8,3:2:0:0:
245,283,513823,1,0,3:2:0:0:
250,384,513970,6,0,P|251:337|270:305,1,70,10|0,3:2|0:0,0:0:0:0:
512,172,514117,2,0,P|518:283|391:351,1,262.5,6|0,3:2|0:0,0:0:0:0:
383,342,514412,5,0,3:2:0:0:
416,266,514559,1,8,3:2:0:0:
389,186,514706,1,0,3:2:0:0:
260,90,514853,53,8,3:2:0:0:
273,79,514926,1,0,3:2:0:0:
289,71,515000,1,0,3:2:0:0:
306,69,515073,1,0,3:2:0:0:
322,75,515147,53,8,3:2:0:0:
281,91,515220,1,0,3:2:0:0:
241,71,515294,1,0,3:2:0:0:
206,43,515367,1,0,3:2:0:0:
199,0,515441,6,0,P|199:28|190:70,1,61.2500005841255,6|0,3:2|0:0,0:0:0:0:
182,67,515588,2,0,P|175:95|173:137,1,61.2500005841255,2|0,0:0|0:0,0:0:0:0:
180,136,515735,2,0,P|179:168|171:206,1,61.2500005841255,10|0,3:2|0:0,0:0:0:0:
162,202,515882,54,0,P|172:111|128:21,1,183.750001752377,2|0,3:2|0:0,0:0:0:0:
122,17,516176,2,0,P|136:36|174:57,1,61.2500005841255,2|0,3:0|0:0,0:0:0:0:
0,330,516470,53,2,3:2:0:0:
0,330,516617,2,0,P|34:317|80:318,1,61.2500005841255,2|0,3:2|0:0,0:0:0:0:
77,336,516765,2,0,P|108:335|137:324,1,61.2500005841255,2|0,3:2|0:0,0:0:0:0:
153,306,516912,2,0,P|183:295|213:294,1,61.2500005841255,10|0,3:2|0:0,0:0:0:0:
230,311,517059,54,0,P|136:312|60:248,1,183.750001752377,2|0,3:2|0:0,0:0:0:0:
65,232,517353,2,0,P|85:251|85:305,1,61.2500005841255,2|0,3:0|0:0,0:0:0:0:
80,290,517500,2,0,P|60:271|60:217,1,61.2500005841255,10|0,2:0|0:0,0:0:0:0:
350,384,517647,53,2,3:2:0:0:
350,384,517794,2,0,P|362:347|350:313,1,61.2500005841255,4|0,3:2|0:0,0:0:0:0:
330,295,517941,2,0,P|319:256|330:224,1,61.2500005841255,2|0,0:2|0:0,0:0:0:0:
353,210,518088,2,0,P|363:171|353:139,1,61.2500005841255,10|0,3:2|0:0,0:0:0:0:
333,121,518235,54,0,P|355:262|355:326,1,183.750001752377,2|0,3:2|0:0,0:0:0:0:
332,331,518529,2,0,P|351:291|378:275,1,61.2500005841255,2|0,3:0|0:0,0:0:0:0:
29,17,518823,53,2,3:2:0:0:
29,17,518970,2,0,P|52:42|89:40,1,61.2500005841255,2|0,3:2|0:0,0:0:0:0:
124,26,519117,2,0,P|153:30|172:53,1,61.2500005841255,2|0,3:2|0:0,0:0:0:0:
192,98,519265,2,0,P|211:121|240:125,1,61.2500005841255,10|0,3:2|0:0,0:0:0:0:
331,111,519412,54,0,P|256:150|258:251,1,183.750001752377,4|0,3:1|0:0,0:0:0:0:
326,283,519706,1,2,3:0:0:0:
512,175,519853,54,0,L|448:164,1,61.2500005841255,10|0,3:2|0:0,0:0:0:0:
385,213,520000,2,0,L|321:202,1,61.2500005841255,2|0,3:2|0:0,0:0:0:0:
100,126,520147,54,0,P|78:150|68:187,1,52.5000020027161,6|0,3:2|0:0,0:0:0:0:
63,175,520294,2,0,P|55:206|65:243,1,52.5000020027161,2|0,0:2|0:0,0:0:0:0:
54,236,520441,2,0,P|63:267|90:294,1,52.5000020027161,10|0,3:2|0:0,0:0:0:0:
85,285,520588,86,0,P|49:192|-9:137,1,157.500006008148,2|0,3:2|0:0,0:0:0:0:
1,155,520882,2,0,P|29:173|55:175,1,52.5000020027161,2|0,3:0|0:0,0:0:0:0:
203,115,521176,21,2,0:2:0:0:
203,115,521323,2,0,P|239:88|269:89,1,52.5000020027161,2|0,3:2|0:0,0:0:0:0:
248,66,521470,2,0,P|292:61|317:77,1,52.5000020027161,2|0,3:2|0:0,0:0:0:0:
316,53,521617,2,0,P|357:71|370:97,1,52.5000020027161,10|0,3:2|0:0,0:0:0:0:
359,97,521765,86,0,P|288:84|206:29,1,157.500006008148,4|0,3:1|0:0,0:0:0:0:
232,27,522059,2,0,P|247:53|256:84,1,52.5000020027161,2|0,3:3|0:0,0:0:0:0:
327,272,522353,21,2,3:2:0:0:
327,272,522500,2,0,P|362:269|394:284,1,52.5000020027161,2|0,3:2|0:0,0:0:0:0:
405,257,522647,2,0,P|436:271|456:301,1,52.5000020027161,0|0,0:2|0:0,0:0:0:0:
478,293,522794,2,0,P|498:321|500:357,1,52.5000020027161,10|0,3:2|0:0,0:0:0:0:
512,368,522941,86,0,P|459:307|459:213,1,157.500006008148,2|0,3:2|0:0,0:0:0:0:
466,203,523235,2,0,P|467:252|453:284,1,52.5000020027161,2|0,3:0|0:0,0:0:0:0:
93,384,523529,21,2,3:2:0:0:
93,384,523676,2,0,P|70:354|70:322,1,52.5000020027161,2|0,3:2|0:0,0:0:0:0:
0,302,523823,2,0,P|14:267|42:251,1,52.5000020027161,2|0,3:2|0:0,0:0:0:0:
37,179,523970,2,0,P|74:174|102:190,1,52.5000020027161,10|0,3:2|0:0,0:0:0:0:
145,272,524117,86,0,P|90:215|69:117,1,157.500006008148,4|0,3:1|0:0,0:0:0:0:
125,83,524412,1,2,3:3:0:0:
364,113,524559,22,0,L|294:103,1,52.5000020027161,8|0,3:2|0:0,0:0:0:0:
238,156,524706,2,0,L|168:146,1,52.5000020027161
477,76,524853,54,0,P|468:113|476:150,1,62.9999980773926,6|0,3:2|0:0,0:0:0:0:
507,214,525000,2,0,P|516:251|508:288,1,62.9999980773926,2|0,0:2|0:0,0:0:0:0:
432,323,525147,2,0,P|423:360|431:397,1,62.9999980773926,10|0,3:2|0:0,0:0:0:0:
252,298,525294,54,0,P|342:272|402:186,1,188.999994232178,2|0,0:2|0:0,0:0:0:0:
390,188,525588,2,0,P|390:214|406:246,1,62.9999980773926,2|0,3:3|0:0,0:0:0:0:
500,224,525735,1,8,3:2:0:0:
205,382,525882,53,2,0:2:0:0:
205,382,526029,2,0,P|179:351|148:342,1,62.9999980773926,2|0,3:2|0:0,0:0:0:0:
67,321,526176,2,0,P|48:295|45:264,1,62.9999980773926,2|0,3:2|0:0,0:0:0:0:
46,160,526323,2,0,P|20:129|-10:120,1,62.9999980773926,10|0,3:2|0:0,0:0:0:0:
204,57,526470,54,0,P|204:139|146:238,1,188.999994232178,2|0,3:2|0:0,0:0:0:0:
115,224,526765,2,0,P|166:211|194:219,1,62.9999980773926,2|0,3:3|0:0,0:0:0:0:
246,271,526912,1,8,3:2:0:0:
429,384,527059,53,2,0:0:0:0:
429,384,527206,2,0,P|426:335|412:312,1,62.9999980773926,6|0,3:2|0:0,0:0:0:0:
315,246,527353,2,0,P|304:216|306:185,1,62.9999980773926,2|0,0:2|0:0,0:0:0:0:
353,72,527500,2,0,P|354:40|344:11,1,62.9999980773926,10|0,3:2|0:0,0:0:0:0:
512,271,527647,54,0,P|492:192|380:139,1,188.999994232178,2|0,0:2|0:0,0:0:0:0:
373,174,527941,2,0,P|425:158|437:142,1,62.9999980773926,2|0,3:3|0:0,0:0:0:0:
443,68,528088,1,8,3:2:0:0:
155,6,528235,53,2,0:0:0:0:
155,6,528382,2,0,P|114:31|81:35,1,62.9999980773926,10|0,3:2|0:0,0:0:0:0:
289,25,528529,2,0,P|325:56|356:66,1,62.9999980773926,0|0,3:2|0:0,0:0:0:0:
164,110,528676,54,0,P|134:147|104:162,1,56,10|0,3:2|0:0,0:0:0:0:
266,128,528823,2,0,P|289:170|315:190,1,56,0|0,3:2|0:0,0:0:0:0:
166,218,528970,102,0,P|150:263|127:287,1,48.9999985046387,10|0,3:2|0:0,0:0:0:0:
249,232,529117,2,0,P|256:279|274:307,1,48.9999985046387,8|0,0:0|0:0,0:0:0:0:
198,333,529265,54,0,P|190:380|172:408,1,41.9999987182618,10|0,3:2|0:0,0:0:0:0:
211,333,529412,2,0,P|209:381|222:411,1,41.9999987182618,8|0,0:0|0:0,0:0:0:0:
198,384,529559,86,0,P|207:274|263:110,1,262.5,6|0,3:2|0:0,0:0:0:0:
73,261,529853,2,0,P|38:188|14:64,1,194.249999258995,10|0,3:2|0:0,0:0:0:0:
77,2,530147,53,2,3:2:0:0:
83,18,530294,1,0,3:2:0:0:
183,80,530441,1,10,3:2:0:0:
429,21,530588,54,0,P|339:33|325:230,1,323.749998764992,2|0,0:0|0:0,0:0:0:0:
336,227,531029,1,8,3:2:0:0:
376,302,531176,1,0,0:0:0:0:
510,209,531323,54,0,L|430:185,1,64.7499997529984,2|0,0:0|0:0,0:0:0:0:
399,102,531470,1,0,3:2:0:0:
216,321,531617,54,0,L|296:297,1,64.7499997529984,10|0,3:2|0:0,0:0:0:0:
327,214,531765,1,0,0:0:0:0:
385,384,531912,54,0,P|363:295|365:112,1,262.5,6|0,3:2|0:0,0:0:0:0:
278,302,532206,2,0,P|231:253|165:135,1,194.249999258995,10|0,3:2|0:0,0:0:0:0:
216,363,532500,2,0,P|151:344|35:275,1,194.249999258995,2|0,3:2|0:0,0:0:0:0:
27,206,532794,1,10,3:2:0:0:
173,133,532941,54,0,P|181:169|177:202,1,64.7499997529984,2|0,0:0|0:0,0:0:0:0:
114,244,533088,1,0,3:2:0:0:
149,313,533235,1,0,3:2:0:0:
105,243,533382,1,8,3:2:0:0:
8,384,533529,54,0,P|89:260|254:260,1,323.749998764992,4|0,0:1|0:0,0:0:0:0:
249,273,533970,2,0,P|283:308|293:324,1,62.9999980773926,8|0,3:2|0:0,0:0:0:0:
512,288,534265,54,0,P|477:169|335:169,1,262.5,6|0,3:2|0:0,0:0:0:0:
349,169,534559,2,0,P|388:144|394:120,1,70,8|0,3:2|0:0,0:0:0:0:
329,65,534706,2,0,P|326:18|309:1,1,70
226,19,534853,53,0,3:2:0:0:
163,48,535000,1,0,3:2:0:0:
247,174,535147,54,0,L|278:250,1,70,10|0,3:2|0:0,0:0:0:0:
365,306,535294,2,0,L|396:382,1,70,2|0,0:0|0:0,0:0:0:0:
427,244,535441,54,0,P|332:235|258:377,1,262.5,2|0,3:2|0:0,0:0:0:0:
268,369,535735,2,0,P|255:320|236:304,1,70,8|0,3:2|0:0,0:0:0:0:
182,199,535882,2,0,P|133:185|109:194,1,70
6,195,536029,53,0,0:0:0:0:
9,178,536176,1,0,3:2:0:0:
0,384,536323,54,0,P|38:362|53:333,1,70,10|0,3:2|0:0,0:0:0:0:
131,339,536470,2,0,P|153:301|152:268,1,70,2|0,0:0|0:0,0:0:0:0:
195,82,536617,54,0,P|115:63|55:22,1,152.250004646301,4|0,3:1|0:0,0:0:0:0:
60,14,536912,1,8,3:2:0:0:
309,180,537059,54,0,P|389:161|449:120,1,152.250004646301,4|0,0:1|0:0,0:0:0:0:
444,112,537353,1,0,3:2:0:0:
442,33,537500,1,8,3:2:0:0:
512,0,537647,1,0,3:0:0:0:
277,30,537794,21,8,3:2:0:0:
242,68,537867,1,0,3:2:0:0:
237,118,537941,1,0,3:2:0:0:
248,167,538015,1,0,3:2:0:0:
287,198,538088,1,8,3:2:0:0:
304,245,538162,1,0,3:2:0:0:
301,295,538235,1,0,3:2:0:0:
273,338,538309,1,0,3:2:0:0:
222,341,538382,54,8,L|150:327,1,50.7500015487671,8|0,3:0|0:0,3:0:0:0:
381,179,538529,2,8,L|453:165,1,50.7500015487671,8|0,3:0|0:0,3:0:0:0:
196,251,538676,54,0,L|124:237,1,50.7500015487671,8|0,3:0|0:0,0:0:0:0:
320,111,538823,2,0,L|392:97,1,50.7500015487671,8|0,3:0|0:0,0:0:0:0:
185,2,538970,102,0,P|166:73|10:137,1,253.750007743836,4|0,3:2|0:0,0:0:0:0:
213,172,539412,2,0,P|273:188|324:265,1,152.250004646301,4|0,3:1|0:0,0:0:0:0:
318,268,539706,1,0,3:2:0:0:
232,301,539853,1,8,3:2:0:0:
217,335,540000,1,0,3:2:0:0:
394,367,540147,21,0,3:2:0:0:
397,384,540294,1,0,3:2:0:0:
460,296,540441,1,8,3:2:0:0:
491,139,540588,54,0,P|423:113|457:15,1,183.750001752377
455,16,540882,2,0,P|400:61|265:84,1,183.750001752377,8|0,3:2|0:0,0:0:0:0:
232,33,541176,1,0,3:2:0:0:
139,206,541323,54,0,B|125:159|169:118|219:133|267:22|176:-56|118:13,1,306.250002920628,4|0,3:2|0:0,0:0:0:0:
115,14,541765,2,0,B|93:-18|63:-34|14:-29|1:29|1:69|36:90,1,183.750001752377,4|0,3:1|0:0,0:0:0:0:
29,81,542059,53,0,3:2:0:0:
61,167,542206,1,8,3:2:0:0:
45,193,542353,1,0,3:2:0:0:
35,186,542647,53,0,3:2:0:0:
15,278,542794,1,8,3:2:0:0:
81,336,542941,1,0,0:0:0:0:
228,300,543088,53,0,3:2:0:0:
124,245,543235,1,8,3:2:0:0:
268,197,543382,53,0,3:2:0:0:
373,134,543529,1,0,3:2:0:0:
168,111,543676,54,0,B|153:106|142:114|137:132|145:144|165:149|180:140|184:124|184:124|167:18|167:18|281:0|281:0,1,306.250002920628,4|0,3:2|0:0,0:0:0:0:
287,5,544117,2,0,B|302:103|302:103|299:119|285:129|265:123|256:113|261:95|271:87|286:91,1,183.750001752377,4|0,3:1|0:0,0:0:0:0:
366,144,544412,53,0,3:2:0:0:
445,118,544559,1,8,3:2:0:0:
458,35,544706,1,0,3:2:0:0:
305,208,544853,53,0,3:2:0:0:
297,194,545000,1,0,3:2:0:0:
384,225,545147,1,8,3:2:0:0:
343,343,545294,54,0,P|362:276|472:244,1,183.750001752377
471,249,545588,1,8,3:2:0:0:
448,324,545735,1,0,3:2:0:0:
470,352,545882,1,0,3:2:0:0:
123,281,546029,54,0,B|137:285|148:277|153:259|145:247|125:242|110:251|106:267|106:267|123:373|123:373|259:356|259:356,1,306.250002920628,4|0,3:2|0:0,0:0:0:0:
244,363,546470,2,0,B|234:262|234:262|239:246|253:238|273:244|280:256|275:273|263:280|250:276,1,183.750001752377,4|0,3:1|0:0,0:0:0:0:
235,276,546765,53,0,3:2:0:0:
189,200,546912,1,8,3:2:0:0:
227,120,547059,1,0,3:2:0:0:
373,21,547206,101,0,3:2:0:0:
410,41,547279,1,0,3:2:0:0:
427,80,547353,1,0,3:2:0:0:
413,120,547426,1,0,3:2:0:0:
377,144,547500,53,0,3:2:0:0:
377,131,547573,1,0,3:2:0:0:
382,119,547647,1,0,3:2:0:0:
389,109,547720,1,0,3:2:0:0:
398,100,547794,53,0,3:2:0:0:
366,124,547867,1,0,3:2:0:0:
333,128,547941,1,0,3:2:0:0:
314,113,548015,1,0,3:2:0:0:
305,96,548088,53,0,3:2:0:0:
288,74,548162,1,0,3:2:0:0:
255,43,548235,1,0,3:2:0:0:
192,19,548309,1,0,3:2:0:0:
119,36,548382,38,0,P|157:77|311:31,1,218.75,4|0,3:2|0:0,0:0:0:0:
250,182,548823,2,0,P|254:250|298:313,1,131.25,4|0,3:1|0:0,0:0:0:0:
295,302,549117,21,0,3:2:0:0:
203,318,549265,1,8,3:2:0:0:
185,353,549412,1,0,3:2:0:0:
36,271,549559,85,0,3:2:0:0:
60,355,549706,1,0,3:2:0:0:
172,168,549853,21,8,3:2:0:0:
144,275,550000,1,0,0:0:0:0:
20,18,550147,85,0,3:2:0:0:
59,150,550294,1,8,3:2:0:0:
160,178,550441,1,0,3:2:0:0:
240,142,550588,1,0,3:2:0:0:
268,60,550735,22,0,P|201:62|130:-15,1,175,4|0,3:2|0:0,0:0:0:0:
146,155,551176,2,0,P|112:202|106:257,1,105,4|0,3:1|0:0,0:0:0:0:
108,247,551470,85,0,3:2:0:0:
95,328,551617,1,8,3:2:0:0:
114,353,551765,1,0,3:2:0:0:
277,373,551912,21,8,3:2:0:0:
434,324,552059,1,0,3:2:0:0:
512,217,552206,101,8,3:2:0:0:
391,184,552353,1,0,3:2:0:0:
248,99,552500,53,8,3:2:0:0:
339,62,552647,1,0,3:2:0:0:
411,74,552794,1,0,3:2:0:0:
435,54,552941,1,0,3:2:0:0:
451,60,553088,1,4,3:1:0:0:
451,152,554270,6,0,P|480:130|520:120,2,70.0000026702882,2|0|0,0:0|0:0|0:0,0:0:0:0:
447,288,554781,2,0,P|404:232|361:225,1,105,2|0,0:0|0:0,0:0:0:0:
262,308,555117,2,0,P|314:294|351:277,2,70
181,254,555592,21,2,0:0:0:0:
150,327,555755,1,0,0:0:0:0:
163,365,555920,1,0,0:0:0:0:
154,382,556085,86,0,P|155:306|179:222,1,140.000005340576,2|0,0:0|0:0,0:0:0:0:
86,204,556580,2,0,P|77:169|59:136,1,70.0000026702882
194,172,556943,22,0,P|209:124|205:-11,1,175,2|0,0:0|0:0,0:0:0:0:
192,4,557443,2,0,P|228:27|330:24,1,140,2|0,0:0|0:0,0:0:0:0:
340,148,557943,1,0,0:0:0:0:
308,235,558109,1,0,0:0:0:0:
308,235,558276,86,0,P|341:223|380:212,2,70.0000026702882,2|0|0,0:0|0:0|0:0,0:0:0:0:
222,175,558776,1,0,0:0:0:0:
199,239,558939,1,0,0:0:0:0:
217,271,559102,1,0,0:0:0:0:
169,350,559265,22,0,P|154:332|117:301,1,70.0000026702882,2|0,0:0|0:0,0:0:0:0:
266,384,559609,2,0,P|305:315|361:324,1,140.000005340576,2|0,0:0|0:0,0:0:0:0:
436,343,560100,2,0,P|404:336|349:331,1,70.0000026702882,2|0,0:0|0:0,0:0:0:0:
307,213,560428,85,0,0:0:0:0:
336,199,560592,1,0,0:0:0:0:
352,206,560765,1,0,0:0:0:0:
491,117,560939,22,0,P|466:108|419:105,1,70.0000026702882,2|0,0:0|0:0,0:0:0:0:
362,0,561272,2,0,P|352:46|337:76,1,70.0000026702882
347,145,561605,2,0,P|302:159|268:161,1,70.0000026702882
198,82,561939,85,0,0:0:0:0:
212,54,562105,1,0,0:0:0:0:
45,128,562845,70,0,P|55:63|211:40,1,245,6|0,0:1|0:0,0:0:0:0:
424,181,563433,2,0,P|416:132|299:114,1,183.750007009506,6|0,0:1|0:0,0:0:0:0:
294,119,564021,53,6,0:1:0:0:
250,275,564168,1,0,3:0:0:0:
251,269,564242,1,0,3:0:0:0:
252,263,564315,1,0,3:0:0:0:
225,288,564389,1,0,3:0:0:0:
188,292,564462,1,0,3:0:0:0:
152,282,564536,1,0,3:0:0:0:
131,245,564609,38,0,P|192:280|179:349,1,125.999996154785,4|0,3:2|0:0,0:0:0:0:
142,347,564903,2,0,L|200:342,1,41.9999987182618,8|0,3:2|0:0,0:0:0:0:
253,384,565050,1,0,3:2:0:0:
266,375,565344,53,2,3:2:0:0:
323,332,565491,1,10,3:2:0:0:
306,261,565638,1,2,3:2:0:0:
306,261,565785,54,0,B|355:255|355:255|374:270|374:270|436:264,1,125.999996154785,2|0,3:2|0:0,0:0:0:0:
433,277,566079,2,0,L|374:258,1,41.9999987182618,10|0,3:2|0:0,0:0:0:0:
256,176,566226,54,0,B|206:170|206:170|187:185|187:185|125:179,1,125.999996154785,2|0,3:2|0:0,0:0:0:0:
128,185,566520,1,0,3:2:0:0:
0,284,566667,54,0,L|11:229,1,41.9999987182618,10|0,3:2|0:0,0:0:0:0:
54,174,566814,2,0,L|65:119,1,41.9999987182618,2|0,0:0|0:0,0:0:0:0:
12,0,566961,54,0,P|46:42|114:29,1,125.999996154785,2|0,3:2|0:0,0:0:0:0:
187,0,567256,2,0,L|205:100,1,83.9999974365235,10|0,3:2|3:2,0:0:0:0:
391,56,567550,54,0,P|357:98|289:85,1,125.999996154785,2|0,0:0|0:0,0:0:0:0:
177,4,567844,2,0,L|186:54,1,41.9999987182618,10|0,3:2|0:0,0:0:0:0:
197,118,567991,2,0,L|206:168,1,41.9999987182618,2|0,3:2|0:0,0:0:0:0:
226,253,568138,53,0,3:2:0:0:
163,301,568285,1,0,0:0:0:0:
155,290,568432,1,8,3:2:0:0:
179,378,568579,54,0,P|159:336|77:335,1,125.999996154785,0|0,3:2|0:0,0:0:0:0:
74,340,568873,1,0,3:2:0:0:
236,266,569020,2,0,P|275:227|348:257,1,125.999996154785,8|0,3:2|0:0,0:0:0:0:
343,259,569314,54,0,B|340:235|346:217|346:217|331:193|331:193|339:164|332:134,1,125.999996154785,0|0,3:2|0:0,0:0:0:0:
319,128,569609,1,10,3:2:0:0:
319,128,569756,1,0,3:2:0:0:
375,0,569903,54,0,P|392:62|455:73,1,125.999996154785,2|0,0:0|0:0,0:0:0:0:
457,63,570197,2,0,L|468:124,1,41.9999987182618,10|0,3:2|0:0,0:0:0:0:
448,181,570344,2,0,L|459:242,1,41.9999987182618,2|0,3:2|0:0,0:0:0:0:
512,267,570491,54,0,P|456:265|434:328,1,125.999996154785,0|0,3:2|0:0,0:0:0:0:
441,336,570785,1,8,3:2:0:0:
510,367,570932,1,0,3:2:0:0:
330,384,571079,54,0,P|319:326|290:248,1,125.999996154785,2|0,0:3|0:0,0:0:0:0:
222,230,571373,1,10,3:2:0:0:
243,155,571520,1,2,0:0:0:0:
64,337,571667,54,0,B|109:325|109:325|134:336|134:336|187:322,1,125.999996154785,0|0,3:2|0:0,0:0:0:0:
196,311,571961,1,8,3:2:0:0:
59,154,572109,54,0,P|14:200|43:250,1,125.999996154785,0|0,3:2|0:0,0:0:0:0:
55,247,572403,1,0,3:2:0:0:
182,99,572550,2,0,L|126:89,1,41.9999987182618,8|0,3:2|0:0,0:0:0:0:
79,40,572697,2,0,L|23:30,1,41.9999987182618,0|0,3:2|0:0,0:0:0:0:
30,24,572844,53,0,3:2:0:0:
64,143,572991,1,0,0:0:0:0:
189,85,573138,53,8,3:2:0:0:
224,0,573285,1,0,3:2:0:0:
297,86,573432,53,2,0:3:0:0:
325,151,573579,1,2,3:2:0:0:
254,190,573726,1,14,3:1:0:0:
337,161,573873,1,2,0:0:0:0:
350,384,574020,54,0,P|351:328|438:299,1,146.999995513916,6|0,3:2|0:0,0:0:0:0:
443,309,574314,2,0,L|374:295,1,48.9999985046387,10|0,3:2|0:0,0:0:0:0:
245,277,574461,54,0,P|244:221|157:192,1,146.999995513916,2|0,3:2|0:0,0:0:0:0:
150,196,574756,1,0,3:2:0:0:
150,196,574903,2,0,L|219:182,1,48.9999985046387,10|0,3:2|0:0,0:0:0:0:
246,119,575050,2,0,L|315:105,1,48.9999985046387,2|0,3:2|0:0,0:0:0:0:
383,95,575197,54,0,B|355:97|332:90|332:90|304:109|304:109|268:99|231:107,1,146.999995513916,0|0,3:2|0:0,0:0:0:0:
157,36,575491,2,0,P|131:65|143:128,1,97.9999970092774,10|0,3:2|3:2,0:0:0:0:
36,149,575785,2,0,P|48:186|108:207,1,97.9999970092774,2|0,0:3|3:2,0:0:0:0:
95,299,576079,2,0,P|133:307|192:217,1,146.999995513916,10|0,3:2|0:0,0:0:0:0:
205,229,576373,54,0,B|191:277|191:277|205:309|205:309|191:380,1,146.999995513916,2|0,3:2|0:0,0:0:0:0:
186,379,576667,2,0,P|202:353|224:352,1,48.9999985046387,10|0,3:2|0:0,0:0:0:0:
339,319,576814,54,0,B|325:270|325:270|339:238|339:238|325:167,1,146.999995513916,2|0,3:2|0:0,0:0:0:0:
320,169,577109,2,0,P|336:194|358:195,1,48.9999985046387,0|0,3:2|0:0,0:0:0:0:
418,243,577256,2,0,P|448:241|460:223,1,48.9999985046387,10|0,3:2|0:0,0:0:0:0:
512,172,577403,1,2,3:2:0:0:
449,13,577550,54,0,P|399:66|429:137,1,146.999995513916,0|0,3:2|0:0,0:0:0:0:
429,127,577844,1,8,3:2:0:0:
502,80,577991,1,0,3:2:0:0:
439,129,578138,1,2,0:3:0:0:
512,280,578285,53,2,3:2:0:0:
483,349,578432,1,10,3:2:0:0:
408,369,578579,1,2,0:0:0:0:
323,211,578726,54,0,P|372:208|415:294,1,146.999995513916,2|0,3:2|0:0,0:0:0:0:
410,291,579020,1,10,3:2:0:0:
228,384,579167,54,0,P|234:335|327:302,1,146.999995513916,2|0,3:2|0:0,0:0:0:0:
321,306,579461,1,2,3:2:0:0:
222,371,579609,54,0,L|170:362,1,48.9999985046387,10|0,3:2|0:0,0:0:0:0:
125,301,579756,2,0,L|73:292,1,48.9999985046387,2|0,3:2|0:0,0:0:0:0:
16,372,579903,54,0,P|45:313|3:242,1,146.999995513916,2|0,3:2|0:0,0:0:0:0:
0,247,580197,1,10,3:2:0:0:
117,198,580344,54,0,P|80:143|-2:144,1,146.999995513916,2|0,3:2|0:0,0:0:0:0:
0,149,580638,1,0,3:2:0:0:
115,181,580785,2,0,B|143:183|166:176|166:176|194:195|194:195|230:185|267:193,1,146.999995513916,10|0,3:2|0:0,0:0:0:0:
258,200,581079,54,0,P|245:146|328:133,1,146.999995513916,0|0,3:2|0:0,0:0:0:0:
323,132,581373,1,10,3:2:0:0:
512,293,581520,54,0,P|500:242|405:256,1,146.999995513916,2|0,3:2|0:0,0:0:0:0:
415,248,581814,2,0,L|426:191,1,48.9999985046387,2|0,3:2|0:0,0:0:0:0:
477,138,581961,2,0,L|488:81,1,48.9999985046387,8|0,3:2|0:0,0:0:0:0:
453,11,582109,1,0,3:2:0:0:
216,19,582256,53,8,3:2:0:0:
221,34,582403,1,0,3:2:0:0:
300,111,582550,53,10,3:2:0:0:
307,95,582697,1,0,3:2:0:0:
204,227,582844,53,10,3:2:0:0:
173,166,582991,1,8,3:2:0:0:
295,309,583138,53,10,3:2:0:0:
334,209,583285,1,8,3:2:0:0:
201,384,583432,102,0,P|125:355|12:324,1,183.750007009506,6|0,3:2|0:0,0:0:0:0:
16,328,584020,54,0,L|68:322,1,52.5000020027161,8|0,3:2|0:0,0:0:0:0:
124,284,584167,2,0,L|176:278,1,52.5000020027161
229,233,584314,2,0,L|281:227,1,52.5000020027161,0|0,3:2|0:0,0:0:0:0:
290,218,584461,1,0,3:2:0:0:
389,319,584609,54,0,P|424:297|470:276,1,84,10|0,3:2|0:0,0:0:0:0:
475,282,584903,2,0,L|415:272,1,52.5000020027161,2|0,3:2|0:0,0:0:0:0:
348,215,585050,2,0,L|288:205,1,52.5000020027161,2|0,0:0|0:0,0:0:0:0:
290,194,585197,1,0,3:2:0:0:
103,188,585344,6,0,P|131:192|158:202,2,56,2|2|2,0:0|0:0|0:0,0:0:0:0:
39,233,585785,2,0,P|111:212|215:187,1,157.500006008148,6|0,3:2|0:0,0:0:0:0:
250,238,586079,1,2,0:0:0:0:
512,167,586226,54,0,P|439:142|336:121,1,157.500006008148,2|0,3:2|0:0,0:0:0:0:
283,166,586520,1,2,0:0:0:0:
217,116,586667,1,2,3:2:0:0:
296,163,586814,1,2,3:2:0:0:
13,102,586961,54,0,P|89:63|176:49,1,157.500006008148,8|0,3:2|0:0,0:0:0:0:
169,55,587256,1,0,3:2:0:0:
255,0,587550,37,10,3:2:0:0:
248,14,587844,1,10,3:2:0:0:
512,49,588138,22,0,B|455:43|455:43|434:56|434:56|357:46,1,157.500006008148,6|0,3:2|0:0,0:0:0:0:
349,61,588432,2,0,L|412:47,1,52.5000020027161
224,104,588579,2,0,L|287:90,1,52.5000020027161,0|0,3:2|0:0,0:0:0:0:
0,156,588726,54,0,B|26:160|56:150|56:150|77:163|77:163|118:153|154:153,1,157.500006008148,10|0,3:2|0:0,0:0:0:0:
160,159,589020,2,0,L|104:150,1,52.5000020027161,0|0,3:2|0:0,0:0:0:0:
300,223,589167,2,0,L|244:214,1,52.5000020027161,0|0,3:2|0:0,0:0:0:0:
435,281,589314,54,0,P|418:210|483:178,1,157.500006008148,10|0,3:2|0:0,0:0:0:0:
491,186,589609,1,0,3:2:0:0:
94,278,589903,54,0,L|69:272,1,21,10|0,3:2|0:0,0:0:0:0:
86,284,590197,2,0,L|61:278,1,21,2|0,3:2|0:0,0:0:0:0:
0,213,590491,70,0,B|52:207|81:253|54:269|90:337|150:332,2,210.000008010865,6|2|8,3:2|0:0|3:2,0:0:0:0:
52,218,591373,2,0,L|0:224,1,52.5000020027161,2|0,3:2|0:0,0:0:0:0:
203,237,591520,2,0,L|151:243,1,52.5000020027161,2|0,3:2|0:0,0:0:0:0:
276,287,591667,101,10,3:2:0:0:
245,362,591814,1,0,3:2:0:0:
512,295,591961,6,0,B|472:290|451:325|471:337|444:388|399:384,1,157.500006008148,2|0,3:2|0:0,0:0:0:0:
347,336,592256,1,2,3:2:0:0:
339,323,592403,1,0,3:2:0:0:
387,222,592550,101,10,3:2:0:0:
348,134,592697,1,2,0:0:0:0:
378,233,592844,21,8,0:0:0:0:
497,37,592991,1,0,3:0:0:0:
416,14,593138,1,0,3:0:0:0:
211,143,593285,53,8,0:0:0:0:
39,64,593432,1,0,3:0:0:0:
90,1,593579,1,0,3:0:0:0:
125,207,593726,53,8,0:0:0:0:
125,207,593873,1,0,3:0:0:0:
15,384,594020,53,8,0:0:0:0:
108,335,594167,1,0,3:0:0:0:
211,352,594314,1,0,3:0:0:0:
297,291,594461,1,0,3:0:0:0:
489,184,594609,53,8,0:0:0:0:
398,208,594756,1,0,3:0:0:0:
254,91,594903,53,8,0:0:0:0:
273,99,595050,1,8,0:0:0:0:
431,0,595197,22,0,B|396:52|440:126|484:102|503:171|466:257,1,262.5,6|0,3:2|0:0,0:0:0:0:
398,255,595491,2,0,P|448:232|475:246,1,70,8|0,3:2|0:0,0:0:0:0:
465,319,595638,2,0,P|509:350|511:381,1,70
145,318,595785,54,0,P|131:264|149:240,1,61.2500005841255,0|0,3:2|0:0,0:0:0:0:
205,244,595932,2,0,P|244:205|274:209,1,61.2500005841255,0|0,3:2|0:0,0:0:0:0:
320,172,596079,54,0,P|328:191|331:226,1,52.5000020027161,10|0,3:2|0:0,0:0:0:0:
283,383,596226,2,0,P|306:262|361:122,1,262.5,2|0,0:0|0:0,0:0:0:0:
428,106,596520,1,2,0:0:0:0:
224,158,596667,2,0,P|208:93|189:58,1,87.5,10|0,3:2|0:0,0:0:0:0:
59,16,596814,54,0,P|76:88|192:58,1,210
175,0,597109,1,0,3:2:0:0:
0,256,597256,102,0,P|11:229|29:200,1,52.5000020027161,10|0,3:2|0:0,0:0:0:0:
0,142,597403,2,0,B|-38:252|55:211|15:336,1,183.750001752377,2|0,0:0|0:0,0:0:0:0:
14,326,597697,1,2,0:0:0:0:
115,384,597844,53,8,3:2:0:0:
110,367,597991,1,0,0:0:0:0:
211,209,598138,53,0,3:2:0:0:
251,280,598285,1,0,3:2:0:0:
331,269,598432,54,0,P|342:296|360:325,1,61.2500005841255,10|0,3:2|0:0,0:0:0:0:
331,383,598579,2,0,B|293:273|386:314|346:189,1,183.750001752377,2|0,0:0|0:0,0:0:0:0:
342,200,598873,1,2,0:0:0:0:
250,129,599020,53,8,3:2:0:0:
213,118,599094,1,0,3:0:0:0:
262,122,599167,1,4,3:1:0:0:
373,23,599314,53,0,3:2:0:0:
332,88,599461,1,0,3:2:0:0:
169,180,599609,54,0,P|119:170|101:156,1,61.2500005841255,10|0,3:2|0:0,0:0:0:0:
34,195,599756,2,0,P|17:146|20:124,1,61.2500005841255,0|0,3:0|0:0,0:0:0:0:
0,20,599903,70,0,B|51:-9|123:24|91:75|155:116|233:86,1,262.5,6|0,3:2|0:0,0:0:0:0:
458,0,600197,2,0,P|371:28|380:144,1,210,10|0,3:2|0:0,0:0:0:0:
383,133,600491,54,0,L|310:151,1,70,2|0,3:2|0:0,0:0:0:0:
276,224,600638,2,0,L|203:242,1,70,0|0,3:2|0:0,0:0:0:0:
342,334,600785,54,0,P|307:249|192:266,1,210,10|0,3:2|0:0,0:0:0:0:
158,321,601079,1,0,0:0:0:0:
158,321,601226,1,0,3:2:0:0:
0,206,601373,54,0,P|43:186|74:195,1,70,10|0,3:2|0:0,0:0:0:0:
175,250,601520,1,2,3:2:0:0:
283,189,601667,53,8,3:2:0:0:
302,220,601814,1,2,3:2:0:0:
299,239,601961,1,8,3:2:0:0:
134,384,602109,54,0,P|135:241|162:105,1,262.5,6|0,3:2|0:0,0:0:0:0:
173,118,602403,1,0,3:2:0:0:
360,298,602550,53,10,3:2:0:0:
256,320,602697,2,0,P|328:196|419:92,1,262.5,2|0,0:0|0:0,0:0:0:0:
498,112,602991,53,0,3:2:0:0:
473,39,603138,1,8,3:2:0:0:
509,118,603285,1,0,0:0:0:0:
365,28,603432,54,0,L|174:5,1,157.500006008148,0|0,3:2|0:2,0:0:0:0:
64,168,603726,2,0,L|337:135,1,210,8|0,3:2|0:2,0:0:0:0:
415,311,604020,2,0,L|126:276,1,262.5,0|0,3:2|3:2,0:0:0:0:
72,181,604314,53,2,3:2:0:0:
52,207,604388,1,0,3:2:0:0:
41,268,604461,1,2,3:2:0:0:
64,338,604535,1,0,3:2:0:0:
147,382,604609,54,0,P|178:272|249:110,1,262.5,6|0,3:2|0:0,0:0:0:0:
253,133,604903,53,14,3:1:0:0:
211,44,605050,1,0,0:0:0:0:
495,0,605197,54,0,P|388:24|421:160,1,262.5,2|0,3:2|0:0,0:0:0:0:
419,147,605491,2,0,P|383:157|363:185,1,70,10|0,3:2|0:0,0:0:0:0:
383,253,605638,1,2,0:0:0:0:
492,384,605785,53,0,3:2:0:0:
376,344,605932,1,0,0:0:0:0:
486,373,606079,1,10,3:2:0:0:
263,254,606226,53,0,0:0:0:0:
201,175,606373,1,0,3:2:0:0:
217,71,606520,1,0,3:2:0:0:
363,17,606667,54,0,P|339:42|303:45,1,70,10|0,3:2|0:0,0:0:0:0:
268,116,606814,2,0,P|234:107|213:78,1,70
26,0,606961,54,0,P|68:97|61:275,1,262.5,2|0,3:2|0:0,0:0:0:0:
50,256,607256,2,0,P|116:210|250:189,1,210,10|0,3:2|0:0,0:0:0:0:
298,249,607550,53,2,3:2:0:0:
332,317,607697,1,0,3:2:0:0:
408,339,607844,1,10,3:2:0:0:
512,64,607991,54,0,P|420:67|422:218,1,262.5,6|0,3:2|0:0,0:0:0:0:
426,217,608285,1,0,3:0:0:0:
476,286,608432,1,8,3:2:0:0:
100,219,608579,54,0,P|171:221|169:338,1,210,4|0,3:1|0:0,0:0:0:0:
160,340,608873,1,0,3:0:0:0:
105,231,609020,54,0,L|92:159,1,61.2500005841255,8|0,3:2|0:0,0:0:0:0:
123,98,609167,2,0,L|110:26,1,61.2500005841255,0|0,3:0|0:0,0:0:0:0:
506,29,609314,54,0,B|454:1|389:32|410:75|327:125|251:74,1,262.5,6|0,3:2|0:0,0:0:0:0:
280,0,609614,2,0,P|295:35|267:86,1,87.5,12|0,3:1|0:0,0:0:0:0:
224,320,609764,2,0,P|234:282|288:261,1,87.5,4|0,3:1|0:0,0:0:0:0:
474,373,609914,53,0,3:2:0:0:
428,370,609989,1,0,3:2:0:0:
390,343,610064,1,0,3:2:0:0:
370,304,610139,1,0,3:2:0:0:
377,261,610214,53,10,3:2:0:0:
359,221,610278,37,0,3:2:0:0:
296,184,610342,53,2,0:0:0:0:
209,189,610407,37,0,3:2:0:0:
143,250,610471,53,6,3:2:0:0:
131,259,611353,54,0,L|137:287,1,20.9999993591309
128,384,611679,22,0,P|136:275|167:171,1,210.000008010865,6|0,3:2|3:2,0:0:0:0:
47,0,612120,2,0,P|50:54|151:55,1,163.800000624847,10|0,3:2|3:2,0:0:0:0:
159,168,612561,54,0,P|131:268|124:373,1,210.000008010865,14|0,3:1|3:2,0:0:0:0:
320,321,613002,1,10,3:2:0:0:
268,270,613149,1,2,3:2:0:0:
234,272,613296,1,2,0:0:0:0:
120,362,613443,54,0,P|127:257|155:157,1,210.000008010865,6|0,3:2|3:2,0:0:0:0:
310,78,613884,2,0,P|259:95|221:1,1,163.800000624847,10|0,3:2|3:2,0:0:0:0:
315,91,614326,86,0,L|312:118,1,23.2749990410996,10|0,3:2|0:0,0:0:0:0:
320,104,614620,54,0,L|316:136,1,23.2749990410996,10|0,3:2|0:0,0:0:0:0:
453,384,614914,86,0,P|424:293|415:158,1,210.000008010865,6|0,3:2|3:2,0:0:0:0:
512,0,615355,2,0,P|510:44|394:50,1,163.800000624847,10|0,3:2|3:2,0:0:0:0:
408,170,615796,54,0,P|417:274|448:374,1,210.000008010865,14|0,3:1|3:2,0:0:0:0:
511,264,616237,1,10,3:2:0:0:
446,251,616384,1,2,3:2:0:0:
418,270,616531,1,2,0:0:0:0:
336,373,616678,53,6,3:2:0:0:
284,383,616752,1,0,3:2:0:0:
233,367,616825,1,0,3:2:0:0:
211,318,616899,1,0,3:2:0:0:
227,322,616972,1,0,3:2:0:0:
232,332,617046,1,0,3:2:0:0:
228,340,617119,53,8,3:2:0:0:
226,349,617193,1,0,3:2:0:0:
214,364,617266,1,0,3:2:0:0:
174,383,617340,1,0,3:2:0:0:
120,375,617414,1,0,3:2:0:0:
74,323,617487,1,0,3:2:0:0:
70,251,617561,54,0,L|297:222,1,210,14|0,3:2|0:0,0:0:0:0:
512,135,617855,2,0,L|285:106,1,210,14|0,3:1|0:0,0:0:0:0:
146,0,618149,70,0,P|213:17|206:86,1,125.999996154785,6|0,3:2|0:0,0:0:0:0:
211,80,618443,1,2,0:0:0:0:
218,185,618590,2,0,P|159:149|45:114,1,167.999994873047,2|0,0:0|0:0,0:0:0:0:
65,117,619031,22,0,P|41:180|93:226,1,125.999996154785,12|0,3:2|0:0,0:0:0:0:
91,217,619325,1,0,0:0:0:0:
178,240,619472,1,0,0:0:0:0:
210,322,619619,1,0,3:2:0:0:
295,340,619766,1,0,0:0:0:0:
394,202,619913,86,0,P|327:202|311:261,1,125.999996154785,0|0,3:2|0:0,0:0:0:0:
316,264,620207,1,0,0:0:0:0:
439,384,620354,22,0,P|439:343|467:252,1,125.999996154785,8|0,3:2|0:0,0:0:0:0:
478,258,620649,1,0,0:0:0:0:
262,91,620796,1,8,3:2:0:0:
270,81,621090,102,0,L|279:36,1,28,2|0,0:0|0:0,0:0:0:0:
225,203,621384,54,0,L|214:149,1,35,2|0,3:2|0:0,0:0:0:0:
323,278,621678,38,0,P|267:300|263:364,1,125.999996154785,6|0,3:2|0:0,0:0:0:0:
276,365,621972,1,2,0:0:0:0:
152,262,622119,2,0,P|124:218|10:151,1,167.999994873047,2|0,0:0|0:0,0:0:0:0:
28,155,622560,22,0,P|10:204|67:264,1,125.999996154785,12|0,3:2|0:0,0:0:0:0:
66,258,622854,1,0,0:0:0:0:
40,161,623001,1,0,0:0:0:0:
104,82,623149,1,0,3:2:0:0:
61,0,623296,1,0,0:0:0:0:
336,193,623443,86,0,P|274:192|214:154,1,125.999996154785,2|0,3:2|0:0,0:0:0:0:
220,146,623737,2,0,P|265:143|306:125,1,84
303,123,624031,2,0,P|272:116|261:105,1,42,0|0,3:2|0:0,0:0:0:0:
227,40,624325,6,0,L|238:-7,1,35,8|0,3:2|0:0,0:0:0:0:
306,182,624619,54,0,L|300:158,1,20.9999993591309,0|0,3:2|0:0,0:0:0:0:
242,314,624913,54,0,L|244:302,1,8.75,0|0,3:2|0:0,0:0:0:0:
350,384,625207,102,0,P|356:324|431:295,1,125.999996154785,6|0,3:2|0:0,0:0:0:0:
423,300,625501,1,2,0:0:0:0:
512,207,625649,2,0,P|448:186|362:128,1,167.999994873047,2|0,0:0|0:0,0:0:0:0:
364,130,626090,22,0,P|418:100|404:38,1,125.999996154785,8|0,3:2|0:0,0:0:0:0:
392,40,626384,1,0,0:0:0:0:
307,78,626531,1,0,0:0:0:0:
226,45,626678,1,0,3:2:0:0:
138,101,626825,1,0,0:0:0:0:
56,13,626972,86,0,P|112:18|139:97,1,125.999996154785,0|0,3:2|0:0,0:0:0:0:
250,145,627266,2,0,P|194:150|167:229,1,125.999996154785
174,219,627560,1,0,3:2:0:0:
216,364,627854,22,0,P|160:323|58:284,2,167.999994873047,10|2|2,3:2|0:0|3:2,0:0:0:0:
216,364,628737,2,0,P|233:256|303:68,1,293.999991027832,6|0,3:2|0:0,0:0:0:0:
259,47,629325,86,0,P|271:71|285:83,1,41.9999987182618,2|0,3:2|0:0,0:0:0:0:
345,151,629472,2,0,P|371:152|389:146,1,41.9999987182618,2|0,0:0|0:0,0:0:0:0:
489,0,629619,22,0,P|421:10|396:67,1,125.999996154785,14|0,3:2|0:0,0:0:0:0:
402,72,629913,1,0,0:0:0:0:
478,91,630060,1,0,0:0:0:0:
495,166,630207,1,0,3:2:0:0:
455,274,630501,86,0,P|410:249|316:235,1,125.999996154785,0|0,3:2|0:0,0:0:0:0:
307,236,630796,1,0,0:0:0:0:
320,142,630943,1,8,3:2:0:0:
253,83,631090,1,0,3:2:0:0:
282,8,631237,1,0,0:0:0:0:
282,8,631310,1,0,0:0:0:0:
282,8,631384,6,0,L|290:58,1,41.9999987182618,8|0,3:2|0:0,0:0:0:0:
214,161,631678,54,0,L|206:211,1,28,0|0,3:2|0:0,0:0:0:0:
304,275,631972,54,0,L|308:300,1,14,0|0,3:2|0:0,0:0:0:0:
242,384,632266,69,6,0:0:0:0:
148,227,632560,1,0,0:0:0:0:
148,227,632707,1,0,0:0:0:0:
91,323,633149,37,0,0:0:0:0:
93,337,634031,1,2,0:0:0:0:
36,228,634619,53,0,0:0:0:0:
96,350,634913,1,0,0:0:0:0:
225,187,635207,53,0,0:0:0:0:
189,254,635501,1,0,0:0:0:0:
229,322,635796,69,2,0:0:0:0:
332,180,636090,1,0,0:0:0:0:
332,180,636237,1,0,0:0:0:0:
498,232,636678,37,2,0:0:0:0:
450,348,637266,1,0,0:0:0:0:
488,225,637560,53,2,0:0:0:0:
337,384,638443,53,0,0:0:0:0:
252,231,638737,69,0,0:0:0:0:
173,200,638884,1,0,0:0:0:0:
128,213,639031,1,0,0:0:0:0:
110,238,639178,1,0,0:0:0:0:
105,257,639325,53,2,0:0:0:0:
216,113,639619,1,0,0:0:0:0:
216,113,639766,1,0,0:0:0:0:
258,243,640217,101,2,0:0:0:0:
388,192,640811,69,0,0:0:0:0:
388,269,640959,1,0,0:0:0:0:
319,298,641108,1,2,0:0:0:0:
321,311,642009,37,2,0:0:0:0:
274,235,642312,1,0,0:0:0:0:
325,142,642615,1,0,0:0:0:0:
249,69,642918,53,2,0:0:0:0:
242,82,643503,5,0,0:0:0:0:
225,161,643649,1,0,0:0:0:0:
202,242,643796,1,2,0:0:0:0:
53,384,644728,37,2,0:0:0:0:
208,346,646514,53,2,0:0:0:0:
159,217,646823,1,0,0:0:0:0:
154,227,647132,1,0,0:0:0:0:
206,360,647441,53,2,0:0:0:0:
270,179,647745,1,0,0:0:0:0:
203,377,648354,53,2,0:0:0:0:
378,218,648659,1,0,0:0:0:0:
466,335,649268,53,2,0:0:0:0:
376,203,649562,1,0,0:0:0:0:
346,384,650179,53,2,0:0:0:0:
245,177,650473,1,0,0:0:0:0:
240,329,651076,53,2,0:0:0:0:
235,166,651370,1,0,0:0:0:0:
175,229,651963,53,2,0:0:0:0:
221,157,652278,1,0,0:0:0:0:
205,144,652900,53,2,0:0:0:0:
239,226,653200,1,0,0:0:0:0:
205,288,653500,1,0,0:0:0:0:
261,384,653817,53,2,0:0:0:0:
336,236,654117,5,0,0:0:0:0:
362,307,654267,1,0,0:0:0:0:
344,226,654417,1,0,0:0:0:0:
258,370,654717,37,2,0:0:0:0:
177,205,655017,69,0,0:0:0:0:
155,253,655167,1,0,0:0:0:0:
169,195,655317,1,0,0:0:0:0:
252,359,655617,101,2,0:0:0:0:
309,157,655917,5,0,0:0:0:0:
318,177,656067,1,0,0:0:0:0:
317,147,656217,1,0,0:0:0:0:
361,237,656517,37,2,0:0:0:0:
512,384,657441,53,2,0:0:0:0:
456,314,657745,1,0,0:0:0:0:
462,225,658050,1,0,0:0:0:0:
320,99,658354,53,2,0:0:0:0:
289,180,659268,1,2,0:0:0:0:
168,145,661083,53,2,0:0:0:0:
210,62,661533,1,0,0:0:0:0:
175,158,661983,1,2,0:0:0:0:
238,282,662589,5,0,0:0:0:0:
256,310,662740,1,0,0:0:0:0:
253,322,662892,1,0,0:0:0:0:
253,322,663801,1,0,0:0:0:0:
373,193,664104,54,0,L|370:173,1,17.5
412,260,664255,1,0,0:0:0:0:
386,191,664407,1,0,0:0:0:0:
350,364,664710,101,2,0:0:0:0:
356,374,665322,53,0,0:0:0:0:
246,146,665628,1,2,0:0:0:0:
154,305,666240,53,0,0:0:0:0:
257,156,666546,2,0,L|253:129,1,17.5,2|0,0:0|0:0,0:0:0:0:
257,157,667000,69,0,0:0:0:0:
289,93,667435,1,2,0:0:0:0:
296,105,667741,1,0,0:0:0:0:
323,31,667894,1,0,0:0:0:0:
428,298,668353,37,0,0:0:0:0:
288,238,668653,69,2,0:0:0:0:
239,186,668803,1,0,0:0:0:0:
282,250,668953,1,0,0:0:0:0:
263,296,669103,1,0,0:0:0:0:
272,313,669253,101,0,0:0:0:0:
185,355,669853,1,0,0:0:0:0:
129,218,670153,1,2,0:0:0:0:
121,226,671073,54,0,L|115:195,1,17.5,2|0,0:0|0:0,0:0:0:0:
170,286,671376,1,0,0:0:0:0:
314,123,671982,54,0,L|318:97,1,17.5,2|0,0:0|0:0,0:0:0:0:
266,177,672436,1,0,0:0:0:0:
427,45,672891,54,0,L|423:21,1,17.5,2|0,0:0|0:0,0:0:0:0:
435,56,673671,1,0,0:0:0:0:
508,28,674908,5,0,0:0:0:0:
509,21,674980,1,0,0:0:0:0:
510,14,675052,1,2,0:0:0:0:
256,192,675124,12,0,681254,0:0:0:0:
