osu file format v14

[General]
AudioFilename: audio.mp3
AudioLeadIn: 0
PreviewTime: 46384
Countdown: 0
SampleSet: Normal
StackLeniency: 0.7
Mode: 1
LetterboxInBreaks: 0
WidescreenStoryboard: 0

[Editor]
Bookmarks: 6660,19902,33143,43074,46384,59626,86108,99350,112591,125833,135764,139074,150660
DistanceSpacing: 1.3
BeatDivisor: 2
GridSize: 32
TimelineZoom: 1

[Metadata]
Title:Poems Are Forever
TitleUnicode:Poems Are Forever
Artist:shoji
ArtistUnicode:shoji
Creator:Essey6
Version:Kantan
Source:Doki Doki Literature Club!
Tags:ost soundtrack anime kawaii just monika game team salvato
BeatmapID:1486902
BeatmapSetID:702061

[Difficulty]
HPDrainRate:8
CircleSize:2
OverallDifficulty:3
ApproachRate:10
SliderMultiplier:1.3
SliderTickRate:1

[Events]
//Background and Video events
0,0,"backgroundd.png",0,75
//Break Periods
2,99550,112141
//Storyboard Layer 0 (Background)
//Storyboard Layer 1 (Fail)
//Storyboard Layer 2 (Pass)
//Storyboard Layer 3 (Foreground)
//Storyboard Sound Samples

[TimingPoints]
40,413.793103448276,4,1,0,40,1,0
6660,-100,4,1,0,40,0,0
46384,-100,4,1,0,60,0,1
57971,-100,4,1,0,60,0,0
59626,-100,4,1,0,60,0,1
72867,-100,4,1,0,40,0,0
152315,-100,4,1,0,60,0,1
163902,-100,4,1,0,60,0,0
165557,-100,4,1,0,60,0,1
177143,-100,4,1,0,60,0,0
178798,-100,4,1,0,60,0,1
192040,-100,4,1,0,40,0,0
205281,-100,4,1,0,20,0,0

[HitObjects]
256,192,6660,5,8,0:0:0:0:
256,192,8315,1,8,0:0:0:0:
256,192,8729,1,8,0:0:0:0:
256,192,9971,1,0,0:0:0:0:
256,192,11626,1,0,0:0:0:0:
256,192,13281,1,8,0:0:0:0:
256,192,14936,1,8,0:0:0:0:
256,192,15350,1,8,0:0:0:0:
256,192,16591,1,0,0:0:0:0:
256,192,18246,1,0,0:0:0:0:
256,192,19902,1,12,0:0:0:0:
256,192,21557,1,8,0:0:0:0:
256,192,21971,1,8,0:0:0:0:
256,192,23212,1,0,0:0:0:0:
256,192,24867,1,0,0:0:0:0:
256,192,26522,1,8,0:0:0:0:
256,192,28177,1,8,0:0:0:0:
256,192,28591,1,8,0:0:0:0:
256,192,29833,1,0,0:0:0:0:
256,192,31488,1,0,0:0:0:0:
256,192,33143,1,12,0:0:0:0:
256,192,34798,1,8,0:0:0:0:
256,192,35212,1,8,0:0:0:0:
256,192,35832,1,0,0:0:0:0:
256,192,36453,1,0,0:0:0:0:
256,192,38108,1,0,0:0:0:0:
256,192,39143,1,8,0:0:0:0:
256,192,39763,1,8,0:0:0:0:
256,192,41418,1,8,0:0:0:0:
256,192,41832,1,8,0:0:0:0:
256,192,42453,1,0,0:0:0:0:
256,192,43074,12,0,44729,0:0:0:0:
256,192,46384,5,12,0:0:0:0:
256,192,47005,1,0,0:0:0:0:
256,192,48040,1,8,0:0:0:0:
256,192,48660,1,0,0:0:0:0:
256,192,49695,1,8,0:0:0:0:
256,192,50315,1,8,0:0:0:0:
256,192,51350,1,0,0:0:0:0:
256,192,51971,1,8,0:0:0:0:
256,192,53005,1,0,0:0:0:0:
256,192,53626,1,0,0:0:0:0:
256,192,54660,1,8,0:0:0:0:
256,192,55281,1,0,0:0:0:0:
256,192,56315,1,8,0:0:0:0:
256,192,56936,1,8,0:0:0:0:
256,192,57971,1,0,0:0:0:0:
256,192,59626,1,12,0:0:0:0:
256,192,60246,1,0,0:0:0:0:
256,192,61281,1,8,0:0:0:0:
256,192,61902,1,0,0:0:0:0:
256,192,62936,1,8,0:0:0:0:
256,192,63557,1,8,0:0:0:0:
256,192,64591,1,0,0:0:0:0:
256,192,65212,1,8,0:0:0:0:
256,192,66246,1,0,0:0:0:0:
256,192,66867,1,0,0:0:0:0:
256,192,67902,1,8,0:0:0:0:
256,192,68522,1,0,0:0:0:0:
256,192,69557,1,8,0:0:0:0:
256,192,70177,1,8,0:0:0:0:
256,192,71212,1,0,0:0:0:0:
256,192,71833,1,8,0:0:0:0:
256,192,72867,1,0,0:0:0:0:
256,192,73487,1,0,0:0:0:0:
256,192,74522,1,8,0:0:0:0:
256,192,76177,1,0,0:0:0:0:
256,192,76798,1,0,0:0:0:0:
256,192,77832,1,8,0:0:0:0:
256,192,78453,1,8,0:0:0:0:
256,192,79487,1,0,0:0:0:0:
256,192,80108,1,0,0:0:0:0:
256,192,81143,1,8,0:0:0:0:
256,192,82798,1,0,0:0:0:0:
256,192,83419,1,0,0:0:0:0:
256,192,84454,1,8,0:0:0:0:
256,192,85074,1,8,0:0:0:0:
256,192,86108,1,0,0:0:0:0:
256,192,86936,1,8,0:0:0:0:
256,192,87557,1,8,0:0:0:0:
256,192,89419,1,0,0:0:0:0:
256,192,90246,1,8,0:0:0:0:
256,192,91074,1,8,0:0:0:0:
256,192,92729,1,0,0:0:0:0:
256,192,93557,1,8,0:0:0:0:
256,192,94177,1,8,0:0:0:0:
256,192,96040,12,0,99350,0:0:0:0:
256,192,112591,5,0,0:0:0:0:
256,192,113419,1,8,0:0:0:0:
256,192,115074,1,8,0:0:0:0:
256,192,115902,1,0,0:0:0:0:
256,192,116729,1,8,0:0:0:0:
256,192,118384,1,8,0:0:0:0:
256,192,119212,1,0,0:0:0:0:
256,192,120040,1,8,0:0:0:0:
256,192,121695,1,8,0:0:0:0:
256,192,122522,1,0,0:0:0:0:
256,192,123350,1,8,0:0:0:0:
256,192,125005,1,8,0:0:0:0:
256,192,125833,1,0,0:0:0:0:
256,192,126660,1,8,0:0:0:0:
256,192,127902,1,0,0:0:0:0:
256,192,128315,1,8,0:0:0:0:
256,192,129143,1,0,0:0:0:0:
256,192,129971,1,8,0:0:0:0:
256,192,131212,1,0,0:0:0:0:
256,192,131626,1,8,0:0:0:0:
256,192,132453,1,0,0:0:0:0:
256,192,133281,1,8,0:0:0:0:
256,192,134522,1,0,0:0:0:0:
256,192,134936,1,8,0:0:0:0:
256,192,135764,2,0,L|352:192,8,65
256,192,139074,1,12,0:0:0:0:
256,192,140729,1,8,0:0:0:0:
256,192,142384,1,8,0:0:0:0:
256,192,144039,1,8,0:0:0:0:
256,192,145695,1,0,0:0:0:0:
256,192,146522,1,0,0:0:0:0:
256,192,147350,1,0,0:0:0:0:
256,192,148177,1,0,0:0:0:0:
256,192,149005,1,0,0:0:0:0:
256,192,149833,1,0,0:0:0:0:
256,192,150660,2,0,L|352:192,4,65
256,192,152315,1,12,0:0:0:0:
256,192,152936,1,0,0:0:0:0:
256,192,153971,1,8,0:0:0:0:
256,192,154591,1,0,0:0:0:0:
256,192,155626,1,8,0:0:0:0:
256,192,156246,1,8,0:0:0:0:
256,192,157281,1,0,0:0:0:0:
256,192,157902,1,8,0:0:0:0:
256,192,158936,1,0,0:0:0:0:
256,192,159557,1,0,0:0:0:0:
256,192,160591,1,8,0:0:0:0:
256,192,161212,1,0,0:0:0:0:
256,192,162246,1,8,0:0:0:0:
256,192,162867,1,8,0:0:0:0:
256,192,163902,1,0,0:0:0:0:
256,192,165557,1,12,0:0:0:0:
256,192,166178,1,0,0:0:0:0:
256,192,167213,1,8,0:0:0:0:
256,192,167833,1,0,0:0:0:0:
256,192,168868,1,8,0:0:0:0:
256,192,169488,1,8,0:0:0:0:
256,192,170523,1,0,0:0:0:0:
256,192,171144,1,8,0:0:0:0:
256,192,172178,1,0,0:0:0:0:
256,192,172799,1,0,0:0:0:0:
256,192,173833,1,8,0:0:0:0:
256,192,174454,1,0,0:0:0:0:
256,192,175488,1,8,0:0:0:0:
256,192,176109,1,8,0:0:0:0:
256,192,177143,1,0,0:0:0:0:
256,192,178798,1,12,0:0:0:0:
256,192,179419,1,0,0:0:0:0:
256,192,180454,1,8,0:0:0:0:
256,192,181074,1,0,0:0:0:0:
256,192,182109,1,8,0:0:0:0:
256,192,182729,1,8,0:0:0:0:
256,192,183764,1,0,0:0:0:0:
256,192,184385,1,8,0:0:0:0:
256,192,185419,1,0,0:0:0:0:
256,192,186040,1,0,0:0:0:0:
256,192,187074,1,8,0:0:0:0:
256,192,187695,1,0,0:0:0:0:
256,192,188729,1,8,0:0:0:0:
256,192,189350,1,8,0:0:0:0:
256,192,190798,1,0,0:0:0:0:
256,192,191212,1,8,0:0:0:0:
256,192,192040,1,0,0:0:0:0:
256,192,192867,1,8,0:0:0:0:
256,192,194522,1,8,0:0:0:0:
256,192,195350,1,0,0:0:0:0:
256,192,196177,1,8,0:0:0:0:
256,192,197833,1,8,0:0:0:0:
256,192,198660,1,0,0:0:0:0:
256,192,199488,1,8,0:0:0:0:
256,192,201143,1,8,0:0:0:0:
256,192,201971,1,0,0:0:0:0:
256,192,202798,1,8,0:0:0:0:
256,192,204453,1,8,0:0:0:0:
256,192,205281,1,0,0:0:0:0:
256,192,206108,1,8,0:0:0:0:
256,192,207764,1,8,0:0:0:0:
256,192,209419,1,8,0:0:0:0:
256,192,211074,1,8,0:0:0:0:
256,192,212729,1,8,0:0:0:0:
256,192,214384,1,8,0:0:0:0:
256,192,216040,1,8,0:0:0:0:
256,192,217695,1,8,0:0:0:0:
256,192,218936,1,0,0:0:0:0:
