osu file format v14

[General]
AudioFilename: audio.mp3
AudioLeadIn: 0
PreviewTime: 43231
Countdown: 0
SampleSet: Soft
StackLeniency: 0.5
Mode: 0
LetterboxInBreaks: 0
WidescreenStoryboard: 1

[Editor]
Bookmarks: 129312,134646,154312,163979,174645,222561
DistanceSpacing: 1.3
BeatDivisor: 4
GridSize: 4
TimelineZoom: 2.1

[Metadata]
Title:Warrior Oath
TitleUnicode:戦士宣誓
Artist:shiroAN
ArtistUnicode:shiroAN
Creator:Okoratu
Version:Share's Insane
Source:
Tags:japanese rock j-rock jrock senshi sensei 逢来りん Takachi Kenichi okorin supav share mattay guitar solo
BeatmapID:4130920
BeatmapSetID:1960571

[Difficulty]
HPDrainRate:4.5
CircleSize:3.8
OverallDifficulty:8
ApproachRate:9
SliderMultiplier:1.6
SliderTickRate:1

[Events]
//Background and Video events
0,0,"100134427_p0_master1200_1_1.jpg",0,0
//Break Periods
2,44179,48212
2,129512,134046
2,174761,176712
//Storyboard Layer 0 (Background)
//Storyboard Layer 1 (Fail)
//Storyboard Layer 2 (Pass)
//Storyboard Layer 3 (Foreground)
//Storyboard Layer 4 (Overlay)
//Storyboard Sound Samples

[TimingPoints]
1313,333.333333333333,4,2,1,40,1,0
1313,-133.333333333333,4,2,1,40,0,0
9312,-166.666666666667,4,2,1,40,0,0
10479,-133.333333333333,4,2,1,40,0,0
11312,-133.333333333333,4,2,1,60,0,0
11979,-100,4,2,1,70,0,0
22812,-100,4,2,1,47,0,0
22979,-133.333333333333,4,2,1,47,0,0
27979,-125,4,2,1,55,0,0
33312,-111.111111111111,4,2,1,60,0,0
49312,-111.111111111111,4,2,1,70,0,0
52479,-100,4,2,1,70,0,0
54646,-100,4,2,1,80,0,1
73312,-125,4,2,1,80,0,0
74645,-125,4,2,1,50,0,0
75978,-125,4,2,1,60,0,0
76312,-133.333333333333,4,2,1,60,0,0
85312,-125,4,2,1,60,0,0
86646,-117.647058823529,4,2,1,60,0,0
102646,-111.111111111111,4,2,1,70,0,0
105312,-105.263157894737,4,2,1,70,0,0
107979,-100,4,2,1,80,0,1
129312,-100,4,2,1,80,0,0
134646,-100,4,2,1,40,0,0
135979,-100,4,2,1,45,0,0
137312,-100,4,2,1,50,0,0
139146,-100,4,2,1,65,0,0
139812,-100,4,2,1,80,0,0
139979,-117.647058823529,4,2,1,80,0,0
150646,-111.111111111111,4,2,1,80,0,0
163979,333.333333333333,4,2,1,50,1,0
165312,-100,4,2,1,40,0,0
167979,-133.333333333333,4,2,1,40,0,0
177312,333.333333333333,4,2,1,70,1,0
182645,-117.647058823529,4,2,1,70,0,0
185645,-111.111111111111,4,2,1,70,0,0
187645,-100,4,2,1,70,0,0
188312,-100,4,2,1,80,0,0
189312,333.333333333333,4,2,1,80,1,1
189312,-90.9090909090909,4,2,1,80,0,1
210645,-100,4,2,1,70,0,0
222561,-100,4,2,1,35,0,0

[Colours]
Combo1 : 108,193,244
Combo2 : 255,128,192
Combo3 : 51,113,255
Combo4 : 149,43,255

[HitObjects]
62,335,1313,6,0,L|-11:344,4,60.0000022888184,2|0|0|0|0,2:0|2:0|2:0|2:0|2:0,2:0:0:0:
134,274,2146,1,0,2:0:0:0:
134,274,2312,2,0,L|193:281,1,60.0000022888184,2|0,2:0|2:0,2:0:0:0:
286,334,2646,6,0,B|312:266|266:278|298:206,1,120.000004577637,2|0,2:0|2:0,2:0:0:0:
375,157,3146,2,0,P|331:118|270:124,1,120.000004577637,2|0,2:0|2:0,2:0:0:0:
186,182,3646,2,0,L|178:122,1,60.0000022888184,2|0,2:0|2:0,2:0:0:0:
117,41,3979,6,0,B|45:23|45:23|2:59,1,120.000004577637,2|0,2:0|2:0,2:0:0:0:
9,182,4479,1,0,2:0:0:0:
9,182,4646,2,0,B|74:168|52:211|124:201,1,120.000004577637,0|0,2:0|2:0,2:0:0:0:
244,211,5146,5,0,2:0:0:0:
244,211,5229,1,0,2:0:0:0:
244,211,5312,2,0,L|257:112,2,90.0000034332277,2|2|0,2:0|2:0|2:0,2:0:0:0:
350,216,5979,2,0,B|393:206|393:206|431:222,2,80.0000030517579,2|2|0,2:0|2:0|2:0,2:0:0:0:
374,359,6646,6,0,B|326:353|326:353|300:367|300:367|253:361,1,120.000004577637,2|0,2:0|2:0,2:0:0:0:
101,232,7479,5,0,2:0:0:0:
101,232,7646,2,0,L|108:172,1,60.0000022888184,2|0,2:0|2:0,2:0:0:0:
38,67,7979,2,0,P|94:92|149:68,1,120.000004577637,2|0,2:0|2:0,2:0:0:0:
263,9,8479,2,0,B|232:41|232:41|251:118,1,120.000004577637,2|0,2:0|2:0,2:0:0:0:
326,162,8979,2,0,L|385:154,1,60.0000022888184,2|0,2:0|2:0,2:0:0:0:
469,185,9312,6,0,B|483:159|464:119|464:119|523:155|537:245|472:259,1,239.999992675781,2|0,2:0|2:0,2:0:0:0:
403,346,10312,1,0,2:0:0:0:
403,346,10479,2,0,B|353:378|301:327|334:330|281:290|228:317,1,180.000006866455,2|0,2:0|2:0,2:0:0:0:
55,326,11312,5,8,1:2:0:0:
206,227,11479,1,8,1:2:0:0:
215,213,11979,6,0,L|225:125,1,80,6|0,1:0|2:0,2:0:0:0:
407,60,12312,1,10,1:0:0:0:
347,189,12479,1,0,2:0:0:0:
271,53,12646,2,0,P|228:38|193:46,1,80,10|2,1:0|1:2,2:0:0:0:
82,126,12979,1,0,1:2:0:0:
230,285,13146,6,0,B|200:194|259:216|242:129,1,160,10|2,1:0|1:2,2:0:0:0:
195,61,13562,1,0,1:2:0:0:
195,61,13646,2,0,P|238:46|273:54,1,80,8|2,1:2|1:0,2:0:0:0:
364,156,13979,1,0,2:0:0:0:
374,49,14146,2,0,L|364:137,1,80,2|0,1:0|2:0,2:0:0:0:
333,253,14479,6,0,B|274:245|274:245|242:267|242:267|173:258,1,160,6|0,1:0|2:0,2:0:0:0:
37,178,14979,2,0,L|124:167,1,80,10|0,1:0|2:0,2:0:0:0:
244,50,15312,1,10,1:0:0:0:
216,181,15479,1,2,1:2:0:0:
151,29,15646,1,2,1:0:0:0:
299,126,15812,6,0,P|337:132|374:117,1,80,10|0,2:0|1:0,2:0:0:0:
401,103,16062,1,0,1:0:0:0:
401,103,16146,1,10,1:0:0:0:
341,252,16312,1,10,1:2:0:0:
501,212,16479,1,2,1:0:0:0:
501,212,16562,1,0,1:0:0:0:
501,212,16646,2,0,B|460:196|460:196|425:203,1,80,8|2,2:0|1:2,2:0:0:0:
346,343,16979,5,10,1:2:0:0:
346,343,17062,1,0,1:0:0:0:
346,343,17146,2,0,B|371:252|305:279|324:190,1,160,6|0,1:0|2:0,2:0:0:0:
161,267,17646,2,0,P|199:273|236:258,1,80,10|0,1:0|2:0,2:0:0:0:
352,105,17979,1,10,1:0:0:0:
230,160,18146,2,0,L|143:149,1,80,2|0,1:0|2:0,2:0:0:0:
270,5,18479,6,0,L|259:92,1,80,6|0,1:0|2:0,2:0:0:0:
235,244,18812,1,2,1:2:0:0:
141,70,18979,2,0,L|150:149,1,80,8|2,1:2|1:0,2:0:0:0:
48,268,19312,1,0,1:0:0:0:
159,191,19479,1,2,1:2:0:0:
27,149,19646,1,8,1:2:0:0:
126,307,19812,6,0,B|216:275|216:275|274:311,1,160,6|0,1:0|1:0,2:0:0:0:
336,364,20229,1,0,1:0:0:0:
336,364,20312,2,0,L|326:284,1,80,10|0,1:0|1:0,2:0:0:0:
196,179,20646,2,0,P|221:209|259:221,1,80,10|2,1:0|1:2,2:0:0:0:
444,78,20979,1,8,1:2:0:0:
282,136,21146,1,2,1:2:0:0:
381,204,21312,5,8,1:2:0:0:
381,204,21396,1,8,1:2:0:0:
381,204,21479,2,0,L|376:164,3,40,10|0|0|0,1:2|1:0|1:0|2:0,2:0:0:0:
453,314,21812,1,10,1:0:0:0:
453,314,22146,1,10,1:0:0:0:
429,329,22229,1,0,1:0:0:0:
401,336,22312,1,0,1:0:0:0:
372,334,22396,1,0,3:0:0:0:
346,322,22479,6,0,B|254:287|254:287|201:332,1,160,6|0,1:2|2:0,2:0:0:0:
112,232,22979,2,0,B|118:277|118:277|103:305|103:305|109:347,2,120.000004577637,0|0|0,1:0|1:0|1:0,2:0:0:0:
95,133,23812,1,0,2:0:0:0:
95,133,23979,6,0,B|163:112|145:168|224:143,1,120.000004577637,2|0,1:2|1:0,2:0:0:0:
319,212,24479,2,0,P|298:157|323:104,1,120.000004577637,2|0,2:0|2:0,2:0:0:0:
411,65,24979,1,0,1:0:0:0:
411,65,25312,6,0,B|371:98|371:98|391:169,1,120.000004577637,2|0,1:2|1:0,2:0:0:0:
340,259,25812,1,2,2:0:0:0:
340,259,25979,2,0,B|273:238|291:294|226:273,1,120.000004577637,2|0,1:2|1:0,2:0:0:0:
128,233,26479,1,0,2:0:0:0:
128,233,26646,6,0,L|142:352,2,120.000004577637,0|0|0,1:0|1:0|1:0,2:0:0:0:
119,139,27479,1,0,2:0:0:0:
119,139,27562,1,2,2:0:0:0:
119,139,27646,2,0,L|178:131,1,60.0000022888184,0|0,1:0|2:0,2:0:0:0:
302,150,27979,6,0,B|268:111|268:111|298:31,2,128,0|0|0,1:0|1:0|1:0,2:0:0:0:
401,220,28812,1,0,2:0:0:0:
401,220,28979,2,0,L|409:148,1,64,0|0,1:0|2:0,2:0:0:0:
481,53,29312,6,0,B|415:69|432:18|358:40,1,128,2|0,1:2|1:0,2:0:0:0:
235,41,29812,2,0,P|261:97|236:154,1,128,2|0,2:0|2:0,2:0:0:0:
175,239,30312,1,2,1:2:0:0:
118,144,30479,1,8,1:2:0:0:
178,260,30646,6,0,B|244:244|227:295|301:273,1,128,2|0,1:2|1:0,2:0:0:0:
402,297,31146,1,0,2:0:0:0:
402,297,31312,2,0,L|386:169,1,128,0|0,1:0|1:0,2:0:0:0:
415,62,31812,1,0,2:0:0:0:
323,95,31979,6,0,P|288:103|254:97,1,64,4|0,1:2|2:0,2:0:0:0:
134,19,32312,2,0,P|168:29|194:51,1,64,4|0,1:2|2:0,2:0:0:0:
141,217,32646,1,0,1:0:0:0:
122,107,32812,1,0,1:0:0:0:
139,237,32979,2,0,L|132:300,1,64,8|0,1:2|2:0,2:0:0:0:
206,153,33312,6,0,P|240:143|276:149,1,71.9999978027344,6|2,1:0|2:0,2:0:0:0:
396,244,33646,2,0,P|359:249|323:239,1,71.9999978027344,8|0,1:2|2:0,2:0:0:0:
377,93,33979,2,0,L|367:163,1,71.9999978027344,0|8,1:0|1:2,2:0:0:0:
260,324,34312,1,2,1:0:0:0:
227,184,34479,1,0,1:0:0:0:
32,264,34646,6,0,B|103:294|88:236|170:264,1,143.999995605469,2|8,1:0|1:2,2:0:0:0:
258,346,35146,1,2,2:0:0:0:
258,346,35229,1,2,2:0:0:0:
258,346,35312,2,0,L|266:274,1,71.9999978027344,0|2,1:0|2:0,2:0:0:0:
128,128,35646,2,0,P|148:157|180:175,1,71.9999978027344,8|2,1:2|2:0,2:0:0:0:
212,187,35896,1,2,2:0:0:0:
212,187,35979,6,0,L|221:116,1,71.9999978027344,2|0,1:0|2:0,2:0:0:0:
325,24,36312,2,0,L|334:97,1,71.9999978027344,8|2,1:2|2:0,2:0:0:0:
462,272,36646,1,0,1:0:0:0:
319,192,36812,1,0,1:0:0:0:
505,193,36979,5,0,1:0:0:0:
371,272,37146,1,2,1:2:0:0:
414,122,37312,2,0,L|423:195,1,71.9999978027344,2|0,1:0|1:0,2:0:0:0:
280,353,37646,2,0,L|288:282,1,71.9999978027344,8|2,1:2|2:0,2:0:0:0:
291,247,37896,1,2,2:0:0:0:
291,247,37979,1,0,1:0:0:0:
86,243,38146,1,2,2:0:0:0:
244,137,38312,1,8,1:2:0:0:
186,325,38479,5,2,1:2:0:0:
186,325,38562,1,8,1:2:0:0:
186,325,38646,2,0,L|167:174,1,143.999995605469,6|8,1:0|1:2,2:0:0:0:
28,80,39146,2,0,P|48:109|80:127,1,71.9999978027344,0|0,2:0|1:0,2:0:0:0:
253,171,39479,1,2,2:0:0:0:
115,216,39646,1,2,1:0:0:0:
277,165,39812,1,2,2:0:0:0:
195,12,39979,6,0,B|158:57|158:57|177:146,1,143.999995605469,2|8,1:0|1:2,2:0:0:0:
181,292,40479,1,2,2:0:0:0:
181,292,40562,1,2,2:0:0:0:
181,292,40646,1,0,1:0:0:0:
266,225,40812,1,2,2:0:0:0:
346,312,40979,2,0,P|381:321|417:315,1,71.9999978027344,8|2,1:2|2:0,2:0:0:0:
447,296,41229,1,2,2:0:0:0:
447,296,41312,6,0,B|424:214|471:230|452:155,1,143.999995605469,2|8,1:0|1:2,2:0:0:0:
504,26,41812,2,0,P|482:55|449:67,1,71.9999978027344,0|0,2:0|1:0,2:0:0:0:
208,94,42146,1,8,1:2:0:0:
367,183,42312,1,8,1:2:0:0:
334,0,42479,6,0,B|285:27|285:27|303:124,1,143.999995605469,4|0,1:2|1:0,2:0:0:0:
267,195,42896,1,0,1:0:0:0:
267,195,42979,2,0,B|230:186|230:186|197:198,1,71.9999978027344,8|2,1:2|2:0,2:0:0:0:
128,303,43312,5,0,1:0:0:0:
128,303,43396,1,0,1:0:0:0:
128,303,43479,2,0,L|134:248,1,35.9999989013672,0|0,1:0|1:0,2:0:0:0:
69,210,43646,1,0,1:0:0:0:
69,210,43729,1,0,1:0:0:0:
69,210,43812,2,0,L|76:155,1,35.9999989013672,0|0,1:0|1:0,2:0:0:0:
93,85,43979,5,4,1:2:0:0:
20,63,48812,5,0,1:0:0:0:
20,63,48896,1,0,1:0:0:0:
20,63,48979,2,0,B|-10:111|-10:111|13:165,1,107.999996704102,8|0,1:2|2:0,2:0:0:0:
16,178,49312,6,0,B|104:151|73:217|161:189,1,143.999995605469,2|8,1:2|1:2,2:0:0:0:
265,180,49812,1,2,1:2:0:0:
186,283,49979,1,0,1:0:0:0:
303,255,50146,1,0,1:0:0:0:
174,177,50312,1,10,1:2:0:0:
279,341,50479,5,8,1:2:0:0:
279,341,50562,1,0,1:0:0:0:
279,341,50646,2,0,B|317:354|317:354|359:339,1,71.9999978027344,0|0,1:0|1:0,2:0:0:0:
487,234,50979,1,10,1:2:0:0:
386,118,51146,2,0,B|347:104|347:104|307:118,1,71.9999978027344,2|0,1:2|1:0,2:0:0:0:
132,250,51479,1,0,1:0:0:0:
193,36,51646,2,0,L|202:115,1,71.9999978027344,10|0,1:2|1:0,2:0:0:0:
210,147,51896,1,0,1:0:0:0:
210,147,51979,5,2,1:2:0:0:
154,350,52146,1,0,1:0:0:0:
74,172,52312,1,2,1:2:0:0:
74,172,52396,1,0,1:0:0:0:
74,172,52479,2,0,L|26:166,3,40,2|0|2|0,1:2|1:0|1:3|1:0,2:0:0:0:
39,255,52812,2,0,L|-8:249,3,40,2|0|2|0,1:2|1:0|1:3|1:0,2:0:0:0:
154,350,53146,5,2,1:2:0:0:
154,350,53229,1,0,1:0:0:0:
154,350,53312,2,0,L|158:308,1,40,2|2,1:3|1:3,2:0:0:0:
199,124,53479,5,8,1:2:0:0:
305,318,53646,1,10,1:2:0:0:
500,245,54646,6,0,B|411:213|436:281|339:245,1,160,6|0,1:0|1:0,2:0:0:0:
385,83,55146,2,0,P|397:126|385:164,1,80,8|2,1:2|1:2,2:0:0:0:
236,269,55479,1,0,2:0:0:0:
197,130,55646,2,0,B|237:114|237:114|280:128,1,80,0|0,1:0|1:0,2:0:0:0:
227,349,55979,6,0,L|237:261,1,80,10|0,1:2|2:0,2:0:0:0:
99,143,56312,1,2,1:2:0:0:
131,326,56479,2,0,L|141:238,1,80,8|2,1:2|2:0,2:0:0:0:
145,114,56812,1,0,1:0:0:0:
32,219,56979,1,8,1:2:0:0:
19,29,57146,1,2,1:2:0:0:
197,130,57312,6,0,B|287:163|262:95|351:127,1,160,2|0,1:0|1:0,2:0:0:0:
505,34,57812,2,0,B|465:23|465:23|429:38,1,80,10|0,1:2|2:0,2:0:0:0:
350,126,58146,1,0,1:0:0:0:
479,220,58312,2,0,L|469:132,1,80,10|0,1:2|1:0,2:0:0:0:
275,63,58646,5,10,1:2:0:0:
348,218,58812,1,0,2:0:0:0:
395,37,58979,1,0,1:0:0:0:
233,147,59146,2,0,B|140:117|140:117|85:160,1,160,10|0,1:2|1:0,2:0:0:0:
15,331,59646,5,8,1:2:0:0:
41,329,59729,1,0,1:0:0:0:
68,327,59812,1,0,1:0:0:0:
95,326,59896,1,0,1:0:0:0:
116,326,59979,2,0,B|175:318|175:318|207:340|207:340|270:335,1,160,10|0,1:0|1:0,2:0:0:0:
438,271,60479,2,0,P|395:283|357:271,1,80,8|2,1:2|2:0,2:0:0:0:
262,148,60812,1,0,1:0:0:0:
407,94,60979,2,0,L|397:173,1,80,8|2,1:2|1:2,2:0:0:0:
233,52,61312,6,0,B|273:41|273:41|309:56,1,80,10|0,1:0|1:0,2:0:0:0:
162,142,61646,1,2,1:2:0:0:
297,243,61812,2,0,B|257:254|257:254|221:239,1,80,8|2,1:2|1:2,2:0:0:0:
65,136,62146,1,0,1:0:0:0:
90,300,62312,2,0,L|100:221,1,80,10|2,1:2|1:2,2:0:0:0:
58,42,62646,5,10,1:0:0:0:
190,113,62812,1,2,2:0:0:0:
33,29,62979,1,2,1:2:0:0:
211,126,63146,2,0,B|301:159|276:91|365:123,1,160,8|0,1:2|1:0,2:0:0:0:
477,231,63646,2,0,P|434:219|396:231,1,80,10|0,1:0|2:0,2:0:0:0:
299,355,63979,5,2,1:0:0:0:
440,312,64146,1,8,1:2:0:0:
285,357,64312,2,0,L|206:347,1,80,10|0,1:0|1:2,2:0:0:0:
55,341,64646,1,10,1:0:0:0:
55,341,64729,1,0,1:0:0:0:
55,341,64812,2,0,L|61:290,1,40,0|0,1:0|1:0,2:0:0:0:
9,203,64979,5,10,1:2:0:0:
9,203,65062,1,10,1:2:0:0:
9,203,65146,1,8,1:2:0:0:
9,203,65229,1,8,1:2:0:0:
9,203,65312,2,0,B|102:173|102:173|122:199|151:211,1,160,14|0,1:2|1:0,2:0:0:0:
201,38,65812,2,0,L|191:117,1,80,0|2,2:0|1:2,2:0:0:0:
261,267,66146,1,0,2:0:0:0:
381,155,66312,2,0,B|341:144|341:144|305:159,1,80,8|0,1:2|2:0,2:0:0:0:
190,324,66646,5,10,1:0:0:0:
353,257,66812,1,0,2:0:0:0:
171,165,66979,1,2,1:2:0:0:
369,258,67146,2,0,L|448:248,1,80,8|2,1:2|2:0,2:0:0:0:
274,99,67479,1,0,1:0:0:0:
476,45,67646,2,0,B|487:85|487:85|472:121,1,80,8|2,1:2|2:0,2:0:0:0:
292,204,67979,5,10,1:0:0:0:
373,49,68146,1,0,2:0:0:0:
280,232,68312,1,0,1:2:0:0:
177,26,68479,2,0,B|150:22|121:1|121:1|141:103,1,160,10|0,1:2|1:2,2:0:0:0:
319,130,68979,2,0,B|279:119|279:119|243:134,1,80,10|0,1:2|1:0,2:0:0:0:
167,313,69312,5,2,1:2:0:0:
336,289,69479,1,10,1:2:0:0:
138,212,69646,1,0,2:0:0:0:
261,356,69812,1,0,1:0:0:0:
243,133,69979,2,0,L|233:212,1,80,10|0,1:2|1:0,2:0:0:0:
88,353,70312,1,8,1:2:0:0:
88,353,70396,1,0,1:0:0:0:
88,353,70479,2,0,L|82:302,1,40,0|0,1:0|1:0,2:0:0:0:
20,253,70646,6,0,B|11:192|11:192|34:159|34:159|26:97,1,160,10|0,1:0|1:0,2:0:0:0:
163,12,71146,2,0,L|153:91,1,80,8|2,1:2|1:2,2:0:0:0:
227,239,71479,1,0,1:0:0:0:
307,97,71646,2,0,P|344:85|383:94,1,80,8|0,1:2|2:0,2:0:0:0:
508,233,71979,5,2,1:2:0:0:
354,179,72146,1,8,1:2:0:0:
506,113,72312,1,2,2:0:0:0:
428,337,72479,2,0,L|418:258,1,80,0|10,1:0|1:2,2:0:0:0:
386,81,72812,1,0,1:0:0:0:
264,210,72979,5,10,1:2:0:0:
237,206,73062,1,8,1:0:0:0:
210,203,73146,1,10,1:2:0:0:
184,200,73229,1,8,1:0:0:0:
162,199,73312,6,0,B|118:229|96:293|96:293|89:237|77:185|-66:114|86:52|90:40|90:40|94:49|152:84|112:139,2,512,14|2|6,1:2|2:0|1:2,2:0:0:0:
162,199,76312,6,0,L|227:207,1,60.0000022888184,8|0,1:2|2:0,2:0:0:0:
318,146,76646,1,0,1:0:0:0:
318,146,76812,1,0,1:0:0:0:
410,206,76979,2,0,L|401:271,1,60.0000022888184,0|0,1:0|1:0,2:0:0:0:
336,356,77312,6,0,B|271:367|291:320|221:336,1,120.000004577637,10|0,1:2|1:0,2:0:0:0:
131,365,77812,2,0,P|131:305|129:243,1,120.000004577637,2|0,2:0|1:0,2:0:0:0:
73,164,78312,2,0,P|109:148|139:150,1,60.0000022888184,2|0,1:2|1:0,2:0:0:0:
197,191,78562,1,2,1:2:0:0:
197,191,78646,6,0,B|268:167|268:167|319:198,1,120.000004577637,0|8,1:0|1:2,2:0:0:0:
407,155,79146,1,0,2:0:0:0:
388,296,79312,2,0,B|362:227|409:247|393:177,1,120.000004577637,2|0,1:2|1:0,2:0:0:0:
474,95,79812,1,0,1:0:0:0:
391,21,79979,6,0,L|331:28,1,60.0000022888184,10|0,1:2|2:0,2:0:0:0:
273,181,80312,2,0,P|290:156|296:127,1,60.0000022888184,0|2,1:0|2:0,2:0:0:0:
223,25,80646,1,0,1:0:0:0:
157,111,80812,1,0,1:0:0:0:
34,34,80979,5,0,1:0:0:0:
34,54,81062,1,0,1:0:0:0:
35,74,81146,1,0,1:0:0:0:
37,93,81229,1,0,1:0:0:0:
39,115,81312,2,0,B|33:163|33:163|47:189|47:189|41:236,1,120.000004577637,4|8,1:0|1:2,2:0:0:0:
170,229,81812,1,0,2:0:0:0:
123,355,81979,2,0,L|115:295,1,60.0000022888184,0|10,1:0|1:2,2:0:0:0:
168,202,82312,1,0,1:0:0:0:
261,258,82479,1,0,1:0:0:0:
342,185,82646,6,0,P|399:163|453:203,1,120.000004577637,0|0,1:0|2:0,2:0:0:0:
485,315,83146,2,0,B|420:293|433:345|363:317,1,120.000004577637,10|8,1:2|1:2,2:0:0:0:
251,361,83646,2,0,P|268:336|274:307,1,60.0000022888184,0|0,1:0|1:0,2:0:0:0:
219,244,83896,1,2,2:0:0:0:
219,244,83979,6,0,L|159:236,1,60.0000022888184,2|0,1:2|2:0,2:0:0:0:
78,356,84312,2,0,L|137:348,1,60.0000022888184,8|0,1:2|2:0,2:0:0:0:
50,182,84646,1,0,1:0:0:0:
8,281,84812,1,8,1:2:0:0:
49,145,84979,1,0,1:0:0:0:
105,264,85146,1,0,1:0:0:0:
167,108,85312,6,0,B|241:84|241:84|286:111,1,128,2|2,2:0|1:2,2:0:0:0:
343,243,85812,1,8,1:2:0:0:
213,192,85979,1,0,1:0:0:0:
256,344,86146,2,0,P|251:309|261:277,1,64,2|0,2:0|1:0,2:0:0:0:
354,352,86479,5,0,1:0:0:0:
354,352,86562,1,0,1:0:0:0:
354,352,86646,2,0,B|423:329|410:384|486:354,1,136.000002593994,4|10,1:2|1:0,2:0:0:0:
439,192,87146,1,0,3:0:0:0:
451,279,87312,2,0,L|442:211,1,68.0000012969971,2|0,1:0|3:0,2:0:0:0:
368,99,87646,1,10,1:2:0:0:
317,205,87812,1,0,3:0:0:0:
253,80,87979,6,0,P|218:72|187:81,1,68.0000012969971,2|0,1:0|3:0,2:0:0:0:
21,143,88312,1,10,1:0:0:0:
161,164,88479,1,0,3:0:0:0:
87,28,88646,2,0,L|96:96,1,68.0000012969971,2|2,1:0|1:0,2:0:0:0:
5,276,88979,1,8,1:0:0:0:
18,162,89146,1,2,3:2:0:0:
2,298,89312,6,0,B|81:270|59:333|138:304,1,136.000002593994,2|10,1:0|1:0,2:0:0:0:
278,244,89812,1,0,3:0:0:0:
223,369,89979,2,0,L|214:301,1,68.0000012969971,2|0,1:0|3:0,2:0:0:0:
190,143,90312,1,10,1:0:0:0:
275,209,90479,1,0,3:0:0:0:
351,120,90646,6,0,P|382:108|415:113,1,68.0000012969971,2|2,1:0|3:2,2:0:0:0:
505,277,90979,1,10,1:0:0:0:
385,208,91146,1,0,3:0:0:0:
498,165,91312,1,2,1:0:0:0:
419,292,91479,2,2,P|387:303|354:298,1,68.0000012969971,2|0,1:0|2:0,2:1:0:0:
249,361,91812,5,8,1:0:0:0:
249,361,91896,1,8,1:0:0:0:
249,361,91979,2,0,P|244:287|241:222,1,136.000002593994,4|10,1:0|1:0,2:0:0:0:
171,123,92479,1,0,3:0:0:0:
103,211,92646,2,0,P|71:222|38:217,1,68.0000012969971,2|0,1:0|3:0,2:0:0:0:
50,55,92979,2,0,L|59:123,1,68.0000012969971,2|2,1:0|1:0,2:0:0:0:
199,213,93312,5,2,1:2:0:0:
152,93,93479,1,0,3:0:0:0:
271,138,93646,2,0,P|302:148|336:143,1,68.0000012969971,10|0,1:0|3:0,2:0:0:0:
470,114,93979,1,2,1:0:0:0:
372,41,94146,1,2,1:0:0:0:
488,125,94312,1,8,1:0:0:0:
352,30,94479,6,0,B|309:74|309:74|343:163,1,136.000002593994,2|0,3:2|3:0,2:0:0:0:
478,225,94979,2,0,P|446:214|412:219,1,68.0000012969971,10|0,1:2|3:0,2:0:0:0:
267,333,95312,1,2,1:0:0:0:
440,301,95479,1,0,3:0:0:0:
325,179,95646,2,0,P|314:210|319:244,1,68.0000012969971,10|2,1:0|3:2,2:0:0:0:
370,364,95979,5,0,1:0:0:0:
370,364,96062,1,0,1:0:0:0:
370,364,96146,1,0,1:0:0:0:
267,333,96312,2,0,L|199:324,1,68.0000012969971,2|2,1:0|1:0,2:0:0:0:
175,318,96562,1,0,1:0:0:0:
175,318,96646,1,0,1:0:0:0:
137,200,96812,5,2,1:0:0:0:
67,339,96979,1,2,1:2:0:0:
26,232,97146,1,2,1:2:0:0:
10,252,97312,5,4,1:2:0:0:
437,102,98646,5,2,2:0:0:0:
372,164,98812,1,0,1:0:0:0:
377,184,99146,1,0,1:0:0:0:
382,206,99479,1,0,1:0:0:0:
333,278,99646,2,2,L|218:263,1,102.000001945496,2|0,2:0|2:0,2:0:0:0:
217,263,99979,6,0,B|213:210|213:210|231:184|231:184|228:128,1,136.000002593994,4|2,2:0|2:0,2:0:0:0:
159,71,100479,1,0,2:0:0:0:
98,139,100646,2,0,P|63:146|21:136,1,68.0000012969971,2|0,3:0|2:0,2:0:0:0:
24,13,100979,2,0,P|59:6|101:16,1,68.0000012969971,2|2,2:0|2:0,2:0:0:0:
195,155,101312,5,0,2:0:0:0:
271,46,101479,1,4,1:0:0:0:
285,57,101812,1,4,1:0:0:0:
300,72,102146,1,0,1:0:0:0:
300,72,102229,1,0,1:0:0:0:
300,72,102312,2,0,L|314:186,1,102.000001945496,8|0,1:2|2:0,2:0:0:0:
315,201,102646,6,0,B|349:187|349:187|388:199,1,71.9999978027344,2|0,1:2|1:0,2:0:0:0:
395,331,102979,2,0,B|361:345|361:345|322:333,1,71.9999978027344,8|2,1:2|1:2,2:0:0:0:
116,229,103312,1,0,1:0:0:0:
263,274,103479,1,0,1:0:0:0:
191,362,103646,2,0,L|181:281,1,71.9999978027344,8|8,1:2|1:2,2:0:0:0:
93,137,103979,5,0,1:0:0:0:
33,279,104146,1,0,1:0:0:0:
91,115,104312,2,0,L|82:43,1,71.9999978027344,10|2,1:2|1:2,2:0:0:0:
171,255,104646,1,0,1:0:0:0:
12,182,104812,1,0,1:0:0:0:
182,119,104979,1,10,1:2:0:0:
53,332,105146,5,0,1:0:0:0:
53,332,105229,1,0,1:0:0:0:
53,332,105312,2,0,B|143:303|122:367|210:339,1,151.999995941162,4|8,1:0|1:2,2:0:0:0:
422,223,105812,1,0,1:0:0:0:
324,363,105979,2,0,L|314:282,1,75.9999979705811,8|8,1:0|1:0,2:0:0:0:
295,79,106312,1,8,1:0:0:0:
191,226,106479,1,8,1:0:0:0:
403,123,106646,5,8,1:0:0:0:
172,45,106812,1,0,1:0:0:0:
431,129,106979,1,10,1:2:0:0:
307,202,107146,1,0,2:0:0:0:
431,129,107312,6,0,B|417:89|417:89|431:52,2,75.9999979705811,0|0|8,2:0|2:0|1:2,2:0:0:0:
462,214,107812,1,0,2:0:0:0:
462,214,107979,6,0,B|375:239|395:171|298:206,1,160,6|0,1:0|1:0,2:0:0:0:
150,55,108479,2,0,P|190:73|212:107,1,80,8|2,1:2|1:2,2:0:0:0:
221,255,108812,1,0,2:0:0:0:
119,177,108979,2,0,B|79:161|79:161|36:175,1,80,0|0,1:0|1:0,2:0:0:0:
68,344,109312,6,0,L|78:256,1,80,10|0,1:2|2:0,2:0:0:0:
228,155,109646,1,2,1:2:0:0:
190,334,109812,2,0,L|180:246,1,80,8|2,1:2|2:0,2:0:0:0:
307,110,110146,1,0,1:0:0:0:
144,170,110312,1,8,1:2:0:0:
303,238,110479,1,2,1:2:0:0:
197,55,110646,6,0,B|107:88|132:20|43:52,1,160,2|0,1:0|1:0,2:0:0:0:
11,173,111146,2,0,B|51:162|51:162|87:177,1,80,10|0,1:2|2:0,2:0:0:0:
250,259,111479,1,0,1:0:0:0:
181,140,111646,2,0,L|171:219,1,80,10|0,1:2|1:0,2:0:0:0:
245,352,111979,5,10,1:2:0:0:
325,226,112146,1,0,2:0:0:0:
399,354,112312,1,0,1:0:0:0:
462,177,112479,2,0,B|369:147|369:147|314:190,1,160,10|0,1:2|1:0,2:0:0:0:
215,285,112979,5,8,1:2:0:0:
217,259,113062,1,0,1:0:0:0:
219,232,113146,1,0,1:0:0:0:
220,208,113229,1,0,1:0:0:0:
222,184,113312,2,0,B|230:125|230:125|208:93|208:93|216:32,1,160,10|0,1:0|1:0,2:0:0:0:
54,174,113812,2,0,P|97:186|135:174,1,80,8|2,1:2|1:2,2:0:0:0:
315,127,114146,1,0,1:0:0:0:
230,287,114312,2,0,L|220:208,1,80,8|2,1:2|1:2,2:0:0:0:
245,40,114646,6,0,B|205:29|205:29|169:44,1,80,10|0,1:0|2:0,2:0:0:0:
61,178,114979,1,2,1:2:0:0:
209,128,115146,2,0,L|219:207,1,80,8|2,1:2|1:2,2:0:0:0:
43,160,115479,1,0,1:0:0:0:
119,328,115646,2,0,L|129:249,1,80,10|2,1:2|1:2,2:0:0:0:
139,89,115979,5,10,1:0:0:0:
294,181,116146,1,2,2:0:0:0:
117,80,116312,1,2,1:2:0:0:
318,188,116479,2,0,B|407:220|382:152|472:185,1,160,8|0,1:2|1:0,2:0:0:0:
488,305,116979,2,0,P|449:313|411:301,1,80,10|0,1:0|2:0,2:0:0:0:
232,179,117312,5,2,1:0:0:0:
300,307,117479,1,8,1:2:0:0:
357,125,117646,2,0,L|367:204,1,80,10|0,1:0|1:2,2:0:0:0:
413,358,117979,1,10,1:0:0:0:
413,358,118062,1,0,1:0:0:0:
413,358,118146,2,0,L|407:307,1,40,0|0,1:0|1:0,2:0:0:0:
467,255,118312,5,10,1:2:0:0:
469,229,118396,1,10,1:2:0:0:
471,202,118479,1,8,1:2:0:0:
472,178,118562,1,8,1:2:0:0:
473,158,118646,2,0,B|380:128|380:128|360:154|331:166,1,160,14|0,1:2|1:0,2:0:0:0:
282,12,119146,2,0,L|292:91,1,80,0|2,2:0|1:2,2:0:0:0:
231,212,119479,1,0,2:0:0:0:
116,97,119646,2,0,B|156:86|156:86|192:101,1,80,8|0,1:2|2:0,2:0:0:0:
313,266,119979,5,10,1:0:0:0:
139,193,120146,1,0,1:0:0:0:
314,134,120312,1,2,1:2:0:0:
206,310,120479,2,0,L|216:231,1,80,8|2,1:2|1:2,2:0:0:0:
201,93,120812,1,0,1:0:0:0:
99,207,120979,2,0,B|59:218|59:218|23:203,1,80,8|2,1:2|2:0,2:0:0:0:
136,27,121312,5,10,1:0:0:0:
228,187,121479,1,0,2:0:0:0:
70,121,121646,1,0,1:2:0:0:
281,21,121812,2,0,B|308:17|337:-4|337:-4|317:98,1,160,10|0,1:2|1:2,2:0:0:0:
152,183,122312,2,0,B|192:172|192:172|228:187,1,80,10|0,1:2|1:0,2:0:0:0:
321,290,122646,5,2,1:2:0:0:
397,190,122812,1,10,1:2:0:0:
323,313,122979,1,0,2:0:0:0:
276,149,123146,1,0,1:0:0:0:
416,356,123312,2,0,L|426:277,1,80,10|0,1:2|1:0,2:0:0:0:
478,102,123646,5,8,1:2:0:0:
478,102,123729,1,0,1:0:0:0:
478,102,123812,2,0,L|427:96,1,40,0|0,1:0|1:0,2:0:0:0:
380,39,123979,6,0,B|319:30|319:30|286:53|286:53|224:45,1,160,10|0,1:0|1:0,2:0:0:0:
109,17,124479,2,0,L|119:96,1,80,8|2,1:2|1:2,2:0:0:0:
67,230,124812,1,0,1:0:0:0:
214,133,124979,2,0,L|204:212,1,80,8|0,1:2|2:0,2:0:0:0:
122,337,125312,5,2,1:2:0:0:
76,188,125479,1,8,1:2:0:0:
231,300,125646,1,2,2:0:0:0:
44,366,125812,2,0,B|31:324|31:324|54:287,1,80,0|10,1:0|1:2,2:0:0:0:
167,217,126146,1,0,1:0:0:0:
63,72,126312,2,0,B|43:102|43:102|56:144,1,80,10|10,1:2|1:2,2:0:0:0:
240,279,126646,5,4,1:2:0:0:
60,223,126812,1,0,1:0:0:0:
238,139,126979,1,0,1:0:0:0:
160,325,127146,2,0,L|150:246,1,80,8|2,1:2|2:0,2:0:0:0:
208,109,127479,1,0,1:0:0:0:
299,214,127646,2,0,P|342:221|382:207,1,80,8|2,1:2|2:0,2:0:0:0:
502,85,127979,5,0,1:0:0:0:
331,128,128146,1,8,1:2:0:0:
468,172,128312,1,0,1:0:0:0:
402,62,128479,2,0,L|397:23,2,40,0|0|8,1:0|1:0|1:2,2:0:0:0:
299,214,128812,1,0,1:0:0:0:
200,43,128979,5,8,1:0:0:0:
164,24,129062,1,8,1:0:0:0:
125,19,129146,1,8,1:0:0:0:
86,28,129229,1,8,1:0:0:0:
53,50,129312,1,4,1:3:0:0:
265,226,134646,5,2,2:0:0:0:
477,329,135979,1,2,2:0:0:0:
455,21,137312,5,2,2:0:0:0:
462,37,137979,1,2,2:0:0:0:
469,53,138646,1,2,2:0:0:0:
418,139,139146,5,0,1:0:0:0:
418,139,139229,1,0,1:0:0:0:
418,139,139312,2,0,L|379:134,1,40,8|0,1:0|2:0,2:0:0:0:
290,128,139479,1,0,1:0:0:0:
156,76,139812,5,0,1:0:0:0:
156,76,139979,2,0,B|125:157|125:157|148:179|162:203,1,136.000002593994,4|0,1:2|2:0,2:0:0:0:
265,250,140479,1,0,1:0:0:0:
265,250,140562,1,0,1:0:0:0:
265,250,140646,2,0,B|299:238|299:238|340:250,2,68.0000012969971,12|2|0,1:0|2:0|2:0,2:0:0:0:
207,317,141146,6,0,B|132:291|148:351|74:322,1,136.000002593994,2|2,1:2|1:2,2:0:0:0:
8,206,141646,2,0,P|44:194|83:205,1,68.0000012969971,2|0,1:2|1:0,2:0:0:0:
98,220,141896,1,0,1:0:0:0:
98,220,141979,2,0,L|107:146,1,68.0000012969971,12|0,1:0|1:0,2:0:0:0:
193,115,142229,1,8,1:0:0:0:
193,115,142312,2,0,L|184:182,1,68.0000012969971,0|8,2:0|1:0,2:0:0:0:
207,317,142646,6,0,B|291:290|291:290|336:321,1,136.000002593994,4|0,1:2|2:0,2:0:0:0:
443,347,143146,1,0,1:0:0:0:
443,347,143229,1,0,1:0:0:0:
443,347,143312,2,0,L|514:355,2,68.0000012969971,12|2|0,1:0|1:2|2:0,2:0:0:0:
399,263,143812,6,0,B|380:182|380:182|408:167|427:143,1,136.000002593994,0|2,1:0|2:0,2:0:0:0:
503,37,144312,2,0,P|467:49|428:38,1,68.0000012969971,0|2,1:0|2:0,2:0:0:0:
352,83,144646,2,0,B|314:78|314:78|297:62|297:62|255:56,2,102.000001945496,12|10|8,1:0|1:2|1:2,2:0:0:0:
421,149,145312,6,0,B|460:187|460:187|435:268,1,136.000002593994,4|0,1:2|2:0,2:0:0:0:
332,284,145812,1,0,1:0:0:0:
332,284,145896,1,0,1:0:0:0:
332,284,145979,2,0,L|340:355,2,68.0000012969971,12|2|0,1:0|1:2|2:0,2:0:0:0:
253,222,146479,6,0,P|193:199|130:227,1,136.000002593994,0|2,1:2|2:0,2:0:0:0:
43,293,146979,1,0,1:0:0:0:
135,354,147146,1,0,1:0:0:0:
135,354,147229,1,0,1:0:0:0:
135,354,147312,2,0,B|172:349|172:349|192:361|192:361|233:356,2,102.000001945496,12|8|8,1:0|1:0|1:0,2:0:0:0:
32,269,147979,6,0,B|12:182|12:182|39:171|61:150,1,136.000002593994,6|0,1:2|2:0,2:0:0:0:
146,98,148479,1,0,1:0:0:0:
146,98,148562,1,0,1:0:0:0:
146,98,148646,2,0,L|137:30,2,68.0000012969971,12|2|0,1:0|1:2|2:0,2:0:0:0:
231,191,149146,1,8,1:0:0:0:
316,94,149312,6,0,B|353:89|353:89|373:101|373:101|414:96,2,102.000001945496,4|0|2,1:0|1:0|1:0,2:0:0:0:
271,97,149896,1,0,1:0:0:0:
271,97,149979,2,0,L|265:52,3,34.0000006484985,10|8|10|0,1:2|1:0|1:0|1:0,2:0:0:0:
231,191,150312,1,8,1:0:0:0:
231,191,150396,1,8,1:0:0:0:
231,191,150479,1,8,1:0:0:0:
231,191,150562,1,2,1:2:0:0:
231,191,150646,6,0,B|192:180|192:180|155:193,1,71.9999978027344,6|0,1:0|2:0,2:0:0:0:
128,207,150896,1,0,1:0:0:0:
128,207,150979,2,0,L|117:293,1,71.9999978027344,8|0,1:0|1:0,2:0:0:0:
245,358,151312,2,0,L|236:286,1,71.9999978027344,2|0,1:0|2:0,2:0:0:0:
368,223,151646,2,0,L|357:309,1,71.9999978027344,8|0,1:0|1:0,2:0:0:0:
504,144,151979,6,0,B|468:128|468:128|433:139,1,71.9999978027344,2|0,1:0|2:0,2:0:0:0:
414,149,152229,1,0,1:0:0:0:
414,149,152312,2,0,L|405:77,1,71.9999978027344,10|0,1:0|2:0,2:0:0:0:
309,15,152646,1,2,1:0:0:0:
241,120,152812,1,0,1:0:0:0:
241,120,152896,1,0,1:0:0:0:
241,120,152979,2,0,P|206:131|169:122,1,71.9999978027344,8|2,1:0|1:0,2:0:0:0:
24,198,153312,6,0,B|60:182|60:182|91:191,1,71.9999978027344,0|0,1:0|2:0,2:0:0:0:
103,215,153562,1,0,1:0:0:0:
103,215,153646,2,0,L|112:287,1,71.9999978027344,8|0,1:0|1:0,2:0:0:0:
111,286,154146,1,0,1:0:0:0:
229,353,154312,2,0,L|238:281,1,71.9999978027344,10|0,1:0|2:0,2:0:0:0:
324,159,154646,5,2,1:0:0:0:
417,269,154812,1,2,1:0:0:0:
417,269,154896,1,0,1:0:0:0:
417,269,154979,1,8,1:0:0:0:
495,161,155146,2,0,P|461:150|426:157,1,71.9999978027344,2|0,1:0|1:0,2:0:0:0:
305,269,155479,2,0,L|314:197,1,71.9999978027344,0|8,1:0|1:0,2:0:0:0:
380,56,155812,6,0,B|297:72|323:14|231:41,1,143.999995605469,2|2,1:0|1:0,2:0:0:0:
205,56,156229,1,0,1:0:0:0:
205,56,156312,2,0,L|214:128,1,71.9999978027344,8|0,1:0|1:0,2:0:0:0:
78,246,156646,1,2,1:0:0:0:
121,131,156812,1,0,1:0:0:0:
82,262,156979,2,0,L|91:334,1,71.9999978027344,10|0,1:0|1:2,2:0:0:0:
229,118,157312,5,2,1:0:0:0:
181,278,157479,1,0,1:0:0:0:
181,278,157562,1,0,1:0:0:0:
181,278,157646,2,0,L|190:350,1,71.9999978027344,10|0,1:0|1:0,2:0:0:0:
121,131,157979,1,2,1:0:0:0:
259,216,158146,2,0,L|297:220,2,35.9999989013672,2|0|8,1:0|1:0|1:0,2:0:0:0:
243,14,158479,6,0,B|198:44|198:44|214:135,1,143.999995605469,2|0,1:0|2:0,2:0:0:0:
112,202,158979,2,0,L|121:130,1,71.9999978027344,8|2,1:0|1:2,2:0:0:0:
71,30,159312,1,0,1:0:0:0:
213,132,159479,1,0,1:0:0:0:
26,178,159646,2,0,B|14:140|14:140|35:106,1,71.9999978027344,2|2,1:0|1:0,2:0:0:0:
190,36,159979,5,2,1:0:0:0:
127,154,160146,2,0,L|131:192,2,35.9999989013672,2|2|10,1:0|1:2|1:0,2:0:0:0:
183,303,160479,1,2,1:0:0:0:
183,303,160562,1,2,1:2:0:0:
183,303,160646,2,0,L|179:341,2,35.9999989013672,2|2|2,1:0|1:2|1:0,2:0:0:0:
274,224,160979,1,8,1:0:0:0:
274,224,161062,2,0,B|310:210|310:210|348:223,1,71.9999978027344,2|2,1:2|1:2,2:0:0:0:
356,228,161312,6,0,L|347:300,1,71.9999978027344,10|0,1:0|1:0,2:0:0:0:
346,333,161562,1,10,1:0:0:0:
346,333,161646,2,0,P|381:345|425:334,1,71.9999978027344,0|2,2:0|1:0,2:0:0:0:
503,263,161979,2,0,L|506:298,3,35.9999989013672,8|10|0|0,1:0|1:0|1:0|1:0,2:0:0:0:
483,159,162312,5,10,1:0:0:0:
455,136,162396,1,10,1:0:0:0:
421,125,162479,1,8,1:0:0:0:
385,128,162562,1,8,1:0:0:0:
353,144,162646,2,0,L|358:189,3,35.9999989013672,0|0|0|0,1:0|1:0|3:2|3:2,2:0:0:0:
281,203,162979,5,0,1:0:0:0:
253,226,163062,1,0,1:0:0:0:
219,237,163146,1,0,3:2:0:0:
183,234,163229,1,0,3:2:0:0:
151,218,163312,2,0,L|156:172,3,35.9999989013672,10|0|0|0,1:0|1:0|1:0|1:0,2:0:0:0:
63,232,163646,5,8,1:0:0:0:
67,196,163729,1,0,1:0:0:0:
71,160,163812,1,2,1:0:0:0:
76,124,163896,1,0,1:0:0:0:
80,89,163979,5,2,2:0:0:0:
405,91,165312,5,2,2:0:0:0:
217,310,166645,1,2,2:0:0:0:
474,338,167812,5,2,2:0:0:0:
474,338,167895,1,0,2:0:0:0:
474,338,167979,2,0,L|359:323,2,90.0000034332277,2|2|0,2:0|2:0|2:0,2:0:0:0:
429,241,168645,2,0,L|314:226,2,80.0000030517579,2|2|0,2:0|2:0|2:0,2:0:0:0:
476,120,169312,5,2,2:0:0:0:
11,336,170645,5,2,2:0:0:0:
207,196,171979,1,2,2:0:0:0:
256,192,172062,12,2,173312,2:0:0:0:
256,192,173395,12,2,174561,2:0:0:0:
500,309,177312,5,2,1:0:0:0:
28,328,178478,5,2,1:0:0:0:
198,257,178812,1,2,1:0:0:0:
120,26,179978,5,2,1:0:0:0:
375,257,181145,5,2,1:0:0:0:
465,110,181478,1,2,1:0:0:0:
75,29,182645,6,0,L|64:106,1,68.0000012969971,2|0,1:2|2:0,2:0:0:0:
175,148,182978,2,0,L|165:80,1,68.0000012969971,0|0,1:0|2:0,2:0:0:0:
149,231,183312,2,0,P|182:236|214:226,1,68.0000012969971,0|0,1:0|2:0,2:0:0:0:
314,176,183645,1,8,1:2:0:0:
304,287,183812,1,0,1:2:0:0:
234,68,183978,5,2,1:2:0:0:
414,162,184145,1,0,1:0:0:0:
229,214,184312,1,8,1:2:0:0:
229,214,184395,1,0,1:0:0:0:
229,214,184478,2,0,L|234:171,1,34.0000006484985,2|0,1:2|1:0,2:0:0:0:
305,253,184645,2,0,L|309:219,3,34.0000006484985,0|0|2|0,1:0|1:0|1:2|1:0,2:0:0:0:
385,297,184978,2,0,L|389:263,3,34.0000006484985,10|0|0|0,1:2|1:0|1:0|1:0,2:0:0:0:
293,348,185312,5,2,1:0:0:0:
267,346,185395,1,0,1:0:0:0:
241,345,185478,1,0,1:0:0:0:
215,344,185562,1,0,1:0:0:0:
189,342,185645,2,0,L|184:304,3,35.9999989013672,10|0|2|0,1:2|1:0|1:0|1:0,2:0:0:0:
102,297,185978,1,2,1:2:0:0:
102,297,186062,1,0,1:2:0:0:
102,297,186144,1,2,1:2:0:0:
102,297,186228,2,0,L|107:333,3,35.9999989013672,0|8|0|0,1:2|1:0|1:0|1:0,2:0:0:0:
94,94,186645,5,4,1:2:0:0:
11,186,186812,1,2,1:0:0:0:
95,60,186978,1,10,1:2:0:0:
160,219,187145,1,0,1:0:0:0:
228,116,187312,5,0,1:0:0:0:
258,91,187395,1,0,1:0:0:0:
297,81,187478,1,2,1:2:0:0:
336,87,187562,1,0,1:0:0:0:
371,102,187645,2,0,L|367:63,3,40,2|0|2|0,1:2|1:0|1:2|1:0,2:0:0:0:
445,37,187978,5,6,1:2:0:0:
450,76,188062,1,0,1:0:0:0:
455,116,188145,1,2,1:3:0:0:
460,156,188228,1,2,1:3:0:0:
465,195,188312,5,2,1:0:0:0:
316,335,188478,1,2,1:0:0:0:
437,222,189312,6,0,B|391:186|326:224|379:217|324:266|265:220,1,176.000005371094,6|0,1:0|1:0,2:0:0:0:
75,331,189812,2,0,P|117:340|159:327,1,88.000002685547,8|2,1:2|1:2,2:0:0:0:
274,226,190145,1,0,2:0:0:0:
103,149,190312,2,0,B|87:189|87:189|101:232,1,88.000002685547,0|0,1:0|1:0,2:0:0:0:
287,355,190645,6,0,L|277:267,1,88.000002685547,10|0,1:2|2:0,2:0:0:0:
414,131,190978,1,2,1:2:0:0:
421,323,191145,2,0,L|431:235,1,88.000002685547,8|2,1:2|2:0,2:0:0:0:
282,49,191478,1,0,1:0:0:0:
341,205,191645,1,8,1:2:0:0:
432,22,191812,1,2,1:2:0:0:
271,143,191978,6,0,B|218:174|167:122|213:131|153:87|102:118,1,176.000005371094,2|0,1:0|1:0,2:0:0:0:
17,263,192478,2,0,B|57:246|57:246|101:258,1,88.000002685547,10|0,1:2|2:0,2:0:0:0:
279,238,192812,1,0,1:0:0:0:
203,362,192978,2,0,L|191:273,1,88.000002685547,10|0,1:2|1:0,2:0:0:0:
339,100,193312,5,10,1:2:0:0:
280,275,193478,1,0,2:0:0:0:
179,74,193645,1,0,1:0:0:0:
356,187,193812,2,0,B|465:154|465:154|514:201,1,176.000005371094,10|0,1:2|1:0,2:0:0:0:
398,345,194312,5,8,1:2:0:0:
372,343,194395,1,0,1:0:0:0:
345,341,194478,1,0,1:0:0:0:
321,340,194562,1,0,1:0:0:0:
299,336,194645,6,0,B|234:327|234:327|198:351|198:351|131:342,1,176.000005371094,10|0,1:0|1:0,2:0:0:0:
15,225,195145,2,0,P|57:234|99:221,1,88.000002685547,8|2,1:2|2:0,2:0:0:0:
237,214,195478,1,0,1:0:0:0:
192,51,195645,2,0,P|157:77|140:117,1,88.000002685547,8|2,1:2|1:2,2:0:0:0:
227,302,195978,6,0,L|238:208,1,88.000002685547,10|0,1:0|1:0,2:0:0:0:
322,129,196312,1,2,1:2:0:0:
405,239,196478,2,0,P|446:251|489:242,1,88.000002685547,8|2,1:2|2:0,2:0:0:0:
306,129,196812,1,0,1:0:0:0:
419,39,196978,2,0,P|461:29|503:42,1,88.000002685547,10|2,1:2|1:2,2:0:0:0:
254,194,197312,5,10,1:0:0:0:
443,140,197478,1,2,2:0:0:0:
227,54,197645,1,2,1:2:0:0:
345,193,197812,2,0,B|372:82|295:119|321:11,1,176.000005371094,8|0,1:2|1:0,2:0:0:0:
249,161,198312,2,0,P|206:170|165:157,1,88.000002685547,10|0,1:0|2:0,2:0:0:0:
5,129,198645,5,2,1:0:0:0:
206,67,198812,1,8,1:2:0:0:
83,9,198978,2,0,L|94:100,1,88.000002685547,10|0,1:0|1:2,2:0:0:0:
34,260,199312,1,10,1:0:0:0:
34,260,199395,1,0,1:0:0:0:
34,260,199478,2,0,L|85:266,1,44.0000013427735,0|0,1:0|1:0,2:0:0:0:
181,317,199645,5,10,1:2:0:0:
179,291,199728,1,10,1:2:0:0:
177,264,199812,1,8,1:2:0:0:
176,240,199895,1,8,1:2:0:0:
175,217,199978,6,0,B|280:182|280:182|303:212|336:226,1,176.000005371094,14|0,1:2|1:0,2:0:0:0:
404,359,200478,2,0,L|415:269,1,88.000002685547,0|2,2:0|1:2,2:0:0:0:
508,162,200812,1,0,2:0:0:0:
438,50,200978,2,0,B|392:37|392:37|351:54,1,88.000002685547,8|0,1:2|2:0,2:0:0:0:
207,237,201312,5,10,1:0:0:0:
400,167,201478,1,0,2:0:0:0:
211,104,201645,1,2,1:2:0:0:
314,284,201812,2,0,L|302:194,1,88.000002685547,8|2,1:2|2:0,2:0:0:0:
354,52,202145,1,0,1:0:0:0:
207,136,202312,2,0,B|161:148|161:148|120:131,1,88.000002685547,8|2,1:2|2:0,2:0:0:0:
38,52,202645,5,10,1:0:0:0:
89,216,202811,1,0,2:0:0:0:
176,57,202978,1,0,1:2:0:0:
213,248,203145,2,0,B|261:217|320:265|270:249|330:301|377:266,1,176.000005371094,10|0,1:2|1:2,2:0:0:0:
505,167,203645,2,0,B|465:150|465:150|421:162,1,88.000002685547,10|0,1:2|1:0,2:0:0:0:
245,323,203978,5,2,1:2:0:0:
344,192,204145,1,10,1:2:0:0:
247,342,204311,1,0,2:0:0:0:
217,154,204478,1,0,1:0:0:0:
119,325,204645,2,0,L|108:238,1,88.000002685547,10|0,1:2|1:0,2:0:0:0:
15,97,204978,5,8,1:2:0:0:
15,97,205061,1,0,1:0:0:0:
15,97,205145,2,0,L|66:91,1,44.0000013427735,0|0,1:0|1:0,2:0:0:0:
108,17,205311,6,0,B|166:51|166:51|127:175,1,176.000005371094,10|0,1:0|1:0,2:0:0:0:
71,246,205811,2,0,P|111:261|158:255,1,88.000002685547,8|2,1:2|2:0,2:0:0:0:
334,184,206145,1,0,1:0:0:0:
258,326,206311,2,0,L|247:239,1,88.000002685547,8|0,1:2|1:0,2:0:0:0:
295,109,206645,5,2,1:2:0:0:
375,264,206811,1,8,1:2:0:0:
446,105,206978,1,2,2:0:0:0:
474,285,207145,2,0,B|489:238|489:238|476:199,1,88.000002685547,0|10,1:0|1:2,2:0:0:0:
372,67,207478,1,0,1:0:0:0:
299,207,207645,5,8,1:0:0:0:
299,207,207728,1,8,1:0:0:0:
299,207,207811,1,8,1:0:0:0:
299,207,207895,1,8,1:0:0:0:
299,207,207978,2,0,B|254:240|194:188|244:204|185:156|137:187,1,176.000005371094,4|0,1:0|2:0,2:0:0:0:
46,290,208478,2,0,L|51:337,2,44.0000013427735,0|0|2,1:0|1:0|1:0,2:0:0:0:
114,191,208811,1,0,1:0:0:0:
193,291,208978,1,0,1:0:0:0:
200,263,209145,1,2,1:0:0:0:
281,195,209311,6,0,B|349:174|349:174|414:205,2,132.00000402832,10|10|10,1:0|1:0|1:0,2:0:0:0:
182,296,209978,1,8,1:0:0:0:
120,184,210145,1,8,1:0:0:0:
24,302,210311,1,8,1:2:0:0:
23,283,210395,1,8,1:2:0:0:
23,265,210478,1,8,1:2:0:0:
22,247,210561,1,8,1:2:0:0:
22,229,210645,6,0,L|32:141,1,80,4|0,1:0|2:0,2:0:0:0:
99,38,210978,1,10,1:0:0:0:
166,164,211145,1,0,1:0:0:0:
246,45,211311,2,0,P|288:35|325:45,1,80,10|2,1:0|1:2,2:0:0:0:
372,158,211645,1,0,1:0:0:0:
464,26,211811,6,0,B|435:115|504:91|471:186,1,160,10|2,1:0|1:2,2:0:0:0:
505,256,212228,1,0,1:0:0:0:
505,256,212311,2,0,P|466:262|429:247,1,80,8|2,1:2|1:0,2:0:0:0:
248,308,212645,1,0,1:0:0:0:
405,246,212811,1,2,1:0:0:0:
204,171,212978,1,8,1:2:0:0:
330,352,213145,6,0,B|337:290|337:290|315:258|315:258|323:199,1,160,6|0,1:0|1:0,2:0:0:0:
434,47,213645,2,0,L|423:126,1,80,2|0,1:0|1:0,2:0:0:0:
316,197,213978,1,10,1:0:0:0:
248,71,214145,2,0,L|252:31,2,40,0|8|0,1:0|1:0|2:0,2:0:0:0:
121,30,214478,6,0,P|81:24|45:39,1,80,10|0,1:0|1:0,2:0:0:0:
20,65,214728,1,0,1:0:0:0:
20,65,214811,1,10,1:0:0:0:
35,193,214978,2,0,L|30:153,3,40,10|8|0|0,1:0|1:0|2:0|1:0,2:0:0:0:
43,223,215311,2,0,B|86:208|86:208|124:222,1,80,14|0,1:0|1:0,2:0:0:0:
197,350,215645,5,8,1:0:0:0:
197,350,215728,1,2,1:3:0:0:
197,350,215811,1,8,1:0:0:0:
197,350,215895,1,8,1:0:0:0:
197,350,215978,6,0,L|276:340,1,80,6|0,1:0|2:0,2:0:0:0:
417,316,216311,2,0,B|400:291|383:274|383:274|411:206,1,120,10|0,1:0|2:0,2:0:0:0:
417,198,216645,2,0,B|329:216|359:152|261:181,1,160,14|0,1:0|2:0,2:0:0:0:
168,238,217145,1,2,1:2:0:0:
168,238,217311,6,0,L|152:111,2,120,6|2|2,1:0|1:2|1:2,2:0:0:0:
106,343,217978,1,10,1:0:0:0:
106,343,218145,2,0,P|68:357|27:349,1,80,2|0,1:0|2:0,2:0:0:0:
10,126,218478,5,10,1:0:0:0:
10,126,218561,1,8,1:0:0:0:
10,126,218645,2,0,B|108:87|108:87|162:126,1,160,12|0,1:0|2:0,2:0:0:0:
242,255,219145,1,2,1:2:0:0:
322,142,219311,1,14,1:0:0:0:
459,271,219478,2,0,P|420:277|383:264,1,80,2|0,1:0|2:0,2:0:0:0:
310,122,219811,1,2,1:2:0:0:
428,181,219978,6,0,B|457:116|457:116|421:76,2,120,2|2|0,1:0|1:2|1:0,2:0:0:0:
275,327,220645,1,10,1:0:0:0:
431,290,220811,1,0,1:0:0:0:
257,196,220978,1,8,1:0:0:0:
462,301,221145,5,14,1:2:0:0:
256,192,221228,12,2,222561,2:0:0:0:
