osu file format v14

[General]
AudioFilename: audio.mp3
AudioLeadIn: 0
PreviewTime: 4355
Countdown: 0
SampleSet: Normal
StackLeniency: 0
Mode: 1
LetterboxInBreaks: 0
WidescreenStoryboard: 0

[Editor]
Bookmarks: 4355,18268,32181,46094,53920,81746,109572,123485
DistanceSpacing: 0.5
BeatDivisor: 2
GridSize: 32
TimelineZoom: 1.652

[Metadata]
Title:Hanabi no Saku Yoru.
TitleUnicode:花火の咲く夜。
Artist:shio
ArtistUnicode:shio
Creator:Genjuro
Version:Muzukashii
Source:
Tags:electronic instrumental breakcore speedcore
BeatmapID:4007354
BeatmapSetID:1936253

[Difficulty]
HPDrainRate:6
CircleSize:2
OverallDifficulty:5
ApproachRate:10
SliderMultiplier:0.7
SliderTickRate:1

[Events]
//Background and Video events
0,0,"bg.jpg",0,20
//Break Periods
//Storyboard Layer 0 (Background)
//Storyboard Layer 1 (Fail)
//Storyboard Layer 2 (Pass)
//Storyboard Layer 3 (Foreground)
//Storyboard Layer 4 (Overlay)
//Storyboard Sound Samples

[TimingPoints]
8,217.391304347826,4,1,0,100,1,8
877,217.391304347826,4,1,0,100,1,0
4355,-100,4,1,0,100,0,1
17398,-100,4,1,0,100,0,0
50116,-100,4,1,0,50,0,0
50442,434.782608695652,8,1,0,50,1,8
52398,-50,8,1,0,13,0,8
53702,-50,8,1,0,25,0,8
53920,434.782608695652,4,1,0,25,1,0
53920,-50,4,1,0,25,0,0
81202,-100,4,1,0,100,0,0
81746,217.391304347826,4,1,0,100,1,1
122615,-100,4,1,0,100,0,0

[HitObjects]
256,192,877,5,0,0:0:0:0:
256,192,1094,1,0,0:0:0:0:
256,192,1311,1,8,0:0:0:0:
256,192,1529,1,8,0:0:0:0:
256,192,1746,1,0,0:0:0:0:
256,192,2181,1,8,0:0:0:0:
256,192,2616,1,0,0:0:0:0:
256,192,2833,1,0,0:0:0:0:
256,192,3050,1,0,0:0:0:0:
256,192,3485,1,8,0:0:0:0:
256,192,4355,1,4,0:0:0:0:
256,192,4790,1,8,0:0:0:0:
256,192,5007,1,0,0:0:0:0:
256,192,5224,1,8,0:0:0:0:
256,192,5442,1,8,0:0:0:0:
256,192,5659,1,0,0:0:0:0:
256,192,5768,1,0,0:0:0:0:
256,192,5876,1,0,0:0:0:0:
256,192,6094,1,8,0:0:0:0:
256,192,6529,1,0,0:0:0:0:
256,192,6746,1,8,0:0:0:0:
256,192,6963,1,0,0:0:0:0:
256,192,7181,1,0,0:0:0:0:
256,192,7398,1,8,0:0:0:0:
256,192,7507,1,8,0:0:0:0:
256,192,7616,1,8,0:0:0:0:
256,192,7833,1,0,0:0:0:0:
256,192,8268,1,8,0:0:0:0:
256,192,8485,1,8,0:0:0:0:
256,192,8703,1,0,0:0:0:0:
256,192,8920,1,0,0:0:0:0:
256,192,9137,1,8,0:0:0:0:
256,192,9572,1,0,0:0:0:0:
256,192,9790,1,8,0:0:0:0:
256,192,10007,1,0,0:0:0:0:
256,192,10224,1,8,0:0:0:0:
256,192,10442,1,0,0:0:0:0:
256,192,11311,1,0,0:0:0:0:
256,192,11746,1,8,0:0:0:0:
256,192,11963,1,8,0:0:0:0:
256,192,12181,1,0,0:0:0:0:
256,192,12398,1,8,0:0:0:0:
256,192,12616,1,0,0:0:0:0:
256,192,12724,1,0,0:0:0:0:
256,192,12833,1,0,0:0:0:0:
256,192,13050,1,8,0:0:0:0:
256,192,13485,1,0,0:0:0:0:
256,192,13703,1,0,0:0:0:0:
256,192,13920,1,8,0:0:0:0:
256,192,14137,1,0,0:0:0:0:
256,192,14355,1,8,0:0:0:0:
256,192,14463,1,8,0:0:0:0:
256,192,14572,1,8,0:0:0:0:
256,192,14790,1,0,0:0:0:0:
256,192,15224,1,8,0:0:0:0:
256,192,15442,1,8,0:0:0:0:
256,192,15659,1,0,0:0:0:0:
256,192,15876,1,0,0:0:0:0:
256,192,16094,1,8,0:0:0:0:
256,192,16529,1,0,0:0:0:0:
256,192,16637,1,0,0:0:0:0:
256,192,16746,1,0,0:0:0:0:
256,192,16963,1,8,0:0:0:0:
256,192,17181,1,8,0:0:0:0:
256,192,17398,1,0,0:0:0:0:
256,192,18050,1,8,0:0:0:0:
256,192,18268,1,0,0:0:0:0:
256,192,18485,1,8,0:0:0:0:
256,192,18920,1,8,0:0:0:0:
256,192,19137,1,8,0:0:0:0:
256,192,19572,1,0,0:0:0:0:
256,192,20007,1,8,0:0:0:0:
256,192,20224,1,8,0:0:0:0:
256,192,20442,1,8,0:0:0:0:
256,192,20659,1,8,0:0:0:0:
256,192,20876,1,0,0:0:0:0:
256,192,21311,1,8,0:0:0:0:
256,192,21746,1,0,0:0:0:0:
256,192,21963,1,8,0:0:0:0:
256,192,22398,1,8,0:0:0:0:
256,192,22616,1,0,0:0:0:0:
256,192,23050,1,8,0:0:0:0:
256,192,23485,1,0,0:0:0:0:
256,192,23811,1,0,0:0:0:0:
256,192,24137,1,8,0:0:0:0:
256,192,24355,1,0,0:0:0:0:
256,192,25224,1,0,0:0:0:0:
256,192,25442,1,8,0:0:0:0:
256,192,25876,1,8,0:0:0:0:
256,192,26094,1,8,0:0:0:0:
256,192,26311,1,8,0:0:0:0:
256,192,26746,1,8,0:0:0:0:
256,192,26963,1,0,0:0:0:0:
256,192,27398,1,8,0:0:0:0:
256,192,27833,1,0,0:0:0:0:
256,192,28050,1,0,0:0:0:0:
256,192,28268,1,8,0:0:0:0:
256,192,28376,1,8,0:0:0:0:
256,192,28485,1,8,0:0:0:0:
256,192,28703,1,0,0:0:0:0:
256,192,29137,1,8,0:0:0:0:
256,192,29572,1,0,0:0:0:0:
256,192,29790,1,8,0:0:0:0:
256,192,30007,1,0,0:0:0:0:
256,192,30116,1,0,0:0:0:0:
256,192,30224,1,0,0:0:0:0:
256,192,30442,1,8,0:0:0:0:
256,192,30876,1,8,0:0:0:0:
256,192,31311,1,8,0:0:0:0:
256,192,32181,1,0,0:0:0:0:
256,192,32398,1,0,0:0:0:0:
256,192,32616,1,8,0:0:0:0:
256,192,32833,1,8,0:0:0:0:
256,192,33050,1,0,0:0:0:0:
256,192,33485,1,8,0:0:0:0:
256,192,33920,1,0,0:0:0:0:
256,192,34137,1,8,0:0:0:0:
256,192,34355,1,0,0:0:0:0:
256,192,34572,1,0,0:0:0:0:
256,192,34790,1,8,0:0:0:0:
256,192,35007,1,0,0:0:0:0:
256,192,35224,1,8,0:0:0:0:
256,192,35333,1,8,0:0:0:0:
256,192,35442,1,8,0:0:0:0:
256,192,35659,1,0,0:0:0:0:
256,192,36094,1,8,0:0:0:0:
256,192,36311,1,0,0:0:0:0:
256,192,36529,1,0,0:0:0:0:
256,192,36746,1,0,0:0:0:0:
256,192,36963,1,8,0:0:0:0:
256,192,37398,1,0,0:0:0:0:
256,192,38268,1,0,0:0:0:0:
256,192,38376,1,0,0:0:0:0:
256,192,38485,1,0,0:0:0:0:
256,192,38703,1,8,0:0:0:0:
256,192,38811,1,8,0:0:0:0:
256,192,38920,1,8,0:0:0:0:
256,192,39137,1,0,0:0:0:0:
256,192,39355,1,8,0:0:0:0:
256,192,39572,1,8,0:0:0:0:
256,192,39790,1,8,0:0:0:0:
256,192,40007,1,0,0:0:0:0:
256,192,40442,1,8,0:0:0:0:
256,192,40876,1,0,0:0:0:0:
256,192,41094,1,8,0:0:0:0:
256,192,41311,1,0,0:0:0:0:
256,192,41529,1,0,0:0:0:0:
256,192,41746,1,8,0:0:0:0:
256,192,41963,1,0,0:0:0:0:
256,192,42181,1,8,0:0:0:0:
256,192,42290,1,8,0:0:0:0:
256,192,42398,1,8,0:0:0:0:
256,192,42616,1,0,0:0:0:0:
256,192,43050,1,8,0:0:0:0:
256,192,43268,1,8,0:0:0:0:
256,192,43485,1,0,0:0:0:0:
256,192,43703,1,8,0:0:0:0:
256,192,43920,1,8,0:0:0:0:
256,192,44355,1,0,0:0:0:0:
256,192,44463,1,0,0:0:0:0:
256,192,44572,1,0,0:0:0:0:
256,192,44790,1,8,0:0:0:0:
256,192,45007,1,0,0:0:0:0:
256,192,45224,1,8,0:0:0:0:
256,192,45333,1,8,0:0:0:0:
256,192,45442,1,8,0:0:0:0:
256,192,45659,1,0,0:0:0:0:
256,192,45876,1,8,0:0:0:0:
256,192,46094,1,0,0:0:0:0:
256,192,46529,1,0,0:0:0:0:
256,192,46963,1,8,0:0:0:0:
256,192,47398,1,8,0:0:0:0:
256,192,47833,1,0,0:0:0:0:
256,192,48050,1,0,0:0:0:0:
256,192,48268,1,8,0:0:0:0:
256,192,48485,1,8,0:0:0:0:
256,192,48703,1,0,0:0:0:0:
256,192,49137,1,0,0:0:0:0:
256,192,49572,1,8,0:0:0:0:
256,192,50224,8,0,52181,0:0:0:0:
256,192,52615,5,0,0:0:0:0:
256,192,53050,1,0,0:0:0:0:
256,192,53485,1,0,0:0:0:0:
256,192,53920,1,2,0:0:0:0:
256,192,55659,1,2,0:0:0:0:
256,192,56311,1,0,0:0:0:0:
256,192,56746,1,2,0:0:0:0:
256,192,56963,1,2,0:0:0:0:
256,192,57398,1,0,0:0:0:0:
256,192,57833,1,2,0:0:0:0:
256,192,58702,1,2,0:0:0:0:
256,192,59137,1,2,0:0:0:0:
256,192,59572,1,0,0:0:0:0:
256,192,60441,1,0,0:0:0:0:
256,192,60876,1,2,0:0:0:0:
256,192,61746,1,0,0:0:0:0:
256,192,61963,1,2,0:0:0:0:
256,192,62180,1,2,0:0:0:0:
256,192,62398,1,0,0:0:0:0:
256,192,63050,1,2,0:0:0:0:
256,192,63485,1,0,0:0:0:0:
256,192,63920,1,0,0:0:0:0:
256,192,64354,1,2,0:0:0:0:
256,192,64789,1,0,0:0:0:0:
256,192,65441,1,2,0:0:0:0:
256,192,65659,1,0,0:0:0:0:
256,192,65876,1,0,0:0:0:0:
256,192,66093,1,2,0:0:0:0:
256,192,66528,1,0,0:0:0:0:
256,192,66963,1,2,0:0:0:0:
256,192,67398,1,2,0:0:0:0:
256,192,67833,1,0,0:0:0:0:
256,192,68702,1,2,0:0:0:0:
256,192,69572,1,2,0:0:0:0:
256,192,70224,1,0,0:0:0:0:
256,192,70659,1,2,0:0:0:0:
256,192,70876,1,2,0:0:0:0:
256,192,71311,1,0,0:0:0:0:
256,192,71746,1,2,0:0:0:0:
256,192,72615,1,2,0:0:0:0:
256,192,73050,1,2,0:0:0:0:
256,192,73485,1,2,0:0:0:0:
256,192,74354,1,2,0:0:0:0:
256,192,74789,1,0,0:0:0:0:
256,192,75659,1,0,0:0:0:0:
256,192,75876,1,2,0:0:0:0:
256,192,76093,1,2,0:0:0:0:
256,192,76311,1,0,0:0:0:0:
256,192,76963,1,2,0:0:0:0:
256,192,77398,1,0,0:0:0:0:
256,192,77833,1,0,0:0:0:0:
256,192,78267,1,2,0:0:0:0:
256,192,78702,1,0,0:0:0:0:
256,192,81746,1,4,0:0:0:0:
256,192,82180,1,8,0:0:0:0:
256,192,82615,1,0,0:0:0:0:
256,192,82941,1,0,0:0:0:0:
256,192,83267,1,8,0:0:0:0:
256,192,83485,1,8,0:0:0:0:
256,192,83702,1,0,0:0:0:0:
256,192,84137,1,0,0:0:0:0:
256,192,84354,1,8,0:0:0:0:
256,192,84572,1,0,0:0:0:0:
256,192,84789,1,8,0:0:0:0:
256,192,84898,1,8,0:0:0:0:
256,192,85006,1,8,0:0:0:0:
256,192,85224,1,0,0:0:0:0:
256,192,85659,1,8,0:0:0:0:
256,192,85876,1,8,0:0:0:0:
256,192,86093,1,0,0:0:0:0:
256,192,86311,1,8,0:0:0:0:
256,192,86528,1,0,0:0:0:0:
256,192,86746,1,8,0:0:0:0:
256,192,86963,1,8,0:0:0:0:
256,192,87180,1,8,0:0:0:0:
256,192,87398,1,0,0:0:0:0:
256,192,87615,1,0,0:0:0:0:
256,192,87832,1,8,0:0:0:0:
256,192,87941,1,8,0:0:0:0:
256,192,88050,1,8,0:0:0:0:
256,192,88267,1,0,0:0:0:0:
256,192,88485,1,8,0:0:0:0:
256,192,88702,1,0,0:0:0:0:
256,192,89137,1,8,0:0:0:0:
256,192,89354,1,8,0:0:0:0:
256,192,89572,1,0,0:0:0:0:
256,192,89898,1,8,0:0:0:0:
256,192,90224,1,8,0:0:0:0:
256,192,90441,1,0,0:0:0:0:
256,192,90659,1,8,0:0:0:0:
256,192,91093,1,8,0:0:0:0:
256,192,91311,1,8,0:0:0:0:
256,192,91528,1,0,0:0:0:0:
256,192,91746,1,8,0:0:0:0:
256,192,91854,1,8,0:0:0:0:
256,192,91963,1,8,0:0:0:0:
256,192,92180,1,0,0:0:0:0:
256,192,92615,1,8,0:0:0:0:
256,192,92832,1,0,0:0:0:0:
256,192,93050,1,8,0:0:0:0:
256,192,93267,1,8,0:0:0:0:
256,192,93485,1,0,0:0:0:0:
256,192,93702,1,8,0:0:0:0:
256,192,93919,1,0,0:0:0:0:
256,192,94028,1,0,0:0:0:0:
256,192,94137,1,0,0:0:0:0:
256,192,94354,1,8,0:0:0:0:
256,192,94463,1,8,0:0:0:0:
256,192,94572,1,8,0:0:0:0:
256,192,94789,1,0,0:0:0:0:
256,192,95659,1,4,0:0:0:0:
256,192,96093,1,8,0:0:0:0:
256,192,96528,1,0,0:0:0:0:
256,192,96854,1,0,0:0:0:0:
256,192,97180,1,8,0:0:0:0:
256,192,97398,1,8,0:0:0:0:
256,192,97615,1,0,0:0:0:0:
256,192,98050,1,0,0:0:0:0:
256,192,98267,1,8,0:0:0:0:
256,192,98485,1,0,0:0:0:0:
256,192,98702,1,8,0:0:0:0:
256,192,98811,1,8,0:0:0:0:
256,192,98919,1,8,0:0:0:0:
256,192,99137,1,0,0:0:0:0:
256,192,99572,1,8,0:0:0:0:
256,192,99789,1,8,0:0:0:0:
256,192,100006,1,0,0:0:0:0:
256,192,100224,1,8,0:0:0:0:
256,192,100441,1,0,0:0:0:0:
256,192,100659,1,8,0:0:0:0:
256,192,100876,1,8,0:0:0:0:
256,192,101093,1,8,0:0:0:0:
256,192,101311,1,0,0:0:0:0:
256,192,101528,1,0,0:0:0:0:
256,192,101746,1,8,0:0:0:0:
256,192,101854,1,8,0:0:0:0:
256,192,101963,1,8,0:0:0:0:
256,192,102180,1,0,0:0:0:0:
256,192,102398,1,8,0:0:0:0:
256,192,102615,1,0,0:0:0:0:
256,192,103050,1,8,0:0:0:0:
256,192,103267,1,8,0:0:0:0:
256,192,103485,1,0,0:0:0:0:
256,192,103811,1,8,0:0:0:0:
256,192,104137,1,8,0:0:0:0:
256,192,104354,1,0,0:0:0:0:
256,192,104572,1,8,0:0:0:0:
256,192,105006,1,8,0:0:0:0:
256,192,105224,1,8,0:0:0:0:
256,192,105441,1,0,0:0:0:0:
256,192,105659,1,8,0:0:0:0:
256,192,105767,1,8,0:0:0:0:
256,192,105876,1,8,0:0:0:0:
256,192,106093,1,0,0:0:0:0:
256,192,106528,1,8,0:0:0:0:
256,192,106746,1,0,0:0:0:0:
256,192,106963,1,8,0:0:0:0:
256,192,107180,1,8,0:0:0:0:
256,192,107398,1,0,0:0:0:0:
256,192,107615,1,8,0:0:0:0:
256,192,107832,1,0,0:0:0:0:
256,192,107941,1,0,0:0:0:0:
256,192,108050,1,0,0:0:0:0:
256,192,108267,1,8,0:0:0:0:
256,192,108376,1,8,0:0:0:0:
256,192,108485,1,8,0:0:0:0:
256,192,108702,1,0,0:0:0:0:
256,192,109572,1,4,0:0:0:0:
256,192,110006,1,8,0:0:0:0:
256,192,110224,1,0,0:0:0:0:
256,192,110441,1,8,0:0:0:0:
256,192,110659,1,8,0:0:0:0:
256,192,110876,1,0,0:0:0:0:
256,192,110985,1,0,0:0:0:0:
256,192,111093,1,0,0:0:0:0:
256,192,111311,1,8,0:0:0:0:
256,192,111745,1,0,0:0:0:0:
256,192,111963,1,8,0:0:0:0:
256,192,112180,1,0,0:0:0:0:
256,192,112398,1,0,0:0:0:0:
256,192,112615,1,8,0:0:0:0:
256,192,112724,1,8,0:0:0:0:
256,192,112832,1,8,0:0:0:0:
256,192,113050,1,0,0:0:0:0:
256,192,113485,1,8,0:0:0:0:
256,192,113702,1,8,0:0:0:0:
256,192,113919,1,0,0:0:0:0:
256,192,114137,1,0,0:0:0:0:
256,192,114354,1,8,0:0:0:0:
256,192,114789,1,0,0:0:0:0:
256,192,115006,1,8,0:0:0:0:
256,192,115224,1,0,0:0:0:0:
256,192,115441,1,8,0:0:0:0:
256,192,115659,1,0,0:0:0:0:
256,192,116528,1,0,0:0:0:0:
256,192,116963,1,8,0:0:0:0:
256,192,117180,1,8,0:0:0:0:
256,192,117398,1,0,0:0:0:0:
256,192,117615,1,8,0:0:0:0:
256,192,117832,1,0,0:0:0:0:
256,192,117941,1,0,0:0:0:0:
256,192,118050,1,0,0:0:0:0:
256,192,118267,1,8,0:0:0:0:
256,192,118702,1,0,0:0:0:0:
256,192,118919,1,0,0:0:0:0:
256,192,119137,1,8,0:0:0:0:
256,192,119354,1,0,0:0:0:0:
256,192,119572,1,8,0:0:0:0:
256,192,119680,1,8,0:0:0:0:
256,192,119789,1,8,0:0:0:0:
256,192,120006,1,0,0:0:0:0:
256,192,120441,1,8,0:0:0:0:
256,192,120659,1,8,0:0:0:0:
256,192,120876,1,0,0:0:0:0:
256,192,121093,1,0,0:0:0:0:
256,192,121311,1,8,0:0:0:0:
256,192,121745,1,0,0:0:0:0:
256,192,121854,1,0,0:0:0:0:
256,192,121963,1,0,0:0:0:0:
256,192,122180,1,8,0:0:0:0:
256,192,122398,1,8,0:0:0:0:
256,192,122615,1,0,0:0:0:0:
256,192,123267,1,8,0:0:0:0:
256,192,123485,1,0,0:0:0:0:
