osu file format v14

[General]
AudioFilename: audio.mp3
AudioLeadIn: 0
PreviewTime: 4355
Countdown: 0
SampleSet: None
StackLeniency: 0
Mode: 1
LetterboxInBreaks: 0
WidescreenStoryboard: 0

[Editor]
Bookmarks: 4355,18268,32181,46094,53920,81746,109572,123485
DistanceSpacing: 0.5
BeatDivisor: 1
GridSize: 32
TimelineZoom: 0.8519981

[Metadata]
Title:Hanabi no Saku Yoru.
TitleUnicode:花火の咲く夜。
Artist:shio
ArtistUnicode:shio
Creator:Genjuro
Version:Kantan
Source:
Tags:electronic instrumental breakcore speedcore
BeatmapID:4003940
BeatmapSetID:1936253

[Difficulty]
HPDrainRate:8
CircleSize:2
OverallDifficulty:3
ApproachRate:10
SliderMultiplier:0.7
SliderTickRate:1

[Events]
//Background and Video events
0,0,"bg.jpg",0,20
//Break Periods
//Storyboard Layer 0 (Background)
//Storyboard Layer 1 (Fail)
//Storyboard Layer 2 (Pass)
//Storyboard Layer 3 (Foreground)
//Storyboard Layer 4 (Overlay)
//Storyboard Sound Samples

[TimingPoints]
8,217.391304347826,4,1,0,100,1,8
877,217.391304347826,4,1,0,100,1,0
4355,-100,4,1,0,100,0,1
18268,-100,4,1,0,100,0,0
50116,-100,4,1,0,50,0,0
50442,434.782608695652,8,1,0,50,1,8
52398,-50,8,1,0,13,0,8
53702,-50,8,1,0,25,0,8
53920,434.782608695652,4,1,0,25,1,0
53920,-50,4,1,0,25,0,0
81202,-100,4,1,0,100,0,0
81746,217.391304347826,4,1,0,100,1,1
123485,-100,4,1,0,100,0,0

[HitObjects]
256,192,877,5,0,0:0:0:0:
256,192,1311,1,8,0:0:0:0:
256,192,1746,1,0,0:0:0:0:
256,192,2181,1,8,0:0:0:0:
256,192,2616,1,0,0:0:0:0:
256,192,4355,1,4,0:0:0:0:
256,192,5224,1,8,0:0:0:0:
256,192,5659,1,8,0:0:0:0:
256,192,6094,1,0,0:0:0:0:
256,192,6963,1,0,0:0:0:0:
256,192,7398,1,0,0:0:0:0:
256,192,7833,1,8,0:0:0:0:
256,192,8703,1,8,0:0:0:0:
256,192,9137,1,8,0:0:0:0:
256,192,9572,1,0,0:0:0:0:
256,192,10007,1,0,0:0:0:0:
256,192,10442,1,8,0:0:0:0:
256,192,11311,1,0,0:0:0:0:
256,192,12181,1,8,0:0:0:0:
256,192,12616,1,0,0:0:0:0:
256,192,13050,1,8,0:0:0:0:
256,192,13920,1,0,0:0:0:0:
256,192,14355,1,8,0:0:0:0:
256,192,14790,1,0,0:0:0:0:
256,192,15659,1,8,0:0:0:0:
256,192,16529,1,0,0:0:0:0:
256,192,18268,1,12,0:0:0:0:
256,192,19137,1,0,0:0:0:0:
256,192,20007,1,8,0:0:0:0:
256,192,20442,1,8,0:0:0:0:
256,192,20876,1,8,0:0:0:0:
256,192,21746,1,0,0:0:0:0:
256,192,22616,1,0,0:0:0:0:
256,192,23485,1,12,0:0:0:0:
256,192,25224,1,12,0:0:0:0:
256,192,26094,1,0,0:0:0:0:
256,192,26963,1,8,0:0:0:0:
256,192,27398,1,0,0:0:0:0:
256,192,27833,1,8,0:0:0:0:
256,192,28268,1,8,0:0:0:0:
256,192,28703,1,0,0:0:0:0:
256,192,29572,1,0,0:0:0:0:
256,192,30442,1,12,0:0:0:0:
256,192,32181,1,8,0:0:0:0:
256,192,32616,1,0,0:0:0:0:
256,192,33050,1,8,0:0:0:0:
256,192,33485,1,0,0:0:0:0:
256,192,33920,1,8,0:0:0:0:
256,192,34790,1,0,0:0:0:0:
256,192,35659,1,8,0:0:0:0:
256,192,36094,1,8,0:0:0:0:
256,192,36529,1,0,0:0:0:0:
256,192,36963,1,0,0:0:0:0:
256,192,37398,1,8,0:0:0:0:
256,192,39137,1,0,0:0:0:0:
256,192,39572,1,8,0:0:0:0:
256,192,40007,1,0,0:0:0:0:
256,192,40442,1,8,0:0:0:0:
256,192,40876,1,0,0:0:0:0:
256,192,41746,1,8,0:0:0:0:
256,192,42616,1,0,0:0:0:0:
256,192,43050,1,0,0:0:0:0:
256,192,43485,1,8,0:0:0:0:
256,192,43920,1,8,0:0:0:0:
256,192,44355,1,0,0:0:0:0:
256,192,46094,1,8,0:0:0:0:
256,192,46963,1,8,0:0:0:0:
256,192,47833,1,8,0:0:0:0:
256,192,48268,1,8,0:0:0:0:
256,192,48703,1,8,0:0:0:0:
256,192,49572,1,8,0:0:0:0:
256,192,50224,12,0,52181,0:0:0:0:
256,192,53920,5,0,0:0:0:0:
256,192,55659,1,0,0:0:0:0:
256,192,57398,1,2,0:0:0:0:
256,192,59137,1,0,0:0:0:0:
256,192,60876,1,2,0:0:0:0:
256,192,62615,1,2,0:0:0:0:
256,192,64354,1,0,0:0:0:0:
256,192,67833,5,2,0:0:0:0:
256,192,69572,1,2,0:0:0:0:
256,192,71311,1,0,0:0:0:0:
256,192,73050,1,2,0:0:0:0:
256,192,74789,1,0,0:0:0:0:
256,192,76528,1,0,0:0:0:0:
256,192,78267,1,2,0:0:0:0:
256,192,81746,1,8,0:0:0:0:
256,192,82180,1,8,0:0:0:0:
256,192,82615,1,0,0:0:0:0:
256,192,83050,1,8,0:0:0:0:
256,192,83485,1,0,0:0:0:0:
256,192,83919,1,0,0:0:0:0:
256,192,84354,1,8,0:0:0:0:
256,192,85224,1,8,0:0:0:0:
256,192,85659,1,8,0:0:0:0:
256,192,86093,1,0,0:0:0:0:
256,192,86963,1,8,0:0:0:0:
256,192,87832,1,0,0:0:0:0:
256,192,88702,1,8,0:0:0:0:
256,192,89137,1,0,0:0:0:0:
256,192,89572,1,8,0:0:0:0:
256,192,90006,1,8,0:0:0:0:
256,192,90441,1,0,0:0:0:0:
256,192,91311,1,8,0:0:0:0:
256,192,92180,1,0,0:0:0:0:
256,192,92615,1,8,0:0:0:0:
256,192,93050,1,0,0:0:0:0:
256,192,93919,1,8,0:0:0:0:
256,192,95659,1,0,0:0:0:0:
256,192,96093,1,0,0:0:0:0:
256,192,96528,1,8,0:0:0:0:
256,192,96963,1,0,0:0:0:0:
256,192,97398,1,8,0:0:0:0:
256,192,97832,1,8,0:0:0:0:
256,192,98267,1,0,0:0:0:0:
256,192,99137,1,0,0:0:0:0:
256,192,99572,1,0,0:0:0:0:
256,192,100006,1,8,0:0:0:0:
256,192,100876,1,0,0:0:0:0:
256,192,101746,1,8,0:0:0:0:
256,192,102615,1,0,0:0:0:0:
256,192,103050,1,8,0:0:0:0:
256,192,103485,1,0,0:0:0:0:
256,192,103919,1,0,0:0:0:0:
256,192,104354,1,8,0:0:0:0:
256,192,105224,1,0,0:0:0:0:
256,192,106093,1,8,0:0:0:0:
256,192,106528,1,0,0:0:0:0:
256,192,106963,1,8,0:0:0:0:
256,192,107832,1,0,0:0:0:0:
256,192,109572,1,4,0:0:0:0:
256,192,110441,1,8,0:0:0:0:
256,192,110876,1,8,0:0:0:0:
256,192,111311,1,0,0:0:0:0:
256,192,112180,1,0,0:0:0:0:
256,192,112615,1,0,0:0:0:0:
256,192,113050,1,8,0:0:0:0:
256,192,113919,1,8,0:0:0:0:
256,192,114354,1,8,0:0:0:0:
256,192,114789,1,0,0:0:0:0:
256,192,115224,1,0,0:0:0:0:
256,192,115659,1,8,0:0:0:0:
256,192,116528,1,0,0:0:0:0:
256,192,117398,1,8,0:0:0:0:
256,192,117832,1,0,0:0:0:0:
256,192,118267,1,8,0:0:0:0:
256,192,119137,1,0,0:0:0:0:
256,192,119572,1,8,0:0:0:0:
256,192,120006,1,0,0:0:0:0:
256,192,120876,1,8,0:0:0:0:
256,192,121745,1,0,0:0:0:0:
256,192,123485,1,12,0:0:0:0:
