osu file format v14

[General]
AudioFilename: audio.mp3
AudioLeadIn: 0
PreviewTime: 4355
Countdown: 0
SampleSet: Normal
StackLeniency: 0
Mode: 1
LetterboxInBreaks: 0
WidescreenStoryboard: 0

[Editor]
Bookmarks: 4355,18268,32181,46094,53920,81746,109572,123485
DistanceSpacing: 0.5
BeatDivisor: 4
GridSize: 32
TimelineZoom: 3.401999

[Metadata]
Title:Hanabi no Saku Yoru.
TitleUnicode:花火の咲く夜。
Artist:shio
ArtistUnicode:shio
Creator:Genjuro
Version:Hell Oni
Source:
Tags:electronic instrumental breakcore speedcore
BeatmapID:4017741
BeatmapSetID:1936253

[Difficulty]
HPDrainRate:5.5
CircleSize:2
OverallDifficulty:6.5
ApproachRate:10
SliderMultiplier:1.4
SliderTickRate:1

[Events]
//Background and Video events
0,0,"bg.jpg",0,20
//Break Periods
//Storyboard Layer 0 (Background)
//Storyboard Layer 1 (Fail)
//Storyboard Layer 2 (Pass)
//Storyboard Layer 3 (Foreground)
//Storyboard Layer 4 (Overlay)
//Storyboard Sound Samples

[TimingPoints]
8,217.391304347826,4,1,0,100,1,8
877,217.391304347826,4,1,0,100,1,0
4355,-100,4,1,0,100,0,1
17398,-100,4,1,0,100,0,0
50116,-100,4,1,0,50,0,0
50442,434.782608695652,8,1,0,50,1,8
52398,-100,8,1,0,13,0,8
53702,-100,8,1,0,25,0,8
53920,434.782608695652,4,1,0,25,1,0
53920,-100,4,1,0,25,0,0
81202,-100,4,1,0,100,0,0
81746,217.391304347826,4,1,0,100,1,1
81746,-100,4,1,0,100,0,1
122615,-100,4,1,0,100,0,0

[HitObjects]
256,192,877,5,0,0:0:0:0:
256,192,985,1,8,0:0:0:0:
256,192,1040,1,8,0:0:0:0:
256,192,1094,1,0,0:0:0:0:
256,192,1203,1,0,0:0:0:0:
256,192,1311,1,8,0:0:0:0:
256,192,1420,1,0,0:0:0:0:
256,192,1474,1,0,0:0:0:0:
256,192,1529,1,8,0:0:0:0:
256,192,1637,1,8,0:0:0:0:
256,192,1746,1,0,0:0:0:0:
256,192,1855,1,8,0:0:0:0:
256,192,1909,1,8,0:0:0:0:
256,192,1963,1,0,0:0:0:0:
256,192,2018,1,0,0:0:0:0:
256,192,2072,1,8,0:0:0:0:
256,192,2181,1,0,0:0:0:0:
256,192,2290,1,8,0:0:0:0:
256,192,2507,1,8,0:0:0:0:
256,192,2616,1,0,0:0:0:0:
256,192,2724,1,8,0:0:0:0:
256,192,2779,1,8,0:0:0:0:
256,192,2833,1,0,0:0:0:0:
256,192,2942,1,8,0:0:0:0:
256,192,3050,1,0,0:0:0:0:
256,192,3159,1,8,0:0:0:0:
256,192,3213,1,8,0:0:0:0:
256,192,3268,1,0,0:0:0:0:
256,192,3376,1,8,0:0:0:0:
256,192,3485,1,0,0:0:0:0:
256,192,3540,1,0,0:0:0:0:
256,192,3594,1,0,0:0:0:0:
256,192,3648,1,0,0:0:0:0:
256,192,3703,1,8,0:0:0:0:
256,192,3811,1,8,0:0:0:0:
256,192,3920,1,0,0:0:0:0:
256,192,4137,1,8,0:0:0:0:
256,192,4192,1,8,0:0:0:0:
256,192,4246,1,8,0:0:0:0:
256,192,4355,1,4,0:0:0:0:
256,192,4572,1,8,0:0:0:0:
256,192,4681,1,0,0:0:0:0:
256,192,4735,1,0,0:0:0:0:
256,192,4790,1,8,0:0:0:0:
256,192,4898,1,0,0:0:0:0:
256,192,5007,1,8,0:0:0:0:
256,192,5061,1,0,0:0:0:0:
256,192,5116,1,8,0:0:0:0:
256,192,5224,1,0,0:0:0:0:
256,192,5333,1,0,0:0:0:0:
256,192,5442,1,8,0:0:0:0:
256,192,5550,1,0,0:0:0:0:
256,192,5605,1,0,0:0:0:0:
256,192,5659,1,8,0:0:0:0:
256,192,5768,1,0,0:0:0:0:
256,192,5876,1,8,0:0:0:0:
256,192,5931,1,8,0:0:0:0:
256,192,5985,1,8,0:0:0:0:
256,192,6040,1,8,0:0:0:0:
256,192,6094,1,0,0:0:0:0:
256,192,6203,1,8,0:0:0:0:
256,192,6311,1,0,0:0:0:0:
256,192,6366,1,0,0:0:0:0:
256,192,6420,1,0,0:0:0:0:
256,192,6529,1,8,0:0:0:0:
256,192,6637,1,0,0:0:0:0:
256,192,6692,1,0,0:0:0:0:
256,192,6746,1,8,0:0:0:0:
256,192,6800,1,8,0:0:0:0:
256,192,6855,1,0,0:0:0:0:
256,192,6963,1,8,0:0:0:0:
256,192,7072,1,0,0:0:0:0:
256,192,7126,1,0,0:0:0:0:
256,192,7181,1,8,0:0:0:0:
256,192,7290,1,0,0:0:0:0:
256,192,7398,1,8,0:0:0:0:
256,192,7453,1,8,0:0:0:0:
256,192,7507,1,0,0:0:0:0:
256,192,7616,1,8,0:0:0:0:
256,192,7670,1,8,0:0:0:0:
256,192,7724,1,8,0:0:0:0:
256,192,7833,1,0,0:0:0:0:
256,192,8050,1,8,0:0:0:0:
256,192,8159,1,0,0:0:0:0:
256,192,8213,1,0,0:0:0:0:
256,192,8268,1,8,0:0:0:0:
256,192,8376,1,0,0:0:0:0:
256,192,8485,1,8,0:0:0:0:
256,192,8540,1,0,0:0:0:0:
256,192,8594,1,8,0:0:0:0:
256,192,8703,1,0,0:0:0:0:
256,192,8811,1,0,0:0:0:0:
256,192,8920,1,8,0:0:0:0:
256,192,9029,1,0,0:0:0:0:
256,192,9083,1,0,0:0:0:0:
256,192,9137,1,8,0:0:0:0:
256,192,9246,1,0,0:0:0:0:
256,192,9355,1,8,0:0:0:0:
256,192,9409,1,8,0:0:0:0:
256,192,9463,1,8,0:0:0:0:
256,192,9518,1,8,0:0:0:0:
256,192,9572,1,0,0:0:0:0:
256,192,9681,1,0,0:0:0:0:
256,192,9790,1,8,0:0:0:0:
256,192,9898,1,0,0:0:0:0:
256,192,10007,1,8,0:0:0:0:
256,192,10116,1,8,0:0:0:0:
256,192,10224,1,0,0:0:0:0:
256,192,10333,1,8,0:0:0:0:
256,192,10442,1,0,0:0:0:0:
256,192,10496,1,0,0:0:0:0:
256,192,10550,1,8,0:0:0:0:
256,192,10605,1,0,0:0:0:0:
256,192,10659,1,8,0:0:0:0:
256,192,10768,1,0,0:0:0:0:
256,192,10876,1,8,0:0:0:0:
256,192,10931,1,8,0:0:0:0:
256,192,10985,1,0,0:0:0:0:
256,192,11040,1,0,0:0:0:0:
256,192,11094,1,8,0:0:0:0:
256,192,11148,1,8,0:0:0:0:
256,192,11203,1,8,0:0:0:0:
256,192,11257,1,8,0:0:0:0:
256,192,11311,1,0,0:0:0:0:
256,192,11529,1,8,0:0:0:0:
256,192,11637,1,0,0:0:0:0:
256,192,11692,1,0,0:0:0:0:
256,192,11746,1,8,0:0:0:0:
256,192,11855,1,0,0:0:0:0:
256,192,11963,1,8,0:0:0:0:
256,192,12018,1,0,0:0:0:0:
256,192,12072,1,8,0:0:0:0:
256,192,12181,1,0,0:0:0:0:
256,192,12290,1,0,0:0:0:0:
256,192,12398,1,8,0:0:0:0:
256,192,12507,1,0,0:0:0:0:
256,192,12561,1,0,0:0:0:0:
256,192,12616,1,8,0:0:0:0:
256,192,12724,1,0,0:0:0:0:
256,192,12833,1,8,0:0:0:0:
256,192,12887,1,8,0:0:0:0:
256,192,12942,1,8,0:0:0:0:
256,192,12996,1,8,0:0:0:0:
256,192,13050,1,0,0:0:0:0:
256,192,13159,1,8,0:0:0:0:
256,192,13268,1,0,0:0:0:0:
256,192,13322,1,0,0:0:0:0:
256,192,13376,1,0,0:0:0:0:
256,192,13485,1,8,0:0:0:0:
256,192,13594,1,0,0:0:0:0:
256,192,13648,1,0,0:0:0:0:
256,192,13703,1,8,0:0:0:0:
256,192,13757,1,8,0:0:0:0:
256,192,13811,1,0,0:0:0:0:
256,192,13920,1,8,0:0:0:0:
256,192,14029,1,0,0:0:0:0:
256,192,14083,1,0,0:0:0:0:
256,192,14137,1,8,0:0:0:0:
256,192,14246,1,0,0:0:0:0:
256,192,14355,1,8,0:0:0:0:
256,192,14409,1,8,0:0:0:0:
256,192,14463,1,0,0:0:0:0:
256,192,14572,1,8,0:0:0:0:
256,192,14626,1,8,0:0:0:0:
256,192,14681,1,8,0:0:0:0:
256,192,14790,1,0,0:0:0:0:
256,192,15007,1,8,0:0:0:0:
256,192,15116,1,0,0:0:0:0:
256,192,15170,1,0,0:0:0:0:
256,192,15224,1,8,0:0:0:0:
256,192,15333,1,0,0:0:0:0:
256,192,15442,1,8,0:0:0:0:
256,192,15496,1,0,0:0:0:0:
256,192,15550,1,8,0:0:0:0:
256,192,15659,1,0,0:0:0:0:
256,192,15768,1,0,0:0:0:0:
256,192,15876,1,8,0:0:0:0:
256,192,15985,1,0,0:0:0:0:
256,192,16040,1,0,0:0:0:0:
256,192,16094,1,8,0:0:0:0:
256,192,16203,1,0,0:0:0:0:
256,192,16311,1,8,0:0:0:0:
256,192,16366,1,8,0:0:0:0:
256,192,16420,1,8,0:0:0:0:
256,192,16529,1,0,0:0:0:0:
256,192,16583,1,0,0:0:0:0:
256,192,16637,1,8,0:0:0:0:
256,192,16692,1,8,0:0:0:0:
256,192,16746,1,0,0:0:0:0:
256,192,16855,1,0,0:0:0:0:
256,192,16963,1,8,0:0:0:0:
256,192,17018,1,8,0:0:0:0:
256,192,17072,1,0,0:0:0:0:
256,192,17126,1,0,0:0:0:0:
256,192,17181,1,8,0:0:0:0:
256,192,17290,1,8,0:0:0:0:
256,192,17398,1,0,0:0:0:0:
256,192,18050,1,8,0:0:0:0:
256,192,18105,1,8,0:0:0:0:
256,192,18159,1,8,0:0:0:0:
256,192,18268,1,4,0:0:0:0:
256,192,18485,1,8,0:0:0:0:
256,192,18594,1,8,0:0:0:0:
256,192,18703,1,0,0:0:0:0:
256,192,18811,1,0,0:0:0:0:
256,192,18920,1,8,0:0:0:0:
256,192,18974,1,8,0:0:0:0:
256,192,19029,1,8,0:0:0:0:
256,192,19083,1,8,0:0:0:0:
256,192,19137,1,0,0:0:0:0:
256,192,19355,1,0,0:0:0:0:
256,192,19463,1,0,0:0:0:0:
256,192,19572,1,8,0:0:0:0:
256,192,19681,1,0,0:0:0:0:
256,192,19735,1,0,0:0:0:0:
256,192,19790,1,8,0:0:0:0:
256,192,19898,1,8,0:0:0:0:
256,192,20007,1,0,0:0:0:0:
256,192,20116,1,8,0:0:0:0:
256,192,20333,1,8,0:0:0:0:
256,192,20550,1,8,0:0:0:0:
256,192,20768,1,8,0:0:0:0:
256,192,20876,1,0,0:0:0:0:
256,192,21094,1,8,0:0:0:0:
256,192,21203,1,0,0:0:0:0:
256,192,21257,1,0,0:0:0:0:
256,192,21311,1,8,0:0:0:0:
256,192,21366,1,8,0:0:0:0:
256,192,21420,1,0,0:0:0:0:
256,192,21529,1,8,0:0:0:0:
256,192,21637,1,8,0:0:0:0:
256,192,21746,1,0,0:0:0:0:
256,192,21963,1,8,0:0:0:0:
256,192,22072,1,0,0:0:0:0:
256,192,22290,1,8,0:0:0:0:
256,192,22398,1,0,0:0:0:0:
256,192,22453,1,0,0:0:0:0:
256,192,22507,1,0,0:0:0:0:
256,192,22616,1,8,0:0:0:0:
256,192,22688,1,0,0:0:0:0:
256,192,22761,1,0,0:0:0:0:
256,192,22833,1,8,0:0:0:0:
256,192,22905,1,8,0:0:0:0:
256,192,22978,1,8,0:0:0:0:
256,192,23050,1,0,0:0:0:0:
256,192,23268,1,0,0:0:0:0:
256,192,23376,1,0,0:0:0:0:
256,192,23485,1,12,0:0:0:0:
256,192,23703,1,0,0:0:0:0:
256,192,23811,1,12,0:0:0:0:
256,192,24029,1,8,0:0:0:0:
256,192,24137,1,0,0:0:0:0:
256,192,24246,1,0,0:0:0:0:
256,192,24355,1,8,0:0:0:0:
256,192,24572,1,0,0:0:0:0:
256,192,24790,1,8,0:0:0:0:
256,192,24898,1,0,0:0:0:0:
256,192,24953,1,0,0:0:0:0:
256,192,25007,1,8,0:0:0:0:
256,192,25116,1,8,0:0:0:0:
256,192,25224,1,0,0:0:0:0:
256,192,25442,1,8,0:0:0:0:
256,192,25550,1,0,0:0:0:0:
256,192,25659,1,8,0:0:0:0:
256,192,25713,1,8,0:0:0:0:
256,192,25768,1,0,0:0:0:0:
256,192,25876,1,8,0:0:0:0:
256,192,25985,1,8,0:0:0:0:
256,192,26094,1,0,0:0:0:0:
256,192,26311,1,8,0:0:0:0:
256,192,26420,1,0,0:0:0:0:
256,192,26637,1,0,0:0:0:0:
256,192,26746,1,8,0:0:0:0:
256,192,26800,1,8,0:0:0:0:
256,192,26855,1,8,0:0:0:0:
256,192,26963,1,0,0:0:0:0:
256,192,27072,1,8,0:0:0:0:
256,192,27126,1,8,0:0:0:0:
256,192,27181,1,0,0:0:0:0:
256,192,27235,1,0,0:0:0:0:
256,192,27290,1,8,0:0:0:0:
256,192,27344,1,8,0:0:0:0:
256,192,27398,1,0,0:0:0:0:
256,192,27507,1,8,0:0:0:0:
256,192,27616,1,0,0:0:0:0:
256,192,27670,1,0,0:0:0:0:
256,192,27724,1,0,0:0:0:0:
256,192,27833,1,8,0:0:0:0:
256,192,27942,1,0,0:0:0:0:
256,192,28050,1,0,0:0:0:0:
256,192,28159,1,8,0:0:0:0:
256,192,28376,1,0,0:0:0:0:
256,192,28431,1,0,0:0:0:0:
256,192,28485,1,8,0:0:0:0:
256,192,28703,1,0,0:0:0:0:
256,192,28811,1,8,0:0:0:0:
256,192,28866,1,8,0:0:0:0:
256,192,28920,1,8,0:0:0:0:
256,192,29029,1,0,0:0:0:0:
256,192,29137,1,8,0:0:0:0:
256,192,29192,1,8,0:0:0:0:
256,192,29246,1,8,0:0:0:0:
256,192,29355,1,0,0:0:0:0:
256,192,29463,1,0,0:0:0:0:
256,192,29572,1,8,0:0:0:0:
256,192,29681,1,0,0:0:0:0:
256,192,29790,1,8,0:0:0:0:
256,192,29898,1,0,0:0:0:0:
256,192,30007,1,8,0:0:0:0:
256,192,30061,1,8,0:0:0:0:
256,192,30116,1,8,0:0:0:0:
256,192,30170,1,8,0:0:0:0:
256,192,30224,1,0,0:0:0:0:
256,192,30442,1,8,0:0:0:0:
256,192,30550,1,0,0:0:0:0:
256,192,30605,1,0,0:0:0:0:
256,192,30659,1,8,0:0:0:0:
256,192,30768,1,0,0:0:0:0:
256,192,30876,1,8,0:0:0:0:
256,192,30931,1,0,0:0:0:0:
256,192,30985,1,8,0:0:0:0:
256,192,31094,1,0,0:0:0:0:
256,192,31311,1,0,0:0:0:0:
256,192,31420,1,8,0:0:0:0:
256,192,31529,1,0,0:0:0:0:
256,192,31637,1,8,0:0:0:0:
256,192,31746,1,0,0:0:0:0:
256,192,31800,1,0,0:0:0:0:
256,192,31855,1,8,0:0:0:0:
256,192,31909,1,8,0:0:0:0:
256,192,31963,1,0,0:0:0:0:
256,192,32181,1,0,0:0:0:0:
256,192,32290,1,8,0:0:0:0:
256,192,32344,1,8,0:0:0:0:
256,192,32398,1,0,0:0:0:0:
256,192,32507,1,0,0:0:0:0:
256,192,32616,1,8,0:0:0:0:
256,192,32724,1,0,0:0:0:0:
256,192,32779,1,0,0:0:0:0:
256,192,32833,1,8,0:0:0:0:
256,192,32942,1,8,0:0:0:0:
256,192,33050,1,0,0:0:0:0:
256,192,33159,1,8,0:0:0:0:
256,192,33213,1,8,0:0:0:0:
256,192,33268,1,0,0:0:0:0:
256,192,33376,1,8,0:0:0:0:
256,192,33485,1,0,0:0:0:0:
256,192,33594,1,8,0:0:0:0:
256,192,33648,1,8,0:0:0:0:
256,192,33703,1,0,0:0:0:0:
256,192,33811,1,8,0:0:0:0:
256,192,33920,1,0,0:0:0:0:
256,192,34029,1,0,0:0:0:0:
256,192,34137,1,8,0:0:0:0:
256,192,34246,1,8,0:0:0:0:
256,192,34355,1,0,0:0:0:0:
256,192,34463,1,8,0:0:0:0:
256,192,34572,1,8,0:0:0:0:
256,192,34681,1,8,0:0:0:0:
256,192,34790,1,0,0:0:0:0:
256,192,34898,1,8,0:0:0:0:
256,192,34953,1,8,0:0:0:0:
256,192,35007,1,0,0:0:0:0:
256,192,35116,1,8,0:0:0:0:
256,192,35170,1,0,0:0:0:0:
256,192,35224,1,8,0:0:0:0:
256,192,35333,1,0,0:0:0:0:
256,192,35387,1,0,0:0:0:0:
256,192,35442,1,8,0:0:0:0:
256,192,35496,1,8,0:0:0:0:
256,192,35550,1,0,0:0:0:0:
256,192,35659,1,8,0:0:0:0:
256,192,35768,1,0,0:0:0:0:
256,192,35822,1,0,0:0:0:0:
256,192,35876,1,8,0:0:0:0:
256,192,35985,1,8,0:0:0:0:
256,192,36094,1,0,0:0:0:0:
256,192,36203,1,8,0:0:0:0:
256,192,36257,1,8,0:0:0:0:
256,192,36311,1,0,0:0:0:0:
256,192,36420,1,0,0:0:0:0:
256,192,36529,1,8,0:0:0:0:
256,192,36637,1,0,0:0:0:0:
256,192,36692,1,0,0:0:0:0:
256,192,36746,1,8,0:0:0:0:
256,192,36855,1,0,0:0:0:0:
256,192,36963,1,8,0:0:0:0:
256,192,37072,1,0,0:0:0:0:
256,192,37126,1,0,0:0:0:0:
256,192,37181,1,8,0:0:0:0:
256,192,37290,1,0,0:0:0:0:
256,192,37398,1,8,0:0:0:0:
256,192,37507,1,8,0:0:0:0:
256,192,37616,1,0,0:0:0:0:
256,192,37724,1,0,0:0:0:0:
256,192,37833,1,8,0:0:0:0:
256,192,37942,1,0,0:0:0:0:
256,192,38050,1,0,0:0:0:0:
256,192,38159,1,0,0:0:0:0:
256,192,38268,1,8,0:0:0:0:
256,192,38322,1,8,0:0:0:0:
256,192,38376,1,0,0:0:0:0:
256,192,38431,1,0,0:0:0:0:
256,192,38485,1,8,0:0:0:0:
256,192,38540,1,8,0:0:0:0:
256,192,38594,1,0,0:0:0:0:
256,192,38648,1,0,0:0:0:0:
256,192,38703,1,8,0:0:0:0:
256,192,38811,1,8,0:0:0:0:
256,192,38920,1,0,0:0:0:0:
256,192,39137,1,0,0:0:0:0:
256,192,39246,1,8,0:0:0:0:
256,192,39300,1,8,0:0:0:0:
256,192,39355,1,0,0:0:0:0:
256,192,39463,1,0,0:0:0:0:
256,192,39572,1,8,0:0:0:0:
256,192,39681,1,0,0:0:0:0:
256,192,39735,1,0,0:0:0:0:
256,192,39790,1,8,0:0:0:0:
256,192,39898,1,8,0:0:0:0:
256,192,40007,1,0,0:0:0:0:
256,192,40116,1,8,0:0:0:0:
256,192,40170,1,8,0:0:0:0:
256,192,40224,1,0,0:0:0:0:
256,192,40333,1,8,0:0:0:0:
256,192,40442,1,0,0:0:0:0:
256,192,40550,1,8,0:0:0:0:
256,192,40605,1,8,0:0:0:0:
256,192,40659,1,0,0:0:0:0:
256,192,40768,1,8,0:0:0:0:
256,192,40876,1,0,0:0:0:0:
256,192,40985,1,0,0:0:0:0:
256,192,41094,1,8,0:0:0:0:
256,192,41203,1,8,0:0:0:0:
256,192,41311,1,0,0:0:0:0:
256,192,41420,1,8,0:0:0:0:
256,192,41529,1,8,0:0:0:0:
256,192,41637,1,8,0:0:0:0:
256,192,41746,1,0,0:0:0:0:
256,192,41855,1,8,0:0:0:0:
256,192,41909,1,8,0:0:0:0:
256,192,41963,1,0,0:0:0:0:
256,192,42072,1,8,0:0:0:0:
256,192,42126,1,0,0:0:0:0:
256,192,42181,1,8,0:0:0:0:
256,192,42290,1,0,0:0:0:0:
256,192,42344,1,0,0:0:0:0:
256,192,42398,1,8,0:0:0:0:
256,192,42453,1,8,0:0:0:0:
256,192,42507,1,0,0:0:0:0:
256,192,42616,1,8,0:0:0:0:
256,192,42724,1,0,0:0:0:0:
256,192,42779,1,0,0:0:0:0:
256,192,42833,1,8,0:0:0:0:
256,192,42942,1,8,0:0:0:0:
256,192,43050,1,0,0:0:0:0:
256,192,43159,1,8,0:0:0:0:
256,192,43213,1,8,0:0:0:0:
256,192,43268,1,0,0:0:0:0:
256,192,43376,1,0,0:0:0:0:
256,192,43485,1,8,0:0:0:0:
256,192,43594,1,0,0:0:0:0:
256,192,43648,1,0,0:0:0:0:
256,192,43703,1,8,0:0:0:0:
256,192,43811,1,0,0:0:0:0:
256,192,43920,1,8,0:0:0:0:
256,192,44029,1,0,0:0:0:0:
256,192,44083,1,0,0:0:0:0:
256,192,44137,1,8,0:0:0:0:
256,192,44246,1,0,0:0:0:0:
256,192,44355,1,8,0:0:0:0:
256,192,44409,1,8,0:0:0:0:
256,192,44463,1,0,0:0:0:0:
256,192,44518,1,0,0:0:0:0:
256,192,44572,1,8,0:0:0:0:
256,192,44681,1,8,0:0:0:0:
256,192,44790,1,0,0:0:0:0:
256,192,44844,1,0,0:0:0:0:
256,192,44898,1,8,0:0:0:0:
256,192,44953,1,8,0:0:0:0:
256,192,45007,1,0,0:0:0:0:
256,192,45116,1,0,0:0:0:0:
256,192,45224,1,8,0:0:0:0:
256,192,45442,1,8,0:0:0:0:
256,192,45550,1,0,0:0:0:0:
256,192,45659,1,8,0:0:0:0:
256,192,45768,1,0,0:0:0:0:
256,192,45876,1,8,0:0:0:0:
256,192,45931,1,8,0:0:0:0:
256,192,45985,1,8,0:0:0:0:
256,192,46094,1,0,0:0:0:0:
256,192,46203,1,0,0:0:0:0:
256,192,46311,1,0,0:0:0:0:
256,192,46529,1,0,0:0:0:0:
256,192,46637,1,0,0:0:0:0:
256,192,46746,1,0,0:0:0:0:
256,192,46963,1,8,0:0:0:0:
256,192,47072,1,8,0:0:0:0:
256,192,47181,1,8,0:0:0:0:
256,192,47398,1,8,0:0:0:0:
256,192,47507,1,8,0:0:0:0:
256,192,47616,1,8,0:0:0:0:
256,192,47833,1,0,0:0:0:0:
256,192,47942,1,0,0:0:0:0:
256,192,48050,1,8,0:0:0:0:
256,192,48159,1,8,0:0:0:0:
256,192,48268,1,0,0:0:0:0:
256,192,48376,1,0,0:0:0:0:
256,192,48485,1,8,0:0:0:0:
256,192,48594,1,8,0:0:0:0:
256,192,48703,1,0,0:0:0:0:
256,192,48848,1,8,0:0:0:0:
256,192,48992,1,8,0:0:0:0:
256,192,49137,1,0,0:0:0:0:
256,192,49282,1,8,0:0:0:0:
256,192,49427,1,8,0:0:0:0:
256,192,49572,1,0,0:0:0:0:
256,192,49790,1,0,0:0:0:0:
256,192,50007,1,8,0:0:0:0:
256,192,50224,2,4,L|256:128,36,35
256,192,52615,1,0,0:0:0:0:
256,192,53050,1,0,0:0:0:0:
256,192,53485,1,0,0:0:0:0:
256,192,53920,1,2,0:0:0:0:
256,192,55659,1,2,0:0:0:0:
256,192,56311,1,0,0:0:0:0:
256,192,56746,1,2,0:0:0:0:
256,192,56963,1,2,0:0:0:0:
256,192,57398,1,0,0:0:0:0:
256,192,57833,1,2,0:0:0:0:
256,192,58702,1,2,0:0:0:0:
256,192,59137,1,2,0:0:0:0:
256,192,59572,1,0,0:0:0:0:
256,192,60441,1,0,0:0:0:0:
256,192,60876,1,2,0:0:0:0:
256,192,61746,1,0,0:0:0:0:
256,192,61963,1,2,0:0:0:0:
256,192,62180,1,2,0:0:0:0:
256,192,62398,1,0,0:0:0:0:
256,192,63050,1,2,0:0:0:0:
256,192,63485,1,0,0:0:0:0:
256,192,63920,1,0,0:0:0:0:
256,192,64354,1,2,0:0:0:0:
256,192,64789,1,0,0:0:0:0:
256,192,65441,1,2,0:0:0:0:
256,192,65659,1,0,0:0:0:0:
256,192,65876,1,0,0:0:0:0:
256,192,66093,1,2,0:0:0:0:
256,192,66528,1,0,0:0:0:0:
256,192,66963,1,2,0:0:0:0:
256,192,67398,1,2,0:0:0:0:
256,192,67833,1,0,0:0:0:0:
256,192,68702,1,2,0:0:0:0:
256,192,69572,1,2,0:0:0:0:
256,192,70224,1,0,0:0:0:0:
256,192,70659,1,2,0:0:0:0:
256,192,70876,1,2,0:0:0:0:
256,192,71311,1,0,0:0:0:0:
256,192,71746,1,2,0:0:0:0:
256,192,72615,1,2,0:0:0:0:
256,192,73050,1,2,0:0:0:0:
256,192,73485,1,2,0:0:0:0:
256,192,74354,1,2,0:0:0:0:
256,192,74789,1,0,0:0:0:0:
256,192,75659,1,0,0:0:0:0:
256,192,75876,1,2,0:0:0:0:
256,192,76093,1,2,0:0:0:0:
256,192,76311,1,0,0:0:0:0:
256,192,76963,1,2,0:0:0:0:
256,192,77398,1,0,0:0:0:0:
256,192,77833,1,0,0:0:0:0:
256,192,78267,1,2,0:0:0:0:
256,192,78702,1,0,0:0:0:0:
256,192,81746,1,4,0:0:0:0:
256,192,81963,1,8,0:0:0:0:
256,192,82072,1,0,0:0:0:0:
256,192,82180,1,8,0:0:0:0:
256,192,82235,1,8,0:0:0:0:
256,192,82289,1,0,0:0:0:0:
256,192,82343,1,0,0:0:0:0:
256,192,82398,1,8,0:0:0:0:
256,192,82506,1,0,0:0:0:0:
256,192,82615,1,8,0:0:0:0:
256,192,82669,1,8,0:0:0:0:
256,192,82724,1,0,0:0:0:0:
256,192,82832,1,0,0:0:0:0:
256,192,82941,1,8,0:0:0:0:
256,192,82996,1,8,0:0:0:0:
256,192,83050,1,0,0:0:0:0:
256,192,83159,1,0,0:0:0:0:
256,192,83267,1,8,0:0:0:0:
256,192,83376,1,8,0:0:0:0:
256,192,83485,1,0,0:0:0:0:
256,192,83593,1,8,0:0:0:0:
256,192,83648,1,8,0:0:0:0:
256,192,83702,1,0,0:0:0:0:
256,192,83811,1,8,0:0:0:0:
256,192,83919,1,0,0:0:0:0:
256,192,83974,1,0,0:0:0:0:
256,192,84028,1,8,0:0:0:0:
256,192,84082,1,8,0:0:0:0:
256,192,84137,1,0,0:0:0:0:
256,192,84246,1,8,0:0:0:0:
256,192,84354,1,0,0:0:0:0:
256,192,84463,1,0,0:0:0:0:
256,192,84572,1,8,0:0:0:0:
256,192,84680,1,8,0:0:0:0:
256,192,84789,1,0,0:0:0:0:
256,192,84843,1,0,0:0:0:0:
256,192,84898,1,8,0:0:0:0:
256,192,84952,1,0,0:0:0:0:
256,192,85006,1,8,0:0:0:0:
256,192,85061,1,8,0:0:0:0:
256,192,85115,1,0,0:0:0:0:
256,192,85224,1,8,0:0:0:0:
256,192,85332,1,0,0:0:0:0:
256,192,85387,1,0,0:0:0:0:
256,192,85441,1,8,0:0:0:0:
256,192,85550,1,0,0:0:0:0:
256,192,85659,1,8,0:0:0:0:
256,192,85713,1,8,0:0:0:0:
256,192,85767,1,0,0:0:0:0:
256,192,85876,1,8,0:0:0:0:
256,192,85930,1,0,0:0:0:0:
256,192,85985,1,8,0:0:0:0:
256,192,86093,1,0,0:0:0:0:
256,192,86202,1,8,0:0:0:0:
256,192,86256,1,8,0:0:0:0:
256,192,86311,1,0,0:0:0:0:
256,192,86365,1,0,0:0:0:0:
256,192,86419,1,8,0:0:0:0:
256,192,86528,1,0,0:0:0:0:
256,192,86637,1,8,0:0:0:0:
256,192,86691,1,8,0:0:0:0:
256,192,86746,1,8,0:0:0:0:
256,192,86854,1,8,0:0:0:0:
256,192,86963,1,0,0:0:0:0:
256,192,87072,1,0,0:0:0:0:
256,192,87180,1,8,0:0:0:0:
256,192,87289,1,0,0:0:0:0:
256,192,87398,1,8,0:0:0:0:
256,192,87506,1,8,0:0:0:0:
256,192,87615,1,0,0:0:0:0:
256,192,87724,1,8,0:0:0:0:
256,192,87832,1,0,0:0:0:0:
256,192,87887,1,0,0:0:0:0:
256,192,87941,1,8,0:0:0:0:
256,192,88050,1,0,0:0:0:0:
256,192,88104,1,0,0:0:0:0:
256,192,88159,1,8,0:0:0:0:
256,192,88267,1,0,0:0:0:0:
256,192,88322,1,0,0:0:0:0:
256,192,88376,1,0,0:0:0:0:
256,192,88430,1,0,0:0:0:0:
256,192,88485,1,8,0:0:0:0:
256,192,88593,1,8,0:0:0:0:
256,192,88702,1,0,0:0:0:0:
256,192,88811,1,8,0:0:0:0:
256,192,88865,1,8,0:0:0:0:
256,192,88919,1,0,0:0:0:0:
256,192,89028,1,0,0:0:0:0:
256,192,89137,1,8,0:0:0:0:
256,192,89246,1,0,0:0:0:0:
256,192,89300,1,0,0:0:0:0:
256,192,89354,1,8,0:0:0:0:
256,192,89463,1,8,0:0:0:0:
256,192,89572,1,0,0:0:0:0:
256,192,89680,1,8,0:0:0:0:
256,192,89735,1,8,0:0:0:0:
256,192,89789,1,8,0:0:0:0:
256,192,89898,1,0,0:0:0:0:
256,192,90006,1,8,0:0:0:0:
256,192,90061,1,8,0:0:0:0:
256,192,90115,1,8,0:0:0:0:
256,192,90224,1,0,0:0:0:0:
256,192,90332,1,0,0:0:0:0:
256,192,90441,1,8,0:0:0:0:
256,192,90550,1,0,0:0:0:0:
256,192,90604,1,0,0:0:0:0:
256,192,90659,1,8,0:0:0:0:
256,192,90767,1,0,0:0:0:0:
256,192,90876,1,8,0:0:0:0:
256,192,90930,1,8,0:0:0:0:
256,192,90985,1,0,0:0:0:0:
256,192,91039,1,0,0:0:0:0:
256,192,91093,1,8,0:0:0:0:
256,192,91202,1,8,0:0:0:0:
256,192,91311,1,0,0:0:0:0:
256,192,91419,1,8,0:0:0:0:
256,192,91474,1,8,0:0:0:0:
256,192,91528,1,0,0:0:0:0:
256,192,91637,1,8,0:0:0:0:
256,192,91691,1,0,0:0:0:0:
256,192,91746,1,8,0:0:0:0:
256,192,91800,1,8,0:0:0:0:
256,192,91854,1,0,0:0:0:0:
256,192,91963,1,8,0:0:0:0:
256,192,92072,1,8,0:0:0:0:
256,192,92180,1,0,0:0:0:0:
256,192,92289,1,8,0:0:0:0:
256,192,92343,1,8,0:0:0:0:
256,192,92398,1,0,0:0:0:0:
256,192,92506,1,0,0:0:0:0:
256,192,92615,1,8,0:0:0:0:
256,192,92724,1,0,0:0:0:0:
256,192,92778,1,0,0:0:0:0:
256,192,92832,1,8,0:0:0:0:
256,192,92941,1,8,0:0:0:0:
256,192,93050,1,0,0:0:0:0:
256,192,93159,1,8,0:0:0:0:
256,192,93267,1,0,0:0:0:0:
256,192,93376,1,0,0:0:0:0:
256,192,93485,1,8,0:0:0:0:
256,192,93593,1,0,0:0:0:0:
256,192,93702,1,8,0:0:0:0:
256,192,93811,1,8,0:0:0:0:
256,192,93919,1,0,0:0:0:0:
256,192,93974,1,0,0:0:0:0:
256,192,94028,1,8,0:0:0:0:
256,192,94082,1,8,0:0:0:0:
256,192,94137,1,0,0:0:0:0:
256,192,94246,1,8,0:0:0:0:
256,192,94300,1,8,0:0:0:0:
256,192,94354,1,0,0:0:0:0:
256,192,94409,1,0,0:0:0:0:
256,192,94463,1,8,0:0:0:0:
256,192,94572,1,0,0:0:0:0:
256,192,94626,1,0,0:0:0:0:
256,192,94680,1,8,0:0:0:0:
256,192,94789,1,0,0:0:0:0:
256,192,94898,1,8,0:0:0:0:
256,192,95006,1,0,0:0:0:0:
256,192,95115,1,8,0:0:0:0:
256,192,95224,1,0,0:0:0:0:
256,192,95332,1,0,0:0:0:0:
256,192,95441,1,8,0:0:0:0:
256,192,95496,1,8,0:0:0:0:
256,192,95550,1,8,0:0:0:0:
256,192,95659,1,4,0:0:0:0:
256,192,95876,1,8,0:0:0:0:
256,192,95985,1,0,0:0:0:0:
256,192,96093,1,8,0:0:0:0:
256,192,96148,1,8,0:0:0:0:
256,192,96202,1,0,0:0:0:0:
256,192,96256,1,0,0:0:0:0:
256,192,96311,1,8,0:0:0:0:
256,192,96419,1,0,0:0:0:0:
256,192,96528,1,8,0:0:0:0:
256,192,96582,1,8,0:0:0:0:
256,192,96637,1,0,0:0:0:0:
256,192,96746,1,0,0:0:0:0:
256,192,96854,1,8,0:0:0:0:
256,192,96909,1,8,0:0:0:0:
256,192,96963,1,0,0:0:0:0:
256,192,97072,1,0,0:0:0:0:
256,192,97180,1,8,0:0:0:0:
256,192,97289,1,8,0:0:0:0:
256,192,97398,1,0,0:0:0:0:
256,192,97506,1,8,0:0:0:0:
256,192,97561,1,8,0:0:0:0:
256,192,97615,1,0,0:0:0:0:
256,192,97724,1,8,0:0:0:0:
256,192,97832,1,0,0:0:0:0:
256,192,97887,1,0,0:0:0:0:
256,192,97941,1,8,0:0:0:0:
256,192,97996,1,8,0:0:0:0:
256,192,98050,1,0,0:0:0:0:
256,192,98159,1,8,0:0:0:0:
256,192,98267,1,0,0:0:0:0:
256,192,98376,1,0,0:0:0:0:
256,192,98485,1,8,0:0:0:0:
256,192,98593,1,8,0:0:0:0:
256,192,98702,1,0,0:0:0:0:
256,192,98756,1,0,0:0:0:0:
256,192,98811,1,8,0:0:0:0:
256,192,98865,1,0,0:0:0:0:
256,192,98919,1,8,0:0:0:0:
256,192,98974,1,8,0:0:0:0:
256,192,99028,1,0,0:0:0:0:
256,192,99137,1,8,0:0:0:0:
256,192,99246,1,0,0:0:0:0:
256,192,99300,1,0,0:0:0:0:
256,192,99354,1,8,0:0:0:0:
256,192,99463,1,0,0:0:0:0:
256,192,99572,1,8,0:0:0:0:
256,192,99626,1,8,0:0:0:0:
256,192,99680,1,0,0:0:0:0:
256,192,99789,1,8,0:0:0:0:
256,192,99843,1,0,0:0:0:0:
256,192,99898,1,8,0:0:0:0:
256,192,100006,1,0,0:0:0:0:
256,192,100115,1,8,0:0:0:0:
256,192,100169,1,8,0:0:0:0:
256,192,100224,1,0,0:0:0:0:
256,192,100278,1,0,0:0:0:0:
256,192,100332,1,8,0:0:0:0:
256,192,100441,1,0,0:0:0:0:
256,192,100550,1,8,0:0:0:0:
256,192,100604,1,8,0:0:0:0:
256,192,100659,1,8,0:0:0:0:
256,192,100767,1,8,0:0:0:0:
256,192,100876,1,0,0:0:0:0:
256,192,100985,1,0,0:0:0:0:
256,192,101093,1,8,0:0:0:0:
256,192,101202,1,0,0:0:0:0:
256,192,101311,1,8,0:0:0:0:
256,192,101419,1,8,0:0:0:0:
256,192,101528,1,0,0:0:0:0:
256,192,101637,1,8,0:0:0:0:
256,192,101746,1,0,0:0:0:0:
256,192,101800,1,0,0:0:0:0:
256,192,101854,1,8,0:0:0:0:
256,192,101963,1,0,0:0:0:0:
256,192,102017,1,0,0:0:0:0:
256,192,102072,1,8,0:0:0:0:
256,192,102180,1,0,0:0:0:0:
256,192,102235,1,0,0:0:0:0:
256,192,102289,1,0,0:0:0:0:
256,192,102343,1,0,0:0:0:0:
256,192,102398,1,8,0:0:0:0:
256,192,102506,1,8,0:0:0:0:
256,192,102615,1,0,0:0:0:0:
256,192,102724,1,8,0:0:0:0:
256,192,102778,1,8,0:0:0:0:
256,192,102832,1,0,0:0:0:0:
256,192,102941,1,0,0:0:0:0:
256,192,103050,1,8,0:0:0:0:
256,192,103159,1,0,0:0:0:0:
256,192,103213,1,0,0:0:0:0:
256,192,103267,1,8,0:0:0:0:
256,192,103376,1,8,0:0:0:0:
256,192,103485,1,0,0:0:0:0:
256,192,103593,1,8,0:0:0:0:
256,192,103648,1,8,0:0:0:0:
256,192,103702,1,8,0:0:0:0:
256,192,103811,1,0,0:0:0:0:
256,192,103919,1,8,0:0:0:0:
256,192,103974,1,8,0:0:0:0:
256,192,104028,1,8,0:0:0:0:
256,192,104137,1,0,0:0:0:0:
256,192,104246,1,0,0:0:0:0:
256,192,104354,1,8,0:0:0:0:
256,192,104463,1,0,0:0:0:0:
256,192,104517,1,0,0:0:0:0:
256,192,104572,1,8,0:0:0:0:
256,192,104680,1,0,0:0:0:0:
256,192,104789,1,8,0:0:0:0:
256,192,104843,1,8,0:0:0:0:
256,192,104898,1,0,0:0:0:0:
256,192,104952,1,0,0:0:0:0:
256,192,105006,1,8,0:0:0:0:
256,192,105115,1,8,0:0:0:0:
256,192,105224,1,0,0:0:0:0:
256,192,105332,1,8,0:0:0:0:
256,192,105387,1,8,0:0:0:0:
256,192,105441,1,0,0:0:0:0:
256,192,105550,1,8,0:0:0:0:
256,192,105604,1,0,0:0:0:0:
256,192,105659,1,8,0:0:0:0:
256,192,105713,1,8,0:0:0:0:
256,192,105767,1,0,0:0:0:0:
256,192,105876,1,8,0:0:0:0:
256,192,105985,1,8,0:0:0:0:
256,192,106093,1,0,0:0:0:0:
256,192,106202,1,8,0:0:0:0:
256,192,106256,1,8,0:0:0:0:
256,192,106311,1,0,0:0:0:0:
256,192,106419,1,0,0:0:0:0:
256,192,106528,1,8,0:0:0:0:
256,192,106637,1,0,0:0:0:0:
256,192,106691,1,0,0:0:0:0:
256,192,106746,1,8,0:0:0:0:
256,192,106854,1,8,0:0:0:0:
256,192,106963,1,0,0:0:0:0:
256,192,107072,1,8,0:0:0:0:
256,192,107180,1,0,0:0:0:0:
256,192,107289,1,0,0:0:0:0:
256,192,107398,1,8,0:0:0:0:
256,192,107506,1,0,0:0:0:0:
256,192,107615,1,8,0:0:0:0:
256,192,107724,1,8,0:0:0:0:
256,192,107832,1,0,0:0:0:0:
256,192,107887,1,0,0:0:0:0:
256,192,107941,1,8,0:0:0:0:
256,192,107995,1,8,0:0:0:0:
256,192,108050,1,0,0:0:0:0:
256,192,108159,1,8,0:0:0:0:
256,192,108213,1,8,0:0:0:0:
256,192,108267,1,0,0:0:0:0:
256,192,108322,1,0,0:0:0:0:
256,192,108376,1,8,0:0:0:0:
256,192,108485,1,0,0:0:0:0:
256,192,108539,1,0,0:0:0:0:
256,192,108593,1,8,0:0:0:0:
256,192,108702,1,0,0:0:0:0:
256,192,108811,1,8,0:0:0:0:
256,192,108919,1,0,0:0:0:0:
256,192,109028,1,8,0:0:0:0:
256,192,109137,1,0,0:0:0:0:
256,192,109245,1,0,0:0:0:0:
256,192,109354,1,8,0:0:0:0:
256,192,109409,1,8,0:0:0:0:
256,192,109463,1,8,0:0:0:0:
256,192,109572,1,4,0:0:0:0:
256,192,109789,1,8,0:0:0:0:
256,192,109898,1,0,0:0:0:0:
256,192,109952,1,0,0:0:0:0:
256,192,110006,1,8,0:0:0:0:
256,192,110115,1,0,0:0:0:0:
256,192,110224,1,8,0:0:0:0:
256,192,110278,1,0,0:0:0:0:
256,192,110332,1,8,0:0:0:0:
256,192,110441,1,0,0:0:0:0:
256,192,110550,1,0,0:0:0:0:
256,192,110659,1,8,0:0:0:0:
256,192,110767,1,0,0:0:0:0:
256,192,110822,1,0,0:0:0:0:
256,192,110876,1,8,0:0:0:0:
256,192,110985,1,0,0:0:0:0:
256,192,111093,1,8,0:0:0:0:
256,192,111148,1,8,0:0:0:0:
256,192,111202,1,8,0:0:0:0:
256,192,111256,1,8,0:0:0:0:
256,192,111311,1,0,0:0:0:0:
256,192,111419,1,8,0:0:0:0:
256,192,111528,1,0,0:0:0:0:
256,192,111582,1,0,0:0:0:0:
256,192,111637,1,0,0:0:0:0:
256,192,111745,1,8,0:0:0:0:
256,192,111854,1,0,0:0:0:0:
256,192,111909,1,0,0:0:0:0:
256,192,111963,1,8,0:0:0:0:
256,192,112017,1,8,0:0:0:0:
256,192,112072,1,0,0:0:0:0:
256,192,112180,1,8,0:0:0:0:
256,192,112289,1,0,0:0:0:0:
256,192,112343,1,0,0:0:0:0:
256,192,112398,1,8,0:0:0:0:
256,192,112506,1,0,0:0:0:0:
256,192,112615,1,8,0:0:0:0:
256,192,112669,1,8,0:0:0:0:
256,192,112724,1,0,0:0:0:0:
256,192,112832,1,8,0:0:0:0:
256,192,112887,1,8,0:0:0:0:
256,192,112941,1,8,0:0:0:0:
256,192,113050,1,0,0:0:0:0:
256,192,113267,1,8,0:0:0:0:
256,192,113376,1,0,0:0:0:0:
256,192,113430,1,0,0:0:0:0:
256,192,113485,1,8,0:0:0:0:
256,192,113593,1,0,0:0:0:0:
256,192,113702,1,8,0:0:0:0:
256,192,113756,1,0,0:0:0:0:
256,192,113811,1,8,0:0:0:0:
256,192,113919,1,0,0:0:0:0:
256,192,114028,1,0,0:0:0:0:
256,192,114137,1,8,0:0:0:0:
256,192,114245,1,0,0:0:0:0:
256,192,114300,1,0,0:0:0:0:
256,192,114354,1,8,0:0:0:0:
256,192,114463,1,0,0:0:0:0:
256,192,114572,1,8,0:0:0:0:
256,192,114626,1,8,0:0:0:0:
256,192,114680,1,8,0:0:0:0:
256,192,114735,1,8,0:0:0:0:
256,192,114789,1,0,0:0:0:0:
256,192,114898,1,0,0:0:0:0:
256,192,115006,1,8,0:0:0:0:
256,192,115115,1,0,0:0:0:0:
256,192,115224,1,8,0:0:0:0:
256,192,115332,1,8,0:0:0:0:
256,192,115441,1,0,0:0:0:0:
256,192,115550,1,8,0:0:0:0:
256,192,115659,1,0,0:0:0:0:
256,192,115713,1,0,0:0:0:0:
256,192,115767,1,8,0:0:0:0:
256,192,115822,1,0,0:0:0:0:
256,192,115876,1,8,0:0:0:0:
256,192,115985,1,0,0:0:0:0:
256,192,116093,1,8,0:0:0:0:
256,192,116148,1,8,0:0:0:0:
256,192,116202,1,0,0:0:0:0:
256,192,116256,1,0,0:0:0:0:
256,192,116311,1,8,0:0:0:0:
256,192,116365,1,8,0:0:0:0:
256,192,116419,1,8,0:0:0:0:
256,192,116474,1,8,0:0:0:0:
256,192,116528,1,0,0:0:0:0:
256,192,116745,1,8,0:0:0:0:
256,192,116854,1,0,0:0:0:0:
256,192,116909,1,0,0:0:0:0:
256,192,116963,1,8,0:0:0:0:
256,192,117072,1,0,0:0:0:0:
256,192,117180,1,8,0:0:0:0:
256,192,117235,1,0,0:0:0:0:
256,192,117289,1,8,0:0:0:0:
256,192,117398,1,0,0:0:0:0:
256,192,117506,1,0,0:0:0:0:
256,192,117615,1,8,0:0:0:0:
256,192,117724,1,0,0:0:0:0:
256,192,117778,1,0,0:0:0:0:
256,192,117832,1,8,0:0:0:0:
256,192,117941,1,0,0:0:0:0:
256,192,118050,1,8,0:0:0:0:
256,192,118104,1,8,0:0:0:0:
256,192,118159,1,8,0:0:0:0:
256,192,118213,1,8,0:0:0:0:
256,192,118267,1,0,0:0:0:0:
256,192,118376,1,8,0:0:0:0:
256,192,118485,1,0,0:0:0:0:
256,192,118539,1,0,0:0:0:0:
256,192,118593,1,0,0:0:0:0:
256,192,118702,1,8,0:0:0:0:
256,192,118811,1,0,0:0:0:0:
256,192,118865,1,0,0:0:0:0:
256,192,118919,1,8,0:0:0:0:
256,192,118974,1,8,0:0:0:0:
256,192,119028,1,0,0:0:0:0:
256,192,119137,1,8,0:0:0:0:
256,192,119245,1,0,0:0:0:0:
256,192,119300,1,0,0:0:0:0:
256,192,119354,1,8,0:0:0:0:
256,192,119463,1,0,0:0:0:0:
256,192,119572,1,8,0:0:0:0:
256,192,119626,1,8,0:0:0:0:
256,192,119680,1,0,0:0:0:0:
256,192,119789,1,8,0:0:0:0:
256,192,119843,1,8,0:0:0:0:
256,192,119898,1,8,0:0:0:0:
256,192,120006,1,0,0:0:0:0:
256,192,120224,1,8,0:0:0:0:
256,192,120332,1,0,0:0:0:0:
256,192,120387,1,0,0:0:0:0:
256,192,120441,1,8,0:0:0:0:
256,192,120550,1,0,0:0:0:0:
256,192,120659,1,8,0:0:0:0:
256,192,120713,1,0,0:0:0:0:
256,192,120767,1,8,0:0:0:0:
256,192,120876,1,0,0:0:0:0:
256,192,120985,1,0,0:0:0:0:
256,192,121093,1,8,0:0:0:0:
256,192,121202,1,0,0:0:0:0:
256,192,121256,1,0,0:0:0:0:
256,192,121311,1,8,0:0:0:0:
256,192,121419,1,0,0:0:0:0:
256,192,121528,1,8,0:0:0:0:
256,192,121582,1,8,0:0:0:0:
256,192,121637,1,8,0:0:0:0:
256,192,121745,1,0,0:0:0:0:
256,192,121800,1,0,0:0:0:0:
256,192,121854,1,8,0:0:0:0:
256,192,121909,1,8,0:0:0:0:
256,192,121963,1,0,0:0:0:0:
256,192,122072,1,0,0:0:0:0:
256,192,122180,1,8,0:0:0:0:
256,192,122235,1,8,0:0:0:0:
256,192,122289,1,0,0:0:0:0:
256,192,122343,1,0,0:0:0:0:
256,192,122398,1,8,0:0:0:0:
256,192,122506,1,8,0:0:0:0:
256,192,122615,1,0,0:0:0:0:
256,192,123267,1,8,0:0:0:0:
256,192,123322,1,8,0:0:0:0:
256,192,123376,1,8,0:0:0:0:
256,192,123485,1,4,0:0:0:0:
