osu file format v14

[General]
AudioFilename: audio.mp3
AudioLeadIn: 0
PreviewTime: 112414
Countdown: 0
SampleSet: Normal
StackLeniency: 0.7
Mode: 3
LetterboxInBreaks: 0
SpecialStyle: 0
WidescreenStoryboard: 1

[Editor]
DistanceSpacing: 0.8
BeatDivisor: 4
GridSize: 8
TimelineZoom: 1.5

[Metadata]
Title:Eternal White
TitleUnicode:Eternal White
Artist:shimizushi
ArtistUnicode:shimizushi
Creator:Seiran-
Version:Whitish | Sya's Normal
Source:THE BMS OF FIGHTERS XVII -VISION THE RETRO FUTURE-
Tags:BOFXVII videogame YNCT.white-blue Nao_AnD E_AnD3 core artcore electronic instrumental Syadow- EGMAForever -H_i_k_a_r_i- _Hikari -Timerains-
BeatmapID:3601431
BeatmapSetID:1683685

[Difficulty]
HPDrainRate:7.5
CircleSize:4
OverallDifficulty:7.5
ApproachRate:5
SliderMultiplier:1.4
SliderTickRate:1

[Events]
//Background and Video events
0,0,"BG.png",0,0
//Break Periods
//Storyboard Layer 0 (Background)
//Storyboard Layer 1 (Fail)
//Storyboard Layer 2 (Pass)
//Storyboard Layer 3 (Foreground)
//Storyboard Layer 4 (Overlay)
//Storyboard Sound Samples

[TimingPoints]
2137,545.454545454546,4,1,1,40,1,0
2137,-63.2911392405063,4,1,1,40,0,0
34318,600,4,1,1,40,1,0
34318,-57.4712643678161,4,1,1,40,0,0
34618,666.666666666667,4,1,1,40,1,8
34618,-51.8134715025907,4,1,1,40,0,0
36284,705.882352941176,4,1,1,40,1,0
36284,-49.0196078431373,4,1,1,40,0,0
36989,857.142857142857,4,1,1,40,1,0
36989,-40.1606425702811,4,1,1,40,0,0
37417,1500,4,1,1,40,1,8
37417,-22.9885057471264,4,1,1,40,0,0
38917,3000,4,1,1,40,1,8
38917,-11.4942528735632,4,1,1,40,0,0
40043,344.827586206897,4,1,1,40,1,0
40043,-100,4,1,1,40,0,0
62111,705.882352941176,4,1,1,40,1,0
62111,-48.8507852763733,4,1,1,40,0,0
90346,344.827586206897,4,1,1,40,1,0
90346,-100,4,1,1,40,0,0
112414,-100,4,1,1,40,0,1
134483,705.882352941176,4,1,1,40,1,0
134483,-48.8507852763733,4,1,1,40,0,0

[HitObjects]
64,192,2137,5,0,0:0:0:0:
448,192,2137,128,0,3500:0:0:0:0:
192,192,2682,1,0,0:0:0:0:
320,192,3227,1,0,0:0:0:0:
64,192,3500,1,0,0:0:0:0:
320,192,3773,1,0,0:0:0:0:
192,192,4046,1,0,0:0:0:0:
448,192,4318,1,0,0:0:0:0:
64,192,4318,128,0,5409:0:0:0:0:
192,192,4864,1,0,0:0:0:0:
320,192,5409,128,0,6500:0:0:0:0:
448,192,5955,1,0,0:0:0:0:
192,192,6500,128,0,7591:0:0:0:0:
64,192,6500,1,0,0:0:0:0:
320,192,7046,1,0,0:0:0:0:
448,192,7591,128,0,8682:0:0:0:0:
320,192,8137,1,0,0:0:0:0:
64,192,8682,128,0,9773:0:0:0:0:
192,192,8682,1,0,0:0:0:0:
448,192,9227,1,0,0:0:0:0:
320,192,9773,128,0,10318:0:0:0:0:
448,192,10318,128,0,10864:0:0:0:0:
192,192,10864,128,0,11682:0:0:0:0:
64,192,10864,1,0,0:0:0:0:
320,192,11682,128,0,12500:0:0:0:0:
64,192,12500,1,0,0:0:0:0:
192,192,12773,1,0,0:0:0:0:
320,192,13046,1,0,0:0:0:0:
448,192,13046,128,0,14137:0:0:0:0:
192,192,13591,1,0,0:0:0:0:
64,192,14137,128,0,15227:0:0:0:0:
192,192,14682,1,0,0:0:0:0:
448,192,15227,1,0,0:0:0:0:
320,192,15227,128,0,17409:0:0:0:0:
192,192,15773,1,0,0:0:0:0:
448,192,16318,1,0,0:0:0:0:
64,192,16864,1,0,0:0:0:0:
192,192,17409,128,0,18500:0:0:0:0:
448,192,17409,1,0,0:0:0:0:
64,192,17955,1,0,0:0:0:0:
320,192,18500,1,0,0:0:0:0:
448,192,18773,1,0,0:0:0:0:
64,192,19046,1,0,0:0:0:0:
192,192,19318,1,0,0:0:0:0:
320,192,19591,1,0,0:0:0:0:
448,192,19591,128,0,20409:0:0:0:0:
192,192,20409,128,0,21227:0:0:0:0:
64,192,21227,1,0,0:0:0:0:
448,192,21500,1,0,0:0:0:0:
192,192,21773,1,0,0:0:0:0:
64,192,21773,128,0,22318:0:0:0:0:
320,192,22318,128,0,22864:0:0:0:0:
192,192,22864,1,0,0:0:0:0:
192,192,23137,128,0,23955:0:0:0:0:
64,192,23955,1,0,0:0:0:0:
448,192,23955,128,0,24500:0:0:0:0:
320,192,24500,1,0,0:0:0:0:
320,192,24773,128,0,25591:0:0:0:0:
64,192,25591,1,0,0:0:0:0:
64,192,25864,1,0,0:0:0:0:
320,192,26137,1,0,0:0:0:0:
448,192,26137,128,0,27227:0:0:0:0:
64,192,26682,1,0,0:0:0:0:
192,192,27227,128,0,27773:0:0:0:0:
320,192,27773,128,0,28318:0:0:0:0:
64,192,28318,128,0,29955:0:0:0:0:
448,192,28318,1,0,0:0:0:0:
192,192,28864,1,0,0:0:0:0:
320,192,29409,1,0,0:0:0:0:
448,192,29955,1,0,0:0:0:0:
320,192,30227,1,0,0:0:0:0:
64,192,30500,1,0,0:0:0:0:
192,192,30500,128,0,31591:0:0:0:0:
448,192,31046,1,0,0:0:0:0:
320,192,31591,128,0,32682:0:0:0:0:
192,192,32137,1,0,0:0:0:0:
64,192,32682,1,0,0:0:0:0:
448,192,32682,128,0,34951:0:0:0:0:
192,192,33227,1,0,0:0:0:0:
320,192,33773,1,0,0:0:0:0:
64,192,34318,1,0,0:0:0:0:
192,192,34951,128,0,36284:0:0:0:0:
320,192,34951,1,0,0:0:0:0:
448,192,35618,1,0,0:0:0:0:
320,192,36284,128,0,37417:0:0:0:0:
64,192,36284,1,0,0:0:0:0:
64,192,37417,1,0,0:0:0:0:
448,192,40042,5,0,0:0:0:0:
64,192,40042,1,0,0:0:0:0:
192,192,40387,1,0,0:0:0:0:
320,192,40387,1,0,0:0:0:0:
64,192,40905,1,0,0:0:0:0:
320,192,41077,1,0,0:0:0:0:
448,192,41077,1,0,0:0:0:0:
192,192,41422,1,0,0:0:0:0:
64,192,41767,1,0,0:0:0:0:
448,192,41767,1,0,0:0:0:0:
320,192,42284,1,0,0:0:0:0:
192,192,42456,1,0,0:0:0:0:
64,192,42456,1,0,0:0:0:0:
448,192,42801,1,0,0:0:0:0:
320,192,43146,1,0,0:0:0:0:
192,192,43146,1,0,0:0:0:0:
64,192,43663,1,0,0:0:0:0:
448,192,43836,1,0,0:0:0:0:
192,192,43836,1,0,0:0:0:0:
320,192,44180,1,0,0:0:0:0:
192,192,44525,1,0,0:0:0:0:
64,192,44525,1,0,0:0:0:0:
448,192,45043,1,0,0:0:0:0:
320,192,45215,1,0,0:0:0:0:
64,192,45215,1,0,0:0:0:0:
192,192,45560,1,0,0:0:0:0:
320,192,45905,1,0,0:0:0:0:
448,192,45905,1,0,0:0:0:0:
64,192,46422,1,0,0:0:0:0:
192,192,46594,1,0,0:0:0:0:
448,192,46594,1,0,0:0:0:0:
320,192,46939,1,0,0:0:0:0:
192,192,47284,1,0,0:0:0:0:
64,192,47284,1,0,0:0:0:0:
320,192,47801,1,0,0:0:0:0:
192,192,47974,1,0,0:0:0:0:
448,192,47974,1,0,0:0:0:0:
64,192,48318,1,0,0:0:0:0:
320,192,48663,1,0,0:0:0:0:
448,192,48663,1,0,0:0:0:0:
64,192,49180,1,0,0:0:0:0:
192,192,49353,1,0,0:0:0:0:
448,192,49353,1,0,0:0:0:0:
320,192,49698,1,0,0:0:0:0:
192,192,50043,1,0,0:0:0:0:
64,192,50043,1,0,0:0:0:0:
320,192,50560,1,0,0:0:0:0:
448,192,50732,1,0,0:0:0:0:
64,192,50732,1,0,0:0:0:0:
192,192,51077,1,0,0:0:0:0:
320,192,51077,1,0,0:0:0:0:
448,192,51422,1,0,0:0:0:0:
64,192,51422,1,0,0:0:0:0:
192,192,51939,1,0,0:0:0:0:
320,192,52111,1,0,0:0:0:0:
448,192,52111,1,0,0:0:0:0:
64,192,52456,1,0,0:0:0:0:
192,192,52801,1,0,0:0:0:0:
448,192,52801,1,0,0:0:0:0:
320,192,53318,1,0,0:0:0:0:
192,192,53491,1,0,0:0:0:0:
64,192,53491,1,0,0:0:0:0:
448,192,53836,1,0,0:0:0:0:
64,192,54180,1,0,0:0:0:0:
320,192,54180,1,0,0:0:0:0:
192,192,54698,1,0,0:0:0:0:
320,192,54870,1,0,0:0:0:0:
448,192,54870,1,0,0:0:0:0:
64,192,55215,1,0,0:0:0:0:
192,192,55560,1,0,0:0:0:0:
320,192,55560,1,0,0:0:0:0:
448,192,56077,1,0,0:0:0:0:
64,192,56249,1,0,0:0:0:0:
320,192,56249,1,0,0:0:0:0:
192,192,56594,1,0,0:0:0:0:
448,192,56939,1,0,0:0:0:0:
64,192,56939,1,0,0:0:0:0:
320,192,57456,1,0,0:0:0:0:
192,192,57629,1,0,0:0:0:0:
64,192,57629,1,0,0:0:0:0:
448,192,57974,1,0,0:0:0:0:
192,192,58318,1,0,0:0:0:0:
320,192,58318,1,0,0:0:0:0:
64,192,58836,1,0,0:0:0:0:
320,192,59008,1,0,0:0:0:0:
448,192,59008,1,0,0:0:0:0:
192,192,59353,1,0,0:0:0:0:
320,192,59698,1,0,0:0:0:0:
64,192,59698,1,0,0:0:0:0:
448,192,60215,1,0,0:0:0:0:
192,192,60387,1,0,0:0:0:0:
64,192,60387,1,0,0:0:0:0:
64,192,60732,1,0,0:0:0:0:
320,192,60732,1,0,0:0:0:0:
448,192,60905,1,0,0:0:0:0:
192,192,61077,1,0,0:0:0:0:
320,192,61249,1,0,0:0:0:0:
64,192,61422,128,0,61594:0:0:0:0:
192,192,61594,128,0,61767:0:0:0:0:
448,192,61767,128,0,61939:0:0:0:0:
320,192,61939,128,0,62111:0:0:0:0:
192,192,62111,1,0,0:0:0:0:
64,192,62111,128,0,64228:0:0:0:0:
320,192,62816,1,0,0:0:0:0:
448,192,63522,1,0,0:0:0:0:
192,192,64228,128,0,64934:0:0:0:0:
320,192,64934,1,0,0:0:0:0:
448,192,64934,128,0,66346:0:0:0:0:
64,192,65640,1,0,0:0:0:0:
320,192,66346,128,0,67758:0:0:0:0:
192,192,67052,1,0,0:0:0:0:
64,192,67758,1,0,0:0:0:0:
192,192,67758,128,0,70581:0:0:0:0:
320,192,68463,1,0,0:0:0:0:
448,192,69169,1,0,0:0:0:0:
64,192,69875,1,0,0:0:0:0:
448,192,70581,1,0,0:0:0:0:
320,192,70581,128,0,72699:0:0:0:0:
64,192,71287,1,0,0:0:0:0:
192,192,71993,1,0,0:0:0:0:
448,192,72699,5,0,0:0:0:0:
64,192,72699,1,0,0:0:0:0:
320,192,72875,1,0,0:0:0:0:
64,192,73052,1,0,0:0:0:0:
192,192,73228,1,0,0:0:0:0:
320,192,73405,1,0,0:0:0:0:
448,192,73405,1,0,0:0:0:0:
448,192,73758,1,0,0:0:0:0:
192,192,74111,1,0,0:0:0:0:
64,192,74111,1,0,0:0:0:0:
320,192,74463,1,0,0:0:0:0:
320,192,74640,1,0,0:0:0:0:
64,192,74993,1,0,0:0:0:0:
64,192,75169,1,0,0:0:0:0:
448,192,75522,1,0,0:0:0:0:
320,192,75522,1,0,0:0:0:0:
64,192,75875,1,0,0:0:0:0:
192,192,76228,1,0,0:0:0:0:
320,192,76581,1,0,0:0:0:0:
448,192,76934,1,0,0:0:0:0:
64,192,76934,1,0,0:0:0:0:
320,192,77287,1,0,0:0:0:0:
64,192,77463,1,0,0:0:0:0:
448,192,77463,1,0,0:0:0:0:
448,192,77816,1,0,0:0:0:0:
64,192,77816,1,0,0:0:0:0:
192,192,77993,1,0,0:0:0:0:
448,192,78346,1,0,0:0:0:0:
64,192,78346,1,0,0:0:0:0:
320,192,78699,128,0,79052:0:0:0:0:
192,192,79052,1,0,0:0:0:0:
64,192,79405,1,0,0:0:0:0:
320,192,79758,1,0,0:0:0:0:
448,192,79758,1,0,0:0:0:0:
192,192,80110,1,0,0:0:0:0:
192,192,80287,1,0,0:0:0:0:
448,192,80640,1,0,0:0:0:0:
448,192,80816,1,0,0:0:0:0:
64,192,81169,1,0,0:0:0:0:
192,192,81169,1,0,0:0:0:0:
448,192,81522,1,0,0:0:0:0:
320,192,81875,1,0,0:0:0:0:
192,192,82228,1,0,0:0:0:0:
64,192,82581,1,0,0:0:0:0:
448,192,82581,1,0,0:0:0:0:
192,192,82934,1,0,0:0:0:0:
448,192,83110,1,0,0:0:0:0:
64,192,83110,1,0,0:0:0:0:
64,192,83463,1,0,0:0:0:0:
448,192,83463,1,0,0:0:0:0:
320,192,83640,1,0,0:0:0:0:
64,192,83993,1,0,0:0:0:0:
448,192,83993,1,0,0:0:0:0:
192,192,84169,1,0,0:0:0:0:
320,192,84346,1,0,0:0:0:0:
192,192,84522,1,0,0:0:0:0:
64,192,84699,1,0,0:0:0:0:
448,192,84699,128,0,86110:0:0:0:0:
320,192,85405,1,0,0:0:0:0:
192,192,86110,128,0,87522:0:0:0:0:
64,192,86816,1,0,0:0:0:0:
320,192,87522,128,0,88934:0:0:0:0:
192,192,88228,1,0,0:0:0:0:
64,192,88934,128,0,89640:0:0:0:0:
448,192,89640,1,0,0:0:0:0:
320,192,89816,1,0,0:0:0:0:
192,192,89993,1,0,0:0:0:0:
320,192,90346,1,0,0:0:0:0:
448,192,90346,1,0,0:0:0:0:
192,192,90518,1,0,0:0:0:0:
320,192,90690,1,0,0:0:0:0:
64,192,90690,1,0,0:0:0:0:
448,192,90863,1,0,0:0:0:0:
192,192,91035,1,0,0:0:0:0:
320,192,91208,1,0,0:0:0:0:
448,192,91380,1,0,0:0:0:0:
64,192,91380,1,0,0:0:0:0:
320,192,91725,1,0,0:0:0:0:
64,192,91897,1,0,0:0:0:0:
192,192,92070,1,0,0:0:0:0:
448,192,92070,1,0,0:0:0:0:
320,192,92242,1,0,0:0:0:0:
64,192,92414,1,0,0:0:0:0:
448,192,92587,1,0,0:0:0:0:
320,192,92759,1,0,0:0:0:0:
192,192,92759,1,0,0:0:0:0:
64,192,92932,1,0,0:0:0:0:
448,192,93104,1,0,0:0:0:0:
192,192,93104,1,0,0:0:0:0:
320,192,93277,1,0,0:0:0:0:
192,192,93449,1,0,0:0:0:0:
64,192,93449,1,0,0:0:0:0:
448,192,93621,1,0,0:0:0:0:
320,192,93794,1,0,0:0:0:0:
64,192,93966,1,0,0:0:0:0:
448,192,94139,1,0,0:0:0:0:
320,192,94139,1,0,0:0:0:0:
192,192,94483,1,0,0:0:0:0:
320,192,94656,1,0,0:0:0:0:
448,192,94828,1,0,0:0:0:0:
64,192,94828,1,0,0:0:0:0:
192,192,95001,1,0,0:0:0:0:
320,192,95173,1,0,0:0:0:0:
448,192,95346,1,0,0:0:0:0:
64,192,95518,1,0,0:0:0:0:
320,192,95518,1,0,0:0:0:0:
192,192,95690,1,0,0:0:0:0:
448,192,95863,1,0,0:0:0:0:
64,192,95863,1,0,0:0:0:0:
320,192,96035,1,0,0:0:0:0:
192,192,96208,1,0,0:0:0:0:
448,192,96208,1,0,0:0:0:0:
64,192,96380,1,0,0:0:0:0:
320,192,96552,1,0,0:0:0:0:
192,192,96725,1,0,0:0:0:0:
320,192,96897,1,0,0:0:0:0:
448,192,96897,1,0,0:0:0:0:
192,192,97242,1,0,0:0:0:0:
320,192,97414,1,0,0:0:0:0:
448,192,97587,1,0,0:0:0:0:
64,192,97587,1,0,0:0:0:0:
192,192,97759,1,0,0:0:0:0:
64,192,97932,1,0,0:0:0:0:
448,192,98104,1,0,0:0:0:0:
192,192,98277,1,0,0:0:0:0:
320,192,98277,1,0,0:0:0:0:
64,192,98449,1,0,0:0:0:0:
320,192,98621,1,0,0:0:0:0:
448,192,98621,1,0,0:0:0:0:
192,192,98794,1,0,0:0:0:0:
64,192,98966,1,0,0:0:0:0:
448,192,98966,1,0,0:0:0:0:
320,192,99139,1,0,0:0:0:0:
64,192,99311,1,0,0:0:0:0:
192,192,99483,1,0,0:0:0:0:
448,192,99656,1,0,0:0:0:0:
320,192,99656,1,0,0:0:0:0:
192,192,100001,1,0,0:0:0:0:
320,192,100173,1,0,0:0:0:0:
448,192,100346,1,0,0:0:0:0:
64,192,100346,1,0,0:0:0:0:
320,192,100518,1,0,0:0:0:0:
192,192,100690,1,0,0:0:0:0:
448,192,100863,1,0,0:0:0:0:
320,192,101035,1,0,0:0:0:0:
64,192,101035,1,0,0:0:0:0:
192,192,101208,1,0,0:0:0:0:
448,192,101380,1,0,0:0:0:0:
64,192,101380,1,0,0:0:0:0:
320,192,101552,1,0,0:0:0:0:
192,192,101725,1,0,0:0:0:0:
448,192,101725,1,0,0:0:0:0:
64,192,101897,1,0,0:0:0:0:
448,192,102070,1,0,0:0:0:0:
320,192,102242,1,0,0:0:0:0:
192,192,102414,1,0,0:0:0:0:
64,192,102414,1,0,0:0:0:0:
320,192,102587,1,0,0:0:0:0:
448,192,102759,1,0,0:0:0:0:
192,192,102932,1,0,0:0:0:0:
320,192,103104,1,0,0:0:0:0:
64,192,103104,1,0,0:0:0:0:
448,192,103277,1,0,0:0:0:0:
192,192,103449,1,0,0:0:0:0:
320,192,103621,1,0,0:0:0:0:
448,192,103794,1,0,0:0:0:0:
64,192,103794,1,0,0:0:0:0:
192,192,103966,1,0,0:0:0:0:
320,192,104139,1,0,0:0:0:0:
448,192,104139,1,0,0:0:0:0:
192,192,104311,1,0,0:0:0:0:
64,192,104483,1,0,0:0:0:0:
448,192,104483,1,0,0:0:0:0:
320,192,104656,1,0,0:0:0:0:
192,192,104828,1,0,0:0:0:0:
320,192,105001,1,0,0:0:0:0:
448,192,105173,1,0,0:0:0:0:
192,192,105173,1,0,0:0:0:0:
64,192,105346,1,0,0:0:0:0:
320,192,105518,1,0,0:0:0:0:
448,192,105690,1,0,0:0:0:0:
64,192,105863,1,0,0:0:0:0:
192,192,105863,1,0,0:0:0:0:
320,192,106035,1,0,0:0:0:0:
192,192,106208,1,0,0:0:0:0:
448,192,106380,1,0,0:0:0:0:
320,192,106552,1,0,0:0:0:0:
64,192,106552,1,0,0:0:0:0:
192,192,106725,1,0,0:0:0:0:
64,192,106897,1,0,0:0:0:0:
448,192,106897,1,0,0:0:0:0:
320,192,107070,1,0,0:0:0:0:
192,192,107242,1,0,0:0:0:0:
448,192,107242,1,0,0:0:0:0:
64,192,107414,1,0,0:0:0:0:
320,192,107587,1,0,0:0:0:0:
192,192,107759,1,0,0:0:0:0:
320,192,107932,1,0,0:0:0:0:
64,192,107932,1,0,0:0:0:0:
448,192,108104,1,0,0:0:0:0:
64,192,108277,1,0,0:0:0:0:
192,192,108277,1,0,0:0:0:0:
320,192,108449,1,0,0:0:0:0:
192,192,108621,5,0,0:0:0:0:
448,192,108621,1,0,0:0:0:0:
64,192,108794,1,0,0:0:0:0:
320,192,108966,1,0,0:0:0:0:
448,192,108966,1,0,0:0:0:0:
192,192,109139,1,0,0:0:0:0:
320,192,109311,1,0,0:0:0:0:
64,192,109311,1,0,0:0:0:0:
448,192,109483,1,0,0:0:0:0:
64,192,109656,5,0,0:0:0:0:
192,192,109656,1,0,0:0:0:0:
320,192,110001,1,0,0:0:0:0:
192,192,110001,1,0,0:0:0:0:
320,192,110346,1,0,0:0:0:0:
448,192,110346,1,0,0:0:0:0:
64,192,110690,1,0,0:0:0:0:
448,192,110690,1,0,0:0:0:0:
320,192,110863,1,0,0:0:0:0:
64,192,111035,1,0,0:0:0:0:
192,192,111035,1,0,0:0:0:0:
320,192,111208,1,0,0:0:0:0:
192,192,111466,1,0,0:0:0:0:
320,192,111725,1,0,0:0:0:0:
192,192,111897,1,0,0:0:0:0:
64,192,112070,1,0,0:0:0:0:
448,192,112414,1,0,0:0:0:0:
64,192,112414,128,0,112932:0:0:0:0:
320,192,112759,1,0,0:0:0:0:
448,192,112759,1,0,0:0:0:0:
192,192,112932,128,0,113449:0:0:0:0:
448,192,113277,1,0,0:0:0:0:
320,192,113449,128,0,113966:0:0:0:0:
64,192,113449,1,0,0:0:0:0:
192,192,113794,1,0,0:0:0:0:
448,192,113966,128,0,114483:0:0:0:0:
192,192,114139,1,0,0:0:0:0:
64,192,114139,1,0,0:0:0:0:
64,192,114483,1,0,0:0:0:0:
320,192,114656,1,0,0:0:0:0:
192,192,114828,1,0,0:0:0:0:
448,192,114828,1,0,0:0:0:0:
64,192,115001,1,0,0:0:0:0:
448,192,115173,128,0,115690:0:0:0:0:
320,192,115173,1,0,0:0:0:0:
64,192,115518,1,0,0:0:0:0:
192,192,115518,1,0,0:0:0:0:
320,192,115690,128,0,116208:0:0:0:0:
64,192,116035,1,0,0:0:0:0:
192,192,116208,128,0,116725:0:0:0:0:
448,192,116208,1,0,0:0:0:0:
320,192,116552,1,0,0:0:0:0:
64,192,116725,128,0,117242:0:0:0:0:
448,192,116897,1,0,0:0:0:0:
320,192,116897,1,0,0:0:0:0:
448,192,117242,1,0,0:0:0:0:
192,192,117414,1,0,0:0:0:0:
320,192,117587,1,0,0:0:0:0:
64,192,117587,1,0,0:0:0:0:
448,192,117759,1,0,0:0:0:0:
192,192,117932,128,0,118449:0:0:0:0:
64,192,117932,1,0,0:0:0:0:
448,192,118277,1,0,0:0:0:0:
320,192,118277,1,0,0:0:0:0:
64,192,118449,128,0,118966:0:0:0:0:
448,192,118621,1,0,0:0:0:0:
192,192,118794,1,0,0:0:0:0:
448,192,118966,1,0,0:0:0:0:
320,192,118966,1,0,0:0:0:0:
64,192,119139,1,0,0:0:0:0:
448,192,119311,128,0,120001:0:0:0:0:
192,192,119311,1,0,0:0:0:0:
192,192,119656,1,0,0:0:0:0:
64,192,119656,1,0,0:0:0:0:
64,192,120001,128,0,120690:0:0:0:0:
192,192,120173,1,0,0:0:0:0:
320,192,120346,1,0,0:0:0:0:
448,192,120346,1,0,0:0:0:0:
192,192,120690,1,0,0:0:0:0:
320,192,120690,128,0,121380:0:0:0:0:
64,192,121035,1,0,0:0:0:0:
192,192,121035,1,0,0:0:0:0:
192,192,121380,128,0,122070:0:0:0:0:
64,192,121552,1,0,0:0:0:0:
448,192,121725,1,0,0:0:0:0:
320,192,121725,1,0,0:0:0:0:
448,192,122070,1,0,0:0:0:0:
64,192,122070,1,0,0:0:0:0:
448,192,122414,5,0,0:0:0:0:
192,192,122414,1,0,0:0:0:0:
320,192,122587,1,0,0:0:0:0:
192,192,122759,1,0,0:0:0:0:
320,192,122932,1,0,0:0:0:0:
448,192,123104,1,0,0:0:0:0:
64,192,123104,1,0,0:0:0:0:
192,192,123277,1,0,0:0:0:0:
448,192,123449,128,0,123966:0:0:0:0:
320,192,123449,1,0,0:0:0:0:
64,192,123794,1,0,0:0:0:0:
192,192,123794,1,0,0:0:0:0:
320,192,123966,128,0,124483:0:0:0:0:
64,192,124311,1,0,0:0:0:0:
192,192,124483,128,0,125001:0:0:0:0:
448,192,124483,1,0,0:0:0:0:
320,192,124828,1,0,0:0:0:0:
64,192,125001,128,0,125518:0:0:0:0:
320,192,125173,1,0,0:0:0:0:
448,192,125173,1,0,0:0:0:0:
320,192,125518,1,0,0:0:0:0:
192,192,125690,1,0,0:0:0:0:
448,192,125863,1,0,0:0:0:0:
64,192,125863,1,0,0:0:0:0:
320,192,126035,1,0,0:0:0:0:
64,192,126208,128,0,126725:0:0:0:0:
192,192,126208,1,0,0:0:0:0:
320,192,126552,1,0,0:0:0:0:
448,192,126552,1,0,0:0:0:0:
192,192,126725,128,0,127242:0:0:0:0:
320,192,127070,1,0,0:0:0:0:
448,192,127242,1,0,0:0:0:0:
64,192,127242,1,0,0:0:0:0:
320,192,127414,1,0,0:0:0:0:
64,192,127587,1,0,0:0:0:0:
192,192,127759,1,0,0:0:0:0:
320,192,127932,1,0,0:0:0:0:
448,192,127932,1,0,0:0:0:0:
320,192,128277,1,0,0:0:0:0:
192,192,128449,1,0,0:0:0:0:
448,192,128621,1,0,0:0:0:0:
64,192,128621,1,0,0:0:0:0:
320,192,128794,1,0,0:0:0:0:
192,192,128966,1,0,0:0:0:0:
64,192,128966,1,0,0:0:0:0:
64,192,129311,1,0,0:0:0:0:
448,192,129311,1,0,0:0:0:0:
192,192,129656,1,0,0:0:0:0:
320,192,129828,1,0,0:0:0:0:
448,192,130001,1,0,0:0:0:0:
64,192,130001,1,0,0:0:0:0:
192,192,130173,1,0,0:0:0:0:
320,192,130346,1,0,0:0:0:0:
448,192,130346,1,0,0:0:0:0:
64,192,130518,1,0,0:0:0:0:
320,192,130690,1,0,0:0:0:0:
192,192,130690,1,0,0:0:0:0:
448,192,131035,1,0,0:0:0:0:
64,192,131035,1,0,0:0:0:0:
192,192,131208,1,0,0:0:0:0:
320,192,131380,1,0,0:0:0:0:
192,192,131552,1,0,0:0:0:0:
448,192,131725,1,0,0:0:0:0:
64,192,131725,1,0,0:0:0:0:
448,192,132070,1,0,0:0:0:0:
64,192,132070,1,0,0:0:0:0:
64,192,132414,1,0,0:0:0:0:
448,192,132414,1,0,0:0:0:0:
64,192,132759,1,0,0:0:0:0:
448,192,132759,1,0,0:0:0:0:
192,192,132932,1,0,0:0:0:0:
320,192,133104,1,0,0:0:0:0:
448,192,133104,128,0,134139:0:0:0:0:
320,192,133794,128,0,134139:0:0:0:0:
64,192,134139,1,0,0:0:0:0:
448,192,134483,1,0,0:0:0:0:
64,192,134483,1,0,0:0:0:0:
