osu file format v14

[General]
AudioFilename: audio.mp3
AudioLeadIn: 0
PreviewTime: 112414
Countdown: 0
SampleSet: Normal
StackLeniency: 0.7
Mode: 3
LetterboxInBreaks: 0
SpecialStyle: 0
WidescreenStoryboard: 1

[Editor]
DistanceSpacing: 0.8
BeatDivisor: 4
GridSize: 8
TimelineZoom: 1.88

[Metadata]
Title:Eternal White
TitleUnicode:Eternal White
Artist:shimizushi
ArtistUnicode:shimizushi
Creator:Seiran-
Version:White | Hikari's Insane
Source:THE BMS OF FIGHTERS XVII -VISION THE RETRO FUTURE-
Tags:BOFXVII videogame YNCT.white-blue Nao_AnD E_AnD3 core artcore electronic instrumental Syadow- EGMAForever -H_i_k_a_r_i- _Hikari -Timerains-
BeatmapID:3525778
BeatmapSetID:1683685

[Difficulty]
HPDrainRate:8.3
CircleSize:4
OverallDifficulty:8.3
ApproachRate:5
SliderMultiplier:1.4
SliderTickRate:1

[Events]
//Background and Video events
0,0,"BG.png",0,0
//Break Periods
//Storyboard Layer 0 (Background)
//Storyboard Layer 1 (Fail)
//Storyboard Layer 2 (Pass)
//Storyboard Layer 3 (Foreground)
//Storyboard Layer 4 (Overlay)
//Storyboard Sound Samples

[TimingPoints]
2137,545.454545454546,4,1,1,40,1,0
2137,-63.2911392405063,4,1,1,40,0,0
34318,600,4,1,1,40,1,0
34318,-57.4712643678161,4,1,1,40,0,0
34618,666.666666666667,4,1,1,40,1,8
34618,-51.8134715025907,4,1,1,40,0,0
36284,705.882352941176,4,1,1,40,1,0
36284,-49.0196078431373,4,1,1,40,0,0
36989,857.142857142857,4,1,1,40,1,0
36989,-40.1606425702811,4,1,1,40,0,0
37417,1500,4,1,1,40,1,8
37417,-22.9885057471264,4,1,1,40,0,0
38917,3000,4,1,1,40,1,8
38917,-11.4942528735632,4,1,1,40,0,0
40043,344.827586206897,4,1,1,40,1,0
40043,-100,4,1,1,40,0,0
62111,705.882352941176,4,1,1,40,1,0
62111,-48.8507852763733,4,1,1,40,0,0
90346,344.827586206897,4,1,1,40,1,0
90346,-100,4,1,1,40,0,0
112414,-100,4,1,1,40,0,1
134483,705.882352941176,4,1,1,40,1,0
134483,-48.8507852763733,4,1,1,40,0,0

[HitObjects]
64,192,2137,5,0,0:0:0:0:
448,192,2137,1,0,0:0:0:0:
192,192,2409,1,0,0:0:0:0:
320,192,2682,1,0,0:0:0:0:
448,192,2955,1,0,0:0:0:0:
64,192,3227,1,0,0:0:0:0:
192,192,3500,1,0,0:0:0:0:
320,192,3773,1,0,0:0:0:0:
448,192,4046,1,0,0:0:0:0:
192,192,4318,1,0,0:0:0:0:
64,192,4318,1,0,0:0:0:0:
448,192,4591,1,0,0:0:0:0:
320,192,4864,1,0,0:0:0:0:
192,192,5137,1,0,0:0:0:0:
64,192,5409,1,0,0:0:0:0:
448,192,5409,1,0,0:0:0:0:
320,192,5682,1,0,0:0:0:0:
192,192,5955,1,0,0:0:0:0:
64,192,6227,1,0,0:0:0:0:
320,192,6500,1,0,0:0:0:0:
192,192,6500,1,0,0:0:0:0:
64,192,6773,1,0,0:0:0:0:
320,192,7046,1,0,0:0:0:0:
192,192,7318,1,0,0:0:0:0:
448,192,7557,1,0,0:0:0:0:
64,192,7591,1,0,0:0:0:0:
320,192,7864,1,0,0:0:0:0:
192,192,8137,1,0,0:0:0:0:
448,192,8409,1,0,0:0:0:0:
448,192,8682,1,0,0:0:0:0:
192,192,8682,1,0,0:0:0:0:
320,192,8955,1,0,0:0:0:0:
64,192,9227,1,0,0:0:0:0:
448,192,9500,1,0,0:0:0:0:
64,192,9773,1,0,0:0:0:0:
320,192,9773,1,0,0:0:0:0:
192,192,10046,1,0,0:0:0:0:
448,192,10318,1,0,0:0:0:0:
320,192,10318,1,0,0:0:0:0:
64,192,10591,1,0,0:0:0:0:
192,192,10864,1,0,0:0:0:0:
320,192,10864,1,0,0:0:0:0:
64,192,11137,1,0,0:0:0:0:
320,192,11409,1,0,0:0:0:0:
448,192,11682,1,0,0:0:0:0:
192,192,11682,1,0,0:0:0:0:
320,192,11955,1,0,0:0:0:0:
64,192,12227,1,0,0:0:0:0:
448,192,12500,1,0,0:0:0:0:
192,192,12500,1,0,0:0:0:0:
64,192,12773,1,0,0:0:0:0:
320,192,12773,1,0,0:0:0:0:
64,192,13046,1,0,0:0:0:0:
192,192,13046,1,0,0:0:0:0:
320,192,13318,1,0,0:0:0:0:
64,192,13591,1,0,0:0:0:0:
448,192,13864,1,0,0:0:0:0:
320,192,14137,1,0,0:0:0:0:
64,192,14137,1,0,0:0:0:0:
192,192,14409,1,0,0:0:0:0:
448,192,14682,1,0,0:0:0:0:
64,192,14955,1,0,0:0:0:0:
448,192,15227,1,0,0:0:0:0:
192,192,15227,1,0,0:0:0:0:
64,192,15500,1,0,0:0:0:0:
320,192,15773,1,0,0:0:0:0:
448,192,16046,1,0,0:0:0:0:
192,192,16318,1,0,0:0:0:0:
320,192,16591,1,0,0:0:0:0:
192,192,16864,1,0,0:0:0:0:
64,192,17137,1,0,0:0:0:0:
448,192,17409,1,0,0:0:0:0:
320,192,17409,1,0,0:0:0:0:
192,192,17682,1,0,0:0:0:0:
320,192,17955,1,0,0:0:0:0:
448,192,18227,1,0,0:0:0:0:
64,192,18500,1,0,0:0:0:0:
320,192,18500,1,0,0:0:0:0:
448,192,18773,1,0,0:0:0:0:
192,192,18773,1,0,0:0:0:0:
64,192,19046,1,0,0:0:0:0:
192,192,19046,1,0,0:0:0:0:
320,192,19318,1,0,0:0:0:0:
448,192,19318,1,0,0:0:0:0:
64,192,19591,1,0,0:0:0:0:
448,192,19591,1,0,0:0:0:0:
320,192,19864,1,0,0:0:0:0:
192,192,20137,1,0,0:0:0:0:
320,192,20409,1,0,0:0:0:0:
64,192,20409,1,0,0:0:0:0:
448,192,20682,1,0,0:0:0:0:
192,192,20955,1,0,0:0:0:0:
320,192,21227,1,0,0:0:0:0:
448,192,21227,1,0,0:0:0:0:
192,192,21500,1,0,0:0:0:0:
64,192,21500,1,0,0:0:0:0:
448,192,21773,1,0,0:0:0:0:
64,192,21773,1,0,0:0:0:0:
320,192,22046,1,0,0:0:0:0:
448,192,22318,1,0,0:0:0:0:
192,192,22318,1,0,0:0:0:0:
64,192,22591,1,0,0:0:0:0:
320,192,22864,1,0,0:0:0:0:
448,192,22864,1,0,0:0:0:0:
192,192,23137,1,0,0:0:0:0:
64,192,23137,1,0,0:0:0:0:
448,192,23409,1,0,0:0:0:0:
320,192,23682,1,0,0:0:0:0:
192,192,23955,1,0,0:0:0:0:
64,192,23955,1,0,0:0:0:0:
320,192,24227,1,0,0:0:0:0:
448,192,24500,1,0,0:0:0:0:
64,192,24500,1,0,0:0:0:0:
64,192,24773,1,0,0:0:0:0:
448,192,24773,1,0,0:0:0:0:
320,192,25046,1,0,0:0:0:0:
64,192,25318,1,0,0:0:0:0:
448,192,25591,1,0,0:0:0:0:
192,192,25591,1,0,0:0:0:0:
320,192,25864,1,0,0:0:0:0:
64,192,25864,1,0,0:0:0:0:
192,192,26137,1,0,0:0:0:0:
64,192,26137,1,0,0:0:0:0:
320,192,26409,1,0,0:0:0:0:
64,192,26682,1,0,0:0:0:0:
448,192,26955,1,0,0:0:0:0:
320,192,27227,1,0,0:0:0:0:
64,192,27227,1,0,0:0:0:0:
192,192,27500,1,0,0:0:0:0:
448,192,27773,1,0,0:0:0:0:
320,192,27773,1,0,0:0:0:0:
64,192,28046,1,0,0:0:0:0:
192,192,28318,1,0,0:0:0:0:
448,192,28318,1,0,0:0:0:0:
320,192,28591,1,0,0:0:0:0:
64,192,28864,1,0,0:0:0:0:
192,192,29137,1,0,0:0:0:0:
448,192,29409,1,0,0:0:0:0:
320,192,29682,1,0,0:0:0:0:
192,192,29955,1,0,0:0:0:0:
64,192,29955,1,0,0:0:0:0:
320,192,30227,1,0,0:0:0:0:
448,192,30227,1,0,0:0:0:0:
64,192,30500,1,0,0:0:0:0:
448,192,30500,1,0,0:0:0:0:
192,192,30773,1,0,0:0:0:0:
320,192,31046,1,0,0:0:0:0:
448,192,31318,1,0,0:0:0:0:
320,192,31591,1,0,0:0:0:0:
64,192,31591,1,0,0:0:0:0:
192,192,31864,1,0,0:0:0:0:
448,192,32137,1,0,0:0:0:0:
64,192,32409,1,0,0:0:0:0:
192,192,32682,1,0,0:0:0:0:
448,192,32682,1,0,0:0:0:0:
64,192,32955,1,0,0:0:0:0:
320,192,33227,1,0,0:0:0:0:
192,192,33500,1,0,0:0:0:0:
448,192,33773,1,0,0:0:0:0:
64,192,34046,1,0,0:0:0:0:
320,192,34318,1,0,0:0:0:0:
192,192,34618,1,0,0:0:0:0:
448,192,34868,1,0,0:0:0:0:
320,192,34909,1,0,0:0:0:0:
192,192,34951,1,0,0:0:0:0:
64,192,34993,1,0,0:0:0:0:
448,192,35284,1,0,0:0:0:0:
192,192,35618,1,0,0:0:0:0:
320,192,35951,1,0,0:0:0:0:
448,192,36284,1,0,0:0:0:0:
64,192,36284,1,0,0:0:0:0:
320,192,36636,1,0,0:0:0:0:
192,192,36989,1,0,0:0:0:0:
64,192,37417,1,0,0:0:0:0:
320,192,40043,1,0,0:0:0:0:
448,192,40043,1,0,0:0:0:0:
192,192,40043,1,0,0:0:0:0:
64,192,40215,1,0,0:0:0:0:
448,192,40387,1,0,0:0:0:0:
64,192,40387,1,0,0:0:0:0:
192,192,40387,1,0,0:0:0:0:
320,192,40560,1,0,0:0:0:0:
192,192,40732,1,0,0:0:0:0:
64,192,40905,1,0,0:0:0:0:
320,192,40905,1,0,0:0:0:0:
320,192,41077,1,0,0:0:0:0:
448,192,41077,1,0,0:0:0:0:
192,192,41077,1,0,0:0:0:0:
64,192,41249,1,0,0:0:0:0:
448,192,41422,1,0,0:0:0:0:
320,192,41422,1,0,0:0:0:0:
192,192,41594,1,0,0:0:0:0:
64,192,41767,1,0,0:0:0:0:
448,192,41767,1,0,0:0:0:0:
320,192,41767,1,0,0:0:0:0:
192,192,41939,1,0,0:0:0:0:
448,192,42111,1,0,0:0:0:0:
64,192,42284,1,0,0:0:0:0:
320,192,42284,1,0,0:0:0:0:
64,192,42456,1,0,0:0:0:0:
192,192,42456,1,0,0:0:0:0:
448,192,42456,1,0,0:0:0:0:
320,192,42629,1,0,0:0:0:0:
448,192,42801,1,0,0:0:0:0:
64,192,42801,1,0,0:0:0:0:
192,192,42974,1,0,0:0:0:0:
320,192,43146,1,0,0:0:0:0:
448,192,43146,1,0,0:0:0:0:
64,192,43146,1,0,0:0:0:0:
192,192,43318,1,0,0:0:0:0:
64,192,43491,1,0,0:0:0:0:
320,192,43663,1,0,0:0:0:0:
448,192,43663,1,0,0:0:0:0:
64,192,43836,1,0,0:0:0:0:
192,192,43836,1,0,0:0:0:0:
448,192,43836,1,0,0:0:0:0:
320,192,44008,1,0,0:0:0:0:
448,192,44180,1,0,0:0:0:0:
192,192,44180,1,0,0:0:0:0:
64,192,44353,1,0,0:0:0:0:
320,192,44525,1,0,0:0:0:0:
192,192,44525,1,0,0:0:0:0:
448,192,44525,1,0,0:0:0:0:
64,192,44698,1,0,0:0:0:0:
448,192,44870,1,0,0:0:0:0:
64,192,45043,1,0,0:0:0:0:
192,192,45043,1,0,0:0:0:0:
64,192,45215,1,0,0:0:0:0:
320,192,45215,1,0,0:0:0:0:
448,192,45215,1,0,0:0:0:0:
192,192,45387,1,0,0:0:0:0:
448,192,45560,1,0,0:0:0:0:
320,192,45560,1,0,0:0:0:0:
192,192,45732,1,0,0:0:0:0:
320,192,45905,1,0,0:0:0:0:
448,192,45905,1,0,0:0:0:0:
64,192,45905,128,0,46077:0:0:0:0:
192,192,46077,128,0,46249:0:0:0:0:
64,192,46249,128,0,46422:0:0:0:0:
448,192,46422,128,0,46594:0:0:0:0:
192,192,46422,1,0,0:0:0:0:
320,192,46594,128,0,46767:0:0:0:0:
64,192,46594,1,0,0:0:0:0:
192,192,46594,1,0,0:0:0:0:
448,192,46767,128,0,46939:0:0:0:0:
64,192,46939,128,0,47629:0:0:0:0:
192,192,46939,1,0,0:0:0:0:
320,192,47111,1,0,0:0:0:0:
192,192,47284,1,0,0:0:0:0:
448,192,47284,1,0,0:0:0:0:
320,192,47456,1,0,0:0:0:0:
448,192,47629,128,0,48318:0:0:0:0:
64,192,47801,1,0,0:0:0:0:
192,192,47801,1,0,0:0:0:0:
192,192,47974,1,0,0:0:0:0:
320,192,47974,1,0,0:0:0:0:
64,192,48146,1,0,0:0:0:0:
320,192,48318,1,0,0:0:0:0:
192,192,48318,128,0,49180:0:0:0:0:
448,192,48491,1,0,0:0:0:0:
64,192,48663,1,0,0:0:0:0:
320,192,48663,1,0,0:0:0:0:
448,192,48836,1,0,0:0:0:0:
64,192,49008,1,0,0:0:0:0:
320,192,49180,1,0,0:0:0:0:
448,192,49180,128,0,49353:0:0:0:0:
192,192,49353,128,0,49525:0:0:0:0:
64,192,49353,1,0,0:0:0:0:
320,192,49353,1,0,0:0:0:0:
448,192,49525,128,0,49698:0:0:0:0:
64,192,49698,128,0,49870:0:0:0:0:
320,192,49698,1,0,0:0:0:0:
192,192,49870,1,0,0:0:0:0:
448,192,50043,128,0,50215:0:0:0:0:
64,192,50043,1,0,0:0:0:0:
320,192,50043,1,0,0:0:0:0:
192,192,50215,1,0,0:0:0:0:
320,192,50387,128,0,50560:0:0:0:0:
192,192,50560,128,0,50732:0:0:0:0:
448,192,50560,1,0,0:0:0:0:
320,192,50732,1,0,0:0:0:0:
448,192,50732,1,0,0:0:0:0:
64,192,50732,1,0,0:0:0:0:
192,192,50818,1,0,0:0:0:0:
320,192,50905,1,0,0:0:0:0:
192,192,50991,1,0,0:0:0:0:
64,192,51077,1,0,0:0:0:0:
448,192,51077,1,0,0:0:0:0:
320,192,51077,1,0,0:0:0:0:
192,192,51249,1,0,0:0:0:0:
64,192,51422,1,0,0:0:0:0:
320,192,51422,1,0,0:0:0:0:
192,192,51422,1,0,0:0:0:0:
448,192,51594,1,0,0:0:0:0:
64,192,51767,1,0,0:0:0:0:
192,192,51939,1,0,0:0:0:0:
320,192,51939,1,0,0:0:0:0:
64,192,52111,1,0,0:0:0:0:
320,192,52111,1,0,0:0:0:0:
448,192,52111,1,0,0:0:0:0:
192,192,52284,1,0,0:0:0:0:
448,192,52456,1,0,0:0:0:0:
320,192,52456,1,0,0:0:0:0:
64,192,52629,1,0,0:0:0:0:
192,192,52801,1,0,0:0:0:0:
448,192,52801,1,0,0:0:0:0:
320,192,52801,1,0,0:0:0:0:
64,192,52974,1,0,0:0:0:0:
448,192,53146,1,0,0:0:0:0:
320,192,53318,1,0,0:0:0:0:
192,192,53318,1,0,0:0:0:0:
64,192,53491,1,0,0:0:0:0:
192,192,53491,1,0,0:0:0:0:
448,192,53491,1,0,0:0:0:0:
320,192,53663,1,0,0:0:0:0:
64,192,53836,1,0,0:0:0:0:
192,192,53836,1,0,0:0:0:0:
448,192,54008,1,0,0:0:0:0:
64,192,54180,1,0,0:0:0:0:
192,192,54180,1,0,0:0:0:0:
320,192,54180,1,0,0:0:0:0:
448,192,54353,1,0,0:0:0:0:
192,192,54525,1,0,0:0:0:0:
320,192,54698,1,0,0:0:0:0:
64,192,54698,1,0,0:0:0:0:
192,192,54870,1,0,0:0:0:0:
320,192,54870,1,0,0:0:0:0:
448,192,54870,1,0,0:0:0:0:
64,192,55043,1,0,0:0:0:0:
320,192,55215,1,0,0:0:0:0:
192,192,55215,1,0,0:0:0:0:
448,192,55387,1,0,0:0:0:0:
192,192,55560,1,0,0:0:0:0:
320,192,55560,1,0,0:0:0:0:
64,192,55560,1,0,0:0:0:0:
448,192,55732,1,0,0:0:0:0:
64,192,55905,1,0,0:0:0:0:
192,192,56077,1,0,0:0:0:0:
448,192,56077,1,0,0:0:0:0:
64,192,56249,1,0,0:0:0:0:
192,192,56249,1,0,0:0:0:0:
320,192,56249,1,0,0:0:0:0:
448,192,56422,1,0,0:0:0:0:
64,192,56594,1,0,0:0:0:0:
320,192,56594,1,0,0:0:0:0:
192,192,56767,1,0,0:0:0:0:
448,192,56939,128,0,57111:0:0:0:0:
64,192,56939,1,0,0:0:0:0:
320,192,56939,1,0,0:0:0:0:
192,192,57111,128,0,57284:0:0:0:0:
448,192,57284,128,0,57456:0:0:0:0:
64,192,57456,128,0,57629:0:0:0:0:
320,192,57456,1,0,0:0:0:0:
320,192,57629,128,0,57801:0:0:0:0:
448,192,57629,1,0,0:0:0:0:
192,192,57629,1,0,0:0:0:0:
64,192,57801,128,0,57974:0:0:0:0:
192,192,57974,128,0,58663:0:0:0:0:
448,192,57974,1,0,0:0:0:0:
320,192,58146,1,0,0:0:0:0:
64,192,58318,1,0,0:0:0:0:
448,192,58318,1,0,0:0:0:0:
320,192,58491,1,0,0:0:0:0:
448,192,58663,128,0,59353:0:0:0:0:
64,192,58836,1,0,0:0:0:0:
192,192,58836,1,0,0:0:0:0:
192,192,59008,1,0,0:0:0:0:
320,192,59008,1,0,0:0:0:0:
64,192,59180,1,0,0:0:0:0:
192,192,59353,1,0,0:0:0:0:
320,192,59353,1,0,0:0:0:0:
448,192,59525,1,0,0:0:0:0:
64,192,59698,128,0,59870:0:0:0:0:
320,192,59698,1,0,0:0:0:0:
448,192,59698,1,0,0:0:0:0:
192,192,59870,128,0,60043:0:0:0:0:
448,192,60043,128,0,60215:0:0:0:0:
320,192,60215,128,0,60387:0:0:0:0:
64,192,60215,1,0,0:0:0:0:
64,192,60387,128,0,60560:0:0:0:0:
448,192,60387,1,0,0:0:0:0:
192,192,60387,1,0,0:0:0:0:
320,192,60560,128,0,60732:0:0:0:0:
448,192,60732,1,0,0:0:0:0:
64,192,60732,1,0,0:0:0:0:
192,192,60818,1,0,0:0:0:0:
448,192,60905,1,0,0:0:0:0:
320,192,60948,1,0,0:0:0:0:
192,192,60991,1,0,0:0:0:0:
64,192,61034,1,0,0:0:0:0:
64,192,61249,1,0,0:0:0:0:
192,192,61293,1,0,0:0:0:0:
320,192,61336,1,0,0:0:0:0:
448,192,61379,1,0,0:0:0:0:
448,192,61508,1,0,0:0:0:0:
320,192,61551,1,0,0:0:0:0:
192,192,61594,1,0,0:0:0:0:
64,192,61637,1,0,0:0:0:0:
448,192,61680,1,0,0:0:0:0:
320,192,61724,1,0,0:0:0:0:
192,192,61767,1,0,0:0:0:0:
64,192,61767,1,0,0:0:0:0:
320,192,61853,1,0,0:0:0:0:
448,192,61896,1,0,0:0:0:0:
64,192,61939,1,0,0:0:0:0:
192,192,61982,1,0,0:0:0:0:
320,192,62025,1,0,0:0:0:0:
448,192,62068,1,0,0:0:0:0:
192,192,62111,1,0,0:0:0:0:
64,192,62111,128,0,64228:0:0:0:0:
320,192,62287,1,0,0:0:0:0:
448,192,62463,1,0,0:0:0:0:
192,192,62640,1,0,0:0:0:0:
448,192,62816,1,0,0:0:0:0:
320,192,62993,1,0,0:0:0:0:
192,192,63169,1,0,0:0:0:0:
448,192,63346,1,0,0:0:0:0:
192,192,63522,1,0,0:0:0:0:
320,192,63699,1,0,0:0:0:0:
448,192,63875,1,0,0:0:0:0:
192,192,64052,1,0,0:0:0:0:
320,192,64228,1,0,0:0:0:0:
448,192,64228,128,0,64934:0:0:0:0:
192,192,64405,1,0,0:0:0:0:
64,192,64581,1,0,0:0:0:0:
320,192,64758,1,0,0:0:0:0:
192,192,64934,128,0,66346:0:0:0:0:
64,192,64934,1,0,0:0:0:0:
448,192,65111,1,0,0:0:0:0:
320,192,65287,1,0,0:0:0:0:
64,192,65463,1,0,0:0:0:0:
448,192,65640,1,0,0:0:0:0:
64,192,65816,1,0,0:0:0:0:
320,192,65993,1,0,0:0:0:0:
448,192,66169,1,0,0:0:0:0:
64,192,66346,128,0,67758:0:0:0:0:
320,192,66346,1,0,0:0:0:0:
448,192,66522,1,0,0:0:0:0:
192,192,66699,1,0,0:0:0:0:
320,192,66875,1,0,0:0:0:0:
448,192,67052,1,0,0:0:0:0:
320,192,67228,1,0,0:0:0:0:
192,192,67405,1,0,0:0:0:0:
448,192,67581,1,0,0:0:0:0:
320,192,67758,128,0,70581:0:0:0:0:
192,192,67758,1,0,0:0:0:0:
64,192,67934,1,0,0:0:0:0:
192,192,68111,1,0,0:0:0:0:
448,192,68287,1,0,0:0:0:0:
64,192,68463,1,0,0:0:0:0:
192,192,68640,1,0,0:0:0:0:
64,192,68816,1,0,0:0:0:0:
448,192,68993,1,0,0:0:0:0:
64,192,69169,1,0,0:0:0:0:
448,192,69346,1,0,0:0:0:0:
64,192,69522,1,0,0:0:0:0:
192,192,69699,1,0,0:0:0:0:
448,192,69875,1,0,0:0:0:0:
64,192,70052,1,0,0:0:0:0:
192,192,70228,1,0,0:0:0:0:
64,192,70405,1,0,0:0:0:0:
448,192,70581,128,0,72699:0:0:0:0:
192,192,70581,1,0,0:0:0:0:
320,192,70758,1,0,0:0:0:0:
64,192,70934,1,0,0:0:0:0:
192,192,71111,1,0,0:0:0:0:
320,192,71287,1,0,0:0:0:0:
64,192,71463,1,0,0:0:0:0:
320,192,71640,1,0,0:0:0:0:
192,192,71816,1,0,0:0:0:0:
64,192,71993,1,0,0:0:0:0:
320,192,72169,1,0,0:0:0:0:
64,192,72346,1,0,0:0:0:0:
320,192,72522,1,0,0:0:0:0:
192,192,72699,1,0,0:0:0:0:
64,192,72699,1,0,0:0:0:0:
64,192,72875,1,0,0:0:0:0:
320,192,72875,1,0,0:0:0:0:
448,192,72875,1,0,0:0:0:0:
192,192,73052,1,0,0:0:0:0:
64,192,73052,1,0,0:0:0:0:
448,192,73052,1,0,0:0:0:0:
64,192,73228,1,0,0:0:0:0:
320,192,73228,1,0,0:0:0:0:
448,192,73228,1,0,0:0:0:0:
64,192,73405,1,0,0:0:0:0:
192,192,73405,1,0,0:0:0:0:
320,192,73405,1,0,0:0:0:0:
448,192,73405,1,0,0:0:0:0:
192,192,73581,1,0,0:0:0:0:
320,192,73758,1,0,0:0:0:0:
448,192,73758,1,0,0:0:0:0:
192,192,73934,1,0,0:0:0:0:
64,192,74111,1,0,0:0:0:0:
320,192,74111,1,0,0:0:0:0:
448,192,74111,1,0,0:0:0:0:
192,192,74287,1,0,0:0:0:0:
448,192,74463,1,0,0:0:0:0:
320,192,74640,1,0,0:0:0:0:
448,192,74816,1,0,0:0:0:0:
64,192,74993,1,0,0:0:0:0:
192,192,74993,1,0,0:0:0:0:
320,192,75169,1,0,0:0:0:0:
448,192,75169,1,0,0:0:0:0:
64,192,75346,1,0,0:0:0:0:
192,192,75522,1,0,0:0:0:0:
320,192,75522,1,0,0:0:0:0:
448,192,75522,1,0,0:0:0:0:
64,192,75699,1,0,0:0:0:0:
448,192,75875,1,0,0:0:0:0:
192,192,76052,1,0,0:0:0:0:
320,192,76228,1,0,0:0:0:0:
448,192,76228,1,0,0:0:0:0:
64,192,76405,1,0,0:0:0:0:
192,192,76581,1,0,0:0:0:0:
448,192,76581,1,0,0:0:0:0:
320,192,76758,1,0,0:0:0:0:
64,192,76934,1,0,0:0:0:0:
192,192,76934,1,0,0:0:0:0:
448,192,76934,1,0,0:0:0:0:
320,192,77110,1,0,0:0:0:0:
192,192,77287,1,0,0:0:0:0:
64,192,77463,1,0,0:0:0:0:
320,192,77463,1,0,0:0:0:0:
448,192,77463,1,0,0:0:0:0:
192,192,77640,1,0,0:0:0:0:
320,192,77816,1,0,0:0:0:0:
448,192,77816,1,0,0:0:0:0:
64,192,77816,1,0,0:0:0:0:
448,192,77993,1,0,0:0:0:0:
192,192,77993,1,0,0:0:0:0:
320,192,78169,1,0,0:0:0:0:
64,192,78346,1,0,0:0:0:0:
192,192,78346,1,0,0:0:0:0:
448,192,78346,1,0,0:0:0:0:
320,192,78522,1,0,0:0:0:0:
64,192,78699,1,0,0:0:0:0:
192,192,78743,1,0,0:0:0:0:
448,192,78787,1,0,0:0:0:0:
320,192,78831,1,0,0:0:0:0:
64,192,78875,1,0,0:0:0:0:
192,192,78919,1,0,0:0:0:0:
448,192,78963,1,0,0:0:0:0:
320,192,79008,1,0,0:0:0:0:
192,192,79052,1,0,0:0:0:0:
64,192,79052,1,0,0:0:0:0:
320,192,79228,1,0,0:0:0:0:
64,192,79405,1,0,0:0:0:0:
448,192,79405,1,0,0:0:0:0:
192,192,79581,1,0,0:0:0:0:
320,192,79758,1,0,0:0:0:0:
448,192,79758,1,0,0:0:0:0:
64,192,79758,1,0,0:0:0:0:
192,192,79934,1,0,0:0:0:0:
448,192,80110,1,0,0:0:0:0:
320,192,80287,1,0,0:0:0:0:
448,192,80463,1,0,0:0:0:0:
64,192,80640,1,0,0:0:0:0:
320,192,80640,1,0,0:0:0:0:
192,192,80816,1,0,0:0:0:0:
448,192,80816,1,0,0:0:0:0:
64,192,80993,1,0,0:0:0:0:
192,192,81169,1,0,0:0:0:0:
320,192,81169,1,0,0:0:0:0:
448,192,81169,1,0,0:0:0:0:
64,192,81346,1,0,0:0:0:0:
320,192,81522,1,0,0:0:0:0:
192,192,81699,1,0,0:0:0:0:
448,192,81875,1,0,0:0:0:0:
64,192,81875,1,0,0:0:0:0:
320,192,82052,1,0,0:0:0:0:
192,192,82228,1,0,0:0:0:0:
448,192,82228,1,0,0:0:0:0:
320,192,82405,1,0,0:0:0:0:
192,192,82581,1,0,0:0:0:0:
64,192,82581,1,0,0:0:0:0:
448,192,82581,1,0,0:0:0:0:
320,192,82758,1,0,0:0:0:0:
64,192,82934,1,0,0:0:0:0:
192,192,83110,1,0,0:0:0:0:
320,192,83110,1,0,0:0:0:0:
448,192,83110,1,0,0:0:0:0:
64,192,83287,1,0,0:0:0:0:
192,192,83463,1,0,0:0:0:0:
320,192,83463,1,0,0:0:0:0:
448,192,83463,1,0,0:0:0:0:
64,192,83640,1,0,0:0:0:0:
320,192,83640,1,0,0:0:0:0:
448,192,83816,1,0,0:0:0:0:
64,192,83993,1,0,0:0:0:0:
192,192,83993,1,0,0:0:0:0:
64,192,84169,1,0,0:0:0:0:
320,192,84169,1,0,0:0:0:0:
448,192,84169,1,0,0:0:0:0:
448,192,84346,1,0,0:0:0:0:
192,192,84346,1,0,0:0:0:0:
64,192,84346,1,0,0:0:0:0:
64,192,84522,1,0,0:0:0:0:
320,192,84522,1,0,0:0:0:0:
448,192,84522,1,0,0:0:0:0:
64,192,84699,1,0,0:0:0:0:
192,192,84699,1,0,0:0:0:0:
448,192,84699,1,0,0:0:0:0:
320,192,84875,1,0,0:0:0:0:
64,192,85052,1,0,0:0:0:0:
192,192,85228,1,0,0:0:0:0:
64,192,85405,1,0,0:0:0:0:
448,192,85581,1,0,0:0:0:0:
320,192,85758,1,0,0:0:0:0:
192,192,85934,1,0,0:0:0:0:
448,192,86110,1,0,0:0:0:0:
64,192,86287,1,0,0:0:0:0:
192,192,86463,1,0,0:0:0:0:
320,192,86640,1,0,0:0:0:0:
64,192,86816,1,0,0:0:0:0:
448,192,86993,1,0,0:0:0:0:
320,192,87169,1,0,0:0:0:0:
192,192,87346,1,0,0:0:0:0:
448,192,87522,1,0,0:0:0:0:
192,192,87699,1,0,0:0:0:0:
320,192,87875,1,0,0:0:0:0:
448,192,88052,1,0,0:0:0:0:
64,192,88228,1,0,0:0:0:0:
320,192,88405,1,0,0:0:0:0:
192,192,88581,1,0,0:0:0:0:
64,192,88758,1,0,0:0:0:0:
448,192,88934,1,0,0:0:0:0:
192,192,89110,1,0,0:0:0:0:
320,192,89287,1,0,0:0:0:0:
448,192,89463,1,0,0:0:0:0:
64,192,89640,1,0,0:0:0:0:
448,192,89816,1,0,0:0:0:0:
320,192,89905,1,0,0:0:0:0:
64,192,89993,1,0,0:0:0:0:
448,192,89993,1,0,0:0:0:0:
192,192,89993,1,0,0:0:0:0:
64,192,90346,1,0,0:0:0:0:
320,192,90346,1,0,0:0:0:0:
448,192,90346,1,0,0:0:0:0:
192,192,90518,1,0,0:0:0:0:
64,192,90690,1,0,0:0:0:0:
448,192,90690,1,0,0:0:0:0:
192,192,90690,1,0,0:0:0:0:
320,192,90777,1,0,0:0:0:0:
192,192,91035,1,0,0:0:0:0:
64,192,91208,1,0,0:0:0:0:
448,192,91208,1,0,0:0:0:0:
192,192,91294,1,0,0:0:0:0:
320,192,91380,1,0,0:0:0:0:
448,192,91380,1,0,0:0:0:0:
64,192,91380,1,0,0:0:0:0:
192,192,91552,1,0,0:0:0:0:
320,192,91639,1,0,0:0:0:0:
64,192,91725,1,0,0:0:0:0:
448,192,91725,1,0,0:0:0:0:
192,192,91897,1,0,0:0:0:0:
448,192,92070,1,0,0:0:0:0:
64,192,92070,1,0,0:0:0:0:
320,192,92070,1,0,0:0:0:0:
192,192,92156,1,0,0:0:0:0:
320,192,92414,1,0,0:0:0:0:
448,192,92587,1,0,0:0:0:0:
64,192,92587,1,0,0:0:0:0:
320,192,92673,1,0,0:0:0:0:
192,192,92759,1,0,0:0:0:0:
64,192,92759,1,0,0:0:0:0:
448,192,92759,1,0,0:0:0:0:
320,192,92932,1,0,0:0:0:0:
192,192,93018,1,0,0:0:0:0:
320,192,93104,1,0,0:0:0:0:
448,192,93104,1,0,0:0:0:0:
64,192,93277,1,0,0:0:0:0:
448,192,93449,1,0,0:0:0:0:
192,192,93449,1,0,0:0:0:0:
320,192,93449,1,0,0:0:0:0:
64,192,93535,1,0,0:0:0:0:
192,192,93794,1,0,0:0:0:0:
320,192,93966,1,0,0:0:0:0:
448,192,93966,1,0,0:0:0:0:
64,192,94052,1,0,0:0:0:0:
320,192,94139,1,0,0:0:0:0:
448,192,94139,1,0,0:0:0:0:
192,192,94139,1,0,0:0:0:0:
64,192,94311,1,0,0:0:0:0:
448,192,94397,1,0,0:0:0:0:
320,192,94483,1,0,0:0:0:0:
192,192,94483,1,0,0:0:0:0:
448,192,94656,1,0,0:0:0:0:
64,192,94828,1,0,0:0:0:0:
320,192,94828,1,0,0:0:0:0:
192,192,94828,1,0,0:0:0:0:
448,192,94914,1,0,0:0:0:0:
320,192,95173,1,0,0:0:0:0:
192,192,95346,1,0,0:0:0:0:
64,192,95346,1,0,0:0:0:0:
448,192,95432,1,0,0:0:0:0:
320,192,95518,1,0,0:0:0:0:
192,192,95518,1,0,0:0:0:0:
64,192,95518,1,0,0:0:0:0:
448,192,95690,1,0,0:0:0:0:
320,192,95777,1,0,0:0:0:0:
192,192,95863,1,0,0:0:0:0:
64,192,95863,1,0,0:0:0:0:
320,192,96035,1,0,0:0:0:0:
64,192,96208,1,0,0:0:0:0:
192,192,96208,1,0,0:0:0:0:
448,192,96208,1,0,0:0:0:0:
320,192,96294,1,0,0:0:0:0:
192,192,96552,1,0,0:0:0:0:
448,192,96725,1,0,0:0:0:0:
64,192,96725,1,0,0:0:0:0:
320,192,96811,1,0,0:0:0:0:
192,192,96897,1,0,0:0:0:0:
64,192,96897,1,0,0:0:0:0:
448,192,96897,1,0,0:0:0:0:
320,192,97070,1,0,0:0:0:0:
448,192,97156,1,0,0:0:0:0:
192,192,97242,1,0,0:0:0:0:
64,192,97242,1,0,0:0:0:0:
448,192,97414,1,0,0:0:0:0:
320,192,97587,1,0,0:0:0:0:
192,192,97587,1,0,0:0:0:0:
64,192,97587,1,0,0:0:0:0:
448,192,97673,1,0,0:0:0:0:
64,192,97932,1,0,0:0:0:0:
448,192,98104,1,0,0:0:0:0:
320,192,98104,1,0,0:0:0:0:
192,192,98190,1,0,0:0:0:0:
64,192,98277,1,0,0:0:0:0:
320,192,98277,1,0,0:0:0:0:
448,192,98277,1,0,0:0:0:0:
192,192,98449,1,0,0:0:0:0:
64,192,98535,1,0,0:0:0:0:
320,192,98621,1,0,0:0:0:0:
448,192,98621,1,0,0:0:0:0:
64,192,98794,1,0,0:0:0:0:
192,192,98966,1,0,0:0:0:0:
320,192,98966,1,0,0:0:0:0:
448,192,98966,1,0,0:0:0:0:
64,192,99052,1,0,0:0:0:0:
192,192,99311,1,0,0:0:0:0:
64,192,99483,1,0,0:0:0:0:
320,192,99483,1,0,0:0:0:0:
192,192,99570,1,0,0:0:0:0:
64,192,99656,1,0,0:0:0:0:
320,192,99656,1,0,0:0:0:0:
448,192,99656,1,0,0:0:0:0:
192,192,99828,1,0,0:0:0:0:
448,192,99914,1,0,0:0:0:0:
64,192,100001,1,0,0:0:0:0:
320,192,100001,1,0,0:0:0:0:
448,192,100173,1,0,0:0:0:0:
64,192,100346,1,0,0:0:0:0:
192,192,100346,1,0,0:0:0:0:
320,192,100346,1,0,0:0:0:0:
448,192,100432,1,0,0:0:0:0:
64,192,100604,1,0,0:0:0:0:
320,192,100690,1,0,0:0:0:0:
192,192,100863,1,0,0:0:0:0:
448,192,100863,1,0,0:0:0:0:
320,192,100949,1,0,0:0:0:0:
64,192,101035,1,0,0:0:0:0:
192,192,101035,1,0,0:0:0:0:
448,192,101035,1,0,0:0:0:0:
320,192,101208,1,0,0:0:0:0:
64,192,101294,1,0,0:0:0:0:
192,192,101380,1,0,0:0:0:0:
320,192,101380,1,0,0:0:0:0:
448,192,101380,1,0,0:0:0:0:
64,192,101466,1,0,0:0:0:0:
448,192,101552,1,0,0:0:0:0:
192,192,101552,1,0,0:0:0:0:
64,192,101725,1,0,0:0:0:0:
192,192,101725,1,0,0:0:0:0:
320,192,101725,1,0,0:0:0:0:
448,192,101811,1,0,0:0:0:0:
64,192,101897,1,0,0:0:0:0:
320,192,101897,1,0,0:0:0:0:
448,192,102070,1,0,0:0:0:0:
192,192,102070,1,0,0:0:0:0:
64,192,102242,1,0,0:0:0:0:
192,192,102242,1,0,0:0:0:0:
448,192,102328,1,0,0:0:0:0:
320,192,102414,1,0,0:0:0:0:
192,192,102414,1,0,0:0:0:0:
64,192,102414,1,0,0:0:0:0:
448,192,102587,1,0,0:0:0:0:
320,192,102587,1,0,0:0:0:0:
192,192,102673,1,0,0:0:0:0:
64,192,102759,1,0,0:0:0:0:
320,192,102759,1,0,0:0:0:0:
192,192,102932,1,0,0:0:0:0:
448,192,102932,1,0,0:0:0:0:
320,192,103104,1,0,0:0:0:0:
448,192,103104,1,0,0:0:0:0:
64,192,103104,1,0,0:0:0:0:
192,192,103190,1,0,0:0:0:0:
320,192,103277,1,0,0:0:0:0:
64,192,103277,1,0,0:0:0:0:
192,192,103449,1,0,0:0:0:0:
448,192,103449,1,0,0:0:0:0:
320,192,103621,1,0,0:0:0:0:
448,192,103621,1,0,0:0:0:0:
64,192,103708,1,0,0:0:0:0:
192,192,103794,1,0,0:0:0:0:
448,192,103794,1,0,0:0:0:0:
320,192,103794,1,0,0:0:0:0:
192,192,103966,1,0,0:0:0:0:
64,192,103966,1,0,0:0:0:0:
448,192,104052,1,0,0:0:0:0:
320,192,104139,1,0,0:0:0:0:
64,192,104139,1,0,0:0:0:0:
192,192,104311,1,0,0:0:0:0:
448,192,104311,1,0,0:0:0:0:
64,192,104483,1,0,0:0:0:0:
320,192,104483,1,0,0:0:0:0:
448,192,104483,1,0,0:0:0:0:
192,192,104570,1,0,0:0:0:0:
64,192,104656,1,0,0:0:0:0:
320,192,104656,1,0,0:0:0:0:
448,192,104828,1,0,0:0:0:0:
192,192,104828,1,0,0:0:0:0:
64,192,105001,1,0,0:0:0:0:
192,192,105001,1,0,0:0:0:0:
320,192,105087,1,0,0:0:0:0:
64,192,105173,1,0,0:0:0:0:
192,192,105173,1,0,0:0:0:0:
448,192,105173,1,0,0:0:0:0:
320,192,105346,1,0,0:0:0:0:
448,192,105346,1,0,0:0:0:0:
192,192,105432,1,0,0:0:0:0:
64,192,105518,1,0,0:0:0:0:
448,192,105518,1,0,0:0:0:0:
320,192,105690,1,0,0:0:0:0:
192,192,105690,1,0,0:0:0:0:
448,192,105863,1,0,0:0:0:0:
192,192,105863,1,0,0:0:0:0:
64,192,105863,1,0,0:0:0:0:
320,192,105949,1,0,0:0:0:0:
64,192,106035,1,0,0:0:0:0:
448,192,106035,1,0,0:0:0:0:
192,192,106208,1,0,0:0:0:0:
320,192,106208,1,0,0:0:0:0:
448,192,106380,1,0,0:0:0:0:
320,192,106380,1,0,0:0:0:0:
192,192,106466,1,0,0:0:0:0:
64,192,106552,1,0,0:0:0:0:
320,192,106552,1,0,0:0:0:0:
448,192,106552,1,0,0:0:0:0:
64,192,106725,1,0,0:0:0:0:
192,192,106725,1,0,0:0:0:0:
448,192,106811,1,0,0:0:0:0:
192,192,106897,1,0,0:0:0:0:
64,192,106897,1,0,0:0:0:0:
320,192,106897,1,0,0:0:0:0:
448,192,107070,1,0,0:0:0:0:
320,192,107070,1,0,0:0:0:0:
64,192,107242,1,0,0:0:0:0:
192,192,107242,1,0,0:0:0:0:
320,192,107242,1,0,0:0:0:0:
448,192,107328,1,0,0:0:0:0:
64,192,107414,1,0,0:0:0:0:
192,192,107414,1,0,0:0:0:0:
192,192,107587,1,0,0:0:0:0:
320,192,107587,1,0,0:0:0:0:
448,192,107759,1,0,0:0:0:0:
64,192,107759,1,0,0:0:0:0:
320,192,107846,1,0,0:0:0:0:
192,192,107932,1,0,0:0:0:0:
64,192,107932,1,0,0:0:0:0:
448,192,107932,1,0,0:0:0:0:
320,192,108104,1,0,0:0:0:0:
192,192,108104,1,0,0:0:0:0:
64,192,108190,1,0,0:0:0:0:
192,192,108277,1,0,0:0:0:0:
448,192,108277,1,0,0:0:0:0:
320,192,108277,1,0,0:0:0:0:
64,192,108449,1,0,0:0:0:0:
448,192,108449,1,0,0:0:0:0:
320,192,108621,1,0,0:0:0:0:
192,192,108621,1,0,0:0:0:0:
64,192,108621,1,0,0:0:0:0:
448,192,108708,1,0,0:0:0:0:
192,192,108794,1,0,0:0:0:0:
64,192,108794,1,0,0:0:0:0:
448,192,108966,1,0,0:0:0:0:
320,192,108966,1,0,0:0:0:0:
192,192,108966,1,0,0:0:0:0:
320,192,109139,1,0,0:0:0:0:
64,192,109139,1,0,0:0:0:0:
192,192,109225,1,0,0:0:0:0:
64,192,109311,1,0,0:0:0:0:
320,192,109311,1,0,0:0:0:0:
448,192,109311,1,0,0:0:0:0:
192,192,109483,1,0,0:0:0:0:
64,192,109483,1,0,0:0:0:0:
320,192,109570,1,0,0:0:0:0:
448,192,109656,1,0,0:0:0:0:
64,192,109656,1,0,0:0:0:0:
192,192,109656,1,0,0:0:0:0:
320,192,109828,1,0,0:0:0:0:
192,192,109828,1,0,0:0:0:0:
448,192,110001,1,0,0:0:0:0:
64,192,110001,1,0,0:0:0:0:
320,192,110001,1,0,0:0:0:0:
192,192,110087,1,0,0:0:0:0:
320,192,110173,1,0,0:0:0:0:
64,192,110173,1,0,0:0:0:0:
64,192,110346,1,0,0:0:0:0:
320,192,110346,1,0,0:0:0:0:
448,192,110346,1,0,0:0:0:0:
64,192,110518,1,0,0:0:0:0:
448,192,110518,1,0,0:0:0:0:
192,192,110604,1,0,0:0:0:0:
320,192,110690,1,0,0:0:0:0:
448,192,110690,1,0,0:0:0:0:
64,192,110777,1,0,0:0:0:0:
192,192,110777,1,0,0:0:0:0:
320,192,110863,1,0,0:0:0:0:
448,192,110863,1,0,0:0:0:0:
192,192,110949,1,0,0:0:0:0:
320,192,111035,1,0,0:0:0:0:
448,192,111035,1,0,0:0:0:0:
64,192,111035,128,0,111897:0:0:0:0:
448,192,111208,128,0,111294:0:0:0:0:
192,192,111466,128,0,111552:0:0:0:0:
320,192,111725,128,0,111811:0:0:0:0:
448,192,111897,1,0,0:0:0:0:
192,192,111897,1,0,0:0:0:0:
320,192,111983,1,0,0:0:0:0:
64,192,112070,1,0,0:0:0:0:
192,192,112070,1,0,0:0:0:0:
448,192,112070,1,0,0:0:0:0:
320,192,112156,1,0,0:0:0:0:
64,192,112242,1,0,0:0:0:0:
192,192,112328,1,0,0:0:0:0:
448,192,112414,1,0,0:0:0:0:
320,192,112414,1,0,0:0:0:0:
64,192,112414,1,0,0:0:0:0:
192,192,112501,1,0,0:0:0:0:
448,192,112587,1,0,0:0:0:0:
320,192,112673,1,0,0:0:0:0:
192,192,112759,1,0,0:0:0:0:
64,192,112759,1,0,0:0:0:0:
448,192,112759,1,0,0:0:0:0:
320,192,112846,1,0,0:0:0:0:
64,192,112932,1,0,0:0:0:0:
192,192,113018,1,0,0:0:0:0:
448,192,113104,1,0,0:0:0:0:
320,192,113190,1,0,0:0:0:0:
192,192,113277,1,0,0:0:0:0:
64,192,113277,1,0,0:0:0:0:
448,192,113363,1,0,0:0:0:0:
320,192,113449,1,0,0:0:0:0:
192,192,113449,1,0,0:0:0:0:
64,192,113449,1,0,0:0:0:0:
448,192,113535,1,0,0:0:0:0:
320,192,113621,1,0,0:0:0:0:
192,192,113708,1,0,0:0:0:0:
64,192,113794,1,0,0:0:0:0:
448,192,113794,1,0,0:0:0:0:
320,192,113880,1,0,0:0:0:0:
192,192,113966,1,0,0:0:0:0:
320,192,114052,1,0,0:0:0:0:
64,192,114139,1,0,0:0:0:0:
448,192,114139,1,0,0:0:0:0:
192,192,114139,1,0,0:0:0:0:
320,192,114225,1,0,0:0:0:0:
448,192,114311,1,0,0:0:0:0:
64,192,114397,1,0,0:0:0:0:
320,192,114483,1,0,0:0:0:0:
192,192,114570,1,0,0:0:0:0:
64,192,114656,1,0,0:0:0:0:
448,192,114656,1,0,0:0:0:0:
192,192,114742,1,0,0:0:0:0:
320,192,114828,1,0,0:0:0:0:
448,192,114828,1,0,0:0:0:0:
64,192,114828,1,0,0:0:0:0:
192,192,114914,1,0,0:0:0:0:
320,192,115001,1,0,0:0:0:0:
64,192,115087,1,0,0:0:0:0:
192,192,115173,1,0,0:0:0:0:
448,192,115173,1,0,0:0:0:0:
320,192,115259,1,0,0:0:0:0:
192,192,115346,1,0,0:0:0:0:
448,192,115432,1,0,0:0:0:0:
64,192,115518,1,0,0:0:0:0:
320,192,115518,1,0,0:0:0:0:
192,192,115518,1,0,0:0:0:0:
448,192,115604,1,0,0:0:0:0:
64,192,115690,1,0,0:0:0:0:
320,192,115777,1,0,0:0:0:0:
192,192,115863,1,0,0:0:0:0:
448,192,115949,1,0,0:0:0:0:
320,192,116035,1,0,0:0:0:0:
64,192,116035,1,0,0:0:0:0:
192,192,116121,1,0,0:0:0:0:
64,192,116208,1,0,0:0:0:0:
320,192,116208,1,0,0:0:0:0:
448,192,116208,1,0,0:0:0:0:
192,192,116294,1,0,0:0:0:0:
448,192,116380,1,0,0:0:0:0:
64,192,116466,1,0,0:0:0:0:
320,192,116552,1,0,0:0:0:0:
192,192,116552,1,0,0:0:0:0:
448,192,116639,1,0,0:0:0:0:
64,192,116725,1,0,0:0:0:0:
192,192,116811,1,0,0:0:0:0:
320,192,116897,1,0,0:0:0:0:
448,192,116897,1,0,0:0:0:0:
64,192,116897,1,0,0:0:0:0:
192,192,116983,1,0,0:0:0:0:
448,192,117070,1,0,0:0:0:0:
320,192,117156,1,0,0:0:0:0:
192,192,117242,1,0,0:0:0:0:
320,192,117328,1,0,0:0:0:0:
64,192,117414,1,0,0:0:0:0:
448,192,117414,1,0,0:0:0:0:
192,192,117501,1,0,0:0:0:0:
448,192,117587,1,0,0:0:0:0:
320,192,117587,1,0,0:0:0:0:
64,192,117587,1,0,0:0:0:0:
192,192,117673,1,0,0:0:0:0:
448,192,117759,1,0,0:0:0:0:
320,192,117846,1,0,0:0:0:0:
192,192,117932,1,0,0:0:0:0:
64,192,117932,1,0,0:0:0:0:
448,192,118018,1,0,0:0:0:0:
64,192,118104,1,0,0:0:0:0:
320,192,118190,1,0,0:0:0:0:
192,192,118277,1,0,0:0:0:0:
64,192,118277,1,0,0:0:0:0:
448,192,118277,1,0,0:0:0:0:
320,192,118363,1,0,0:0:0:0:
192,192,118449,1,0,0:0:0:0:
448,192,118535,1,0,0:0:0:0:
320,192,118621,1,0,0:0:0:0:
192,192,118708,1,0,0:0:0:0:
320,192,118794,1,0,0:0:0:0:
448,192,118794,1,0,0:0:0:0:
64,192,118880,1,0,0:0:0:0:
320,192,118966,1,0,0:0:0:0:
448,192,118966,1,0,0:0:0:0:
192,192,118966,1,0,0:0:0:0:
64,192,119052,1,0,0:0:0:0:
192,192,119139,1,0,0:0:0:0:
320,192,119225,1,0,0:0:0:0:
64,192,119311,1,0,0:0:0:0:
192,192,119311,1,0,0:0:0:0:
448,192,119397,1,0,0:0:0:0:
320,192,119483,1,0,0:0:0:0:
192,192,119570,1,0,0:0:0:0:
64,192,119656,1,0,0:0:0:0:
320,192,119656,1,0,0:0:0:0:
448,192,119656,1,0,0:0:0:0:
192,192,119742,1,0,0:0:0:0:
448,192,119828,1,0,0:0:0:0:
320,192,119914,1,0,0:0:0:0:
192,192,120001,1,0,0:0:0:0:
64,192,120044,1,0,0:0:0:0:
448,192,120087,1,0,0:0:0:0:
320,192,120130,1,0,0:0:0:0:
192,192,120173,1,0,0:0:0:0:
64,192,120216,1,0,0:0:0:0:
320,192,120259,1,0,0:0:0:0:
448,192,120302,1,0,0:0:0:0:
64,192,120346,1,0,0:0:0:0:
192,192,120389,1,0,0:0:0:0:
320,192,120432,1,0,0:0:0:0:
448,192,120475,1,0,0:0:0:0:
64,192,120518,1,0,0:0:0:0:
192,192,120561,1,0,0:0:0:0:
448,192,120604,1,0,0:0:0:0:
320,192,120647,1,0,0:0:0:0:
192,192,120690,1,0,0:0:0:0:
64,192,120690,1,0,0:0:0:0:
448,192,120777,1,0,0:0:0:0:
64,192,120863,1,0,0:0:0:0:
320,192,120949,1,0,0:0:0:0:
192,192,121035,1,0,0:0:0:0:
64,192,121035,1,0,0:0:0:0:
448,192,121035,1,0,0:0:0:0:
320,192,121121,1,0,0:0:0:0:
448,192,121208,1,0,0:0:0:0:
192,192,121294,1,0,0:0:0:0:
320,192,121380,1,0,0:0:0:0:
64,192,121466,1,0,0:0:0:0:
192,192,121552,1,0,0:0:0:0:
448,192,121552,1,0,0:0:0:0:
320,192,121639,1,0,0:0:0:0:
64,192,121725,1,0,0:0:0:0:
192,192,121725,1,0,0:0:0:0:
448,192,121725,1,0,0:0:0:0:
320,192,121811,1,0,0:0:0:0:
64,192,121897,1,0,0:0:0:0:
192,192,121983,1,0,0:0:0:0:
64,192,122070,1,0,0:0:0:0:
448,192,122070,1,0,0:0:0:0:
320,192,122156,1,0,0:0:0:0:
192,192,122242,1,0,0:0:0:0:
448,192,122328,1,0,0:0:0:0:
64,192,122414,1,0,0:0:0:0:
192,192,122414,1,0,0:0:0:0:
320,192,122458,1,0,0:0:0:0:
448,192,122501,1,0,0:0:0:0:
192,192,122544,1,0,0:0:0:0:
64,192,122587,1,0,0:0:0:0:
448,192,122630,1,0,0:0:0:0:
320,192,122673,1,0,0:0:0:0:
192,192,122716,1,0,0:0:0:0:
64,192,122759,1,0,0:0:0:0:
320,192,122802,1,0,0:0:0:0:
448,192,122846,1,0,0:0:0:0:
64,192,122889,1,0,0:0:0:0:
192,192,122932,1,0,0:0:0:0:
320,192,122975,1,0,0:0:0:0:
448,192,123018,1,0,0:0:0:0:
64,192,123061,1,0,0:0:0:0:
192,192,123104,1,0,0:0:0:0:
448,192,123147,1,0,0:0:0:0:
320,192,123190,1,0,0:0:0:0:
192,192,123233,1,0,0:0:0:0:
64,192,123277,1,0,0:0:0:0:
448,192,123320,1,0,0:0:0:0:
320,192,123363,1,0,0:0:0:0:
192,192,123406,1,0,0:0:0:0:
448,192,123449,1,0,0:0:0:0:
64,192,123449,1,0,0:0:0:0:
320,192,123535,1,0,0:0:0:0:
192,192,123621,1,0,0:0:0:0:
448,192,123708,1,0,0:0:0:0:
320,192,123794,1,0,0:0:0:0:
192,192,123794,1,0,0:0:0:0:
64,192,123794,1,0,0:0:0:0:
448,192,123880,1,0,0:0:0:0:
64,192,123966,1,0,0:0:0:0:
192,192,124052,1,0,0:0:0:0:
320,192,124139,1,0,0:0:0:0:
64,192,124225,1,0,0:0:0:0:
192,192,124311,1,0,0:0:0:0:
448,192,124311,1,0,0:0:0:0:
320,192,124397,1,0,0:0:0:0:
192,192,124483,1,0,0:0:0:0:
64,192,124483,1,0,0:0:0:0:
448,192,124483,1,0,0:0:0:0:
320,192,124570,1,0,0:0:0:0:
192,192,124656,1,0,0:0:0:0:
64,192,124742,1,0,0:0:0:0:
320,192,124828,1,0,0:0:0:0:
448,192,124828,1,0,0:0:0:0:
192,192,124914,1,0,0:0:0:0:
448,192,125001,1,0,0:0:0:0:
320,192,125087,1,0,0:0:0:0:
64,192,125173,1,0,0:0:0:0:
192,192,125173,1,0,0:0:0:0:
448,192,125173,1,0,0:0:0:0:
320,192,125259,1,0,0:0:0:0:
64,192,125346,1,0,0:0:0:0:
192,192,125432,1,0,0:0:0:0:
320,192,125518,1,0,0:0:0:0:
64,192,125604,1,0,0:0:0:0:
448,192,125690,1,0,0:0:0:0:
320,192,125690,1,0,0:0:0:0:
192,192,125777,1,0,0:0:0:0:
320,192,125863,1,0,0:0:0:0:
448,192,125863,1,0,0:0:0:0:
64,192,125863,1,0,0:0:0:0:
192,192,125949,1,0,0:0:0:0:
448,192,126035,1,0,0:0:0:0:
320,192,126121,1,0,0:0:0:0:
192,192,126208,1,0,0:0:0:0:
64,192,126208,1,0,0:0:0:0:
448,192,126294,1,0,0:0:0:0:
192,192,126380,1,0,0:0:0:0:
320,192,126466,1,0,0:0:0:0:
64,192,126552,1,0,0:0:0:0:
192,192,126552,1,0,0:0:0:0:
448,192,126552,1,0,0:0:0:0:
320,192,126639,1,0,0:0:0:0:
192,192,126725,1,0,0:0:0:0:
64,192,126811,1,0,0:0:0:0:
448,192,126897,1,0,0:0:0:0:
192,192,126983,1,0,0:0:0:0:
320,192,127070,1,0,0:0:0:0:
448,192,127070,1,0,0:0:0:0:
64,192,127156,1,0,0:0:0:0:
192,192,127242,1,0,0:0:0:0:
320,192,127242,1,0,0:0:0:0:
448,192,127242,1,0,0:0:0:0:
64,192,127328,1,0,0:0:0:0:
192,192,127414,1,0,0:0:0:0:
448,192,127501,1,0,0:0:0:0:
320,192,127587,1,0,0:0:0:0:
64,192,127587,1,0,0:0:0:0:
192,192,127673,1,0,0:0:0:0:
448,192,127759,1,0,0:0:0:0:
320,192,127846,1,0,0:0:0:0:
448,192,127932,1,0,0:0:0:0:
192,192,127932,1,0,0:0:0:0:
64,192,127932,1,0,0:0:0:0:
320,192,128018,1,0,0:0:0:0:
192,192,128104,1,0,0:0:0:0:
64,192,128190,1,0,0:0:0:0:
448,192,128277,1,0,0:0:0:0:
320,192,128363,1,0,0:0:0:0:
64,192,128449,1,0,0:0:0:0:
192,192,128449,1,0,0:0:0:0:
448,192,128535,1,0,0:0:0:0:
192,192,128621,1,0,0:0:0:0:
320,192,128621,1,0,0:0:0:0:
64,192,128621,1,0,0:0:0:0:
448,192,128708,1,0,0:0:0:0:
192,192,128794,1,0,0:0:0:0:
320,192,128794,1,0,0:0:0:0:
64,192,128880,1,0,0:0:0:0:
448,192,128966,1,0,0:0:0:0:
192,192,128966,1,0,0:0:0:0:
320,192,128966,1,0,0:0:0:0:
64,192,129052,1,0,0:0:0:0:
448,192,129139,1,0,0:0:0:0:
320,192,129225,1,0,0:0:0:0:
448,192,129311,1,0,0:0:0:0:
64,192,129311,1,0,0:0:0:0:
192,192,129311,1,0,0:0:0:0:
320,192,129397,1,0,0:0:0:0:
64,192,129483,1,0,0:0:0:0:
192,192,129570,1,0,0:0:0:0:
320,192,129656,1,0,0:0:0:0:
64,192,129742,1,0,0:0:0:0:
320,192,129828,1,0,0:0:0:0:
448,192,129828,1,0,0:0:0:0:
192,192,129914,1,0,0:0:0:0:
448,192,130001,1,0,0:0:0:0:
320,192,130001,1,0,0:0:0:0:
64,192,130001,1,0,0:0:0:0:
192,192,130087,1,0,0:0:0:0:
64,192,130173,1,0,0:0:0:0:
448,192,130173,1,0,0:0:0:0:
320,192,130259,1,0,0:0:0:0:
448,192,130346,1,0,0:0:0:0:
192,192,130346,1,0,0:0:0:0:
64,192,130346,1,0,0:0:0:0:
320,192,130432,1,0,0:0:0:0:
64,192,130518,1,0,0:0:0:0:
192,192,130604,1,0,0:0:0:0:
320,192,130690,1,0,0:0:0:0:
448,192,130690,1,0,0:0:0:0:
64,192,130690,1,0,0:0:0:0:
192,192,130777,1,0,0:0:0:0:
448,192,130863,1,0,0:0:0:0:
320,192,130949,1,0,0:0:0:0:
192,192,131035,1,0,0:0:0:0:
448,192,131035,1,0,0:0:0:0:
64,192,131035,1,0,0:0:0:0:
320,192,131121,1,0,0:0:0:0:
192,192,131208,1,0,0:0:0:0:
320,192,131294,1,0,0:0:0:0:
448,192,131380,1,0,0:0:0:0:
64,192,131380,1,0,0:0:0:0:
192,192,131380,1,0,0:0:0:0:
320,192,131466,1,0,0:0:0:0:
448,192,131552,1,0,0:0:0:0:
64,192,131552,1,0,0:0:0:0:
192,192,131639,1,0,0:0:0:0:
320,192,131725,1,0,0:0:0:0:
448,192,131725,1,0,0:0:0:0:
64,192,131725,1,0,0:0:0:0:
192,192,131811,1,0,0:0:0:0:
448,192,131897,1,0,0:0:0:0:
320,192,131983,1,0,0:0:0:0:
192,192,132070,1,0,0:0:0:0:
64,192,132070,1,0,0:0:0:0:
448,192,132070,1,0,0:0:0:0:
320,192,132156,1,0,0:0:0:0:
64,192,132242,1,0,0:0:0:0:
192,192,132328,1,0,0:0:0:0:
320,192,132414,1,0,0:0:0:0:
448,192,132414,1,0,0:0:0:0:
64,192,132414,1,0,0:0:0:0:
192,192,132501,1,0,0:0:0:0:
448,192,132587,1,0,0:0:0:0:
320,192,132673,1,0,0:0:0:0:
192,192,132759,1,0,0:0:0:0:
64,192,132759,1,0,0:0:0:0:
320,192,132846,1,0,0:0:0:0:
448,192,132846,1,0,0:0:0:0:
64,192,132932,1,0,0:0:0:0:
192,192,132932,1,0,0:0:0:0:
320,192,133018,1,0,0:0:0:0:
448,192,133018,1,0,0:0:0:0:
192,192,133104,1,0,0:0:0:0:
64,192,133104,1,0,0:0:0:0:
320,192,133190,1,0,0:0:0:0:
64,192,133277,1,0,0:0:0:0:
448,192,133363,1,0,0:0:0:0:
64,192,133449,1,0,0:0:0:0:
192,192,133492,1,0,0:0:0:0:
320,192,133535,1,0,0:0:0:0:
448,192,133578,1,0,0:0:0:0:
64,192,133621,1,0,0:0:0:0:
192,192,133664,1,0,0:0:0:0:
448,192,133708,1,0,0:0:0:0:
320,192,133751,1,0,0:0:0:0:
64,192,133794,1,0,0:0:0:0:
192,192,133837,1,0,0:0:0:0:
320,192,133880,1,0,0:0:0:0:
448,192,133923,1,0,0:0:0:0:
64,192,133966,1,0,0:0:0:0:
192,192,134009,1,0,0:0:0:0:
320,192,134052,1,0,0:0:0:0:
448,192,134096,1,0,0:0:0:0:
192,192,134139,1,0,0:0:0:0:
64,192,134182,1,0,0:0:0:0:
448,192,134225,1,0,0:0:0:0:
320,192,134268,1,0,0:0:0:0:
192,192,134311,1,0,0:0:0:0:
64,192,134354,1,0,0:0:0:0:
448,192,134397,1,0,0:0:0:0:
320,192,134440,1,0,0:0:0:0:
192,192,134483,1,0,0:0:0:0:
64,192,134483,1,0,0:0:0:0:
