osu file format v14

[General]
AudioFilename: audio.mp3
AudioLeadIn: 0
PreviewTime: 112414
Countdown: 0
SampleSet: Normal
StackLeniency: 0.7
Mode: 3
LetterboxInBreaks: 0
SpecialStyle: 0
WidescreenStoryboard: 0

[Editor]
DistanceSpacing: 0.8
BeatDivisor: 16
GridSize: 8
TimelineZoom: 2.2

[Metadata]
Title:Eternal White
TitleUnicode:Eternal White
Artist:shimizushi
ArtistUnicode:shimizushi
Creator:Seiran-
Version:Eternal White | Extra
Source:THE BMS OF FIGHTERS XVII -VISION THE RETRO FUTURE-
Tags:BOFXVII videogame YNCT.white-blue Nao_AnD E_AnD3 core artcore electronic instrumental Syadow- EGMAForever -H_i_k_a_r_i- _Hikari -Timerains-
BeatmapID:3525702
BeatmapSetID:1683685

[Difficulty]
HPDrainRate:9.2
CircleSize:4
OverallDifficulty:7.8
ApproachRate:5
SliderMultiplier:1.4
SliderTickRate:1

[Events]
//Background and Video events
0,0,"BG.png",0,0
//Break Periods
//Storyboard Layer 0 (Background)
//Storyboard Layer 1 (Fail)
//Storyboard Layer 2 (Pass)
//Storyboard Layer 3 (Foreground)
//Storyboard Layer 4 (Overlay)
//Storyboard Sound Samples

[TimingPoints]
2137,545.454545454546,4,1,1,40,1,0
2137,-63.2911392405063,4,1,1,40,0,0
34318,600,4,1,1,40,1,0
34318,-57.4712643678161,4,1,1,40,0,0
34618,666.666666666667,4,1,1,40,1,8
34618,-51.8134715025907,4,1,1,40,0,0
36284,705.882352941176,4,1,1,40,1,0
36284,-49.0196078431373,4,1,1,40,0,0
36989,857.142857142857,4,1,1,40,1,0
36989,-40.1606425702811,4,1,1,40,0,0
37417,1500,4,1,1,40,1,8
37417,-22.9885057471264,4,1,1,40,0,0
38917,3000,4,1,1,40,1,8
38917,-11.4942528735632,4,1,1,40,0,0
40043,344.827586206897,4,1,1,40,1,0
40043,-100,4,1,1,40,0,0
62111,705.882352941176,4,1,1,40,1,0
62111,-48.8507852763733,4,1,1,40,0,0
90346,344.827586206897,4,1,1,40,1,0
90346,-100,4,1,1,40,0,0
112414,-100,4,1,1,40,0,1
134483,705.882352941176,4,1,1,40,1,0
134483,-48.8507852763733,4,1,1,40,0,0

[HitObjects]
320,192,2137,5,0,0:0:0:0:
448,192,2137,128,0,2273:0:0:0:0:
64,192,2137,128,0,2409:0:0:0:0:
192,192,2409,128,0,2682:0:0:0:0:
320,192,2682,128,0,2955:0:0:0:0:
448,192,2955,128,0,3227:0:0:0:0:
64,192,3227,128,0,3364:0:0:0:0:
320,192,3227,128,0,3500:0:0:0:0:
448,192,3500,128,0,3637:0:0:0:0:
192,192,3500,128,0,3773:0:0:0:0:
448,192,3773,128,0,4046:0:0:0:0:
64,192,3773,128,0,3909:0:0:0:0:
320,192,4046,128,0,4182:0:0:0:0:
64,192,4046,128,0,4318:0:0:0:0:
448,192,4318,1,0,0:0:0:0:
192,192,4318,128,0,4591:0:0:0:0:
320,192,4591,128,0,4864:0:0:0:0:
64,192,4864,128,0,5137:0:0:0:0:
192,192,5137,128,0,5409:0:0:0:0:
320,192,5409,128,0,5546:0:0:0:0:
448,192,5409,128,0,5682:0:0:0:0:
192,192,5682,128,0,5955:0:0:0:0:
64,192,5955,128,0,6227:0:0:0:0:
320,192,6227,128,0,6500:0:0:0:0:
448,192,6500,128,0,6637:0:0:0:0:
192,192,6500,1,0,0:0:0:0:
64,192,6500,128,0,6773:0:0:0:0:
320,192,6773,128,0,7046:0:0:0:0:
192,192,7046,128,0,7318:0:0:0:0:
448,192,7318,128,0,7591:0:0:0:0:
64,192,7557,128,0,7693:0:0:0:0:
320,192,7591,128,0,7864:0:0:0:0:
192,192,7864,128,0,8137:0:0:0:0:
448,192,8137,128,0,8409:0:0:0:0:
320,192,8409,128,0,8682:0:0:0:0:
448,192,8682,1,0,0:0:0:0:
64,192,8682,128,0,8955:0:0:0:0:
192,192,8955,128,0,9227:0:0:0:0:
448,192,9227,128,0,9500:0:0:0:0:
64,192,9500,128,0,9773:0:0:0:0:
448,192,9773,128,0,9909:0:0:0:0:
192,192,9773,128,0,10046:0:0:0:0:
320,192,10046,128,0,10318:0:0:0:0:
448,192,10318,128,0,10455:0:0:0:0:
64,192,10318,128,0,10591:0:0:0:0:
320,192,10591,128,0,10864:0:0:0:0:
64,192,10864,128,0,11000:0:0:0:0:
192,192,10864,128,0,11137:0:0:0:0:
448,192,10864,1,0,0:0:0:0:
448,192,11137,128,0,11409:0:0:0:0:
64,192,11409,128,0,11682:0:0:0:0:
448,192,11682,128,0,11818:0:0:0:0:
192,192,11682,128,0,11955:0:0:0:0:
320,192,11955,128,0,12227:0:0:0:0:
64,192,12227,128,0,12500:0:0:0:0:
448,192,12500,128,0,12637:0:0:0:0:
320,192,12500,128,0,12773:0:0:0:0:
192,192,12773,128,0,12909:0:0:0:0:
64,192,12773,128,0,13046:0:0:0:0:
448,192,13046,128,0,13318:0:0:0:0:
320,192,13046,1,0,0:0:0:0:
192,192,13318,128,0,13591:0:0:0:0:
320,192,13591,128,0,13864:0:0:0:0:
64,192,13864,128,0,14137:0:0:0:0:
448,192,14137,128,0,14273:0:0:0:0:
192,192,14137,128,0,14409:0:0:0:0:
448,192,14409,128,0,14682:0:0:0:0:
320,192,14682,128,0,14955:0:0:0:0:
64,192,14955,128,0,15227:0:0:0:0:
320,192,15227,128,0,15364:0:0:0:0:
192,192,15227,1,0,0:0:0:0:
448,192,15227,128,0,15500:0:0:0:0:
192,192,15500,128,0,15773:0:0:0:0:
64,192,15773,128,0,16046:0:0:0:0:
320,192,16046,128,0,16318:0:0:0:0:
64,192,16318,128,0,16591:0:0:0:0:
192,192,16591,128,0,16864:0:0:0:0:
448,192,16864,128,0,17137:0:0:0:0:
320,192,17137,128,0,17409:0:0:0:0:
448,192,17409,1,0,0:0:0:0:
64,192,17409,128,0,17682:0:0:0:0:
320,192,17682,128,0,17955:0:0:0:0:
192,192,17955,128,0,18227:0:0:0:0:
448,192,18227,128,0,18500:0:0:0:0:
64,192,18500,128,0,18637:0:0:0:0:
320,192,18500,128,0,18773:0:0:0:0:
448,192,18773,128,0,18909:0:0:0:0:
64,192,18773,128,0,19046:0:0:0:0:
192,192,19046,128,0,19182:0:0:0:0:
448,192,19046,128,0,19318:0:0:0:0:
320,192,19318,128,0,19455:0:0:0:0:
64,192,19318,128,0,19591:0:0:0:0:
320,192,19591,1,0,0:0:0:0:
192,192,19591,128,0,19727:0:0:0:0:
448,192,19591,128,0,19864:0:0:0:0:
64,192,19864,128,0,20137:0:0:0:0:
320,192,20137,128,0,20409:0:0:0:0:
448,192,20409,128,0,20546:0:0:0:0:
64,192,20409,128,0,20682:0:0:0:0:
320,192,20682,128,0,20955:0:0:0:0:
64,192,20955,128,0,21227:0:0:0:0:
448,192,21227,128,0,21364:0:0:0:0:
320,192,21227,128,0,21500:0:0:0:0:
64,192,21500,128,0,21637:0:0:0:0:
192,192,21500,128,0,21773:0:0:0:0:
448,192,21773,1,0,0:0:0:0:
320,192,21773,128,0,22046:0:0:0:0:
192,192,22046,128,0,22318:0:0:0:0:
448,192,22318,128,0,22455:0:0:0:0:
64,192,22318,128,0,22591:0:0:0:0:
320,192,22591,128,0,22864:0:0:0:0:
64,192,22864,128,0,23000:0:0:0:0:
448,192,22864,128,0,23137:0:0:0:0:
192,192,23137,128,0,23273:0:0:0:0:
320,192,23137,128,0,23409:0:0:0:0:
64,192,23409,128,0,23682:0:0:0:0:
320,192,23682,128,0,23955:0:0:0:0:
448,192,23955,128,0,24091:0:0:0:0:
192,192,23955,128,0,24227:0:0:0:0:
64,192,23955,1,0,0:0:0:0:
320,192,24227,128,0,24500:0:0:0:0:
192,192,24500,128,0,24637:0:0:0:0:
448,192,24500,128,0,24773:0:0:0:0:
192,192,24773,128,0,24909:0:0:0:0:
64,192,24773,128,0,25046:0:0:0:0:
320,192,25046,128,0,25318:0:0:0:0:
64,192,25318,128,0,25591:0:0:0:0:
192,192,25591,128,0,25727:0:0:0:0:
448,192,25591,128,0,25864:0:0:0:0:
320,192,25864,128,0,26000:0:0:0:0:
64,192,25864,128,0,26137:0:0:0:0:
448,192,26137,1,0,0:0:0:0:
192,192,26137,128,0,26409:0:0:0:0:
320,192,26409,128,0,26682:0:0:0:0:
448,192,26682,128,0,26955:0:0:0:0:
64,192,26955,128,0,27227:0:0:0:0:
320,192,27227,128,0,27364:0:0:0:0:
192,192,27227,128,0,27500:0:0:0:0:
448,192,27500,128,0,27773:0:0:0:0:
64,192,27773,128,0,27909:0:0:0:0:
320,192,27773,128,0,28046:0:0:0:0:
192,192,28046,128,0,28318:0:0:0:0:
320,192,28318,1,0,0:0:0:0:
448,192,28318,128,0,28455:0:0:0:0:
64,192,28318,128,0,28591:0:0:0:0:
192,192,28591,128,0,28864:0:0:0:0:
320,192,28864,128,0,29137:0:0:0:0:
448,192,29137,128,0,29409:0:0:0:0:
192,192,29409,128,0,29682:0:0:0:0:
320,192,29682,128,0,29955:0:0:0:0:
448,192,29955,128,0,30091:0:0:0:0:
64,192,29955,128,0,30227:0:0:0:0:
320,192,30227,128,0,30364:0:0:0:0:
192,192,30227,128,0,30500:0:0:0:0:
448,192,30500,128,0,30637:0:0:0:0:
320,192,30500,1,0,0:0:0:0:
64,192,30500,128,0,30773:0:0:0:0:
320,192,30773,128,0,31046:0:0:0:0:
192,192,31046,128,0,31318:0:0:0:0:
64,192,31318,128,0,31591:0:0:0:0:
192,192,31591,128,0,31727:0:0:0:0:
448,192,31591,128,0,31864:0:0:0:0:
320,192,31864,128,0,32137:0:0:0:0:
64,192,32137,128,0,32409:0:0:0:0:
192,192,32409,128,0,32682:0:0:0:0:
64,192,32682,128,0,32818:0:0:0:0:
448,192,32682,128,0,32955:0:0:0:0:
320,192,32682,1,0,0:0:0:0:
192,192,32955,128,0,33227:0:0:0:0:
320,192,33227,128,0,33500:0:0:0:0:
448,192,33500,128,0,33773:0:0:0:0:
64,192,33773,128,0,34046:0:0:0:0:
192,192,34046,128,0,34318:0:0:0:0:
320,192,34318,128,0,34618:0:0:0:0:
64,192,34618,128,0,34868:0:0:0:0:
448,192,34868,128,0,34993:0:0:0:0:
320,192,34909,128,0,35034:0:0:0:0:
192,192,34951,128,0,35062:0:0:0:0:
64,192,34993,128,0,35284:0:0:0:0:
320,192,35284,128,0,35618:0:0:0:0:
192,192,35618,128,0,35951:0:0:0:0:
448,192,35951,128,0,36284:0:0:0:0:
64,192,36284,128,0,36460:0:0:0:0:
320,192,36284,128,0,36636:0:0:0:0:
192,192,36636,128,0,36989:0:0:0:0:
448,192,36989,128,0,37417:0:0:0:0:
64,192,37417,128,0,38167:0:0:0:0:
448,192,40043,1,0,0:0:0:0:
320,192,40043,1,0,0:0:0:0:
64,192,40043,128,0,40215:0:0:0:0:
192,192,40043,128,0,40129:0:0:0:0:
320,192,40215,128,0,40301:0:0:0:0:
64,192,40387,1,0,0:0:0:0:
192,192,40387,1,0,0:0:0:0:
448,192,40387,128,0,40474:0:0:0:0:
192,192,40560,128,0,40646:0:0:0:0:
320,192,40732,128,0,40818:0:0:0:0:
448,192,40905,1,0,0:0:0:0:
192,192,40905,128,0,40991:0:0:0:0:
320,192,41077,1,0,0:0:0:0:
448,192,41077,1,0,0:0:0:0:
64,192,41077,128,0,41163:0:0:0:0:
320,192,41249,128,0,41336:0:0:0:0:
448,192,41422,1,0,0:0:0:0:
64,192,41422,128,0,41508:0:0:0:0:
192,192,41594,128,0,41680:0:0:0:0:
448,192,41767,1,0,0:0:0:0:
64,192,41767,1,0,0:0:0:0:
320,192,41767,128,0,41853:0:0:0:0:
192,192,41939,128,0,42025:0:0:0:0:
448,192,42111,128,0,42284:0:0:0:0:
64,192,42111,128,0,42198:0:0:0:0:
192,192,42284,1,0,0:0:0:0:
320,192,42284,128,0,42370:0:0:0:0:
448,192,42456,1,0,0:0:0:0:
64,192,42456,1,0,0:0:0:0:
192,192,42456,128,0,42543:0:0:0:0:
64,192,42629,128,0,42715:0:0:0:0:
448,192,42801,1,0,0:0:0:0:
64,192,42801,128,0,42974:0:0:0:0:
320,192,42801,128,0,42887:0:0:0:0:
448,192,42974,128,0,43060:0:0:0:0:
64,192,43146,1,0,0:0:0:0:
320,192,43146,128,0,43232:0:0:0:0:
448,192,43146,1,0,0:0:0:0:
192,192,43318,128,0,43405:0:0:0:0:
320,192,43491,128,0,43577:0:0:0:0:
448,192,43663,1,0,0:0:0:0:
64,192,43663,128,0,43749:0:0:0:0:
64,192,43836,1,0,0:0:0:0:
448,192,43836,1,0,0:0:0:0:
192,192,43836,128,0,43922:0:0:0:0:
320,192,44008,128,0,44094:0:0:0:0:
64,192,44180,128,0,44353:0:0:0:0:
448,192,44180,128,0,44267:0:0:0:0:
192,192,44180,1,0,0:0:0:0:
320,192,44353,128,0,44439:0:0:0:0:
448,192,44525,1,0,0:0:0:0:
192,192,44525,128,0,44611:0:0:0:0:
64,192,44525,1,0,0:0:0:0:
448,192,44698,128,0,44784:0:0:0:0:
192,192,44870,128,0,44956:0:0:0:0:
64,192,45043,1,0,0:0:0:0:
320,192,45043,128,0,45129:0:0:0:0:
64,192,45215,1,0,0:0:0:0:
192,192,45215,1,0,0:0:0:0:
448,192,45215,128,0,45301:0:0:0:0:
192,192,45387,128,0,45474:0:0:0:0:
448,192,45560,1,0,0:0:0:0:
320,192,45560,128,0,45646:0:0:0:0:
64,192,45560,128,0,45732:0:0:0:0:
448,192,45732,128,0,45818:0:0:0:0:
192,192,45732,128,0,45905:0:0:0:0:
448,192,45905,1,0,0:0:0:0:
64,192,45905,128,0,45991:0:0:0:0:
320,192,45905,128,0,46077:0:0:0:0:
192,192,46077,128,0,46163:0:0:0:0:
448,192,46077,128,0,46249:0:0:0:0:
320,192,46249,128,0,46336:0:0:0:0:
64,192,46249,128,0,46422:0:0:0:0:
448,192,46422,128,0,46508:0:0:0:0:
192,192,46422,128,0,46594:0:0:0:0:
320,192,46594,1,0,0:0:0:0:
64,192,46594,128,0,46680:0:0:0:0:
448,192,46594,128,0,46767:0:0:0:0:
320,192,46767,128,0,46853:0:0:0:0:
64,192,46767,128,0,46939:0:0:0:0:
448,192,46939,128,0,47111:0:0:0:0:
320,192,46939,128,0,47111:0:0:0:0:
192,192,46939,1,0,0:0:0:0:
64,192,47111,128,0,47198:0:0:0:0:
448,192,47284,1,0,0:0:0:0:
64,192,47284,1,0,0:0:0:0:
192,192,47284,128,0,47370:0:0:0:0:
320,192,47456,128,0,47543:0:0:0:0:
64,192,47629,128,0,47801:0:0:0:0:
448,192,47629,128,0,47715:0:0:0:0:
448,192,47801,1,0,0:0:0:0:
320,192,47801,128,0,47887:0:0:0:0:
64,192,47974,1,0,0:0:0:0:
448,192,47974,1,0,0:0:0:0:
192,192,47974,128,0,48060:0:0:0:0:
320,192,48146,128,0,48232:0:0:0:0:
448,192,48318,128,0,48491:0:0:0:0:
64,192,48318,128,0,48405:0:0:0:0:
192,192,48318,1,0,0:0:0:0:
192,192,48491,128,0,48577:0:0:0:0:
448,192,48663,1,0,0:0:0:0:
64,192,48663,1,0,0:0:0:0:
320,192,48663,128,0,48749:0:0:0:0:
64,192,48836,128,0,48922:0:0:0:0:
320,192,49008,128,0,49094:0:0:0:0:
448,192,49180,128,0,49267:0:0:0:0:
64,192,49180,128,0,49353:0:0:0:0:
320,192,49353,128,0,49439:0:0:0:0:
448,192,49353,1,0,0:0:0:0:
192,192,49353,128,0,49525:0:0:0:0:
448,192,49525,128,0,49611:0:0:0:0:
64,192,49525,128,0,49698:0:0:0:0:
448,192,49698,128,0,49870:0:0:0:0:
320,192,49698,128,0,49870:0:0:0:0:
192,192,49698,1,0,0:0:0:0:
64,192,49870,128,0,49956:0:0:0:0:
64,192,50043,128,0,50215:0:0:0:0:
192,192,50043,128,0,50215:0:0:0:0:
448,192,50043,1,0,0:0:0:0:
448,192,50215,128,0,50301:0:0:0:0:
64,192,50387,128,0,50474:0:0:0:0:
192,192,50387,128,0,50474:0:0:0:0:
320,192,50560,128,0,50732:0:0:0:0:
448,192,50560,128,0,50732:0:0:0:0:
64,192,50560,1,0,0:0:0:0:
64,192,50732,1,0,0:0:0:0:
192,192,50732,1,0,0:0:0:0:
320,192,50818,1,0,0:0:0:0:
448,192,50818,1,0,0:0:0:0:
192,192,50905,1,0,0:0:0:0:
320,192,50991,1,0,0:0:0:0:
64,192,51077,1,0,0:0:0:0:
448,192,51077,1,0,0:0:0:0:
192,192,51077,1,0,0:0:0:0:
64,192,51249,1,0,0:0:0:0:
320,192,51249,128,0,51422:0:0:0:0:
64,192,51422,1,0,0:0:0:0:
448,192,51422,1,0,0:0:0:0:
192,192,51422,1,0,0:0:0:0:
192,192,51594,1,0,0:0:0:0:
320,192,51594,128,0,51767:0:0:0:0:
64,192,51767,1,0,0:0:0:0:
448,192,51767,1,0,0:0:0:0:
64,192,51939,1,0,0:0:0:0:
320,192,51939,128,0,52111:0:0:0:0:
64,192,52111,1,0,0:0:0:0:
448,192,52111,1,0,0:0:0:0:
192,192,52111,1,0,0:0:0:0:
320,192,52284,128,0,52456:0:0:0:0:
192,192,52284,1,0,0:0:0:0:
448,192,52456,1,0,0:0:0:0:
64,192,52456,1,0,0:0:0:0:
320,192,52629,1,0,0:0:0:0:
192,192,52629,128,0,52801:0:0:0:0:
448,192,52801,1,0,0:0:0:0:
64,192,52801,1,0,0:0:0:0:
320,192,52801,1,0,0:0:0:0:
192,192,52974,128,0,53146:0:0:0:0:
448,192,52974,1,0,0:0:0:0:
320,192,53146,1,0,0:0:0:0:
64,192,53146,1,0,0:0:0:0:
192,192,53318,128,0,53491:0:0:0:0:
448,192,53318,1,0,0:0:0:0:
448,192,53491,1,0,0:0:0:0:
64,192,53491,1,0,0:0:0:0:
320,192,53491,1,0,0:0:0:0:
192,192,53577,1,0,0:0:0:0:
64,192,53663,1,0,0:0:0:0:
448,192,53663,1,0,0:0:0:0:
320,192,53749,1,0,0:0:0:0:
64,192,53836,1,0,0:0:0:0:
448,192,53836,1,0,0:0:0:0:
192,192,53836,1,0,0:0:0:0:
448,192,54008,128,0,54180:0:0:0:0:
192,192,54008,1,0,0:0:0:0:
64,192,54180,1,0,0:0:0:0:
192,192,54180,1,0,0:0:0:0:
320,192,54180,1,0,0:0:0:0:
448,192,54353,128,0,54525:0:0:0:0:
64,192,54353,1,0,0:0:0:0:
64,192,54525,1,0,0:0:0:0:
320,192,54525,1,0,0:0:0:0:
448,192,54698,128,0,54870:0:0:0:0:
192,192,54698,1,0,0:0:0:0:
64,192,54870,1,0,0:0:0:0:
192,192,54870,1,0,0:0:0:0:
320,192,54870,1,0,0:0:0:0:
448,192,55043,128,0,55215:0:0:0:0:
64,192,55043,1,0,0:0:0:0:
320,192,55215,1,0,0:0:0:0:
64,192,55215,1,0,0:0:0:0:
192,192,55215,1,0,0:0:0:0:
320,192,55387,1,0,0:0:0:0:
64,192,55387,128,0,55560:0:0:0:0:
448,192,55560,1,0,0:0:0:0:
320,192,55560,1,0,0:0:0:0:
192,192,55560,1,0,0:0:0:0:
448,192,55732,1,0,0:0:0:0:
64,192,55732,128,0,55905:0:0:0:0:
448,192,55905,1,0,0:0:0:0:
192,192,55905,1,0,0:0:0:0:
64,192,56077,128,0,56249:0:0:0:0:
320,192,56077,1,0,0:0:0:0:
448,192,56249,1,0,0:0:0:0:
320,192,56249,1,0,0:0:0:0:
192,192,56249,1,0,0:0:0:0:
64,192,56336,1,0,0:0:0:0:
448,192,56422,1,0,0:0:0:0:
192,192,56422,1,0,0:0:0:0:
320,192,56508,1,0,0:0:0:0:
448,192,56594,128,0,56767:0:0:0:0:
64,192,56594,1,0,0:0:0:0:
192,192,56594,128,0,56680:0:0:0:0:
64,192,56767,128,0,56853:0:0:0:0:
320,192,56767,128,0,56939:0:0:0:0:
64,192,56939,1,0,0:0:0:0:
192,192,56939,128,0,57111:0:0:0:0:
448,192,56939,128,0,57025:0:0:0:0:
64,192,57111,128,0,57284:0:0:0:0:
320,192,57111,128,0,57198:0:0:0:0:
192,192,57284,128,0,57370:0:0:0:0:
448,192,57284,128,0,57456:0:0:0:0:
320,192,57456,128,0,57543:0:0:0:0:
64,192,57456,128,0,57629:0:0:0:0:
448,192,57629,128,0,57715:0:0:0:0:
320,192,57629,1,0,0:0:0:0:
192,192,57629,128,0,57801:0:0:0:0:
64,192,57801,128,0,57887:0:0:0:0:
320,192,57801,128,0,57974:0:0:0:0:
448,192,57974,1,0,0:0:0:0:
64,192,57974,128,0,58146:0:0:0:0:
192,192,57974,1,0,0:0:0:0:
320,192,58060,1,0,0:0:0:0:
448,192,58146,1,0,0:0:0:0:
320,192,58232,1,0,0:0:0:0:
64,192,58318,1,0,0:0:0:0:
448,192,58318,1,0,0:0:0:0:
192,192,58318,1,0,0:0:0:0:
320,192,58491,1,0,0:0:0:0:
64,192,58663,1,0,0:0:0:0:
448,192,58663,128,0,58836:0:0:0:0:
320,192,58836,1,0,0:0:0:0:
192,192,58836,1,0,0:0:0:0:
320,192,59008,1,0,0:0:0:0:
448,192,59008,1,0,0:0:0:0:
64,192,59008,1,0,0:0:0:0:
192,192,59180,1,0,0:0:0:0:
448,192,59353,1,0,0:0:0:0:
64,192,59353,128,0,59439:0:0:0:0:
320,192,59353,128,0,59525:0:0:0:0:
192,192,59525,128,0,59611:0:0:0:0:
448,192,59525,128,0,59698:0:0:0:0:
320,192,59698,128,0,59784:0:0:0:0:
192,192,59698,1,0,0:0:0:0:
64,192,59698,128,0,59870:0:0:0:0:
448,192,59870,128,0,59956:0:0:0:0:
192,192,59870,128,0,60043:0:0:0:0:
320,192,60043,128,0,60129:0:0:0:0:
64,192,60043,128,0,60215:0:0:0:0:
192,192,60215,128,0,60301:0:0:0:0:
448,192,60215,128,0,60387:0:0:0:0:
192,192,60387,1,0,0:0:0:0:
64,192,60387,128,0,60474:0:0:0:0:
320,192,60387,128,0,60560:0:0:0:0:
192,192,60560,128,0,60646:0:0:0:0:
64,192,60560,128,0,60732:0:0:0:0:
320,192,60732,1,0,0:0:0:0:
448,192,60732,1,0,0:0:0:0:
192,192,60732,1,0,0:0:0:0:
64,192,60818,1,0,0:0:0:0:
448,192,60905,128,0,60991:0:0:0:0:
320,192,60948,128,0,61034:0:0:0:0:
192,192,60991,128,0,61077:0:0:0:0:
64,192,61034,128,0,61120:0:0:0:0:
448,192,61077,128,0,61163:0:0:0:0:
320,192,61163,128,0,61249:0:0:0:0:
64,192,61249,128,0,61336:0:0:0:0:
192,192,61293,128,0,61379:0:0:0:0:
320,192,61336,128,0,61422:0:0:0:0:
448,192,61379,128,0,61465:0:0:0:0:
64,192,61422,128,0,61508:0:0:0:0:
192,192,61508,128,0,61594:0:0:0:0:
448,192,61594,128,0,61680:0:0:0:0:
64,192,61594,1,0,0:0:0:0:
320,192,61637,128,0,61724:0:0:0:0:
192,192,61680,128,0,61767:0:0:0:0:
64,192,61724,128,0,61810:0:0:0:0:
448,192,61767,128,0,61853:0:0:0:0:
320,192,61853,128,0,61939:0:0:0:0:
192,192,61896,128,0,61982:0:0:0:0:
64,192,61939,128,0,62025:0:0:0:0:
448,192,61982,128,0,62068:0:0:0:0:
320,192,62025,128,0,62111:0:0:0:0:
64,192,62111,128,0,64228:0:0:0:0:
192,192,62111,128,0,62199:0:0:0:0:
448,192,62111,1,0,0:0:0:0:
320,192,62287,128,0,62375:0:0:0:0:
448,192,62463,128,0,62552:0:0:0:0:
192,192,62640,128,0,62728:0:0:0:0:
448,192,62816,128,0,63169:0:0:0:0:
320,192,62993,128,0,63081:0:0:0:0:
192,192,63169,128,0,63258:0:0:0:0:
448,192,63346,128,0,63434:0:0:0:0:
320,192,63522,128,0,63611:0:0:0:0:
448,192,63699,128,0,63787:0:0:0:0:
192,192,63875,128,0,63963:0:0:0:0:
320,192,64052,128,0,64140:0:0:0:0:
192,192,64228,128,0,64934:0:0:0:0:
448,192,64228,128,0,64581:0:0:0:0:
64,192,64405,128,0,64493:0:0:0:0:
320,192,64581,128,0,64669:0:0:0:0:
64,192,64758,128,0,64846:0:0:0:0:
448,192,64934,128,0,66346:0:0:0:0:
320,192,64934,128,0,65022:0:0:0:0:
192,192,65111,128,0,65199:0:0:0:0:
64,192,65287,128,0,65375:0:0:0:0:
320,192,65463,128,0,65552:0:0:0:0:
64,192,65640,128,0,65993:0:0:0:0:
192,192,65816,128,0,65905:0:0:0:0:
320,192,65993,128,0,66081:0:0:0:0:
64,192,66169,128,0,66258:0:0:0:0:
192,192,66346,128,0,67581:0:0:0:0:
320,192,66346,128,0,66434:0:0:0:0:
448,192,66522,128,0,66611:0:0:0:0:
64,192,66699,128,0,66787:0:0:0:0:
320,192,66875,128,0,66963:0:0:0:0:
448,192,67052,128,0,67405:0:0:0:0:
64,192,67228,128,0,67316:0:0:0:0:
320,192,67405,128,0,67493:0:0:0:0:
448,192,67581,128,0,67669:0:0:0:0:
192,192,67758,128,0,70581:0:0:0:0:
64,192,67758,128,0,67846:0:0:0:0:
320,192,67934,128,0,68022:0:0:0:0:
448,192,68111,128,0,68199:0:0:0:0:
64,192,68287,128,0,68375:0:0:0:0:
448,192,68463,128,0,68816:0:0:0:0:
320,192,68640,128,0,68728:0:0:0:0:
64,192,68816,128,0,68905:0:0:0:0:
320,192,68993,128,0,69081:0:0:0:0:
448,192,69169,128,0,69258:0:0:0:0:
320,192,69346,128,0,69434:0:0:0:0:
64,192,69522,128,0,69611:0:0:0:0:
448,192,69699,128,0,69787:0:0:0:0:
64,192,69875,128,0,70228:0:0:0:0:
320,192,70052,128,0,70140:0:0:0:0:
448,192,70228,128,0,70316:0:0:0:0:
320,192,70405,128,0,70493:0:0:0:0:
64,192,70581,128,0,73228:0:0:0:0:
448,192,70581,128,0,70669:0:0:0:0:
192,192,70758,128,0,70846:0:0:0:0:
320,192,70934,128,0,71022:0:0:0:0:
192,192,71111,128,0,71199:0:0:0:0:
448,192,71287,128,0,71640:0:0:0:0:
320,192,71463,128,0,71552:0:0:0:0:
192,192,71640,128,0,71728:0:0:0:0:
448,192,71816,128,0,71905:0:0:0:0:
192,192,71993,128,0,72169:0:0:0:0:
320,192,72169,128,0,72258:0:0:0:0:
448,192,72346,128,0,72434:0:0:0:0:
320,192,72522,128,0,72611:0:0:0:0:
448,192,72699,1,0,0:0:0:0:
192,192,72699,1,0,0:0:0:0:
448,192,72875,1,0,0:0:0:0:
320,192,72875,1,0,0:0:0:0:
192,192,72875,1,0,0:0:0:0:
320,192,73052,1,0,0:0:0:0:
448,192,73052,1,0,0:0:0:0:
192,192,73052,1,0,0:0:0:0:
320,192,73228,1,0,0:0:0:0:
448,192,73228,1,0,0:0:0:0:
192,192,73228,1,0,0:0:0:0:
320,192,73405,1,0,0:0:0:0:
448,192,73405,1,0,0:0:0:0:
192,192,73405,1,0,0:0:0:0:
64,192,73405,128,0,73493:0:0:0:0:
192,192,73581,128,0,73669:0:0:0:0:
448,192,73758,1,0,0:0:0:0:
320,192,73758,128,0,73846:0:0:0:0:
64,192,73934,128,0,74022:0:0:0:0:
192,192,74111,128,0,74463:0:0:0:0:
448,192,74111,128,0,74199:0:0:0:0:
320,192,74287,128,0,74375:0:0:0:0:
448,192,74463,128,0,74552:0:0:0:0:
64,192,74640,128,0,74728:0:0:0:0:
192,192,74816,128,0,74905:0:0:0:0:
64,192,74993,1,0,0:0:0:0:
448,192,74993,128,0,75081:0:0:0:0:
64,192,75169,1,0,0:0:0:0:
320,192,75169,128,0,75258:0:0:0:0:
192,192,75346,128,0,75434:0:0:0:0:
64,192,75522,128,0,75875:0:0:0:0:
448,192,75522,128,0,75610:0:0:0:0:
320,192,75699,128,0,75787:0:0:0:0:
192,192,75875,128,0,75963:0:0:0:0:
448,192,76052,128,0,76140:0:0:0:0:
192,192,76228,1,0,0:0:0:0:
64,192,76228,128,0,76316:0:0:0:0:
320,192,76405,128,0,76493:0:0:0:0:
64,192,76581,1,0,0:0:0:0:
448,192,76581,128,0,76669:0:0:0:0:
192,192,76758,128,0,76846:0:0:0:0:
64,192,76934,128,0,77287:0:0:0:0:
448,192,76934,128,0,77022:0:0:0:0:
320,192,77110,128,0,77199:0:0:0:0:
192,192,77287,128,0,77375:0:0:0:0:
64,192,77463,1,0,0:0:0:0:
448,192,77463,128,0,77552:0:0:0:0:
320,192,77640,128,0,77728:0:0:0:0:
448,192,77816,1,0,0:0:0:0:
192,192,77816,128,0,77905:0:0:0:0:
320,192,77993,128,0,78081:0:0:0:0:
64,192,77993,1,0,0:0:0:0:
448,192,78169,128,0,78258:0:0:0:0:
64,192,78346,128,0,78699:0:0:0:0:
192,192,78346,128,0,78434:0:0:0:0:
320,192,78522,128,0,78610:0:0:0:0:
448,192,78699,1,0,0:0:0:0:
320,192,78743,1,0,0:0:0:0:
64,192,78787,1,0,0:0:0:0:
192,192,78831,1,0,0:0:0:0:
448,192,78875,1,0,0:0:0:0:
320,192,78919,1,0,0:0:0:0:
64,192,78963,1,0,0:0:0:0:
192,192,79008,1,0,0:0:0:0:
448,192,79052,1,0,0:0:0:0:
320,192,79052,128,0,79140:0:0:0:0:
192,192,79228,128,0,79316:0:0:0:0:
448,192,79405,1,0,0:0:0:0:
64,192,79405,128,0,79493:0:0:0:0:
320,192,79581,128,0,79669:0:0:0:0:
192,192,79758,128,0,80110:0:0:0:0:
64,192,79758,128,0,79846:0:0:0:0:
448,192,79934,128,0,80022:0:0:0:0:
320,192,80110,128,0,80199:0:0:0:0:
64,192,80287,128,0,80375:0:0:0:0:
192,192,80463,128,0,80552:0:0:0:0:
64,192,80640,1,0,0:0:0:0:
448,192,80640,128,0,80728:0:0:0:0:
64,192,80816,1,0,0:0:0:0:
192,192,80816,128,0,80905:0:0:0:0:
320,192,80993,128,0,81081:0:0:0:0:
64,192,81169,128,0,81522:0:0:0:0:
448,192,81169,128,0,81258:0:0:0:0:
192,192,81346,128,0,81434:0:0:0:0:
448,192,81522,128,0,81610:0:0:0:0:
320,192,81699,128,0,81787:0:0:0:0:
64,192,81875,128,0,81963:0:0:0:0:
192,192,81875,1,0,0:0:0:0:
448,192,82052,128,0,82140:0:0:0:0:
64,192,82228,1,0,0:0:0:0:
192,192,82228,128,0,82316:0:0:0:0:
320,192,82405,128,0,82493:0:0:0:0:
448,192,82581,128,0,82934:0:0:0:0:
64,192,82581,128,0,82669:0:0:0:0:
192,192,82758,128,0,82846:0:0:0:0:
320,192,82934,128,0,83022:0:0:0:0:
448,192,83110,1,0,0:0:0:0:
192,192,83110,128,0,83199:0:0:0:0:
64,192,83287,128,0,83375:0:0:0:0:
448,192,83463,1,0,0:0:0:0:
320,192,83463,128,0,83552:0:0:0:0:
64,192,83640,1,0,0:0:0:0:
192,192,83640,128,0,83728:0:0:0:0:
448,192,83816,128,0,83905:0:0:0:0:
320,192,83993,1,0,0:0:0:0:
64,192,83993,128,0,84081:0:0:0:0:
192,192,84169,1,0,0:0:0:0:
320,192,84169,1,0,0:0:0:0:
448,192,84169,1,0,0:0:0:0:
192,192,84346,1,0,0:0:0:0:
320,192,84346,1,0,0:0:0:0:
448,192,84346,1,0,0:0:0:0:
192,192,84522,1,0,0:0:0:0:
320,192,84522,1,0,0:0:0:0:
448,192,84522,1,0,0:0:0:0:
192,192,84699,1,0,0:0:0:0:
320,192,84699,1,0,0:0:0:0:
448,192,84699,1,0,0:0:0:0:
64,192,84699,128,0,84787:0:0:0:0:
320,192,84875,128,0,84963:0:0:0:0:
448,192,85052,128,0,85140:0:0:0:0:
192,192,85228,128,0,85316:0:0:0:0:
448,192,85405,128,0,85493:0:0:0:0:
320,192,85581,128,0,85669:0:0:0:0:
192,192,85758,128,0,85846:0:0:0:0:
448,192,85934,128,0,86022:0:0:0:0:
64,192,86110,128,0,86199:0:0:0:0:
320,192,86287,128,0,86375:0:0:0:0:
448,192,86463,128,0,86552:0:0:0:0:
64,192,86640,128,0,86728:0:0:0:0:
192,192,86816,128,0,86905:0:0:0:0:
448,192,86993,128,0,87081:0:0:0:0:
320,192,87169,128,0,87258:0:0:0:0:
192,192,87346,128,0,87434:0:0:0:0:
64,192,87522,128,0,87610:0:0:0:0:
320,192,87699,128,0,87787:0:0:0:0:
448,192,87875,128,0,87963:0:0:0:0:
64,192,88052,128,0,88140:0:0:0:0:
192,192,88228,128,0,88316:0:0:0:0:
448,192,88405,128,0,88493:0:0:0:0:
320,192,88581,128,0,88669:0:0:0:0:
192,192,88758,128,0,88846:0:0:0:0:
64,192,88934,128,0,89022:0:0:0:0:
320,192,89110,128,0,89199:0:0:0:0:
448,192,89287,128,0,89375:0:0:0:0:
64,192,89463,128,0,89552:0:0:0:0:
192,192,89640,128,0,89728:0:0:0:0:
448,192,89816,1,0,0:0:0:0:
320,192,89816,1,0,0:0:0:0:
192,192,89905,1,0,0:0:0:0:
320,192,89993,1,0,0:0:0:0:
448,192,89993,1,0,0:0:0:0:
64,192,89993,1,0,0:0:0:0:
64,192,90346,1,0,0:0:0:0:
448,192,90346,128,0,90604:0:0:0:0:
192,192,90346,128,0,90518:0:0:0:0:
320,192,90518,128,0,90604:0:0:0:0:
64,192,90518,128,0,90604:0:0:0:0:
64,192,90690,1,0,0:0:0:0:
448,192,90690,1,0,0:0:0:0:
320,192,90690,1,0,0:0:0:0:
320,192,90777,128,0,90863:0:0:0:0:
448,192,90777,128,0,90863:0:0:0:0:
320,192,91035,128,0,91121:0:0:0:0:
64,192,91035,128,0,91121:0:0:0:0:
192,192,91208,1,0,0:0:0:0:
448,192,91208,1,0,0:0:0:0:
320,192,91294,128,0,91380:0:0:0:0:
64,192,91294,128,0,91380:0:0:0:0:
448,192,91380,128,0,91466:0:0:0:0:
192,192,91380,1,0,0:0:0:0:
448,192,91552,128,0,91639:0:0:0:0:
192,192,91552,128,0,91639:0:0:0:0:
64,192,91639,128,0,91725:0:0:0:0:
320,192,91639,128,0,91725:0:0:0:0:
192,192,91725,1,0,0:0:0:0:
448,192,91725,1,0,0:0:0:0:
320,192,91897,128,0,91983:0:0:0:0:
64,192,91897,128,0,91983:0:0:0:0:
64,192,92070,1,0,0:0:0:0:
192,192,92070,1,0,0:0:0:0:
448,192,92070,1,0,0:0:0:0:
192,192,92156,128,0,92242:0:0:0:0:
64,192,92156,128,0,92242:0:0:0:0:
448,192,92242,128,0,92328:0:0:0:0:
320,192,92414,128,0,92501:0:0:0:0:
192,192,92414,128,0,92501:0:0:0:0:
64,192,92501,128,0,92587:0:0:0:0:
448,192,92587,1,0,0:0:0:0:
320,192,92587,1,0,0:0:0:0:
192,192,92673,128,0,92759:0:0:0:0:
64,192,92673,128,0,92759:0:0:0:0:
320,192,92759,128,0,92846:0:0:0:0:
448,192,92759,1,0,0:0:0:0:
320,192,92932,128,0,93018:0:0:0:0:
448,192,92932,128,0,93018:0:0:0:0:
192,192,93018,128,0,93104:0:0:0:0:
448,192,93104,1,0,0:0:0:0:
64,192,93104,128,0,93363:0:0:0:0:
320,192,93104,128,0,93277:0:0:0:0:
192,192,93277,128,0,93363:0:0:0:0:
448,192,93277,128,0,93363:0:0:0:0:
448,192,93449,1,0,0:0:0:0:
64,192,93449,1,0,0:0:0:0:
192,192,93449,1,0,0:0:0:0:
192,192,93535,128,0,93621:0:0:0:0:
64,192,93535,128,0,93621:0:0:0:0:
192,192,93794,128,0,93880:0:0:0:0:
448,192,93794,128,0,93880:0:0:0:0:
320,192,93966,1,0,0:0:0:0:
64,192,93966,1,0,0:0:0:0:
192,192,94052,128,0,94139:0:0:0:0:
448,192,94052,128,0,94139:0:0:0:0:
64,192,94139,128,0,94225:0:0:0:0:
320,192,94139,1,0,0:0:0:0:
64,192,94311,128,0,94397:0:0:0:0:
320,192,94311,128,0,94397:0:0:0:0:
448,192,94397,128,0,94483:0:0:0:0:
192,192,94397,128,0,94483:0:0:0:0:
320,192,94483,1,0,0:0:0:0:
64,192,94483,1,0,0:0:0:0:
192,192,94656,128,0,94742:0:0:0:0:
448,192,94656,128,0,94742:0:0:0:0:
448,192,94828,1,0,0:0:0:0:
320,192,94828,1,0,0:0:0:0:
64,192,94828,1,0,0:0:0:0:
320,192,94914,128,0,95001:0:0:0:0:
448,192,94914,128,0,95001:0:0:0:0:
192,192,95001,128,0,95087:0:0:0:0:
64,192,95173,128,0,95259:0:0:0:0:
448,192,95173,128,0,95259:0:0:0:0:
192,192,95259,128,0,95346:0:0:0:0:
448,192,95346,1,0,0:0:0:0:
320,192,95346,1,0,0:0:0:0:
192,192,95432,128,0,95518:0:0:0:0:
64,192,95432,128,0,95518:0:0:0:0:
448,192,95518,128,0,95604:0:0:0:0:
320,192,95518,1,0,0:0:0:0:
192,192,95690,128,0,95777:0:0:0:0:
64,192,95690,128,0,95777:0:0:0:0:
320,192,95777,128,0,95863:0:0:0:0:
192,192,95863,128,0,96035:0:0:0:0:
448,192,95863,128,0,96121:0:0:0:0:
64,192,95863,1,0,0:0:0:0:
64,192,96035,128,0,96121:0:0:0:0:
320,192,96035,128,0,96121:0:0:0:0:
320,192,96208,1,0,0:0:0:0:
448,192,96208,1,0,0:0:0:0:
64,192,96208,1,0,0:0:0:0:
448,192,96294,128,0,96380:0:0:0:0:
320,192,96294,128,0,96380:0:0:0:0:
64,192,96552,128,0,96639:0:0:0:0:
320,192,96552,128,0,96639:0:0:0:0:
448,192,96725,1,0,0:0:0:0:
192,192,96725,1,0,0:0:0:0:
64,192,96811,128,0,96897:0:0:0:0:
320,192,96811,128,0,96897:0:0:0:0:
448,192,96897,128,0,96983:0:0:0:0:
192,192,96897,1,0,0:0:0:0:
192,192,97070,128,0,97156:0:0:0:0:
448,192,97070,128,0,97156:0:0:0:0:
320,192,97156,128,0,97242:0:0:0:0:
64,192,97156,128,0,97242:0:0:0:0:
448,192,97242,1,0,0:0:0:0:
192,192,97242,1,0,0:0:0:0:
64,192,97414,128,0,97501:0:0:0:0:
320,192,97414,128,0,97501:0:0:0:0:
448,192,97587,1,0,0:0:0:0:
192,192,97587,1,0,0:0:0:0:
64,192,97587,1,0,0:0:0:0:
64,192,97673,128,0,97759:0:0:0:0:
192,192,97673,128,0,97759:0:0:0:0:
320,192,97759,128,0,97846:0:0:0:0:
64,192,97932,128,0,98018:0:0:0:0:
448,192,97932,128,0,98018:0:0:0:0:
192,192,98018,128,0,98104:0:0:0:0:
448,192,98104,1,0,0:0:0:0:
320,192,98104,1,0,0:0:0:0:
192,192,98190,128,0,98277:0:0:0:0:
64,192,98190,128,0,98277:0:0:0:0:
320,192,98277,128,0,98363:0:0:0:0:
448,192,98277,1,0,0:0:0:0:
448,192,98449,128,0,98535:0:0:0:0:
320,192,98449,128,0,98535:0:0:0:0:
192,192,98535,128,0,98621:0:0:0:0:
320,192,98621,128,0,98794:0:0:0:0:
64,192,98621,128,0,98880:0:0:0:0:
448,192,98621,1,0,0:0:0:0:
448,192,98794,128,0,98880:0:0:0:0:
192,192,98794,128,0,98880:0:0:0:0:
192,192,98966,1,0,0:0:0:0:
64,192,98966,1,0,0:0:0:0:
448,192,98966,1,0,0:0:0:0:
64,192,99052,128,0,99139:0:0:0:0:
192,192,99052,128,0,99139:0:0:0:0:
448,192,99311,128,0,99397:0:0:0:0:
192,192,99311,128,0,99397:0:0:0:0:
64,192,99483,1,0,0:0:0:0:
320,192,99483,1,0,0:0:0:0:
448,192,99570,128,0,99656:0:0:0:0:
192,192,99570,128,0,99656:0:0:0:0:
64,192,99656,128,0,99742:0:0:0:0:
320,192,99656,1,0,0:0:0:0:
320,192,99828,128,0,99914:0:0:0:0:
64,192,99828,128,0,99914:0:0:0:0:
192,192,99914,128,0,100001:0:0:0:0:
448,192,99914,128,0,100001:0:0:0:0:
64,192,100001,1,0,0:0:0:0:
320,192,100001,1,0,0:0:0:0:
448,192,100173,128,0,100259:0:0:0:0:
192,192,100173,128,0,100259:0:0:0:0:
64,192,100346,5,0,0:0:0:0:
320,192,100346,1,0,0:0:0:0:
448,192,100346,1,0,0:0:0:0:
448,192,100432,128,0,100518:0:0:0:0:
320,192,100432,128,0,100518:0:0:0:0:
192,192,100518,128,0,100604:0:0:0:0:
448,192,100690,128,0,100777:0:0:0:0:
64,192,100690,128,0,100777:0:0:0:0:
192,192,100777,128,0,100863:0:0:0:0:
320,192,100863,1,0,0:0:0:0:
64,192,100863,1,0,0:0:0:0:
192,192,100949,128,0,101035:0:0:0:0:
448,192,100949,128,0,101035:0:0:0:0:
320,192,101035,128,0,101121:0:0:0:0:
64,192,101035,1,0,0:0:0:0:
448,192,101208,128,0,101294:0:0:0:0:
192,192,101208,128,0,101294:0:0:0:0:
64,192,101294,128,0,101380:0:0:0:0:
320,192,101380,128,0,101466:0:0:0:0:
448,192,101380,128,0,101466:0:0:0:0:
192,192,101380,1,0,0:0:0:0:
64,192,101466,1,0,0:0:0:0:
192,192,101552,128,0,101639:0:0:0:0:
320,192,101552,128,0,101639:0:0:0:0:
448,192,101639,1,0,0:0:0:0:
64,192,101725,128,0,101811:0:0:0:0:
192,192,101725,128,0,101811:0:0:0:0:
320,192,101811,1,0,0:0:0:0:
448,192,101897,128,0,101983:0:0:0:0:
64,192,101897,128,0,101983:0:0:0:0:
192,192,101983,1,0,0:0:0:0:
320,192,102070,128,0,102156:0:0:0:0:
64,192,102156,1,0,0:0:0:0:
192,192,102242,128,0,102328:0:0:0:0:
448,192,102242,1,0,0:0:0:0:
320,192,102328,1,0,0:0:0:0:
64,192,102414,128,0,102501:0:0:0:0:
448,192,102414,1,0,0:0:0:0:
320,192,102501,1,0,0:0:0:0:
192,192,102587,128,0,102673:0:0:0:0:
64,192,102673,1,0,0:0:0:0:
320,192,102759,128,0,102846:0:0:0:0:
448,192,102759,128,0,102846:0:0:0:0:
64,192,102846,1,0,0:0:0:0:
320,192,102932,128,0,103018:0:0:0:0:
192,192,102932,128,0,103018:0:0:0:0:
448,192,103018,1,0,0:0:0:0:
64,192,103104,128,0,103190:0:0:0:0:
192,192,103104,128,0,103190:0:0:0:0:
320,192,103190,1,0,0:0:0:0:
448,192,103277,128,0,103363:0:0:0:0:
64,192,103277,128,0,103363:0:0:0:0:
192,192,103363,1,0,0:0:0:0:
320,192,103449,128,0,103535:0:0:0:0:
64,192,103535,1,0,0:0:0:0:
192,192,103621,128,0,103708:0:0:0:0:
448,192,103621,1,0,0:0:0:0:
320,192,103708,1,0,0:0:0:0:
64,192,103794,128,0,103880:0:0:0:0:
448,192,103794,1,0,0:0:0:0:
320,192,103880,1,0,0:0:0:0:
192,192,103966,128,0,104052:0:0:0:0:
64,192,104052,1,0,0:0:0:0:
320,192,104139,128,0,104225:0:0:0:0:
448,192,104139,128,0,104225:0:0:0:0:
64,192,104225,1,0,0:0:0:0:
320,192,104311,128,0,104397:0:0:0:0:
192,192,104311,128,0,104397:0:0:0:0:
448,192,104397,1,0,0:0:0:0:
64,192,104483,128,0,104570:0:0:0:0:
192,192,104483,128,0,104570:0:0:0:0:
320,192,104570,1,0,0:0:0:0:
448,192,104656,128,0,104742:0:0:0:0:
64,192,104656,128,0,104742:0:0:0:0:
192,192,104742,1,0,0:0:0:0:
320,192,104828,128,0,104914:0:0:0:0:
64,192,104914,1,0,0:0:0:0:
192,192,105001,128,0,105087:0:0:0:0:
448,192,105001,1,0,0:0:0:0:
320,192,105087,1,0,0:0:0:0:
64,192,105173,128,0,105259:0:0:0:0:
448,192,105173,1,0,0:0:0:0:
320,192,105259,1,0,0:0:0:0:
192,192,105346,128,0,105432:0:0:0:0:
64,192,105432,1,0,0:0:0:0:
320,192,105518,128,0,105604:0:0:0:0:
448,192,105518,128,0,105604:0:0:0:0:
64,192,105604,1,0,0:0:0:0:
320,192,105690,128,0,105777:0:0:0:0:
192,192,105690,128,0,105777:0:0:0:0:
448,192,105777,1,0,0:0:0:0:
64,192,105863,128,0,105949:0:0:0:0:
192,192,105863,128,0,105949:0:0:0:0:
320,192,105949,1,0,0:0:0:0:
448,192,106035,128,0,106121:0:0:0:0:
64,192,106035,128,0,106121:0:0:0:0:
192,192,106121,1,0,0:0:0:0:
320,192,106208,128,0,106294:0:0:0:0:
64,192,106294,1,0,0:0:0:0:
192,192,106380,128,0,106466:0:0:0:0:
448,192,106380,1,0,0:0:0:0:
320,192,106466,1,0,0:0:0:0:
64,192,106552,128,0,106639:0:0:0:0:
448,192,106552,1,0,0:0:0:0:
192,192,106639,1,0,0:0:0:0:
320,192,106725,128,0,106811:0:0:0:0:
64,192,106725,1,0,0:0:0:0:
448,192,106811,1,0,0:0:0:0:
64,192,106897,128,0,106983:0:0:0:0:
192,192,106897,128,0,106983:0:0:0:0:
320,192,106897,1,0,0:0:0:0:
448,192,106983,1,0,0:0:0:0:
192,192,107070,128,0,107156:0:0:0:0:
320,192,107070,128,0,107156:0:0:0:0:
64,192,107156,1,0,0:0:0:0:
448,192,107242,128,0,107328:0:0:0:0:
320,192,107242,128,0,107328:0:0:0:0:
192,192,107328,1,0,0:0:0:0:
64,192,107414,128,0,107501:0:0:0:0:
320,192,107414,128,0,107501:0:0:0:0:
448,192,107501,1,0,0:0:0:0:
192,192,107587,128,0,107673:0:0:0:0:
448,192,107673,1,0,0:0:0:0:
64,192,107759,1,0,0:0:0:0:
320,192,107759,128,0,107846:0:0:0:0:
192,192,107846,1,0,0:0:0:0:
64,192,107932,1,0,0:0:0:0:
448,192,107932,128,0,108018:0:0:0:0:
192,192,108018,1,0,0:0:0:0:
320,192,108104,128,0,108190:0:0:0:0:
64,192,108104,1,0,0:0:0:0:
448,192,108190,1,0,0:0:0:0:
64,192,108277,128,0,108363:0:0:0:0:
192,192,108277,128,0,108363:0:0:0:0:
320,192,108277,1,0,0:0:0:0:
448,192,108363,1,0,0:0:0:0:
320,192,108449,128,0,108535:0:0:0:0:
192,192,108449,128,0,108535:0:0:0:0:
64,192,108535,1,0,0:0:0:0:
320,192,108621,128,0,108708:0:0:0:0:
448,192,108621,128,0,108708:0:0:0:0:
192,192,108708,1,0,0:0:0:0:
64,192,108794,128,0,108880:0:0:0:0:
320,192,108794,128,0,108880:0:0:0:0:
192,192,108880,1,0,0:0:0:0:
320,192,108966,1,0,0:0:0:0:
448,192,108966,128,0,109052:0:0:0:0:
64,192,108966,1,0,0:0:0:0:
192,192,109052,1,0,0:0:0:0:
320,192,109139,128,0,109225:0:0:0:0:
64,192,109225,1,0,0:0:0:0:
448,192,109311,1,0,0:0:0:0:
192,192,109311,128,0,109397:0:0:0:0:
320,192,109397,1,0,0:0:0:0:
64,192,109483,128,0,109570:0:0:0:0:
448,192,109483,1,0,0:0:0:0:
320,192,109570,1,0,0:0:0:0:
64,192,109656,128,0,109742:0:0:0:0:
448,192,109656,128,0,109742:0:0:0:0:
192,192,109656,1,0,0:0:0:0:
320,192,109742,1,0,0:0:0:0:
192,192,109828,128,0,109914:0:0:0:0:
64,192,109828,128,0,109914:0:0:0:0:
320,192,109914,1,0,0:0:0:0:
448,192,110001,128,0,110087:0:0:0:0:
64,192,110001,128,0,110087:0:0:0:0:
192,192,110001,1,0,0:0:0:0:
320,192,110087,1,0,0:0:0:0:
64,192,110173,128,0,110259:0:0:0:0:
448,192,110173,128,0,110259:0:0:0:0:
192,192,110259,1,0,0:0:0:0:
448,192,110346,128,0,110432:0:0:0:0:
320,192,110346,128,0,110432:0:0:0:0:
64,192,110346,1,0,0:0:0:0:
192,192,110432,1,0,0:0:0:0:
320,192,110518,128,0,110604:0:0:0:0:
448,192,110518,128,0,110604:0:0:0:0:
64,192,110604,1,0,0:0:0:0:
320,192,110690,128,0,110777:0:0:0:0:
448,192,110690,128,0,110777:0:0:0:0:
192,192,110690,128,0,110777:0:0:0:0:
64,192,110777,1,0,0:0:0:0:
320,192,110863,128,0,110949:0:0:0:0:
192,192,110863,128,0,110949:0:0:0:0:
448,192,110863,128,0,110949:0:0:0:0:
64,192,110949,1,0,0:0:0:0:
320,192,111035,128,0,111121:0:0:0:0:
448,192,111035,128,0,111078:0:0:0:0:
192,192,111035,128,0,111164:0:0:0:0:
448,192,111208,128,0,111294:0:0:0:0:
320,192,111251,128,0,111337:0:0:0:0:
192,192,111294,128,0,111380:0:0:0:0:
64,192,111337,128,0,111423:0:0:0:0:
448,192,111380,128,0,111466:0:0:0:0:
320,192,111466,128,0,111552:0:0:0:0:
64,192,111552,128,0,111639:0:0:0:0:
192,192,111596,128,0,111682:0:0:0:0:
320,192,111639,128,0,111725:0:0:0:0:
448,192,111682,128,0,111768:0:0:0:0:
64,192,111725,128,0,111811:0:0:0:0:
192,192,111811,128,0,111897:0:0:0:0:
320,192,111897,128,0,111983:0:0:0:0:
448,192,111897,128,0,111983:0:0:0:0:
192,192,111983,128,0,112070:0:0:0:0:
64,192,111983,128,0,112070:0:0:0:0:
448,192,112070,128,0,112156:0:0:0:0:
320,192,112113,128,0,112199:0:0:0:0:
192,192,112156,128,0,112242:0:0:0:0:
64,192,112199,128,0,112285:0:0:0:0:
448,192,112242,128,0,112328:0:0:0:0:
320,192,112285,128,0,112328:0:0:0:0:
192,192,112328,128,0,112414:0:0:0:0:
64,192,112414,128,0,112544:0:0:0:0:
448,192,112414,128,0,112501:0:0:0:0:
320,192,112414,128,0,112501:0:0:0:0:
192,192,112501,128,0,112630:0:0:0:0:
448,192,112587,128,0,112716:0:0:0:0:
320,192,112673,128,0,112802:0:0:0:0:
64,192,112759,128,0,112889:0:0:0:0:
192,192,112759,1,0,0:0:0:0:
448,192,112846,128,0,112932:0:0:0:0:
192,192,112932,128,0,113061:0:0:0:0:
448,192,113018,128,0,113147:0:0:0:0:
320,192,113104,128,0,113233:0:0:0:0:
64,192,113190,128,0,113320:0:0:0:0:
448,192,113277,128,0,113406:0:0:0:0:
192,192,113277,128,0,113363:0:0:0:0:
320,192,113363,128,0,113449:0:0:0:0:
64,192,113449,128,0,113535:0:0:0:0:
192,192,113449,128,0,113578:0:0:0:0:
448,192,113535,128,0,113664:0:0:0:0:
64,192,113621,128,0,113751:0:0:0:0:
320,192,113621,1,0,0:0:0:0:
192,192,113708,128,0,113837:0:0:0:0:
448,192,113794,1,0,0:0:0:0:
320,192,113794,128,0,113923:0:0:0:0:
64,192,113880,128,0,113966:0:0:0:0:
448,192,113966,128,0,114096:0:0:0:0:
192,192,114052,128,0,114182:0:0:0:0:
320,192,114139,128,0,114268:0:0:0:0:
64,192,114139,1,0,0:0:0:0:
448,192,114225,128,0,114354:0:0:0:0:
192,192,114311,128,0,114440:0:0:0:0:
64,192,114397,128,0,114483:0:0:0:0:
320,192,114483,128,0,114613:0:0:0:0:
448,192,114483,128,0,114570:0:0:0:0:
192,192,114570,128,0,114699:0:0:0:0:
64,192,114656,128,0,114785:0:0:0:0:
448,192,114656,1,0,0:0:0:0:
320,192,114742,128,0,114871:0:0:0:0:
448,192,114828,128,0,114958:0:0:0:0:
192,192,114828,1,0,0:0:0:0:
64,192,114914,128,0,115044:0:0:0:0:
192,192,115001,128,0,115130:0:0:0:0:
448,192,115087,128,0,115173:0:0:0:0:
64,192,115173,128,0,115302:0:0:0:0:
320,192,115173,128,0,115259:0:0:0:0:
192,192,115259,128,0,115389:0:0:0:0:
448,192,115346,128,0,115475:0:0:0:0:
320,192,115432,128,0,115561:0:0:0:0:
192,192,115518,1,0,0:0:0:0:
64,192,115518,128,0,115604:0:0:0:0:
448,192,115604,128,0,115690:0:0:0:0:
320,192,115690,128,0,115820:0:0:0:0:
64,192,115777,128,0,115906:0:0:0:0:
448,192,115863,128,0,115992:0:0:0:0:
192,192,115863,128,0,115949:0:0:0:0:
320,192,115949,128,0,116078:0:0:0:0:
64,192,116035,1,0,0:0:0:0:
192,192,116035,128,0,116121:0:0:0:0:
448,192,116121,128,0,116208:0:0:0:0:
320,192,116208,1,0,0:0:0:0:
64,192,116208,128,0,116337:0:0:0:0:
192,192,116294,128,0,116423:0:0:0:0:
320,192,116380,128,0,116509:0:0:0:0:
448,192,116466,128,0,116596:0:0:0:0:
192,192,116552,1,0,0:0:0:0:
64,192,116552,128,0,116639:0:0:0:0:
320,192,116639,128,0,116725:0:0:0:0:
192,192,116725,128,0,116854:0:0:0:0:
448,192,116811,128,0,116940:0:0:0:0:
64,192,116897,128,0,117027:0:0:0:0:
320,192,116897,1,0,0:0:0:0:
192,192,116983,128,0,117113:0:0:0:0:
320,192,117070,128,0,117156:0:0:0:0:
448,192,117156,128,0,117242:0:0:0:0:
64,192,117242,128,0,117371:0:0:0:0:
192,192,117242,128,0,117328:0:0:0:0:
320,192,117328,128,0,117458:0:0:0:0:
448,192,117414,1,0,0:0:0:0:
192,192,117414,128,0,117544:0:0:0:0:
64,192,117501,128,0,117630:0:0:0:0:
320,192,117587,128,0,117716:0:0:0:0:
448,192,117587,128,0,117673:0:0:0:0:
192,192,117673,128,0,117802:0:0:0:0:
64,192,117759,128,0,117846:0:0:0:0:
448,192,117846,128,0,117932:0:0:0:0:
192,192,117932,128,0,118061:0:0:0:0:
320,192,117932,128,0,118018:0:0:0:0:
64,192,118018,128,0,118104:0:0:0:0:
448,192,118104,128,0,118233:0:0:0:0:
192,192,118190,128,0,118277:0:0:0:0:
320,192,118277,128,0,118406:0:0:0:0:
64,192,118277,1,0,0:0:0:0:
448,192,118363,128,0,118449:0:0:0:0:
64,192,118449,128,0,118578:0:0:0:0:
192,192,118449,128,0,118535:0:0:0:0:
320,192,118535,128,0,118621:0:0:0:0:
192,192,118621,128,0,118751:0:0:0:0:
448,192,118708,128,0,118794:0:0:0:0:
320,192,118794,1,0,0:0:0:0:
64,192,118794,128,0,118923:0:0:0:0:
192,192,118880,128,0,118966:0:0:0:0:
448,192,118966,128,0,119096:0:0:0:0:
320,192,118966,128,0,119052:0:0:0:0:
64,192,119052,128,0,119139:0:0:0:0:
320,192,119139,128,0,119268:0:0:0:0:
192,192,119139,128,0,119225:0:0:0:0:
448,192,119225,128,0,119311:0:0:0:0:
64,192,119311,1,0,0:0:0:0:
192,192,119311,128,0,119440:0:0:0:0:
320,192,119397,128,0,119527:0:0:0:0:
64,192,119483,128,0,119613:0:0:0:0:
448,192,119570,128,0,119656:0:0:0:0:
320,192,119656,1,0,0:0:0:0:
192,192,119656,128,0,119785:0:0:0:0:
64,192,119742,128,0,119828:0:0:0:0:
448,192,119828,128,0,119958:0:0:0:0:
320,192,119914,128,0,120044:0:0:0:0:
64,192,120001,128,0,120087:0:0:0:0:
192,192,120044,128,0,120130:0:0:0:0:
448,192,120087,128,0,120173:0:0:0:0:
64,192,120173,1,0,0:0:0:0:
320,192,120173,1,0,0:0:0:0:
192,192,120216,1,0,0:0:0:0:
448,192,120259,1,0,0:0:0:0:
320,192,120302,1,0,0:0:0:0:
192,192,120346,1,0,0:0:0:0:
64,192,120346,1,0,0:0:0:0:
448,192,120389,1,0,0:0:0:0:
320,192,120432,1,0,0:0:0:0:
64,192,120475,1,0,0:0:0:0:
192,192,120518,1,0,0:0:0:0:
448,192,120561,1,0,0:0:0:0:
320,192,120604,1,0,0:0:0:0:
64,192,120647,1,0,0:0:0:0:
448,192,120690,128,0,120820:0:0:0:0:
192,192,120690,128,0,120777:0:0:0:0:
64,192,120777,128,0,120863:0:0:0:0:
320,192,120863,128,0,120992:0:0:0:0:
192,192,120949,128,0,121035:0:0:0:0:
448,192,121035,1,0,0:0:0:0:
64,192,121035,128,0,121164:0:0:0:0:
320,192,121121,128,0,121208:0:0:0:0:
192,192,121208,128,0,121337:0:0:0:0:
448,192,121294,128,0,121380:0:0:0:0:
64,192,121380,128,0,121509:0:0:0:0:
320,192,121466,128,0,121552:0:0:0:0:
448,192,121552,1,0,0:0:0:0:
192,192,121552,128,0,121682:0:0:0:0:
320,192,121639,128,0,121768:0:0:0:0:
64,192,121725,128,0,121854:0:0:0:0:
448,192,121725,1,0,0:0:0:0:
192,192,121811,128,0,121940:0:0:0:0:
320,192,121897,128,0,122027:0:0:0:0:
448,192,121983,128,0,122113:0:0:0:0:
64,192,122070,1,0,0:0:0:0:
192,192,122070,128,0,122199:0:0:0:0:
320,192,122156,128,0,122242:0:0:0:0:
448,192,122242,128,0,122328:0:0:0:0:
192,192,122328,128,0,122414:0:0:0:0:
64,192,122414,1,0,0:0:0:0:
448,192,122414,128,0,122501:0:0:0:0:
320,192,122458,128,0,122544:0:0:0:0:
192,192,122501,128,0,122587:0:0:0:0:
64,192,122544,128,0,122630:0:0:0:0:
448,192,122587,128,0,122630:0:0:0:0:
320,192,122630,128,0,122673:0:0:0:0:
64,192,122673,128,0,122759:0:0:0:0:
192,192,122716,128,0,122802:0:0:0:0:
320,192,122759,128,0,122846:0:0:0:0:
448,192,122802,128,0,122889:0:0:0:0:
64,192,122846,128,0,122889:0:0:0:0:
192,192,122889,128,0,122932:0:0:0:0:
320,192,122932,128,0,123018:0:0:0:0:
448,192,122932,128,0,123018:0:0:0:0:
64,192,123018,128,0,123061:0:0:0:0:
192,192,123061,128,0,123104:0:0:0:0:
448,192,123104,128,0,123190:0:0:0:0:
320,192,123147,128,0,123233:0:0:0:0:
64,192,123190,128,0,123233:0:0:0:0:
192,192,123233,128,0,123277:0:0:0:0:
448,192,123277,128,0,123320:0:0:0:0:
320,192,123320,128,0,123363:0:0:0:0:
192,192,123363,128,0,123449:0:0:0:0:
448,192,123449,128,0,123621:0:0:0:0:
320,192,123449,128,0,123535:0:0:0:0:
64,192,123449,128,0,123535:0:0:0:0:
192,192,123535,128,0,123708:0:0:0:0:
320,192,123621,128,0,123794:0:0:0:0:
64,192,123708,128,0,123794:0:0:0:0:
448,192,123794,128,0,123880:0:0:0:0:
192,192,123794,1,0,0:0:0:0:
320,192,123880,128,0,123966:0:0:0:0:
64,192,123966,128,0,124139:0:0:0:0:
448,192,123966,128,0,124052:0:0:0:0:
192,192,124052,128,0,124225:0:0:0:0:
320,192,124139,128,0,124311:0:0:0:0:
448,192,124225,128,0,124311:0:0:0:0:
64,192,124311,1,0,0:0:0:0:
192,192,124311,128,0,124397:0:0:0:0:
320,192,124397,128,0,124483:0:0:0:0:
448,192,124483,128,0,124656:0:0:0:0:
64,192,124483,128,0,124570:0:0:0:0:
320,192,124570,128,0,124742:0:0:0:0:
64,192,124656,128,0,124828:0:0:0:0:
192,192,124656,128,0,124742:0:0:0:0:
448,192,124828,128,0,124914:0:0:0:0:
320,192,124828,1,0,0:0:0:0:
64,192,124914,128,0,125001:0:0:0:0:
448,192,125001,128,0,125087:0:0:0:0:
192,192,125087,128,0,125173:0:0:0:0:
448,192,125173,128,0,125259:0:0:0:0:
64,192,125173,128,0,125259:0:0:0:0:
320,192,125259,128,0,125346:0:0:0:0:
448,192,125346,128,0,125432:0:0:0:0:
64,192,125432,128,0,125518:0:0:0:0:
448,192,125518,128,0,125647:0:0:0:0:
192,192,125518,128,0,125604:0:0:0:0:
320,192,125604,128,0,125733:0:0:0:0:
192,192,125690,128,0,125820:0:0:0:0:
64,192,125690,128,0,125777:0:0:0:0:
448,192,125777,128,0,125863:0:0:0:0:
320,192,125863,128,0,125949:0:0:0:0:
64,192,125863,1,0,0:0:0:0:
192,192,125949,128,0,126035:0:0:0:0:
320,192,126035,128,0,126121:0:0:0:0:
192,192,126121,128,0,126208:0:0:0:0:
64,192,126208,128,0,126337:0:0:0:0:
448,192,126208,128,0,126294:0:0:0:0:
320,192,126294,128,0,126423:0:0:0:0:
192,192,126380,128,0,126509:0:0:0:0:
448,192,126466,128,0,126596:0:0:0:0:
64,192,126552,128,0,126639:0:0:0:0:
320,192,126552,128,0,126639:0:0:0:0:
192,192,126639,128,0,126725:0:0:0:0:
448,192,126725,128,0,126854:0:0:0:0:
64,192,126725,128,0,126811:0:0:0:0:
192,192,126811,128,0,126940:0:0:0:0:
320,192,126897,128,0,127027:0:0:0:0:
64,192,126983,128,0,127113:0:0:0:0:
448,192,127070,1,0,0:0:0:0:
192,192,127070,128,0,127156:0:0:0:0:
320,192,127156,128,0,127242:0:0:0:0:
64,192,127242,128,0,127371:0:0:0:0:
448,192,127242,128,0,127328:0:0:0:0:
192,192,127328,128,0,127458:0:0:0:0:
320,192,127414,128,0,127544:0:0:0:0:
448,192,127414,128,0,127501:0:0:0:0:
64,192,127501,128,0,127630:0:0:0:0:
192,192,127587,1,0,0:0:0:0:
448,192,127587,128,0,127673:0:0:0:0:
320,192,127673,128,0,127759:0:0:0:0:
192,192,127759,128,0,127846:0:0:0:0:
64,192,127846,128,0,127932:0:0:0:0:
192,192,127932,1,0,0:0:0:0:
448,192,127932,128,0,128018:0:0:0:0:
320,192,128018,128,0,128104:0:0:0:0:
64,192,128104,128,0,128190:0:0:0:0:
320,192,128190,128,0,128277:0:0:0:0:
448,192,128277,128,0,128363:0:0:0:0:
64,192,128277,128,0,128363:0:0:0:0:
192,192,128363,128,0,128449:0:0:0:0:
448,192,128449,128,0,128535:0:0:0:0:
64,192,128449,1,0,0:0:0:0:
320,192,128535,128,0,128621:0:0:0:0:
64,192,128621,128,0,128708:0:0:0:0:
192,192,128621,128,0,128708:0:0:0:0:
320,192,128708,128,0,128794:0:0:0:0:
64,192,128794,128,0,128880:0:0:0:0:
448,192,128794,128,0,128880:0:0:0:0:
320,192,128880,128,0,128966:0:0:0:0:
192,192,128966,128,0,129096:0:0:0:0:
448,192,128966,128,0,129052:0:0:0:0:
64,192,128966,128,0,129139:0:0:0:0:
320,192,129052,128,0,129182:0:0:0:0:
448,192,129139,128,0,129268:0:0:0:0:
192,192,129225,128,0,129311:0:0:0:0:
64,192,129311,1,0,0:0:0:0:
320,192,129311,128,0,129440:0:0:0:0:
448,192,129397,128,0,129527:0:0:0:0:
192,192,129483,128,0,129613:0:0:0:0:
64,192,129570,128,0,129699:0:0:0:0:
320,192,129656,128,0,129785:0:0:0:0:
192,192,129742,128,0,129871:0:0:0:0:
64,192,129828,128,0,129958:0:0:0:0:
448,192,129828,1,0,0:0:0:0:
320,192,129914,128,0,130044:0:0:0:0:
448,192,130001,128,0,130087:0:0:0:0:
192,192,130001,128,0,130087:0:0:0:0:
64,192,130087,128,0,130173:0:0:0:0:
192,192,130173,128,0,130259:0:0:0:0:
320,192,130173,128,0,130259:0:0:0:0:
448,192,130259,128,0,130346:0:0:0:0:
64,192,130346,128,0,130475:0:0:0:0:
320,192,130346,128,0,130432:0:0:0:0:
192,192,130346,128,0,130518:0:0:0:0:
448,192,130432,128,0,130561:0:0:0:0:
320,192,130518,128,0,130647:0:0:0:0:
192,192,130604,128,0,130733:0:0:0:0:
64,192,130690,128,0,130820:0:0:0:0:
448,192,130690,1,0,0:0:0:0:
320,192,130777,128,0,130906:0:0:0:0:
192,192,130863,128,0,130949:0:0:0:0:
448,192,130949,128,0,131035:0:0:0:0:
320,192,131035,128,0,131121:0:0:0:0:
64,192,131035,128,0,131208:0:0:0:0:
192,192,131035,128,0,131164:0:0:0:0:
448,192,131121,128,0,131251:0:0:0:0:
320,192,131208,128,0,131337:0:0:0:0:
64,192,131294,128,0,131423:0:0:0:0:
192,192,131380,128,0,131509:0:0:0:0:
448,192,131380,1,0,0:0:0:0:
320,192,131466,128,0,131596:0:0:0:0:
64,192,131552,1,0,0:0:0:0:
448,192,131552,128,0,131639:0:0:0:0:
192,192,131639,128,0,131725:0:0:0:0:
448,192,131725,128,0,131811:0:0:0:0:
64,192,131725,128,0,131897:0:0:0:0:
320,192,131725,128,0,131854:0:0:0:0:
192,192,131811,128,0,131983:0:0:0:0:
448,192,131897,128,0,131983:0:0:0:0:
320,192,131983,128,0,132070:0:0:0:0:
64,192,132070,128,0,132156:0:0:0:0:
448,192,132070,128,0,132242:0:0:0:0:
192,192,132070,128,0,132199:0:0:0:0:
320,192,132156,128,0,132328:0:0:0:0:
64,192,132242,128,0,132328:0:0:0:0:
192,192,132328,128,0,132414:0:0:0:0:
448,192,132414,128,0,132501:0:0:0:0:
64,192,132414,128,0,132587:0:0:0:0:
320,192,132414,128,0,132544:0:0:0:0:
192,192,132501,128,0,132673:0:0:0:0:
448,192,132587,128,0,132673:0:0:0:0:
320,192,132673,128,0,132759:0:0:0:0:
64,192,132759,128,0,132846:0:0:0:0:
192,192,132759,128,0,132846:0:0:0:0:
320,192,132846,128,0,132932:0:0:0:0:
448,192,132846,128,0,132932:0:0:0:0:
64,192,132932,128,0,133018:0:0:0:0:
192,192,132932,128,0,133018:0:0:0:0:
320,192,133018,128,0,133104:0:0:0:0:
448,192,133018,128,0,133104:0:0:0:0:
192,192,133104,128,0,133233:0:0:0:0:
64,192,133104,128,0,133147:0:0:0:0:
448,192,133147,128,0,133320:0:0:0:0:
320,192,133190,128,0,133363:0:0:0:0:
64,192,133233,128,0,133406:0:0:0:0:
192,192,133320,128,0,133406:0:0:0:0:
448,192,133449,128,0,133492:0:0:0:0:
320,192,133492,128,0,133535:0:0:0:0:
192,192,133535,128,0,133578:0:0:0:0:
64,192,133578,128,0,133621:0:0:0:0:
448,192,133621,128,0,133708:0:0:0:0:
320,192,133664,128,0,133751:0:0:0:0:
192,192,133708,128,0,133794:0:0:0:0:
64,192,133751,128,0,133837:0:0:0:0:
448,192,133794,128,0,133837:0:0:0:0:
320,192,133837,128,0,133880:0:0:0:0:
64,192,133880,128,0,133923:0:0:0:0:
192,192,133923,128,0,133966:0:0:0:0:
320,192,133966,128,0,134052:0:0:0:0:
448,192,133966,128,0,134052:0:0:0:0:
64,192,134052,128,0,134096:0:0:0:0:
192,192,134096,128,0,134139:0:0:0:0:
448,192,134139,128,0,134225:0:0:0:0:
320,192,134182,128,0,134268:0:0:0:0:
64,192,134225,128,0,134268:0:0:0:0:
192,192,134268,128,0,134311:0:0:0:0:
448,192,134311,128,0,134354:0:0:0:0:
320,192,134354,128,0,134397:0:0:0:0:
64,192,134397,1,0,0:0:0:0:
192,192,134440,1,0,0:0:0:0:
448,192,134483,1,0,0:0:0:0:
320,192,134483,1,0,0:0:0:0:
64,192,134483,1,0,0:0:0:0:
