osu file format v14

[General]
AudioFilename: audio.mp3
AudioLeadIn: 0
PreviewTime: 12674
Countdown: 0
SampleSet: Normal
StackLeniency: 0.7
Mode: 1
LetterboxInBreaks: 0
WidescreenStoryboard: 1

[Editor]
Bookmarks: 2754,12994,23234
DistanceSpacing: 1.7
BeatDivisor: 4
GridSize: 8
TimelineZoom: 1.6

[Metadata]
Title:Paralyze Girl
TitleUnicode:Paralyze Girl
Artist:shikiura sougo
ArtistUnicode:式浦躁吾
Creator:-Kazuha
Version:Kantan
Source:
Tags:japanese pop jpop j-pop Shikiura. 式浦。 jrock j-rock rock
BeatmapID:4423475
BeatmapSetID:2107778

[Difficulty]
HPDrainRate:10
CircleSize:5
OverallDifficulty:3
ApproachRate:5
SliderMultiplier:1.4
SliderTickRate:1

[Events]
//Background and Video events
0,0,"paralyze_girl.jpg",0,0
//Break Periods
//Storyboard Layer 0 (Background)
//Storyboard Layer 1 (Fail)
//Storyboard Layer 2 (Pass)
//Storyboard Layer 3 (Foreground)
//Storyboard Layer 4 (Overlay)
//Storyboard Sound Samples

[TimingPoints]
194,320,4,1,0,90,1,8
1474,320,4,1,0,90,1,0
1474,-100,4,1,0,90,0,0
2754,-100,4,1,0,90,0,0
12349,-100,4,1,0,90,0,0
12509,-100,4,1,0,90,0,0
12669,-100,4,1,0,90,0,0
12749,-100,4,1,0,90,0,0
12829,-100,4,1,0,90,0,0
12909,-100,4,1,0,90,0,0
12989,-100,4,1,0,90,0,0
23549,-100,4,1,0,90,0,0
33309,-100,4,1,0,90,0,0

[HitObjects]
115,131,1474,6,0,L|409:150,1,280
208,231,2754,1,4,0:0:0:0:
234,118,3394,1,8,0:0:0:0:
233,123,4034,1,0,0:0:0:0:
233,123,4354,1,8,0:0:0:0:
233,123,4834,1,8,0:0:0:0:
214,61,5314,1,0,0:0:0:0:
218,63,5634,1,8,0:0:0:0:
196,68,5954,1,0,0:0:0:0:
196,68,6594,1,8,0:0:0:0:
208,231,7874,1,12,0:0:0:0:
234,118,8514,1,8,0:0:0:0:
233,123,9154,1,0,0:0:0:0:
233,123,9474,1,0,0:0:0:0:
233,123,9954,1,8,0:0:0:0:
214,61,10434,1,0,0:0:0:0:
218,63,10754,1,0,0:0:0:0:
196,68,11074,1,8,0:0:0:0:
196,68,11714,1,8,0:0:0:0:
196,24,12994,5,12,0:0:0:0:
186,90,13634,1,8,0:0:0:0:
186,90,13954,1,0,0:0:0:0:
338,232,14274,1,8,0:0:0:0:
338,232,14594,1,8,0:0:0:0:
338,232,15074,1,0,0:0:0:0:
338,232,15554,1,8,0:0:0:0:
239,103,15874,1,8,0:0:0:0:
239,103,16194,1,0,0:0:0:0:
239,103,16514,1,8,0:0:0:0:
239,103,16834,1,0,0:0:0:0:
196,24,18114,1,12,0:0:0:0:
186,90,18754,1,8,0:0:0:0:
186,90,19074,1,0,0:0:0:0:
338,232,19394,1,8,0:0:0:0:
338,232,19714,1,8,0:0:0:0:
338,232,20194,1,0,0:0:0:0:
338,232,20674,1,8,0:0:0:0:
239,103,20994,1,0,0:0:0:0:
239,103,21314,1,8,0:0:0:0:
239,103,21634,1,8,0:0:0:0:
239,103,21954,1,0,0:0:0:0:
139,14,23234,5,12,0:0:0:0:
274,207,23874,1,8,0:0:0:0:
274,207,24514,1,0,0:0:0:0:
160,86,24834,1,8,0:0:0:0:
160,86,25154,1,8,0:0:0:0:
169,47,25794,1,0,0:0:0:0:
274,207,26434,1,8,0:0:0:0:
274,207,27074,1,0,0:0:0:0:
160,86,27394,1,8,0:0:0:0:
160,86,27714,1,0,0:0:0:0:
203,55,28354,1,12,0:0:0:0:
274,207,28994,1,8,0:0:0:0:
274,207,29634,1,0,0:0:0:0:
160,86,29954,1,8,0:0:0:0:
160,86,30274,1,8,0:0:0:0:
169,47,30914,1,0,0:0:0:0:
274,207,31554,1,8,0:0:0:0:
274,207,32194,1,0,0:0:0:0:
160,86,32514,1,8,0:0:0:0:
160,86,32834,1,8,0:0:0:0:
221,53,33314,1,4,0:0:0:0:
