osu file format v14

[General]
AudioFilename: kata.mp3
AudioLeadIn: 0
PreviewTime: 57135
Countdown: 1
SampleSet: Normal
StackLeniency: 0.7
Mode: 0
LetterboxInBreaks: 1
WidescreenStoryboard: 1

[Editor]
Bookmarks: 192271
DistanceSpacing: 1
BeatDivisor: 4
GridSize: 4
TimelineZoom: 1

[Metadata]
Title:Katayoku no tori
TitleUnicode:片翼の鳥
Artist:shikata akiko
ArtistUnicode:志方あきこ
Creator:lahphnya
Version:Arles
Source:
Tags:
BeatmapID:1021579
BeatmapSetID:478303

[Difficulty]
HPDrainRate:4
CircleSize:4
OverallDifficulty:8
ApproachRate:10
SliderMultiplier:1.9
SliderTickRate:1

[Events]
//Background and Video events
0,0,"BG.jpg",0,0
//Break Periods
2,55221,56685
2,91221,103662
2,173040,178935
//Storyboard Layer 0 (Background)
//Storyboard Layer 1 (Fail)
//Storyboard Layer 2 (Pass)
//Storyboard Layer 3 (Foreground)
//Storyboard Sound Samples

[TimingPoints]
1021.85303388495,272.727272727273,6,1,0,50,1,0
14112,-133.333333333333,6,1,0,50,0,0
27203,-90.9090909090909,6,1,0,50,0,0
41930,-133.333333333333,6,1,0,50,0,0
43567,-90.9090909090909,6,1,0,50,0,0
45203,-133.333333333333,6,1,0,50,0,0
46567,-90.9090909090909,6,1,0,50,0,0
57067,-133.333333333333,6,1,0,50,0,0
57953,-83.3333333333333,6,1,0,50,0,0
84476,-71.4285714285714,6,1,0,50,0,0
90203,-133.333333333333,6,1,0,50,0,0
122112,-133.333333333333,6,1,0,50,0,0
123749,-90.9090909090909,6,1,0,50,0,0
125385,-133.333333333333,6,1,0,50,0,0
127021,-90.9090909090909,6,1,0,50,0,0
130294,-133.333333333333,6,1,0,50,0,0
140112,-76.9230769230769,6,1,0,50,0,0
157840,-66.6666666666667,6,1,0,50,0,0
179385,-100,6,1,0,50,0,0
206112,-166.666666666667,6,1,0,50,0,0
217021,545.454545454546,6,1,0,50,1,0
217021,-200,6,1,0,50,0,0
220293,272.727272727273,6,1,0,50,1,0
221043,-90.9090909090909,6,1,0,50,0,0
221315,-83.3333333333333,6,1,0,50,0,0
221588,-66.6666666666667,6,1,0,50,0,0
235020,-60.6060606060606,6,1,0,50,0,0
248111,-50,6,1,0,50,0,0

[HitObjects]
372,64,1021,6,0,P|384:144|304:248,1,190
76,304,1430,2,0,P|136:296|248:376,1,190
348,316,1840,2,0,P|348:232|336:200,1,95
172,104,2112,2,0,P|164:176|188:232,1,95
296,112,2385,2,0,L|416:96,1,95
484,232,2658,6,0,B|436:228|436:228|396:260|396:260|340:240|280:252,1,190
136,168,3067,2,0,L|160:360,1,190
300,248,3476,2,0,P|320:184|348:156,1,95
488,48,3749,2,0,P|444:64|384:48,1,95
308,124,4021,1,0,0:0:0:0:
456,176,4158,1,0,0:0:0:0:
456,176,4226,1,0,0:0:0:0:
456,176,4294,6,0,L|432:376,1,190
256,192,4703,2,0,P|232:116|304:16,1,190
344,196,5112,2,0,L|232:196,1,95
60,280,5385,1,0,0:0:0:0:
168,128,5521,1,0,0:0:0:0:
12,156,5658,1,0,0:0:0:0:
196,132,5794,1,0,0:0:0:0:
264,260,5930,6,0,P|332:268|364:256,1,95
464,68,6203,1,0,0:0:0:0:
328,32,6340,1,0,0:0:0:0:
288,176,6476,1,0,0:0:0:0:
424,220,6612,1,0,0:0:0:0:
344,112,6749,2,0,L|236:96,1,95
212,92,6953,1,0,0:0:0:0:
212,92,7021,1,0,0:0:0:0:
224,324,7158,1,0,0:0:0:0:
40,180,7294,1,0,0:0:0:0:
52,328,7430,1,0,0:0:0:0:
12,48,7567,6,0,L|32:280,1,190
156,328,7976,2,0,B|200:312|200:312|252:332|252:332|316:312|364:324,1,190
304,184,8385,2,0,L|408:208,1,95
156,124,8658,2,0,P|152:188|168:236,1,95
80,32,8930,2,0,P|52:92|56:140,1,95
288,140,9203,6,0,L|276:364,1,190
456,216,9612,2,0,B|480:176|480:176|464:128|464:128|476:68|476:68|436:112,1,190
160,232,10021,1,0,0:0:0:0:
360,148,10158,1,0,0:0:0:0:
360,148,10226,1,0,0:0:0:0:
360,148,10294,2,0,P|296:152|260:136,1,95
32,216,10567,2,0,L|48:340,1,95
196,80,10840,6,0,P|132:72|44:172,1,190
236,228,11249,2,0,L|352:208,1,95
144,168,11521,1,0,0:0:0:0:
312,88,11658,1,0,0:0:0:0:
200,296,11794,1,0,0:0:0:0:
148,76,11930,1,0,0:0:0:0:
348,240,12067,1,0,0:0:0:0:
72,224,12203,2,0,P|48:152|64:112,1,95
248,36,12476,6,0,L|240:164,1,95
240,184,12680,1,0,0:0:0:0:
240,184,12749,1,0,0:0:0:0:
116,224,12885,1,0,0:0:0:0:
348,336,13021,2,0,L|232:312,1,95
352,124,13294,1,0,0:0:0:0:
136,152,13430,1,0,0:0:0:0:
384,236,13567,1,0,0:0:0:0:
180,88,13703,1,0,0:0:0:0:
224,300,13840,1,0,0:0:0:0:
372,132,13976,1,0,0:0:0:0:
232,92,14112,6,0,B|188:100|120:76|120:76|136:136,1,142.500005435944
148,192,14658,1,0,0:0:0:0:
40,160,14930,1,0,0:0:0:0:
196,116,15203,2,0,L|276:112,1,71.2500027179719
368,204,15476,2,0,L|460:204,1,71.2500027179719
480,100,15749,6,0,P|496:180|480:272,1,142.500005435944
328,128,16158,1,0,0:0:0:0:
348,256,16294,2,0,L|364:344,1,71.2500027179719
132,208,16567,1,0,0:0:0:0:
164,72,16703,1,0,0:0:0:0:
292,16,16840,1,0,0:0:0:0:
432,56,16976,1,0,0:0:0:0:
228,164,17112,2,0,L|144:164,1,71.2500027179719
52,304,17385,6,0,P|120:332|208:296,1,142.500005435944
388,180,17794,1,0,0:0:0:0:
264,244,17930,2,0,P|264:304|272:328,1,71.2500027179719
392,196,18203,2,0,P|392:140|380:108,1,71.2500027179719
252,36,18476,1,0,0:0:0:0:
256,136,18612,1,0,0:0:0:0:
336,76,18749,1,0,0:0:0:0:
256,228,18885,1,0,0:0:0:0:
348,72,19021,5,0,0:0:0:0:
280,192,19294,2,0,P|208:204|164:172,1,106.875004076958
164,184,19567,2,0,P|184:232|200:248,1,71.2500027179719
376,344,19840,1,0,0:0:0:0:
392,232,19976,1,0,0:0:0:0:
408,120,20112,1,0,0:0:0:0:
428,8,20249,2,0,L|364:12,1,35.625001358986
268,124,20385,1,0,0:0:0:0:
160,84,20521,1,0,0:0:0:0:
340,64,20658,6,0,P|352:128|324:220,1,142.500005435944
188,320,21067,2,0,B|56:300|56:300|92:292,1,142.500005435944
208,132,21476,2,0,P|244:152|264:180,1,71.2500027179719
84,192,21749,2,0,L|76:108,1,71.2500027179719
212,236,22021,2,0,L|220:320,1,71.2500027179719
352,184,22294,6,0,P|356:128|348:104,1,71.2500027179719
220,120,22567,1,0,0:0:0:0:
172,240,22703,1,0,0:0:0:0:
268,356,22840,2,0,L|360:340,1,71.2500027179719
468,224,23112,2,0,L|380:224,1,71.2500027179719
236,232,23385,1,0,0:0:0:0:
76,184,23521,1,0,0:0:0:0:
284,144,23658,2,0,P|320:160|340:200,1,71.2500027179719
120,240,23930,6,0,L|108:136,1,71.2500027179719
96,64,24203,1,0,0:0:0:0:
192,328,24340,2,0,P|216:292|224:260,1,71.2500027179719
208,116,24612,1,0,0:0:0:0:
356,280,24749,2,0,P|412:288|448:272,1,71.2500027179719
288,164,25021,2,0,P|264:200|256:252,1,71.2500027179719
412,160,25294,2,0,P|412:104|400:72,1,71.2500027179719
232,312,25567,5,0,0:0:0:0:
168,112,25703,1,0,0:0:0:0:
356,248,25840,1,0,0:0:0:0:
120,216,25976,1,0,0:0:0:0:
340,96,26112,1,0,0:0:0:0:
256,336,26249,1,0,0:0:0:0:
176,96,26385,1,0,0:0:0:0:
424,220,26521,1,0,0:0:0:0:
104,208,26658,1,0,0:0:0:0:
328,52,26794,1,0,0:0:0:0:
364,336,26930,1,0,0:0:0:0:
416,164,27067,1,0,0:0:0:0:
416,164,27135,1,0,0:0:0:0:
416,164,27203,6,0,P|320:184|212:128,1,209.000006378174
60,304,27612,2,0,L|180:284,1,104.500003189087
372,248,27885,1,0,0:0:0:0:
140,172,28021,2,0,B|96:144|96:144|72:92,1,104.500003189087
344,44,28294,2,0,L|328:180,1,104.500003189087
176,264,28567,2,0,L|200:380,1,104.500003189087
436,240,28840,6,0,P|456:144|392:44,1,209.000006378174
248,104,29249,1,0,0:0:0:0:
384,144,29385,1,0,0:0:0:0:
308,352,29521,1,0,0:0:0:0:
152,168,29658,2,0,P|144:104|128:56,1,104.500003189087
392,44,29930,2,0,P|384:112|384:168,1,104.500003189087
272,312,30203,1,0,0:0:0:0:
140,120,30340,1,0,0:0:0:0:
140,120,30408,1,0,0:0:0:0:
140,120,30476,6,0,B|92:100|92:100|16:92,1,104.500003189087
204,272,30749,1,0,0:0:0:0:
312,76,30885,1,0,0:0:0:0:
312,76,30953,1,0,0:0:0:0:
312,76,31021,2,0,P|376:56|424:68,1,104.500003189087
272,236,31294,2,0,P|192:252|120:200,1,156.750004783631
44,160,31567,2,0,B|60:308|60:308|80:260,1,156.750004783631
100,312,31840,2,0,P|176:324|200:356,1,104.500003189087
368,212,32112,6,0,P|432:208|488:228,1,104.500003189087
288,64,32385,1,0,0:0:0:0:
136,204,32521,1,0,0:0:0:0:
360,24,32658,2,0,P|344:96|352:164,1,104.500003189087
128,196,32930,2,0,P|144:260|144:320,1,104.500003189087
312,228,33203,1,0,0:0:0:0:
100,80,33340,1,0,0:0:0:0:
368,120,33476,1,0,0:0:0:0:
100,80,33612,1,0,0:0:0:0:
456,80,33749,6,0,P|364:136|372:256,1,209.000006378174
248,152,34158,2,0,L|264:236,1,52.2500015945435
224,296,34294,2,0,B|188:296|188:296|108:332,1,104.500003189087
332,248,34567,2,0,L|452:284,1,104.500003189087
488,120,34840,2,0,P|420:104|372:124,1,104.500003189087
208,304,35112,1,0,0:0:0:0:
176,92,35249,1,0,0:0:0:0:
352,196,35385,5,0,0:0:0:0:
88,144,35521,1,0,0:0:0:0:
352,64,35658,2,0,L|416:72,1,52.2500015945435
328,184,35794,2,0,L|268:172,1,52.2500015945435
444,160,35930,2,0,L|428:304,1,104.500003189087
220,96,36203,2,0,P|188:164|220:256,1,156.750004783631
200,316,36476,2,0,B|140:332|140:332|84:376,1,104.500003189087
388,96,36749,2,0,P|444:72|472:12,1,104.500003189087
292,32,37021,6,0,L|324:252,1,209.000006378174
128,356,37430,2,0,P|132:292|112:224,1,104.500003189087
24,92,37703,1,0,0:0:0:0:
304,192,37840,2,0,P|336:256|332:316,1,104.500003189087
472,72,38112,2,0,P|416:92|356:92,1,104.500003189087
176,40,38385,1,0,0:0:0:0:
16,148,38521,1,0,0:0:0:0:
216,160,38658,6,0,P|292:152|332:116,1,104.500003189087
440,292,38930,1,0,0:0:0:0:
184,192,39067,2,0,P|172:128|156:80,1,104.500003189087
428,24,39340,2,0,P|420:108|428:176,1,104.500003189087
212,324,39612,1,0,0:0:0:0:
284,40,39749,1,0,0:0:0:0:
360,332,39885,1,0,0:0:0:0:
120,144,40021,1,0,0:0:0:0:
452,160,40158,1,0,0:0:0:0:
200,344,40294,6,0,P|204:256|160:112,1,209.000006378174
368,32,40703,2,0,P|432:60|460:120,1,104.500003189087
368,256,40976,1,0,0:0:0:0:
204,116,41112,2,0,P|132:116|64:132,1,104.500003189087
36,228,41385,2,0,L|60:360,1,104.500003189087
216,224,41658,2,0,P|228:156|192:64,1,156.750004783631
176,48,41930,5,0,0:0:0:0:
176,48,42203,2,0,B|292:32|292:32|260:72,1,142.500005435944
240,152,42749,1,0,0:0:0:0:
244,172,43021,2,0,L|240:264,1,71.2500027179719
380,280,43294,1,0,0:0:0:0:
492,184,43430,1,0,0:0:0:0:
384,304,43567,6,0,P|392:216|340:96,1,209.000006378174
144,48,43976,2,0,P|152:128|160:264,1,209.000006378174
352,360,44385,2,0,P|364:304|376:248,1,104.500003189087
192,196,44658,2,0,P|184:120|172:72,1,104.500003189087
316,68,44930,2,0,B|440:40|440:40|432:80,1,156.750004783631
408,152,45203,5,0,0:0:0:0:
416,176,45476,1,0,0:0:0:0:
424,200,45749,1,0,0:0:0:0:
368,324,46021,1,0,0:0:0:0:
268,196,46294,1,0,0:0:0:0:
352,20,46430,1,0,0:0:0:0:
156,120,46567,2,0,B|108:144|108:144|36:140,1,104.500003189087
268,320,46840,6,0,P|340:280|388:288,1,104.500003189087
500,152,47112,1,0,0:0:0:0:
276,32,47249,2,0,P|232:84|168:104,1,104.500003189087
44,124,47521,1,0,0:0:0:0:
296,152,47658,1,0,0:0:0:0:
44,124,47794,1,0,0:0:0:0:
264,280,47930,2,0,P|340:260|376:264,1,104.500003189087
168,36,48203,2,0,L|40:20,1,104.500003189087
336,0,48476,6,0,P|312:76|328:232,1,209.000006378174
144,224,48885,2,0,P|172:312|180:364,1,104.500003189087
384,284,49158,1,0,0:0:0:0:
184,112,49294,1,0,0:0:0:0:
440,160,49430,1,0,0:0:0:0:
184,112,49567,2,0,P|128:92|64:104,1,104.500003189087
272,284,49840,2,0,P|320:264|360:208,1,104.500003189087
136,156,50112,6,0,L|124:20,1,104.500003189087
292,48,50385,1,0,0:0:0:0:
484,108,50521,1,0,0:0:0:0:
296,152,50658,2,0,P|208:152|180:136,1,104.500003189087
48,344,50930,2,0,L|184:328,1,104.500003189087
192,144,51203,1,0,0:0:0:0:
432,236,51340,1,0,0:0:0:0:
264,28,51476,2,0,P|180:16|136:24,1,104.500003189087
96,244,51749,6,0,P|152:280|288:232,1,209.000006378174
480,244,52158,2,0,P|480:172|504:116,1,104.500003189087
292,32,52430,1,0,0:0:0:0:
496,248,52567,2,0,P|432:248|376:276,1,104.500003189087
156,320,52840,1,0,0:0:0:0:
152,64,52976,1,0,0:0:0:0:
272,312,53112,1,0,0:0:0:0:
40,120,53249,1,0,0:0:0:0:
340,200,53385,5,0,0:0:0:0:
188,16,53658,1,0,0:0:0:0:
220,248,53930,1,0,0:0:0:0:
80,60,54203,1,0,0:0:0:0:
340,264,54476,1,0,0:0:0:0:
188,16,54749,1,0,0:0:0:0:
212,336,55021,5,0,0:0:0:0:
212,336,57135,6,0,P|180:300|108:332,1,106.875004076958
112,344,57408,2,0,L|88:224,1,106.875004076958
136,156,57680,2,0,P|192:144|244:192,1,106.875004076958
272,248,57953,2,0,L|388:232,1,113.999996520996
460,64,58294,6,0,P|392:88|256:20,1,227.999993041992
104,200,58703,2,0,P|120:272|112:332,1,113.999996520996
328,192,58976,1,0,0:0:0:0:
136,56,59112,2,0,P|72:44|12:64,1,113.999996520996
340,80,59385,1,0,0:0:0:0:
216,284,59521,1,0,0:0:0:0:
184,40,59658,1,0,0:0:0:0:
216,284,59794,1,0,0:0:0:0:
364,68,59930,6,0,P|428:48|504:72,1,113.999996520996
328,280,60203,2,0,L|184:252,1,113.999996520996
12,76,60476,1,0,0:0:0:0:
196,180,60612,1,0,0:0:0:0:
332,60,60749,2,0,P|396:44|468:52,1,113.999996520996
204,256,61021,1,0,0:0:0:0:
284,24,61158,1,0,0:0:0:0:
504,132,61294,1,0,0:0:0:0:
396,332,61430,1,0,0:0:0:0:
192,344,61567,6,0,P|192:264|132:124,1,227.999993041992
344,148,61976,2,0,P|352:76|368:28,1,113.999996520996
156,12,62249,1,0,0:0:0:0:
272,240,62385,2,0,P|344:280|408:276,1,113.999996520996
468,48,62658,2,0,B|428:84|428:84|348:104,1,113.999996520996
184,88,62930,2,0,P|216:180|200:292,1,170.999994781494
208,288,63203,6,0,P|272:272|300:228,1,113.999996520996
220,64,63476,1,0,0:0:0:0:
12,32,63612,1,0,0:0:0:0:
168,168,63749,2,0,P|240:176|300:148,1,113.999996520996
472,336,64021,2,0,P|368:324|316:336,1,113.999996520996
176,352,64294,1,0,0:0:0:0:
136,104,64430,1,0,0:0:0:0:
320,48,64567,2,0,P|388:32|444:40,1,113.999996520996
180,152,64840,6,0,P|204:224|216:312,1,113.999996520996
192,372,65112,1,0,0:0:0:0:
384,164,65249,1,0,0:0:0:0:
60,272,65385,1,0,0:0:0:0:
348,348,65521,1,0,0:0:0:0:
168,76,65658,2,0,P|88:52|32:72,1,113.999996520996
260,292,65930,1,0,0:0:0:0:
352,24,66067,1,0,0:0:0:0:
160,232,66203,2,0,P|100:240|40:204,1,113.999996520996
312,88,66476,6,0,P|392:68|436:24,1,113.999996520996
112,44,66749,2,0,P|136:112|140:184,1,113.999996520996
372,212,67021,2,0,P|356:284|356:344,1,113.999996520996
144,252,67294,2,0,B|84:240|84:240|36:196,1,113.999996520996
8,128,67499,1,0,0:0:0:0:
8,128,67567,1,0,0:0:0:0:
200,108,67703,2,0,L|280:88,1,56.9999982604981
360,80,67840,2,0,B|420:108|420:108|484:108,1,113.999996520996
188,16,68112,5,0,0:0:0:0:
208,252,68249,1,0,0:0:0:0:
388,80,68385,1,0,0:0:0:0:
96,164,68521,1,0,0:0:0:0:
360,284,68658,1,0,0:0:0:0:
344,8,68794,1,0,0:0:0:0:
208,336,68930,1,0,0:0:0:0:
168,56,69067,1,0,0:0:0:0:
416,224,69203,1,0,0:0:0:0:
52,152,69340,1,0,0:0:0:0:
376,112,69476,1,0,0:0:0:0:
204,360,69612,1,0,0:0:0:0:
168,56,69749,5,0,0:0:0:0:
464,168,69885,1,0,0:0:0:0:
132,192,70021,1,0,0:0:0:0:
428,20,70158,1,0,0:0:0:0:
232,320,70294,1,0,0:0:0:0:
204,8,70430,1,0,0:0:0:0:
440,116,70567,1,0,0:0:0:0:
8,204,70703,1,0,0:0:0:0:
336,276,70840,1,0,0:0:0:0:
336,252,70908,1,0,0:0:0:0:
336,228,70976,1,0,0:0:0:0:
336,204,71044,1,0,0:0:0:0:
336,180,71112,1,0,0:0:0:0:
336,156,71180,1,0,0:0:0:0:
336,132,71249,1,0,0:0:0:0:
336,108,71317,1,0,0:0:0:0:
336,84,71385,6,0,P|244:128|140:60,1,227.999993041992
156,344,71794,2,0,P|224:320|288:344,1,113.999996520996
388,384,72067,1,0,0:0:0:0:
244,80,72203,2,0,B|192:56|192:56|104:56,1,113.999996520996
368,160,72476,2,0,P|372:96|400:40,1,113.999996520996
184,328,72749,2,0,P|176:232|152:180,1,113.999996520996
452,180,73021,6,0,P|392:192|312:168,1,113.999996520996
184,56,73294,1,0,0:0:0:0:
464,204,73430,2,0,P|468:288|484:364,1,113.999996520996
152,236,73703,1,0,0:0:0:0:
400,108,73840,1,0,0:0:0:0:
96,88,73976,1,0,0:0:0:0:
276,312,74112,1,0,0:0:0:0:
368,24,74249,1,0,0:0:0:0:
60,148,74385,2,0,L|52:248,1,56.9999982604981
216,216,74521,2,0,L|232:284,1,56.9999982604981
376,128,74658,6,0,P|424:104|496:124,1,113.999996520996
244,324,74930,2,0,P|200:276|200:216,1,113.999996520996
448,24,75203,2,0,P|424:128|444:280,1,227.999993041992
180,64,75612,1,0,0:0:0:0:
128,268,75749,2,0,P|72:296|20:280,1,113.999996520996
264,52,76021,5,0,0:0:0:0:
460,124,76158,1,0,0:0:0:0:
232,180,76294,6,0,P|168:176|96:136,1,113.999996520996
352,352,76567,2,0,P|360:284|388:224,1,113.999996520996
456,80,76840,1,0,0:0:0:0:
196,24,76976,1,0,0:0:0:0:
276,280,77112,1,0,0:0:0:0:
356,20,77249,1,0,0:0:0:0:
104,144,77385,1,0,0:0:0:0:
308,296,77521,1,0,0:0:0:0:
448,104,77658,2,0,P|412:48|340:24,1,113.999996520996
164,336,77930,6,0,P|268:316|420:364,1,227.999993041992
152,40,78340,2,0,P|176:128|168:304,1,227.999993041992
352,356,78749,2,0,P|368:280|392:248,1,113.999996520996
56,144,79021,1,0,0:0:0:0:
360,80,79158,1,0,0:0:0:0:
32,152,79294,2,0,P|104:180|132:224,1,113.999996520996
436,56,79567,6,0,P|428:128|392:172,1,113.999996520996
180,304,79840,1,0,0:0:0:0:
136,36,79976,1,0,0:0:0:0:
184,320,80112,2,0,P|240:280|300:276,1,113.999996520996
480,132,80385,6,0,P|392:128|344:88,1,113.999996520996
168,36,80658,2,0,P|92:64|44:52,1,113.999996520996
356,324,80930,1,0,0:0:0:0:
368,96,81067,1,0,0:0:0:0:
60,256,81203,6,0,P|144:244|248:344,1,227.999993041992
368,196,81612,2,0,P|364:116|368:56,1,113.999996520996
200,32,81885,1,0,0:0:0:0:
156,224,82021,2,0,B|104:256|104:256|28:264,1,113.999996520996
272,376,82294,1,0,0:0:0:0:
320,120,82430,2,0,B|372:92|372:92|448:84,1,113.999996520996
188,76,82703,1,0,0:0:0:0:
436,196,82840,5,0,0:0:0:0:
128,160,82976,1,0,0:0:0:0:
488,96,83112,1,0,0:0:0:0:
236,328,83249,1,0,0:0:0:0:
356,32,83385,1,0,0:0:0:0:
424,356,83521,1,0,0:0:0:0:
68,108,83658,1,0,0:0:0:0:
468,212,83794,1,0,0:0:0:0:
192,12,83930,1,0,0:0:0:0:
196,48,83999,1,0,0:0:0:0:
200,80,84067,1,0,0:0:0:0:
204,112,84135,1,0,0:0:0:0:
208,144,84203,1,0,0:0:0:0:
212,176,84271,1,0,0:0:0:0:
216,212,84340,1,0,0:0:0:0:
220,244,84408,1,0,0:0:0:0:
224,276,84476,6,0,P|320:252|380:264,1,132.999995941162
480,16,84749,2,0,P|396:40|336:24,1,132.999995941162
84,144,85021,2,0,P|108:236|100:308,1,132.999995941162
348,4,85294,2,0,P|340:108|356:192,1,132.999995941162
56,36,85567,1,0,0:0:0:0:
444,192,85703,1,0,0:0:0:0:
216,236,85840,2,0,B|152:260|152:260|96:324,1,132.999995941162
452,332,86112,6,0,P|432:240|448:176,1,132.999995941162
288,16,86385,1,0,0:0:0:0:
176,264,86521,2,0,P|88:296|52:276,1,132.999995941162
28,64,86794,1,0,0:0:0:0:
260,24,86930,2,0,P|340:28|412:56,1,132.999995941162
172,352,87203,1,0,0:0:0:0:
128,52,87340,1,0,0:0:0:0:
432,16,87476,1,0,0:0:0:0:
464,320,87612,1,0,0:0:0:0:
96,72,87749,6,0,P|180:40|240:64,1,132.999995941162
472,176,88021,2,0,P|460:264|468:328,1,132.999995941162
304,12,88294,2,0,P|288:88|240:140,1,132.999995941162
24,224,88567,2,0,B|88:240|88:240|156:224|156:224|240:248,1,199.499993911743
320,312,88840,2,0,P|312:232|336:172,1,132.999995941162
124,36,89112,2,0,P|132:120|120:200,1,132.999995941162
112,336,89385,5,0,0:0:0:0:
112,336,89658,1,0,0:0:0:0:
220,292,89794,1,0,0:0:0:0:
316,348,89930,1,0,0:0:0:0:
424,300,90067,1,0,0:0:0:0:
292,220,90203,2,0,P|244:208|196:216,1,71.2500027179719
48,200,90476,2,0,P|108:192|144:176,1,71.2500027179719
204,96,90749,2,0,P|232:152|216:244,1,142.500005435944
340,60,104112,6,0,P|332:112|344:152,1,71.2500027179719
196,180,104385,2,0,P|204:244|204:276,1,71.2500027179719
48,88,104658,2,0,P|120:108|184:64,2,142.500005435944
96,216,105476,1,0,0:0:0:0:
296,196,105749,5,0,0:0:0:0:
124,300,106021,1,0,0:0:0:0:
356,276,106294,1,0,0:0:0:0:
208,368,106567,1,0,0:0:0:0:
452,320,106840,1,0,0:0:0:0:
160,192,107112,1,0,0:0:0:0:
392,364,107385,6,0,P|384:296|420:212,1,142.500005435944
468,148,107930,1,0,0:0:0:0:
272,56,108203,2,0,P|220:92|120:68,1,142.500005435944
56,40,108749,1,0,0:0:0:0:
56,40,109021,6,0,P|72:104|72:204,1,142.500005435944
188,224,109430,2,0,P|192:284|204:320,1,71.2500027179719
344,116,109703,2,0,B|380:104|380:104|424:104,1,71.2500027179719
496,116,110112,1,0,0:0:0:0:
496,116,110385,1,0,0:0:0:0:
400,172,110521,1,0,0:0:0:0:
352,280,110658,6,0,P|352:196|332:120,1,142.500005435944
280,52,111203,1,0,0:0:0:0:
144,264,111476,1,0,0:0:0:0:
100,24,111749,1,0,0:0:0:0:
312,200,112021,1,0,0:0:0:0:
104,332,112294,6,0,P|64:260|88:192,1,142.500005435944
160,124,112703,1,0,0:0:0:0:
280,96,112840,1,0,0:0:0:0:
288,108,113112,1,0,0:0:0:0:
300,120,113658,1,0,0:0:0:0:
452,160,113794,1,0,0:0:0:0:
256,252,113930,6,0,P|196:200|184:124,1,142.500005435944
48,88,114340,1,0,0:0:0:0:
56,240,114476,1,0,0:0:0:0:
64,264,114749,1,0,0:0:0:0:
320,172,115021,1,0,0:0:0:0:
96,160,115294,1,0,0:0:0:0:
392,104,115567,5,0,0:0:0:0:
392,124,116112,1,0,0:0:0:0:
204,152,116385,2,0,P|216:220|208:364,1,213.750008153916
356,184,116930,2,0,P|336:124|332:92,1,71.2500027179719
328,8,117203,5,0,0:0:0:0:
88,80,117612,1,0,0:0:0:0:
24,220,117749,1,0,0:0:0:0:
304,112,118021,1,0,0:0:0:0:
208,376,118567,1,0,0:0:0:0:
192,352,118840,5,0,0:0:0:0:
452,324,119249,1,0,0:0:0:0:
488,200,119385,1,0,0:0:0:0:
232,204,119658,1,0,0:0:0:0:
432,112,119930,1,0,0:0:0:0:
184,88,120203,1,0,0:0:0:0:
376,16,120476,5,0,0:0:0:0:
92,52,121021,1,0,0:0:0:0:
88,64,121294,2,0,P|112:136|112:220,1,142.500005435944
80,296,121840,1,0,0:0:0:0:
248,228,122112,2,0,B|284:240|312:224|312:224|340:244|340:244|360:232|380:240|380:240|400:268|436:272|476:264|492:248|500:216|496:184|488:172|472:152|448:148,1,356.25001358986
352,52,122930,2,0,B|336:88|336:88|368:124|368:124|348:164|348:164|360:184|360:184|352:224|352:224|356:256|356:256|348:296|356:348,1,320.625012230874
232,224,123612,1,0,0:0:0:0:
224,172,123680,1,0,0:0:0:0:
212,116,123749,6,0,P|120:184|8:136,1,209.000006378174
320,40,124158,2,0,P|312:116|316:184,1,104.500003189087
192,304,124430,1,0,0:0:0:0:
148,88,124567,2,0,P|92:72|28:88,1,104.500003189087
248,232,124840,2,0,P|312:216|344:180,1,104.500003189087
428,24,125112,1,0,0:0:0:0:
440,196,125249,1,0,0:0:0:0:
456,372,125385,6,0,P|396:360|308:376,1,142.500005435944
232,272,125930,1,0,0:0:0:0:
404,184,126203,1,0,0:0:0:0:
120,236,126476,1,0,0:0:0:0:
328,112,126749,1,0,0:0:0:0:
16,268,127021,6,0,P|16:160|-16:32,1,209.000006378174
232,200,127430,2,0,P|220:284|228:336,1,104.500003189087
116,84,127703,1,0,0:0:0:0:
316,232,127840,2,0,P|376:284|384:324,1,104.500003189087
480,100,128112,2,0,P|412:124|376:116,1,104.500003189087
240,64,128385,2,0,B|132:36|132:36|152:84,1,156.750004783631
144,172,128658,5,0,0:0:0:0:
136,196,128930,1,0,0:0:0:0:
128,220,129203,1,0,0:0:0:0:
244,360,129476,1,0,0:0:0:0:
280,172,129749,1,0,0:0:0:0:
104,40,130021,1,0,0:0:0:0:
312,24,130158,1,0,0:0:0:0:
456,188,130294,6,0,P|396:212|320:156,1,142.500005435944
472,192,130703,2,0,P|416:228|340:212,1,142.500005435944
264,144,131112,1,0,0:0:0:0:
192,360,131385,1,0,0:0:0:0:
120,148,131658,1,0,0:0:0:0:
28,76,131930,6,0,P|84:100|168:60,1,142.500005435944
48,120,132340,2,0,P|108:120|164:56,1,142.500005435944
328,40,132749,1,0,0:0:0:0:
268,200,133021,1,0,0:0:0:0:
340,360,133294,1,0,0:0:0:0:
200,120,133567,6,0,B|72:92|72:92|104:168,1,213.750008153916
296,108,134112,2,0,P|288:168|288:196,1,71.2500027179719
408,284,134385,2,0,L|396:116,1,142.500005435944
260,24,134794,1,0,0:0:0:0:
204,152,134930,2,0,B|172:176|172:176|132:176,1,71.2500027179719
332,176,135203,6,0,P|288:192|200:144,1,142.500005435944
340,176,135612,2,0,P|280:212|208:188,1,142.500005435944
128,136,136021,1,0,0:0:0:0:
408,80,136294,1,0,0:0:0:0:
208,208,136567,2,0,P|256:192|296:196,1,71.2500027179719
492,208,136840,5,0,0:0:0:0:
220,32,137112,1,0,0:0:0:0:
416,304,137385,1,0,0:0:0:0:
328,16,137658,1,0,0:0:0:0:
272,308,137930,1,0,0:0:0:0:
472,112,138203,1,0,0:0:0:0:
144,260,138476,5,0,0:0:0:0:
144,260,139021,6,0,P|140:220|64:256,1,142.500005435944
216,352,139567,1,0,0:0:0:0:
192,216,139703,1,0,0:0:0:0:
424,140,139840,1,0,0:0:0:0:
172,116,139976,1,0,0:0:0:0:
420,252,140112,6,0,P|328:228|216:336,1,246.999988693238
156,40,140521,2,0,P|176:100|172:168,1,123.499994346619
300,360,140794,1,0,0:0:0:0:
348,104,140930,2,0,P|408:64|464:72,1,123.499994346619
216,280,141203,2,0,P|152:252|88:244,1,123.499994346619
356,32,141476,2,0,P|336:120|340:184,1,123.499994346619
64,140,141749,6,0,B|48:200|48:200|84:308,1,123.499994346619
216,60,142021,1,0,0:0:0:0:
468,160,142158,1,0,0:0:0:0:
216,288,142294,2,0,P|152:296|92:352,1,123.499994346619
352,24,142567,2,0,P|344:108|360:192,1,123.499994346619
436,340,142840,1,0,0:0:0:0:
224,128,142976,2,0,P|144:120|84:176,1,123.499994346619
224,360,143249,1,0,0:0:0:0:
440,60,143385,6,0,P|368:144|216:108,1,246.999988693238
104,24,143794,1,0,0:0:0:0:
248,212,143930,2,0,P|232:292|236:360,1,123.499994346619
312,72,144203,2,0,P|388:80|440:48,1,123.499994346619
428,272,144476,1,0,0:0:0:0:
208,140,144612,1,0,0:0:0:0:
144,328,144749,2,0,P|76:304|8:320,1,123.499994346619
336,376,145021,6,0,P|368:296|320:136,1,246.999988693238
128,72,145430,2,0,P|208:80|260:60,1,123.499994346619
436,16,145703,1,0,0:0:0:0:
208,276,145840,2,0,P|140:248|72:256,1,123.499994346619
448,168,146112,2,0,P|388:208|308:212,1,123.499994346619
128,24,146385,2,0,P|164:120|160:176,1,123.499994346619
336,352,146658,6,0,P|328:240|344:204,1,123.499994346619
352,184,146862,1,0,0:0:0:0:
352,184,146930,1,0,0:0:0:0:
96,256,147067,1,0,0:0:0:0:
248,32,147203,2,0,B|304:8|304:8|392:8,1,123.499994346619
184,300,147476,1,0,0:0:0:0:
80,24,147612,1,0,0:0:0:0:
192,332,147749,2,0,P|204:260|232:200,1,123.499994346619
492,100,148021,2,0,P|428:132|380:112,1,123.499994346619
88,140,148294,6,0,P|152:188|176:256,1,123.499994346619
336,44,148567,1,0,0:0:0:0:
232,316,148703,1,0,0:0:0:0:
80,148,148840,1,0,0:0:0:0:
400,292,148976,1,0,0:0:0:0:
96,380,149112,2,0,P|104:304|84:240,1,123.499994346619
136,16,149385,1,0,0:0:0:0:
392,124,149521,1,0,0:0:0:0:
84,264,149658,1,0,0:0:0:0:
404,352,149794,1,0,0:0:0:0:
268,108,149930,6,0,B|208:88|208:88|112:88,1,123.499994346619
420,48,150203,1,0,0:0:0:0:
288,296,150340,2,0,P|212:328|144:304,1,123.499994346619
320,28,150612,1,0,0:0:0:0:
148,176,150749,2,0,P|172:260|176:320,1,123.499994346619
176,372,150953,1,0,0:0:0:0:
176,372,151021,1,0,0:0:0:0:
392,136,151158,2,0,P|316:152|240:136,1,123.499994346619
200,112,151362,1,0,0:0:0:0:
200,112,151430,1,0,0:0:0:0:
376,24,151567,5,0,0:0:0:0:
272,312,151703,1,0,0:0:0:0:
208,40,151840,1,0,0:0:0:0:
448,268,151976,1,0,0:0:0:0:
164,344,152112,1,0,0:0:0:0:
248,32,152249,1,0,0:0:0:0:
340,352,152385,1,0,0:0:0:0:
40,132,152521,1,0,0:0:0:0:
464,152,152658,1,0,0:0:0:0:
136,40,152794,1,0,0:0:0:0:
160,96,152862,1,0,0:0:0:0:
172,156,152930,1,0,0:0:0:0:
164,220,152999,1,0,0:0:0:0:
140,276,153067,1,0,0:0:0:0:
100,324,153135,1,0,0:0:0:0:
40,344,153203,6,0,P|128:332|292:376,1,246.999988693238
480,172,153612,2,0,P|404:192|344:180,1,123.499994346619
188,48,153885,1,0,0:0:0:0:
324,296,154021,2,0,P|392:340|432:336,1,123.499994346619
200,144,154294,2,0,P|108:152|68:204,1,123.499994346619
364,44,154567,2,0,P|352:144|360:204,1,123.499994346619
196,336,154840,5,0,0:0:0:0:
136,96,154976,1,0,0:0:0:0:
368,24,155112,2,0,P|288:44|240:28,1,123.499994346619
64,172,155385,2,0,P|80:264|72:340,1,123.499994346619
392,152,155658,2,0,P|324:184|160:96,1,246.999988693238
416,40,156067,1,0,0:0:0:0:
312,348,156203,1,0,0:0:0:0:
284,24,156340,1,0,0:0:0:0:
104,232,156476,6,0,P|52:128|116:4,1,246.999988693238
328,184,156885,2,0,P|312:272|320:344,1,123.499994346619
488,76,157158,1,0,0:0:0:0:
168,120,157294,1,0,0:0:0:0:
508,196,157430,1,0,0:0:0:0:
88,220,157567,1,0,0:0:0:0:
392,8,157703,1,0,0:0:0:0:
104,368,157840,6,0,L|76:176,1,142.500005435944
320,24,158112,2,0,P|312:112|328:200,1,142.500005435944
248,340,158385,1,0,0:0:0:0:
140,72,158521,2,0,P|72:52|-12:80,1,142.500005435944
152,276,158794,1,0,0:0:0:0:
412,40,158930,2,0,P|372:120|312:152,1,142.500005435944
80,148,159203,1,0,0:0:0:0:
376,376,159340,1,0,0:0:0:0:
16,288,159476,1,0,0:0:0:0:
488,128,159612,1,0,0:0:0:0:
148,8,159749,6,0,P|180:112|140:288,1,285.000010871888
396,100,160158,1,0,0:0:0:0:
272,320,160294,2,0,P|200:348|120:320,1,142.500005435944
404,76,160567,2,0,P|388:192|404:256,1,142.500005435944
148,224,160840,2,0,P|168:336|164:392,1,142.500005435944
224,24,161112,1,0,0:0:0:0:
300,376,161249,1,0,0:0:0:0:
44,168,161385,6,0,P|136:176|208:152,1,142.500005435944
412,36,161658,2,0,P|392:124|408:208,1,142.500005435944
240,336,161930,1,0,0:0:0:0:
8,112,162067,1,0,0:0:0:0:
232,52,162203,2,0,P|336:60|404:40,1,142.500005435944
456,272,162476,2,0,P|376:288|312:344,1,142.500005435944
96,36,162749,1,0,0:0:0:0:
388,180,162885,1,0,0:0:0:0:
124,340,163021,5,0,0:0:0:0:
428,72,163158,1,0,0:0:0:0:
312,352,163294,1,0,0:0:0:0:
64,236,163430,1,0,0:0:0:0:
456,276,163567,1,0,0:0:0:0:
52,128,163703,1,0,0:0:0:0:
432,32,163840,1,0,0:0:0:0:
240,360,163976,1,0,0:0:0:0:
256,72,164112,1,0,0:0:0:0:
484,296,164249,1,0,0:0:0:0:
88,84,164385,1,0,0:0:0:0:
504,172,164521,1,0,0:0:0:0:
120,288,164658,5,0,0:0:0:0:
376,8,164794,1,0,0:0:0:0:
316,380,164930,1,0,0:0:0:0:
140,56,165067,1,0,0:0:0:0:
480,232,165203,1,0,0:0:0:0:
32,176,165340,1,0,0:0:0:0:
476,80,165476,1,0,0:0:0:0:
140,324,165612,1,0,0:0:0:0:
412,12,165749,1,0,0:0:0:0:
408,56,165817,1,0,0:0:0:0:
404,100,165885,1,0,0:0:0:0:
400,144,165953,1,0,0:0:0:0:
396,188,166021,1,0,0:0:0:0:
392,232,166090,1,0,0:0:0:0:
388,276,166158,1,0,0:0:0:0:
384,320,166226,1,0,0:0:0:0:
380,364,166294,5,0,0:0:0:0:
256,192,166362,12,0,167930,0:0:0:0:
256,192,167999,12,0,169567,0:0:0:0:
256,192,169635,12,0,171203,0:0:0:0:
256,192,171271,12,0,172840,0:0:0:0:
360,80,179385,6,0,B|336:224|336:224|312:168,1,190
76,116,179930,1,0,0:0:0:0:
96,236,180067,1,0,0:0:0:0:
224,168,180203,1,0,0:0:0:0:
184,368,180476,1,0,0:0:0:0:
120,140,180749,1,0,0:0:0:0:
332,288,181021,6,0,B|352:244|352:244|332:92,1,190
468,200,181567,1,0,0:0:0:0:
468,200,181703,1,0,0:0:0:0:
420,296,181840,2,0,P|348:276|244:320,1,190
116,188,182385,1,0,0:0:0:0:
296,128,182521,1,0,0:0:0:0:
72,88,182658,5,0,0:0:0:0:
356,48,182930,1,0,0:0:0:0:
20,0,183203,1,0,0:0:0:0:
472,60,183476,2,0,P|388:56|324:144,1,190
240,312,184021,1,0,0:0:0:0:
188,104,184294,6,0,B|144:96|144:96|104:116|104:116|72:96|72:96|40:112|0:96|0:96|32:136|36:184,1,285
284,344,184840,2,0,P|276:284|288:236,1,95
140,184,185112,2,0,P|156:112|80:24,1,190
240,32,185521,1,0,0:0:0:0:
336,188,185658,2,0,P|396:208|452:208,1,95
232,136,185930,6,0,P|172:132|100:268,1,190
204,228,186340,1,0,0:0:0:0:
188,20,186476,2,0,P|208:84|208:140,1,95
356,144,186749,2,0,P|336:212|336:256,1,95
468,104,187021,2,0,P|428:68|360:52,1,95
112,84,187294,1,0,0:0:0:0:
92,92,187567,6,0,P|160:68|288:136,1,190
232,300,188112,1,0,0:0:0:0:
416,164,188385,2,0,P|408:236|424:312,1,142.5
344,352,188658,2,0,B|232:340|232:340|272:320,1,142.5
368,228,188930,2,0,B|488:224|488:224|468:240,1,142.5
464,312,189203,6,0,P|440:244|476:112,1,190
172,64,190021,1,0,0:0:0:0:
188,252,190294,1,0,0:0:0:0:
272,24,190567,1,0,0:0:0:0:
268,332,190840,6,0,B|216:316|216:316|180:336|180:336|144:312|116:312|116:312|84:328|36:308|36:308|64:264|52:208|16:176,1,380
184,40,191658,2,0,P|180:92|192:144,1,95
352,116,191930,2,0,P|412:140|448:140,1,95
360,320,192203,2,0,P|292:324|264:352,1,95
136,224,192476,6,0,B|288:196|288:196|272:236,1,190
424,184,193021,1,0,0:0:0:0:
324,40,193294,1,0,0:0:0:0:
444,284,193566,1,0,0:0:0:0:
216,64,193840,1,0,0:0:0:0:
424,380,194112,5,0,0:0:0:0:
108,56,194385,1,0,0:0:0:0:
104,88,194658,1,0,0:0:0:0:
264,264,194930,1,0,0:0:0:0:
268,224,195203,1,0,0:0:0:0:
272,184,195476,1,0,0:0:0:0:
368,60,195749,5,0,0:0:0:0:
212,132,196021,1,0,0:0:0:0:
344,228,196294,1,0,0:0:0:0:
276,28,196567,5,0,0:0:0:0:
236,256,196840,1,0,0:0:0:0:
440,184,197112,1,0,0:0:0:0:
208,296,197385,6,0,P|232:224|112:276,1,285
68,344,197930,2,0,P|68:280|52:232,1,95
208,204,198203,2,0,P|212:136|232:104,1,95
444,72,198476,1,0,0:0:0:0:
360,140,198612,1,0,0:0:0:0:
252,164,198749,1,0,0:0:0:0:
144,152,198885,1,0,0:0:0:0:
56,76,199021,5,0,0:0:0:0:
160,288,199294,1,0,0:0:0:0:
144,24,199567,1,0,0:0:0:0:
276,212,199840,1,0,0:0:0:0:
244,0,200112,1,0,0:0:0:0:
432,220,200385,1,0,0:0:0:0:
84,144,200658,5,0,0:0:0:0:
116,152,200930,1,0,0:0:0:0:
148,160,201203,1,0,0:0:0:0:
256,276,201476,1,0,0:0:0:0:
284,168,201612,1,0,0:0:0:0:
152,96,201885,1,0,0:0:0:0:
124,0,202021,1,0,0:0:0:0:
272,192,202294,6,0,P|340:168|448:256,1,190
216,320,202703,1,0,0:0:0:0:
292,208,202840,2,0,P|288:132|292:100,1,95
168,96,203112,2,0,B|36:56|36:56|72:124,1,190
72,132,203658,1,0,0:0:0:0:
184,52,203794,1,0,0:0:0:0:
288,192,203930,6,0,P|352:188|416:208,1,95
472,52,204203,2,0,P|400:20|360:32,1,95
272,228,204476,1,0,0:0:0:0:
160,56,204612,1,0,0:0:0:0:
68,216,204749,2,0,P|80:288|72:340,1,95
256,24,205021,1,0,0:0:0:0:
260,52,205090,1,0,0:0:0:0:
264,80,205158,1,0,0:0:0:0:
268,108,205226,1,0,0:0:0:0:
272,136,205294,1,0,0:0:0:0:
276,164,205362,1,0,0:0:0:0:
280,192,205430,1,0,0:0:0:0:
284,220,205499,1,0,0:0:0:0:
288,248,205567,5,0,0:0:0:0:
288,252,206112,2,0,L|412:236,1,113.999996520996
176,168,206658,2,0,B|72:156|72:156|88:188,1,113.999996520996
256,60,207203,2,0,B|280:112|264:180|232:204|240:264|268:300,1,227.999993041992
264,300,208021,5,0,0:0:0:0:
276,316,208567,1,0,0:0:0:0:
344,260,208703,1,0,0:0:0:0:
424,208,208840,6,0,L|408:80,1,113.999996520996
200,36,209658,1,0,0:0:0:0:
176,40,210203,1,0,0:0:0:0:
200,144,210340,1,0,0:0:0:0:
220,256,210476,1,0,0:0:0:0:
56,248,210749,1,0,0:0:0:0:
36,248,211294,5,0,0:0:0:0:
160,312,211567,1,0,0:0:0:0:
328,200,211840,1,0,0:0:0:0:
444,368,212112,6,0,P|432:296|464:192,1,170.999994781494
376,100,212658,1,0,0:0:0:0:
244,96,212794,1,0,0:0:0:0:
144,192,212930,1,0,0:0:0:0:
136,216,213203,1,0,0:0:0:0:
228,336,213476,1,0,0:0:0:0:
328,160,213749,5,0,0:0:0:0:
308,160,214567,2,0,B|464:140|464:140|448:168,1,170.999994781494
224,240,215112,1,0,0:0:0:0:
180,116,215249,1,0,0:0:0:0:
368,44,215385,6,0,P|288:84|212:36,1,170.999994781494
104,44,215930,1,0,0:0:0:0:
92,64,216203,1,0,0:0:0:0:
120,192,216476,1,0,0:0:0:0:
148,328,216749,1,0,0:0:0:0:
104,192,216885,1,0,0:0:0:0:
60,68,217021,6,0,B|104:56|104:56|128:64|148:64|148:64|176:88|212:92|212:92|236:72|276:68|296:72|296:72|336:32|336:32|320:80|336:116|368:136|396:144|428:136|452:116|472:84|460:52|448:28,1,570
460,24,220770,6,0,P|416:56|464:128,1,142.5
496,216,221043,2,0,B|448:200|420:216|388:240|336:196,1,156.750004783631
280,144,221315,2,0,B|172:108|172:108|192:168,1,170.999994781494
96,208,221588,6,0,B|128:356|128:356|152:276,1,213.750008153916
360,80,221929,6,0,P|264:144|88:72,1,285.000010871888
140,324,222338,1,0,0:0:0:0:
356,52,222474,2,0,P|436:20|508:44,1,142.500005435944
140,368,222747,2,0,P|112:288|128:216,1,142.500005435944
412,156,223020,1,0,0:0:0:0:
60,300,223156,1,0,0:0:0:0:
440,284,223293,1,0,0:0:0:0:
376,8,223429,1,0,0:0:0:0:
248,368,223565,6,0,P|336:352|404:376,1,142.500005435944
288,60,223838,2,0,P|240:136|104:148,1,213.750008153916
88,148,224111,2,0,P|144:220|212:240,1,142.500005435944
452,40,224383,1,0,0:0:0:0:
404,280,224520,1,0,0:0:0:0:
192,180,224656,2,0,P|224:308|228:360,1,142.500005435944
456,16,224929,2,0,P|448:96|460:168,1,142.500005435944
120,268,225202,6,0,P|72:184|164:24,1,285.000010871888
336,240,225611,2,0,P|348:320|328:380,1,142.500005435944
484,88,225883,1,0,0:0:0:0:
152,116,226020,1,0,0:0:0:0:
340,352,226156,1,0,0:0:0:0:
332,16,226293,2,0,P|256:8|172:48,1,142.500005435944
68,188,226565,2,0,P|96:284|80:364,1,142.500005435944
280,76,226838,6,0,P|224:32|136:44,1,142.500005435944
440,44,227111,1,0,0:0:0:0:
176,248,227247,1,0,0:0:0:0:
440,44,227383,1,0,0:0:0:0:
252,328,227520,2,0,P|252:268|256:228,1,71.2500027179719
204,92,227656,2,0,P|128:60|40:100,1,142.500005435944
348,52,227929,1,0,0:0:0:0:
104,264,228065,1,0,0:0:0:0:
496,200,228202,2,0,P|496:152|492:96,1,71.2500027179719
336,104,228338,2,0,P|308:56|296:40,1,71.2500027179719
168,192,228474,6,0,P|176:292|128:364,1,142.500005435944
220,12,228747,1,0,0:0:0:0:
324,268,228883,2,0,P|400:312|468:288,1,142.500005435944
112,100,229156,1,0,0:0:0:0:
352,352,229293,2,0,P|328:260|348:200,1,142.500005435944
20,96,229565,2,0,P|112:112|180:88,1,142.500005435944
416,36,229838,2,0,L|396:288,1,213.750008153916
392,328,230111,5,0,0:0:0:0:
188,56,230247,1,0,0:0:0:0:
248,356,230383,1,0,0:0:0:0:
408,32,230520,1,0,0:0:0:0:
172,284,230656,2,0,P|68:288|16:248,1,142.500005435944
248,56,230929,2,0,P|320:72|388:48,1,142.500005435944
468,12,231133,1,0,0:0:0:0:
468,12,231202,1,0,0:0:0:0:
104,64,231338,1,0,0:0:0:0:
408,288,231474,1,0,0:0:0:0:
192,12,231611,1,0,0:0:0:0:
236,352,231747,5,0,0:0:0:0:
416,40,231883,1,0,0:0:0:0:
400,124,231952,1,0,0:0:0:0:
400,208,232020,1,0,0:0:0:0:
204,4,232156,1,0,0:0:0:0:
288,280,232293,1,0,0:0:0:0:
372,300,232361,1,0,0:0:0:0:
452,272,232429,1,0,0:0:0:0:
120,16,232565,2,0,P|140:108|120:220,1,142.500005435944
100,280,232770,1,0,0:0:0:0:
100,280,232838,1,0,0:0:0:0:
216,4,232974,1,0,0:0:0:0:
396,336,233111,2,0,P|464:368|536:360,1,142.500005435944
428,64,233383,5,0,0:0:0:0:
84,188,233520,1,0,0:0:0:0:
464,272,233656,1,0,0:0:0:0:
144,16,233793,1,0,0:0:0:0:
184,352,233929,1,0,0:0:0:0:
492,148,234065,1,0,0:0:0:0:
52,96,234202,1,0,0:0:0:0:
448,360,234338,1,0,0:0:0:0:
392,44,234474,1,0,0:0:0:0:
308,28,234543,1,0,0:0:0:0:
224,52,234611,1,0,0:0:0:0:
156,104,234679,1,0,0:0:0:0:
136,188,234747,1,0,0:0:0:0:
152,272,234815,1,0,0:0:0:0:
204,340,234883,1,0,0:0:0:0:
288,368,234952,1,0,0:0:0:0:
372,372,235020,6,0,B|400:296|400:296|368:224|368:224|400:136|384:32,1,313.500002989769
116,132,235429,2,0,P|136:216|116:300,1,156.750001494885
296,60,235702,1,0,0:0:0:0:
120,272,235838,2,0,P|160:352|236:380,1,156.750001494885
464,104,236111,2,0,P|368:160|304:156,1,156.750001494885
48,48,236383,1,0,0:0:0:0:
92,380,236520,1,0,0:0:0:0:
352,72,236656,6,0,P|444:40|512:72,1,156.750001494885
368,344,236929,1,0,0:0:0:0:
160,72,237065,2,0,P|90:39|15:59,1,156.750001494885
420,184,237338,1,0,0:0:0:0:
28,264,237474,1,0,0:0:0:0:
360,24,237611,1,0,0:0:0:0:
332,364,237747,1,0,0:0:0:0:
56,80,237883,1,0,0:0:0:0:
456,304,238020,1,0,0:0:0:0:
248,0,238156,1,0,0:0:0:0:
32,312,238293,6,0,P|144:272|304:392,1,313.500002989769
120,24,238702,1,0,0:0:0:0:
280,284,238838,2,0,P|364:328|444:324,1,156.750001494885
180,104,239111,2,0,P|132:196|152:272,1,156.750001494885
432,72,239383,1,0,0:0:0:0:
24,220,239520,1,0,0:0:0:0:
452,368,239656,1,0,0:0:0:0:
156,12,239793,1,0,0:0:0:0:
256,364,239929,6,0,P|348:344|400:288,1,156.750001494885
132,8,240202,2,0,P|172:112|156:216,1,156.750001494885
452,188,240474,2,0,P|416:308|424:360,1,156.750001494885
8,168,240747,2,0,P|104:144|236:280,1,235.125002242327
316,272,241020,2,0,P|392:232|472:260,1,156.750001494885
168,20,241293,1,0,0:0:0:0:
120,348,241429,1,0,0:0:0:0:
488,208,241565,6,0,P|376:176|288:320,1,285.000010871888
100,108,241974,2,0,L|128:216,1,78.3750007474423
284,295,242111,2,0,P|360:303|431:272,1,156.750001494885
188,24,242383,2,0,P|204:156|176:248,1,156.750001494885
200,368,242656,1,0,0:0:0:0:
448,48,242793,2,0,P|388:128|320:144,1,156.750001494885
76,104,243065,1,0,0:0:0:0:
432,228,243202,5,0,0:0:0:0:
184,24,243338,1,0,0:0:0:0:
272,360,243474,1,0,0:0:0:0:
484,72,243611,1,0,0:0:0:0:
92,348,243747,2,0,P|84:240|48:168,1,156.750001494885
416,304,244020,1,0,0:0:0:0:
44,184,244156,1,0,0:0:0:0:
472,136,244293,1,0,0:0:0:0:
76,296,244429,1,0,0:0:0:0:
388,12,244565,1,0,0:0:0:0:
184,368,244702,1,0,0:0:0:0:
120,32,244838,5,0,0:0:0:0:
400,336,244974,1,0,0:0:0:0:
320,4,245111,1,0,0:0:0:0:
192,360,245247,1,0,0:0:0:0:
468,144,245383,1,0,0:0:0:0:
36,96,245520,1,0,0:0:0:0:
368,380,245656,1,0,0:0:0:0:
416,32,245793,1,0,0:0:0:0:
144,368,245929,1,0,0:0:0:0:
164,8,246065,1,0,0:0:0:0:
28,288,246202,1,0,0:0:0:0:
456,192,246338,1,0,0:0:0:0:
64,60,246474,5,0,0:0:0:0:
344,364,246611,1,0,0:0:0:0:
332,16,246747,1,0,0:0:0:0:
88,344,246883,1,0,0:0:0:0:
464,232,247020,1,0,0:0:0:0:
56,112,247156,1,0,0:0:0:0:
464,64,247293,1,0,0:0:0:0:
28,236,247429,1,0,0:0:0:0:
336,20,247565,1,0,0:0:0:0:
332,80,247633,1,0,0:0:0:0:
328,144,247702,1,0,0:0:0:0:
324,208,247770,1,0,0:0:0:0:
320,272,247838,1,0,0:0:0:0:
376,304,247906,1,0,0:0:0:0:
432,280,247974,1,0,0:0:0:0:
448,220,248043,1,0,0:0:0:0:
416,164,248111,6,0,B|296:140|296:140|184:224|184:224|16:188,1,380
436,40,248520,2,0,P|416:208|436:312,1,190
248,356,248793,1,0,0:0:0:0:
112,56,248929,1,0,0:0:0:0:
420,356,249065,1,0,0:0:0:0:
64,376,249202,2,0,P|80:272|48:188,1,190
380,40,249474,2,0,P|276:112|200:112,1,190
52,32,249747,5,0,0:0:0:0:
432,224,249883,1,0,0:0:0:0:
36,252,250020,1,0,0:0:0:0:
440,356,250156,1,0,0:0:0:0:
232,104,250293,2,0,P|128:72|24:116,1,190
464,40,250565,2,0,P|440:176|448:280,1,190
72,188,250838,2,0,P|108:304|92:384,1,190
488,80,251111,2,0,P|352:136|264:104,1,190
20,104,251383,5,0,0:0:0:0:
460,316,251520,1,0,0:0:0:0:
76,276,251656,1,0,0:0:0:0:
484,80,251793,1,0,0:0:0:0:
136,376,251929,1,0,0:0:0:0:
372,8,252065,1,0,0:0:0:0:
360,348,252202,1,0,0:0:0:0:
28,72,252338,1,0,0:0:0:0:
484,292,252474,1,0,0:0:0:0:
160,16,252611,1,0,0:0:0:0:
176,360,252747,1,0,0:0:0:0:
492,64,252883,1,0,0:0:0:0:
40,184,253020,5,0,0:0:0:0:
436,356,253156,1,0,0:0:0:0:
292,16,253293,1,0,0:0:0:0:
160,360,253429,1,0,0:0:0:0:
480,304,253565,1,0,0:0:0:0:
36,56,253702,1,0,0:0:0:0:
456,0,253838,1,0,0:0:0:0:
480,72,253906,1,0,0:0:0:0:
468,148,253974,1,0,0:0:0:0:
408,196,254043,1,0,0:0:0:0:
332,200,254111,1,0,0:0:0:0:
268,160,254179,1,0,0:0:0:0:
192,156,254247,1,0,0:0:0:0:
128,192,254315,1,0,0:0:0:0:
108,264,254383,1,0,0:0:0:0:
132,336,254452,1,0,0:0:0:0:
196,372,254520,1,0,0:0:0:0:
272,364,254588,1,0,0:0:0:0:
320,308,254656,6,0,B|344:184|344:184|272:104|272:104|304:-44,1,380
68,40,255065,1,0,0:0:0:0:
256,348,255202,1,0,0:0:0:0:
504,96,255338,1,0,0:0:0:0:
96,364,255474,2,0,P|104:236|68:136,1,190
392,16,255747,2,0,P|464:120|440:240,1,190
32,80,256020,2,0,P|140:48|268:128,1,190
480,216,256293,6,0,P|408:304|416:384,1,190
40,196,256565,1,0,0:0:0:0:
496,224,256702,2,0,P|392:232|324:168,1,190
228,8,256974,1,0,0:0:0:0:
228,376,257111,1,0,0:0:0:0:
468,104,257247,1,0,0:0:0:0:
64,196,257383,1,0,0:0:0:0:
456,340,257520,1,0,0:0:0:0:
464,16,257656,2,0,P|352:16|288:116,1,190
448,208,257929,5,0,0:0:0:0:
88,72,258065,1,0,0:0:0:0:
440,56,258202,1,0,0:0:0:0:
184,344,258338,1,0,0:0:0:0:
240,16,258474,1,0,0:0:0:0:
368,344,258611,1,0,0:0:0:0:
36,192,258747,1,0,0:0:0:0:
484,144,258883,1,0,0:0:0:0:
176,336,259020,1,0,0:0:0:0:
436,32,259156,1,0,0:0:0:0:
32,56,259293,2,0,P|56:128|60:236,1,95
228,252,259429,2,0,P|220:324|208:388,1,95
480,232,259565,5,0,0:0:0:0:
32,44,259702,1,0,0:0:0:0:
464,84,259838,1,0,0:0:0:0:
44,260,259974,1,0,0:0:0:0:
328,4,260111,1,0,0:0:0:0:
260,352,260247,1,0,0:0:0:0:
24,80,260383,1,0,0:0:0:0:
500,216,260520,1,0,0:0:0:0:
136,12,260656,1,0,0:0:0:0:
176,96,260724,1,0,0:0:0:0:
184,192,260793,1,0,0:0:0:0:
168,284,260861,1,0,0:0:0:0:
132,372,260929,1,0,0:0:0:0:
184,292,260997,1,0,0:0:0:0:
264,244,261065,1,0,0:0:0:0:
356,228,261133,1,0,0:0:0:0:
452,240,261202,5,0,0:0:0:0:
